osu file format v14

[General]
AudioFilename: audio.mp3
AudioLeadIn: 0
PreviewTime: 46727
Countdown: 0
SampleSet: Soft
StackLeniency: 0.7
Mode: 0
LetterboxInBreaks: 0
WidescreenStoryboard: 0

[Editor]
Bookmarks: 13977
DistanceSpacing: 1.8
BeatDivisor: 4
GridSize: 4
TimelineZoom: 2.3

[Metadata]
Title:Souzetsu Gekkou
TitleUnicode:Souzetsu Gekkou
Artist:Saratoga(CV: Sumire Uesaka)
ArtistUnicode:Saratoga(CV: Sumire Uesaka)
Creator:Feruver
Version:BREAK!!!
Source:Azur Lane
Tags:
BeatmapID:1853578
BeatmapSetID:884467

[Difficulty]
HPDrainRate:5
CircleSize:4
OverallDifficulty:9
ApproachRate:9.5
SliderMultiplier:1.8
SliderTickRate:1

[Events]
//Background and Video events
0,0,"967310.jpg",0,0
//Break Periods
2,10093,12201
//Storyboard Layer 0 (Background)
//Storyboard Layer 1 (Fail)
//Storyboard Layer 2 (Pass)
//Storyboard Layer 3 (Foreground)
//Storyboard Sound Samples

[TimingPoints]
1394,333.333333333333,4,2,1,100,1,0
1727,-250,4,2,1,100,0,0
1977,-142.857142857143,4,2,1,5,0,0
2060,333.333333333333,4,2,1,65,1,0
2060,-142.857142857143,4,2,1,65,0,0
7393,-100,4,2,1,65,0,0
7643,-100,4,2,1,5,0,0
7726,-100,4,2,1,40,0,0
8059,-100,4,2,1,50,0,0
8392,-100,4,2,1,65,0,0
15059,-66.6666666666667,4,2,1,65,0,0
15310,-66.6666666666667,4,2,1,5,0,0
15393,333.333333333333,4,2,1,65,1,0
15393,-100,4,2,1,65,0,0
18309,-100,4,2,1,5,0,0
18392,-100,4,2,1,65,0,0
18976,-100,4,2,1,5,0,0
19059,-100,4,2,1,65,0,0
20309,-100,4,2,1,5,0,0
20392,-100,4,2,1,65,0,0
20476,-100,4,2,1,5,0,0
20559,-100,4,2,1,65,0,0
26059,-111.111111111111,4,2,1,65,0,0
31642,-111.111111111111,4,2,1,5,0,0
31726,-111.111111111111,4,2,1,65,0,0
32892,-111.111111111111,4,2,1,5,0,0
32976,-111.111111111111,4,2,1,65,0,0
33142,-111.111111111111,4,2,1,5,0,0
33226,-100,4,2,1,65,0,0
33476,-111.111111111111,4,2,1,5,0,0
33559,-111.111111111111,4,2,1,65,0,0
34559,-66.6666666666667,4,2,1,65,0,0
35392,-76.9230769230769,4,2,1,65,0,0
35642,-76.9230769230769,4,2,1,5,0,0
35726,-71.4285714285714,4,2,1,65,0,0
35976,-76.9230769230769,4,2,1,5,0,0
36059,-66.6666666666667,4,2,1,65,0,0
36309,-66.6666666666667,4,2,1,5,0,0
36392,-57.1428571428571,4,2,1,65,0,0
36642,-57.1428571428571,4,2,1,5,0,0
36726,-133.333333333333,4,2,1,65,0,0
39142,-133.333333333333,4,2,1,5,0,0
39226,-133.333333333333,4,2,1,65,0,0
41226,-100,4,2,1,65,0,0
41392,-133.333333333333,4,2,1,65,0,0
41892,-100,4,2,1,65,0,0
46726,-333.333333333333,4,2,1,65,0,0
46976,-333.333333333333,4,2,1,5,0,0
47059,-66.6666666666667,4,2,1,65,0,0
47309,-66.6666666666667,4,2,1,5,0,0
47392,-71.4285714285714,4,2,1,65,0,1
47642,-71.4285714285714,4,2,1,5,0,1
47726,-71.4285714285714,4,2,1,65,0,1
47976,-71.4285714285714,4,2,1,5,0,1
48059,-71.4285714285714,4,2,1,65,0,1
48309,-71.4285714285714,4,2,1,5,0,1
48392,-71.4285714285714,4,2,1,65,0,1
49142,-71.4285714285714,4,2,1,5,0,1
49226,-71.4285714285714,4,2,1,65,0,1
49642,-71.4285714285714,4,2,1,5,0,1
49726,-71.4285714285714,4,2,1,65,0,1
50976,-71.4285714285714,4,2,1,5,0,1
51059,-71.4285714285714,4,2,1,65,0,1
51809,-71.4285714285714,4,2,1,5,0,1
51892,-71.4285714285714,4,2,1,65,0,1
56809,-71.4285714285714,4,2,1,5,0,1
56892,-71.4285714285714,4,2,1,65,0,1
57142,-71.4285714285714,4,2,1,5,0,1
57226,-71.4285714285714,4,2,1,65,0,1
57476,-71.4285714285714,4,2,1,5,0,1
57559,-71.4285714285714,4,2,1,65,0,1
57642,-71.4285714285714,4,2,1,5,0,1
57726,-50,4,2,1,65,0,1
57809,-71.4285714285714,4,2,1,5,0,1
57892,-38.4615384615385,4,2,1,65,0,1
57976,-71.4285714285714,4,2,1,5,0,1
58059,-71.4285714285714,4,2,1,65,0,1
58309,-71.4285714285714,4,2,1,5,0,1
58392,-71.4285714285714,4,2,1,65,0,1
58642,-71.4285714285714,4,2,1,5,0,1
58726,-55.5555555555556,4,2,1,65,0,1
58976,-71.4285714285714,4,2,1,5,0,1
59059,-71.4285714285714,4,2,1,65,0,1
68059,-71.4285714285714,4,2,1,40,0,1
68226,-71.4285714285714,4,2,1,30,0,1
68392,-71.4285714285714,4,2,1,65,0,1
68642,-71.4285714285714,4,2,1,5,0,1
68726,-100,4,2,1,65,0,0
71309,-100,4,2,1,5,0,0
71392,-100,4,2,1,65,0,0
71726,-100,4,2,1,35,0,0
72059,-100,4,2,1,45,0,0
72392,-100,4,2,1,55,0,0
72726,-100,4,2,1,65,0,0
73726,-66.6666666666667,4,2,1,65,0,0
73976,-100,4,2,1,5,0,0
74059,-71.4285714285714,4,2,1,65,0,0
75642,-71.4285714285714,4,2,1,5,0,0
75726,-71.4285714285714,4,2,1,65,0,0
78976,-71.4285714285714,4,2,1,5,0,0
79059,-71.4285714285714,4,2,1,65,0,0
79142,-71.4285714285714,4,2,1,5,0,0
79226,-71.4285714285714,4,2,1,65,0,0
79392,-62.5,4,2,1,65,0,0
79892,-71.4285714285714,4,2,1,65,0,0
83476,-71.4285714285714,4,2,1,5,0,0
83559,-71.4285714285714,4,2,1,65,0,0
84226,-71.4285714285714,4,2,1,65,0,0
84309,-71.4285714285714,4,2,1,5,0,0
84392,-133.333333333333,4,2,1,65,0,0
84559,-100,4,2,1,65,0,0
84642,-100,4,2,1,5,0,0
84726,-100,4,2,1,65,0,0
86226,-100,4,2,1,5,0,0
86309,-100,4,2,1,65,0,0
86476,-100,4,2,1,5,0,0
86559,-100,4,2,1,65,0,0
89059,-100,4,2,1,40,0,0
89392,-100,4,2,1,57,0,0
89726,-100,4,2,1,65,0,0
89976,-100,4,2,1,5,0,0
90059,-100,4,2,1,65,0,0
90309,-100,4,2,1,5,0,0
90392,-100,4,2,1,65,0,0
92642,-100,4,2,1,5,0,0
92726,-100,4,2,1,65,0,0
93809,-100,4,2,1,5,0,0
93892,-100,4,2,1,65,0,0
94226,-100,4,2,1,55,0,0
94559,-100,4,2,1,45,0,0
94892,-100,4,2,1,35,0,0
95226,-100,4,2,1,25,0,0
95392,-100,4,2,1,65,0,0
105392,-100,4,2,1,50,0,0
105726,-58.8235294117647,4,2,1,65,0,0
105976,-58.8235294117647,4,2,1,5,0,0
106059,-71.4285714285714,4,2,1,65,0,1
106309,-71.4285714285714,4,2,1,5,0,1
106392,-71.4285714285714,4,2,1,65,0,1
106642,-71.4285714285714,4,2,1,5,0,1
106726,-71.4285714285714,4,2,1,65,0,1
106976,-71.4285714285714,4,2,1,5,0,1
107059,-71.4285714285714,4,2,1,65,0,1
115142,-71.4285714285714,4,2,1,5,0,1
115226,-71.4285714285714,4,2,1,65,0,1
115476,-71.4285714285714,4,2,1,5,0,1
115559,-71.4285714285714,4,2,1,65,0,1
115809,-71.4285714285714,4,2,1,5,0,1
115892,-71.4285714285714,4,2,1,65,0,1
116142,-71.4285714285714,4,2,1,5,0,1
116226,-71.4285714285714,4,2,1,65,0,1
116309,-71.4285714285714,4,2,1,5,0,1
116392,-50,4,2,1,65,0,1
116476,-71.4285714285714,4,2,1,5,0,1
116559,-38.4615384615385,4,2,1,65,0,1
116642,-71.4285714285714,4,2,1,5,0,1
116726,-71.4285714285714,4,2,1,65,0,1
116976,-71.4285714285714,4,2,1,5,0,1
117059,-71.4285714285714,4,2,1,65,0,1
117309,-71.4285714285714,4,2,1,5,0,1
117392,-71.4285714285714,4,2,1,65,0,1
117642,-71.4285714285714,4,2,1,5,0,1
117726,-71.4285714285714,4,2,1,65,0,1
118642,-71.4285714285714,4,2,1,5,0,1
118726,-71.4285714285714,4,2,1,65,0,1
121976,-71.4285714285714,4,2,1,5,0,1
122059,-71.4285714285714,4,2,1,65,0,1
126309,-71.4285714285714,4,2,1,5,0,1
126392,-45.4545454545455,4,2,1,65,0,1
126476,-71.4285714285714,4,2,1,5,0,1
126559,-66.6666666666667,4,2,1,65,0,1
126809,-71.4285714285714,4,2,1,5,0,1
126892,-66.6666666666667,4,2,1,65,0,1
127392,-100,4,2,1,65,0,0
127642,-100,4,2,1,5,0,0
127726,-100,4,2,1,65,0,0
130309,-100,4,2,1,5,0,0
130392,-100,4,2,1,65,0,0
135309,-100,4,2,1,5,0,0
135392,-100,4,2,1,65,0,0
137976,-100,4,2,1,5,0,0
138059,-100,4,2,1,65,0,0
138159,-100,4,2,1,5,0,0
138392,-100,4,2,1,65,0,0
147476,-100,4,2,1,5,0,0
147559,-100,4,2,1,65,0,0
148726,-263.157894736842,4,2,1,65,0,0
151392,-270.27027027027,4,2,1,65,0,0
160726,-100,4,2,1,65,0,0
162059,-133.333333333333,4,2,1,65,0,0
163976,-133.333333333333,4,2,1,5,0,0
164059,-133.333333333333,4,2,1,65,0,0
171559,-100,4,2,1,65,0,0
173559,-100,4,2,1,30,0,0
173726,-100,4,2,1,65,0,0
174059,-100,4,2,1,30,0,0
174226,-100,4,2,1,65,0,0
174392,-100,4,2,1,30,0,0
174559,-100,4,2,1,65,0,0
177892,-66.6666666666667,4,2,1,65,0,0
182059,-80,4,2,1,65,0,0
182309,-66.6666666666667,4,2,1,45,0,0
182392,-66.6666666666667,4,2,1,65,0,0
182642,-66.6666666666667,4,2,1,45,0,0
182726,-66.6666666666667,4,2,1,65,0,0
184726,-66.6666666666667,4,2,1,65,0,0
185726,-133.333333333333,4,2,1,65,0,0
185976,-133.333333333333,4,2,1,5,0,0
186059,-100,4,2,1,65,0,0
188309,-100,4,2,1,5,0,0
188392,-100,4,2,1,65,0,0
188559,-100,4,2,1,5,0,0
188726,-100,4,2,1,65,0,0
192559,-71.4285714285714,4,2,1,65,0,0
192809,-71.4285714285714,4,2,1,5,0,0
192892,-71.4285714285714,4,2,1,65,0,0
193142,-71.4285714285714,4,2,1,5,0,0
193226,-71.4285714285714,4,2,1,65,0,0
193476,-71.4285714285714,4,2,1,5,0,0
193559,-71.4285714285714,4,2,1,65,0,0
193642,-71.4285714285714,4,2,1,5,0,0
193726,-50,4,2,1,65,0,0
193809,-71.4285714285714,4,2,1,5,0,0
193892,-38.4615384615385,4,2,1,65,0,0
193976,-45.4545454545455,4,2,1,5,0,0
194059,-500,4,2,1,65,0,0
194309,-500,4,2,1,5,0,0
194392,-71.4285714285714,4,2,1,65,0,1
194642,-71.4285714285714,4,2,1,5,0,1
194726,-71.4285714285714,4,2,1,65,0,1
204642,-71.4285714285714,4,2,1,5,0,1
204726,-71.4285714285714,4,2,1,65,0,1
212976,-71.4285714285714,4,2,1,5,0,1
213059,-71.4285714285714,4,2,1,65,0,1
214059,-71.4285714285714,4,2,1,50,0,1
214726,-71.4285714285714,4,2,1,65,0,1
214976,-71.4285714285714,4,2,1,5,0,1
215059,-28.5714285714286,4,2,1,65,0,0
215142,-25,4,2,1,5,0,0
215726,-400,4,2,1,65,0,0
215976,-400,4,2,1,5,0,0
216059,-71.4285714285714,4,2,1,65,0,0
218976,-71.4285714285714,4,2,1,5,0,0
219059,-71.4285714285714,4,2,1,65,0,0
220976,-71.4285714285714,4,2,1,5,0,0
221059,-71.4285714285714,4,2,1,65,0,0
221142,-100,4,2,1,5,0,0
221226,-100,4,2,1,65,0,0
225392,-76.9230769230769,4,2,1,65,0,0
225642,-76.9230769230769,4,2,1,5,0,0
225726,-62.5,4,2,1,65,0,0
225976,-62.5,4,2,1,5,0,0
226059,-52.6315789473684,4,2,1,65,0,0
226309,-52.6315789473684,4,2,1,5,0,0
226392,-45.4545454545455,4,2,1,65,0,0
226642,-45.4545454545455,4,2,1,5,0,0
226726,-500,4,2,1,65,0,0

[HitObjects]
136,101,1727,6,0,L|144:165,1,54
176,220,2060,6,0,P|228:204|197:49,1,251.999992309571,4|0,0:0|0:0,0:0:0:0:
60,4,3059,5,8,0:0:0:0:
0,111,3226,2,0,B|29:177|29:177|28:296,1,188.999994232178,4|0,0:0|0:0,0:0:0:0:
176,380,4059,5,8,0:0:0:0:
300,240,4226,1,2,0:0:0:0:
300,240,4309,1,2,0:0:0:0:
300,240,4393,1,2,0:0:0:0:
140,212,4559,1,0,0:0:0:0:
296,372,4726,6,0,B|344:384|344:384|400:364|428:352,1,125.999996154785,4|0,0:0|0:0,0:0:0:0:
508,280,5226,2,0,B|512:216|512:216|500:144,1,125.999996154785
464,48,5726,1,0,0:0:0:0:
420,188,5893,2,0,P|368:136|348:64,1,125.999996154785,4|0,0:0|0:0,0:0:0:0:
320,0,6393,1,8,0:0:0:0:
147,70,6726,6,8,L|202:61,2,41.9999987182618,8|8|8,3:0|3:0|3:0,3:0:0:0:
82,132,7059,2,8,L|27:141,2,41.9999987182618,8|8|8,3:0|3:0|3:0,3:0:0:0:
186,198,7393,6,0,P|198:246|118:298,1,135,8|0,0:0|0:0,0:0:0:0:
99,306,7726,5,8,0:0:0:0:
200,116,7893,1,8,0:0:0:0:
284,382,8059,5,8,0:0:0:0:
161,186,8226,1,8,0:0:0:0:
384,48,8393,5,8,0:0:0:0:
312,268,8559,1,8,0:0:0:0:
168,80,8726,5,8,0:0:0:0:
206,56,8809,1,8,0:0:0:0:
250,53,8893,1,8,0:0:0:0:
291,70,8976,1,8,0:0:0:0:
320,104,9059,1,8,0:0:0:0:
331,147,9143,1,8,0:0:0:0:
321,190,9226,1,8,0:0:0:0:
292,224,9309,1,8,0:0:0:0:
251,242,9393,1,8,0:0:0:0:
89,154,9559,2,8,L|54:84,1,45
268,336,9726,5,12,0:0:0:0:
260,60,9893,1,12,0:0:0:0:
291,208,12726,5,0,0:0:0:0:
254,144,12893,1,0,0:0:0:0:
217,208,13059,1,0,0:0:0:0:
328,144,13226,5,0,0:0:0:0:
180,144,13393,1,0,0:0:0:0:
254,271,13559,1,0,0:0:0:0:
253,69,13726,5,0,0:0:0:0:
139,263,13893,1,0,0:0:0:0:
344,328,14059,6,0,L|396:329,3,45,4|0|0|0,0:0|0:0|0:0|0:0,0:0:0:0:
188,204,14393,2,0,L|132:198,3,45,4|0|0|0,0:0|0:0|0:0|0:0,0:0:0:0:
152,328,14726,6,0,L|200:324,1,45,4|0,0:0|0:0,0:0:0:0:
372,196,14893,2,0,L|324:200,1,45,8|0,0:0|0:0,0:0:0:0:
39,222,15059,2,0,P|-9:188|93:93,1,202.500007724762,12|0,0:0|0:0,0:0:0:0:
91,98,15393,6,0,P|155:114|199:118,1,90,4|0,0:0|0:0,0:0:0:0:
404,152,15726,1,8,0:0:0:0:
263,39,15893,2,0,L|163:31,1,90
0,88,16226,1,0,0:0:0:0:
173,31,16393,2,0,B|241:24|241:24|223:99,1,135,8|0,0:0|0:0,0:0:0:0:
224,120,16726,2,0,B|216:188|216:188|201:214|201:214|200:300,1,180,0|8,0:0|0:0,0:0:0:0:
272,380,17226,5,0,0:0:0:0:
128,360,17392,2,0,L|28:352,1,90
216,288,17726,1,8,0:0:0:0:
244,284,17809,1,0,0:0:0:0:
272,280,17892,1,0,0:0:0:0:
300,276,17976,1,0,0:0:0:0:
328,272,18059,2,0,P|368:236|320:160,1,135
308,140,18392,5,8,0:0:0:0:
384,276,18559,1,0,0:0:0:0:
260,364,18726,2,0,P|256:292|304:204,1,135
300,200,19059,2,0,P|316:141|299:88,1,90,8|0,0:0|0:0,0:0:0:0:
124,8,19392,6,0,P|104:68|140:180,1,180,0|8,0:0|0:0,0:0:0:0:
312,304,19892,2,0,P|300:252|272:212,1,90
120,101,20226,6,0,L|128:153,1,45,4|0,0:0|0:0,0:0:0:0:
216,300,20392,2,0,L|208:248,1,45,12|0,0:0|0:0,0:0:0:0:
196,104,20559,1,2,0:0:0:0:
188,76,20642,1,2,0:0:0:0:
180,48,20726,6,0,P|168:16|60:64,1,180,2|8,0:0|0:0,0:0:0:0:
7,293,21226,2,0,B|47:237|47:113,1,180
212,20,21726,2,0,B|304:0|412:24,1,180,8|0,0:0|0:0,0:0:0:0:
464,136,22226,1,0,0:0:0:0:
268,240,22392,1,8,0:0:0:0:
316,72,22559,1,0,0:0:0:0:
420,252,22726,1,0,0:0:0:0:
200,136,22892,1,8,0:0:0:0:
368,8,23059,1,8,0:0:0:0:
372,284,23226,1,0,0:0:0:0:
196,56,23392,5,12,0:0:0:0:
444,192,23559,1,0,0:0:0:0:
444,192,23726,1,0,0:0:0:0:
83,235,23892,5,12,0:0:0:0:
380,71,24059,1,0,0:0:0:0:
380,71,24226,1,0,0:0:0:0:
292,332,24392,6,0,L|289:280,1,45,12|0,0:0|0:0,0:0:0:0:
292,24,24559,2,0,L|281:75,1,45
214,307,24726,1,0,0:0:0:0:
348,112,24892,5,12,0:0:0:0:
82,335,25059,1,0,0:0:0:0:
200,104,25226,1,8,0:0:0:0:
408,282,25392,1,0,0:0:0:0:
259,199,25559,6,8,L|207:183,1,45
151,251,25726,2,8,L|92:266,1,45
46,167,25892,2,8,L|-10:159,1,45
88,330,26059,6,0,P|140:338|192:314,1,80.9999975280763,2|0,0:0|0:0,0:0:0:0:
328,232,26392,2,0,B|248:168|328:152|240:64,1,161.999995056153,2|2,0:0|0:0,0:0:0:0:
92,68,27059,5,2,0:0:0:0:
144,216,27226,1,0,0:0:0:0:
200,104,27392,2,0,P|248:68|328:60,2,121.499996292114,2|0|0,0:0|0:0|0:0,0:0:0:0:
248,280,28059,5,2,0:0:0:0:
120,180,28226,1,0,0:0:0:0:
240,72,28392,1,2,0:0:0:0:
320,228,28559,5,8,0:0:0:0:
320,228,28642,1,8,0:0:0:0:
320,228,28726,1,10,0:0:0:0:
308,384,28892,2,0,B|256:376|256:376|224:320,1,80.9999975280763,0|2,0:0|0:0,0:0:0:0:
228,196,29226,1,0,0:0:0:0:
16,208,29392,1,2,0:0:0:0:
216,160,29559,1,0,0:0:0:0:
0,168,29726,1,2,0:0:0:0:
299,214,29892,5,4,0:0:0:0:
96,44,30059,2,0,P|108:128|120:152,1,80.9999975280763,8|0,0:0|0:0,0:0:0:0:
248,344,30392,2,0,P|236:260|224:236,1,80.9999975280763,10|0,0:0|0:0,0:0:0:0:
188,36,30726,5,8,0:0:0:0:
164,68,30809,1,8,0:0:0:0:
168,100,30892,1,8,0:0:0:0:
192,128,30976,1,8,0:0:0:0:
212,156,31059,1,8,0:0:0:0:
236,188,31142,1,8,0:0:0:0:
232,220,31226,1,8,0:0:0:0:
208,248,31309,1,8,0:0:0:0:
172,276,31392,2,0,P|133:294|57:286,1,121.499996292114,12|0,0:0|0:0,0:0:0:0:
16,260,31726,5,10,0:0:0:0:
199,117,31892,2,0,B|199:205|199:205|167:273,1,161.999995056153,4|0,0:0|0:0,0:0:0:0:
96,192,32392,1,0,0:0:0:0:
279,319,32559,1,0,0:0:0:0:
253,140,32726,6,0,B|229:104|229:104|237:36,1,80.9999975280763,14|0,0:0|0:0,0:0:0:0:
299,2,32976,2,0,B|323:38|323:38|318:75,1,80.9999975280763,2|0,0:0|0:0,0:0:0:0:
320,216,33226,2,0,B|244:236|264:188|160:216,1,135,12|0,0:0|0:0,0:0:0:0:
156,220,33559,1,2,0:0:0:0:
168,372,33726,2,0,P|192:328|200:264,1,80.9999975280763,10|0,0:0|0:0,0:0:0:0:
188,96,34059,5,10,0:0:0:0:
340,328,34226,1,0,0:0:0:0:
62,93,34392,5,10,0:0:0:0:
214,325,34559,2,8,L|198:259,1,67.5000025749208
168,54,34726,1,8,0:0:0:0:
110,366,34892,1,8,0:0:0:0:
73,46,35059,1,8,0:0:0:0:
210,375,35226,1,8,0:0:0:0:
119,114,35392,6,0,P|99:94|39:202,1,175.499991966248,10|0,0:0|0:0,0:0:0:0:
69,336,35726,6,0,B|89:276|89:276|66:132,1,188.999994232178,10|0,0:0|0:0,0:0:0:0:
90,16,36059,6,0,B|170:8|170:8|302:80,1,202.500007724762,10|0,0:0|0:0,0:0:0:0:
389,164,36392,6,0,B|301:188|301:188|145:160,1,236.250002253056,10|0,0:0|0:0,0:0:0:0:
50,136,36726,6,0,P|6:176|90:268,1,202.500007724762,6|2,0:0|0:0,0:0:0:0:
168,180,37392,2,0,L|312:196,1,135.000005149842,10|2,0:0|0:0,0:0:0:0:
328,304,37892,5,2,0:0:0:0:
420,200,38059,2,0,P|432:144|424:112,1,67.5000025749208,0|8,0:0|0:0,0:0:0:0:
361,272,38392,5,2,0:0:0:0:
412,143,38559,2,0,P|404:86|386:59,1,67.5000025749208,2|8,0:0|0:0,0:0:0:0:
368,232,38892,6,0,P|392:292|440:324,1,101.250003862381,2|0,0:0|0:0,0:0:0:0:
480,352,39226,2,0,B|488:284|488:284|488:192,1,135.000005149842,6|2,0:0|0:0,0:0:0:0:
492,32,39892,5,2,0:0:0:0:
488,217,40059,2,0,L|332:233,1,135.000005149842,10|2,0:0|0:0,0:0:0:0:
188,228,40559,5,2,0:0:0:0:
276,156,40726,2,0,L|354:148,1,67.5000025749208,0|8,0:0|0:0,0:0:0:0:
504,200,41059,1,0,0:0:0:0:
272,272,41226,2,8,L|331:278,1,45
496,312,41392,1,10,0:0:0:0:
190,262,41559,1,10,0:0:0:0:
244,28,41726,1,10,0:0:0:0:
272,272,41892,2,0,P|210:342|117:296,1,180,6|0,0:0|0:0,0:0:0:0:
56,60,42392,5,10,0:0:0:0:
108,260,42559,1,0,0:0:0:0:
256,108,42726,1,10,0:0:0:0:
260,116,43059,5,10,0:0:0:0:
428,272,43226,1,0,0:0:0:0:
163,280,43392,5,10,0:0:0:0:
326,112,43559,1,0,0:0:0:0:
383,332,43726,1,10,0:0:0:0:
388,344,44059,5,10,0:0:0:0:
216,184,44226,1,0,0:0:0:0:
204,360,44392,1,10,0:0:0:0:
328,248,44559,1,0,0:0:0:0:
108,196,44726,5,10,0:0:0:0:
270,28,44892,1,2,0:0:0:0:
328,248,45059,1,2,0:0:0:0:
146,14,45226,5,10,0:0:0:0:
391,150,45392,1,2,0:0:0:0:
154,285,45559,1,2,0:0:0:0:
280,36,45726,5,10,0:0:0:0:
276,328,45892,1,10,0:0:0:0:
376,268,46726,6,0,L|328:256,1,40.4999987640381
308,232,47059,6,0,P|228:184|108:184,1,202.500007724762
58,239,47392,6,0,B|91:247|108:272|108:272|91:208|116:140,1,188.999994232178,12|0,0:0|0:0,0:0:0:0:
95,43,47726,6,0,B|156:65|220:48|220:48|195:65|187:98,1,188.999994232178,8|0,0:0|0:0,0:0:0:0:
293,133,48059,6,0,B|285:166|260:183|260:183|325:162|385:188,1,188.999994232178
320,288,48392,5,8,0:0:0:0:
152,156,48559,1,0,0:0:0:0:
120,320,48726,6,0,P|182:294|239:222,1,125.999996154785
324,200,48976,1,0,0:0:0:0:
320,188,49059,2,0,P|314:174|224:161,1,62.9999980773926,8|0,0:0|0:0,0:0:0:0:
292,352,49226,1,0,0:0:0:0:
208,80,49392,1,0,0:0:0:0:
222,252,49559,6,0,L|288:224,1,62.9999980773926,4|0,0:0|0:0,0:0:0:0:
475,137,49726,2,0,B|355:113|355:113|219:173,1,251.999992309571,12|0,0:0|0:0,0:0:0:0:
235,344,50226,5,0,0:0:0:0:
83,204,50392,1,8,0:0:0:0:
228,80,50559,1,0,0:0:0:0:
284,272,50726,2,0,B|316:332|316:332|452:316,1,188.999994232178
504,256,51059,5,8,0:0:0:0:
428,112,51226,1,0,0:0:0:0:
356,240,51392,2,0,P|368:308|396:372,1,125.999996154785
428,312,51642,1,0,0:0:0:0:
432,288,51726,2,0,P|436:232|432:196,1,62.9999980773926,8|0,0:0|0:0,0:0:0:0:
228,156,51892,6,0,P|276:160|308:152,1,62.9999980773926
416,92,52059,2,0,B|458:80|458:80|492:160,1,125.999996154785
504,336,52392,2,0,B|476:272|476:272|420:216,1,125.999996154785,12|0,0:0|0:0,0:0:0:0:
299,157,52726,6,0,B|257:165|219:152|219:152|294:226|243:321,1,251.999992309571,0|8,0:0|0:0,0:0:0:0:
136,380,53226,5,0,0:0:0:0:
33,264,53392,2,0,B|14:226|-19:204|-19:204|84:218|122:133,1,251.999992309571,0|8,0:0|0:0,0:0:0:0:
184,12,53892,5,0,0:0:0:0:
197,239,54059,2,0,B|221:287|157:317|97:268|112:208|243:208|177:91,1,251.999992309571,0|8,0:0|0:0,0:0:0:0:
268,40,54559,5,0,0:0:0:0:
408,236,54726,2,0,B|456:260|484:204|436:160|384:156|377:282|260:216,1,251.999992309571,0|8,0:0|0:0,0:0:0:0:
187,121,55226,1,0,0:0:0:0:
248,344,55392,5,8,0:0:0:0:
88,140,55559,1,0,0:0:0:0:
353,266,55726,5,8,0:0:0:0:
135,289,55892,1,0,0:0:0:0:
209,88,56059,5,8,0:0:0:0:
290,356,56226,2,8,L|291:280,1,62.9999980773926
351,66,56392,1,8,0:0:0:0:
156,224,56559,6,0,P|120:276|232:288,1,188.999994232178,12|0,0:0|0:0,0:0:0:0:
278,89,56892,6,0,P|251:32|140:88,1,188.999994232178,12|0,0:0|0:0,0:0:0:0:
333,262,57226,6,0,P|396:267|351:164,1,188.999994232178,12|0,0:0|0:0,0:0:0:0:
408,36,57559,6,0,B|344:36,1,62.9999980773926,8|0,0:0|0:0,0:0:0:0:
412,48,57726,6,0,B|352:116,1,90,8|0,0:0|0:0,0:0:0:0:
416,56,57892,6,0,L|416:172,1,116.999994644165,8|0,0:0|0:0,0:0:0:0:
415,348,58059,6,0,B|373:341|339:360|339:360|347:292|299:252|243:236,1,188.999994232178,8|0,0:0|0:0,0:0:0:0:
153,245,58392,6,0,P|213:205|329:185,1,188.999994232178,12|0,0:0|0:0,0:0:0:0:
380,302,58726,6,0,B|408:358|323:368|259:345|410:239|307:166,1,242.999992584229
245,280,59059,5,8,0:0:0:0:
416,64,59226,1,0,0:0:0:0:
484,360,59392,6,0,L|420:240,1,125.999996154785,12|0,0:0|0:0,0:0:0:0:
270,242,59642,6,0,L|331:120,1,125.999996154785,12|0,0:0|0:0,0:0:0:0:
220,40,59892,6,0,L|354:20,1,125.999996154785,12|12,0:0|0:0,0:0:0:0:
492,148,60226,1,8,0:0:0:0:
472,180,60309,1,8,0:0:0:0:
436,200,60392,1,8,0:0:0:0:
204,136,60559,5,8,0:0:0:0:
236,112,60642,1,8,0:0:0:0:
272,104,60726,2,0,P|336:104|360:184,1,125.999996154785,12|0,0:0|0:0,0:0:0:0:
440,372,61059,5,8,0:0:0:0:
344,252,61226,1,0,0:0:0:0:
451,104,61392,2,0,B|491:180|491:180|491:296,1,188.999994232178
500,340,61726,2,0,B|424:328|424:328|320:328,1,125.999996154785,8|0,0:0|0:0,0:0:0:0:
140,323,62059,6,0,L|276:283,1,125.999996154785
404,231,62392,2,0,L|268:191,1,125.999996154785,8|0,0:0|0:0,0:0:0:0:
85,153,62726,6,0,L|221:113,1,125.999996154785,4|0,0:0|0:0,0:0:0:0:
440,72,63059,2,0,L|304:32,1,125.999996154785,8|8,0:0|0:0,0:0:0:0:
280,24,63309,1,8,0:0:0:0:
252,16,63392,2,0,P|180:8|204:144,1,251.999992309571,12|0,0:0|0:0,0:0:0:0:
176,292,63892,2,0,P|248:300|224:164,1,251.999992309571,12|0,0:0|0:0,0:0:0:0:
40,168,64392,5,8,0:0:0:0:
175,375,64559,1,0,0:0:0:0:
316,244,64726,2,0,P|324:172|188:196,1,251.999992309571,12|0,0:0|0:0,0:0:0:0:
40,168,65226,2,0,P|32:240|180:220,1,251.999992309571,12|0,0:0|0:0,0:0:0:0:
224,16,65726,5,8,0:0:0:0:
104,208,65892,1,0,0:0:0:0:
344,264,66059,5,8,0:0:0:0:
120,100,66226,1,0,0:0:0:0:
434,128,66392,5,8,0:0:0:0:
164,240,66559,1,0,0:0:0:0:
319,370,66726,5,8,0:0:0:0:
219,111,66892,2,8,L|204:172,1,62.9999980773926
168,360,67059,1,8,0:0:0:0:
293,126,67226,6,0,P|341:66|397:198,1,251.999992309571,4|8,0:0|0:0,0:0:0:0:
414,194,67642,1,8,0:0:0:0:
405,213,67726,1,8,0:0:0:0:
380,376,67892,5,8,0:0:0:0:
240,248,68059,1,8,0:0:0:0:
436,352,68226,1,8,0:0:0:0:
508,176,68392,2,0,P|500:104|412:32,1,188.999994232178,4|0,0:0|0:0,0:0:0:0:
384,56,68726,5,8,0:0:0:0:
156,104,68892,1,8,0:0:0:0:
156,104,68976,1,8,0:0:0:0:
156,104,69059,1,8,0:0:0:0:
296,268,69226,1,8,0:0:0:0:
128,328,69392,5,8,0:0:0:0:
387,268,69559,1,8,0:0:0:0:
387,268,69642,1,8,0:0:0:0:
387,268,69726,1,8,0:0:0:0:
213,103,69892,1,8,0:0:0:0:
226,361,70059,5,8,3:0:0:0:
235,332,70142,1,8,3:0:0:0:
230,308,70226,1,8,3:0:0:0:
216,284,70309,1,8,3:0:0:0:
202,265,70392,1,8,3:0:0:0:
192,245,70476,1,8,3:0:0:0:
182,217,70559,1,8,3:0:0:0:
187,193,70642,1,8,3:0:0:0:
202,169,70726,1,8,3:0:0:0:
216,149,70809,1,8,3:0:0:0:
230,130,70892,2,8,P|249:110|265:94,1,45,8|8,3:0|3:0,3:0:0:0:
340,24,71059,6,0,P|408:8|444:88,1,135,4|0,0:0|0:0,0:0:0:0:
456,100,71392,5,8,0:0:0:0:
456,100,71726,5,8,0:0:0:0:
228,212,71892,1,8,0:0:0:0:
472,120,72059,5,8,0:0:0:0:
456,368,72226,1,8,0:0:0:0:
432,92,72392,5,8,0:0:0:0:
140,235,72559,1,8,0:0:0:0:
305,277,72726,5,8,0:0:0:0:
342,265,72809,1,8,0:0:0:0:
368,237,72892,1,8,0:0:0:0:
370,198,72975,1,8,0:0:0:0:
357,161,73059,1,8,0:0:0:0:
342,125,73142,1,8,0:0:0:0:
340,86,73225,1,8,0:0:0:0:
363,55,73309,1,8,0:0:0:0:
398,39,73392,1,8,0:0:0:0:
440,352,73726,6,0,B|452:280|452:280|420:224|420:224|440:120,1,202.500007724762,8|0,0:0|0:0,0:0:0:0:
440,128,74059,5,4,0:0:0:0:
292,240,74226,1,0,0:0:0:0:
276,55,74392,1,8,0:0:0:0:
161,259,74559,5,0,0:0:0:0:
309,147,74726,1,0,0:0:0:0:
325,332,74892,1,0,0:0:0:0:
75,324,75059,5,8,0:0:0:0:
91,139,75226,1,0,0:0:0:0:
239,251,75392,1,0,0:0:0:0:
61,260,75559,6,0,P|44:192|40:156,1,62.9999980773926
32,80,75726,1,8,0:0:0:0:
203,196,75892,1,0,0:0:0:0:
1,284,76059,5,0,0:0:0:0:
176,125,76226,1,0,0:0:0:0:
155,362,76392,1,8,0:0:0:0:
99,199,76559,1,0,0:0:0:0:
244,288,76726,6,0,B|324:288|324:288|388:316|388:316|490:316,1,251.999992309571,0|8,0:0|0:0,0:0:0:0:
308,216,77226,2,0,B|228:216|228:216|164:188|164:188|61:188,1,251.999992309571
244,144,77726,2,0,B|324:144|324:144|388:116|388:116|490:116,1,251.999992309571,8|0,0:0|0:0,0:0:0:0:
428,268,78226,6,0,P|360:276|284:276,1,125.999996154785,0|8,0:0|0:0,0:0:0:0:
117,285,78559,2,0,P|109:217|109:141,1,125.999996154785
140,57,78892,6,0,L|160:133,1,62.9999980773926,8|0,0:0|0:0,0:0:0:0:
293,261,79059,2,0,L|269:190,1,62.9999980773926,4|0,0:0|0:0,0:0:0:0:
231,79,79226,1,8,0:0:0:0:
214,44,79309,1,8,0:0:0:0:
194,19,79392,6,0,B|181:-14|114:-4|114:-4|79:14|72:47|72:47|72:140|106:199,1,288,12|8,0:0|0:0,0:0:0:0:
200,367,79892,2,0,B|220:283|220:283|210:194|172:121,1,251.999992309571
101,214,80392,2,0,B|121:273|121:273|201:297|328:268,1,251.999992309571,8|0,0:0|0:0,0:0:0:0:
484,296,80892,5,0,0:0:0:0:
304,240,81059,1,8,0:0:0:0:
484,184,81226,1,0,0:0:0:0:
304,136,81392,5,0,0:0:0:0:
484,80,81559,1,0,0:0:0:0:
304,24,81726,1,8,0:0:0:0:
428,232,81892,5,0,0:0:0:0:
304,136,82059,2,0,P|232:128|68:232,1,251.999992309571,4|8,0:0|0:0,0:0:0:0:
225,377,82559,2,0,P|225:293|209:233,1,125.999996154785,8|0,0:0|0:0,0:0:0:0:
304,136,82892,2,0,P|236:84|178:62,1,125.999996154785,8|0,0:0|0:0,0:0:0:0:
24,24,83226,6,0,P|40:96|156:180,1,188.999994232178,4|0,0:0|0:0,0:0:0:0:
164,184,83559,1,8,0:0:0:0:
440,132,83726,1,8,0:0:0:0:
199,68,83892,1,8,0:0:0:0:
291,344,84226,6,0,L|254:285,1,62.9999980773926,2|0,0:0|0:0,0:0:0:0:
177,121,84392,2,0,P|249:100|294:100,1,101.250003862381,2|0,0:0|0:0,0:0:0:0:
295,134,84726,6,0,P|356:139|418:126,1,90,4|0,0:0|0:0,0:0:0:0:
484,43,85059,2,0,B|513:4|513:4|372:33,1,180,8|0,0:0|0:0,0:0:0:0:
96,80,85726,5,8,0:0:0:0:
176,212,85892,1,0,0:0:0:0:
296,116,86059,2,0,P|360:108|404:112,1,90,8|0,0:0|0:0,0:0:0:0:
432,140,86309,2,0,L|432:252,1,90
428,284,86559,2,0,B|384:328|384:328|296:348|252:336,1,180,8|0,0:0|0:0,0:0:0:0:
116,288,87059,6,0,B|176:256|176:256|296:256,1,180,8|0,0:0|0:0,0:0:0:0:
436,264,87559,2,0,P|456:212|444:148,1,90,0|12,0:0|0:0,0:0:0:0:
381,8,87892,1,0,0:0:0:0:
310,169,88059,1,8,0:0:0:0:
452,110,88226,1,0,0:0:0:0:
248,56,88392,1,8,0:0:0:0:
216,44,88476,1,8,0:0:0:0:
180,40,88559,1,8,0:0:0:0:
140,44,88642,1,8,0:0:0:0:
104,64,88726,1,8,0:0:0:0:
47,254,89059,5,8,0:0:0:0:
215,177,89226,1,8,0:0:0:0:
121,367,89392,1,8,0:0:0:0:
75,91,89559,1,8,0:0:0:0:
216,296,89726,2,0,P|256:332|352:336,1,135,4|0,0:0|0:0,0:0:0:0:
372,352,90059,6,0,L|428:192,1,135
440,184,90392,2,0,P|364:160|236:180,1,180
116,216,90892,5,0,0:0:0:0:
96,360,91059,1,0,0:0:0:0:
236,296,91226,1,0,0:0:0:0:
104,188,91392,5,8,0:0:0:0:
92,160,91476,1,8,0:0:0:0:
96,128,91559,1,8,0:0:0:0:
112,100,91642,1,8,0:0:0:0:
136,80,91726,1,8,3:0:0:0:
164,68,91809,1,8,3:0:0:0:
196,72,91892,1,8,3:0:0:0:
224,88,91976,1,8,3:0:0:0:
252,108,92059,1,8,3:0:0:0:
280,120,92142,1,8,3:0:0:0:
312,116,92226,1,8,3:0:0:0:
340,100,92309,1,0,3:0:0:0:
376,92,92392,6,0,B|452:88|452:88|472:184,1,135
464,192,92726,6,8,L|456:248,1,45,12|8,3:0|3:0,3:0:0:0:
448,352,92892,1,8,3:0:0:0:
416,348,92976,1,8,3:0:0:0:
388,344,93059,1,8,3:0:0:0:
356,340,93142,1,8,3:0:0:0:
328,336,93226,2,8,L|272:324,1,45,12|8,3:0|3:0,3:0:0:0:
144,300,93392,5,8,3:0:0:0:
148,268,93476,1,8,3:0:0:0:
152,240,93559,1,8,3:0:0:0:
156,208,93642,1,8,3:0:0:0:
160,180,93726,2,8,L|172:124,1,45,12|8,3:0|3:0,3:0:0:0:
204,0,93892,5,8,3:0:0:0:
292,228,94059,1,8,0:0:0:0:
352,16,94226,1,8,0:0:0:0:
92,116,94392,1,8,0:0:0:0:
336,160,94559,1,8,0:0:0:0:
186,67,94726,5,8,0:0:0:0:
319,91,94892,1,0,0:0:0:0:
232,8,95059,1,8,0:0:0:0:
248,124,95226,1,0,0:0:0:0:
309,16,95392,2,0,B|356:23|356:23|423:65,1,90,4|0,0:0|0:0,0:0:0:0:
364,344,95726,6,0,B|344:292|344:292|348:216,1,90,8|0,0:0|0:0,0:0:0:0:
335,76,96059,1,0,0:0:0:0:
224,248,96226,1,0,0:0:0:0:
400,252,96392,2,0,P|436:192|340:160,1,180,8|0,0:0|0:0,0:0:0:0:
323,230,96892,1,0,0:0:0:0:
491,159,97059,1,8,0:0:0:0:
304,96,97226,2,0,P|240:104|124:172,1,180,4|0,0:0|0:0,0:0:0:0:
132,336,97726,1,8,0:0:0:0:
223,231,97892,2,0,B|231:151|231:151|199:47,1,180,4|0,0:0|0:0,0:0:0:0:
110,160,98392,2,0,B|102:240|102:240|134:344,1,180,8|0,0:0|0:0,0:0:0:0:
256,300,98892,5,0,0:0:0:0:
352,368,99059,2,0,B|404:372|404:372|464:368|464:368|504:304,1,180,8|0,0:0|0:0,0:0:0:0:
505,102,99559,2,0,P|461:126|425:174,1,90,0|8,0:0|0:0,0:0:0:0:
430,292,99892,2,0,P|378:300|310:284,1,90
204,300,100226,2,0,P|200:248|204:200,1,90,0|8,0:0|0:0,0:0:0:0:
220,44,100559,2,0,P|272:20|300:128,1,180,4|0,0:0|0:0,0:0:0:0:
202,210,101059,6,0,P|250:246|394:230,1,180,12|0,0:0|0:0,0:0:0:0:
442,63,101559,1,0,0:0:0:0:
329,146,101726,1,8,0:0:0:0:
472,308,101892,2,0,B|488:224|488:224|472:128,1,180,4|0,0:0|0:0,0:0:0:0:
344,56,102392,6,0,B|284:92|284:92|152:56,1,180,12|0,0:0|0:0,0:0:0:0:
26,21,102892,1,0,0:0:0:0:
32,196,103059,1,8,0:0:0:0:
161,87,103226,1,0,0:0:0:0:
206,237,103392,5,8,3:0:0:0:
234,257,103476,1,8,3:0:0:0:
262,269,103559,1,8,3:0:0:0:
298,273,103642,1,8,3:0:0:0:
342,277,103726,1,8,3:0:0:0:
378,281,103809,1,8,3:0:0:0:
406,293,103892,1,8,3:0:0:0:
434,313,103976,1,8,3:0:0:0:
460,328,104059,1,8,3:0:0:0:
480,300,104142,1,8,3:0:0:0:
492,272,104226,1,8,3:0:0:0:
496,236,104309,1,8,3:0:0:0:
500,196,104392,5,12,0:3:0:0:
261,321,104559,1,4,0:0:0:0:
316,176,104726,5,0,0:0:0:0:
312,140,104809,1,0,0:0:0:0:
312,104,104892,1,0,0:0:0:0:
304,72,104976,1,0,0:0:0:0:
268,72,105059,5,0,0:0:0:0:
240,96,105142,1,0,0:0:0:0:
219,125,105226,1,0,0:0:0:0:
206,156,105309,1,0,0:0:0:0:
192,180,105392,6,0,L|172:164,1,22.5
180,200,105476,2,0,L|205:213,1,22.5
168,220,105559,2,0,L|138:204,1,22.5
156,248,105642,2,0,L|188:260,1,22.5
144,268,105726,6,0,B|108:312|108:348|108:348|276:336,1,229.500004377365,4|0,0:0|0:0,0:0:0:0:
295,316,106059,6,0,B|328:324|345:349|345:349|328:285|353:217,1,188.999994232178,12|0,0:0|0:0,0:0:0:0:
483,179,106392,6,0,B|450:187|433:212|433:212|450:148|425:80,1,188.999994232178,8|0,0:0|0:0,0:0:0:0:
286,24,106726,6,0,B|319:16|336:-9|336:-9|319:55|344:123,1,188.999994232178
351,201,107059,5,8,0:0:0:0:
148,208,107226,1,0,0:0:0:0:
268,340,107392,6,0,P|272:272|236:184,1,125.999996154785
217,165,107642,1,0,0:0:0:0:
208,138,107726,2,0,P|208:62|224:26,1,62.9999980773926,8|0,0:0|0:0,0:0:0:0:
276,32,107892,5,0,0:0:0:0:
148,208,108059,1,0,0:0:0:0:
332,232,108226,5,4,0:0:0:0:
140,112,108392,2,0,P|80:152|132:308,1,251.999992309571,12|0,0:0|0:0,0:0:0:0:
220,368,108892,2,0,L|356:368,1,125.999996154785,0|8,0:0|0:0,0:0:0:0:
494,306,109226,1,0,0:0:0:0:
238,169,109392,5,0,0:0:0:0:
463,205,109559,1,0,0:0:0:0:
355,69,109726,1,8,0:0:0:0:
303,306,109892,1,0,0:0:0:0:
448,268,110059,6,0,P|468:192|468:108,1,125.999996154785
464,104,110309,1,8,0:0:0:0:
464,104,110392,1,8,0:0:0:0:
232,128,110559,5,8,0:0:0:0:
232,128,110642,1,8,0:0:0:0:
232,128,110726,2,0,P|260:196|316:232,1,125.999996154785,12|0,0:0|0:0,0:0:0:0:
476,260,111059,2,0,P|455:201|407:161,1,125.999996154785,12|0,0:0|0:0,0:0:0:0:
192,227,111392,6,0,B|234:219|272:232|272:232|197:158|248:63,1,251.999992309571,0|8,0:0|0:0,0:0:0:0:
72,32,111892,1,0,0:0:0:0:
99,188,112059,6,0,B|57:196|19:183|19:183|94:257|43:352,1,251.999992309571,0|8,0:0|0:0,0:0:0:0:
188,368,112559,1,0,0:0:0:0:
307,229,112726,6,0,B|265:221|227:234|227:234|302:160|251:65,1,251.999992309571,0|8,0:0|0:0,0:0:0:0:
136,16,113226,1,0,0:0:0:0:
342,118,113392,6,0,B|350:76|335:38|335:38|411:113|506:62,1,251.999992309571,0|8,0:0|0:0,0:0:0:0:
388,248,113892,1,0,0:0:0:0:
268,124,114059,5,8,0:0:0:0:
384,344,114226,1,0,0:0:0:0:
384,40,114392,5,8,0:0:0:0:
268,260,114559,1,0,0:0:0:0:
104,64,114726,5,8,0:0:0:0:
324,180,114892,1,0,0:0:0:0:
123,359,115059,6,8,L|159:295,1,62.9999980773926
244,124,115226,6,0,B|276:56|276:56|116:116,1,188.999994232178,8|0,0:0|0:0,0:0:0:0:
220,193,115559,6,0,B|188:261|188:261|348:201,1,188.999994232178,8|0,0:0|0:0,0:0:0:0:
345,156,115892,6,0,B|413:124|413:124|353:284,1,188.999994232178,8|0,0:0|0:0,0:0:0:0:
308,332,116226,6,0,B|308:268,1,62.9999980773926,8|0,0:0|0:0,0:0:0:0:
296,336,116393,6,0,B|228:276,1,90,8|0,0:0|0:0,0:0:0:0:
288,340,116559,6,0,L|172:340,1,116.999994644165,8|0,0:0|0:0,0:0:0:0:
36,320,116726,6,0,B|-27:291|-27:291|31:269|36:245|37:158,1,188.999994232178,8|0,0:0|0:0,0:0:0:0:
0,132,117059,6,0,P|68:104|183:153,1,188.999994232178,12|0,0:0|0:0,0:0:0:0:
252,215,117392,6,0,B|223:278|223:278|201:220|177:215|90:214,1,188.999994232178
20,214,117726,5,8,0:0:0:0:
168,360,117892,1,0,0:0:0:0:
13,129,118059,6,0,P|47:77|102:48,1,125.999996154785,8|0,0:0|0:3,0:3:0:0:
250,113,118309,6,0,P|197:146|135:149,1,125.999996154785,12|0,0:0|0:0,0:0:0:0:
200,14,118559,6,0,P|267:8|305:25,1,62.9999980773926,12|0,0:0|0:0,0:0:0:0:
349,35,118726,1,12,0:0:0:0:
400,156,118892,5,8,3:0:0:0:
380,184,118976,1,8,3:0:0:0:
344,204,119059,1,8,3:0:0:0:
300,212,119142,1,8,3:0:0:0:
252,224,119226,1,8,3:0:0:0:
216,244,119309,1,8,3:0:0:0:
200,276,119392,5,8,0:0:0:0:
4,376,119559,1,0,0:0:0:0:
208,384,119726,5,8,0:0:0:0:
108,188,119892,1,0,0:0:0:0:
332,168,120059,5,8,0:0:0:0:
136,268,120226,1,0,0:0:0:0:
384,256,120392,5,8,0:0:0:0:
188,156,120559,1,0,0:0:0:0:
324,12,120726,5,8,0:0:0:0:
224,208,120892,1,0,0:0:0:0:
418,183,121059,5,8,0:0:0:0:
222,83,121226,1,0,0:0:0:0:
164,240,121392,5,8,3:0:0:0:
136,292,121476,1,8,3:0:0:0:
112,320,121559,1,8,3:0:0:0:
64,332,121642,1,8,3:0:0:0:
8,336,121726,2,8,B|-4:240|-4:240|28:104,1,188.999994232178,8|0,0:0|0:0,0:0:0:0:
28,112,122059,6,0,B|172:124|120:208|304:208,1,251.999992309571,12|0,0:0|0:0,0:0:0:0:
484,272,122559,2,0,B|340:260|392:176|208:176,1,251.999992309571,12|0,0:0|0:0,0:0:0:0:
132,304,123059,1,0,0:0:0:0:
184,72,123226,1,0,0:0:0:0:
256,204,123392,6,0,P|252:268|220:356,1,125.999996154785,12|0,0:0|0:0,0:0:0:0:
80,160,123726,1,0,0:0:0:0:
256,116,123892,2,0,B|444:112|336:180|512:164,1,251.999992309571,12|0,0:0|0:0,0:0:0:0:
412,308,124392,1,8,0:0:0:0:
372,64,124559,1,0,0:0:0:0:
308,220,124726,5,8,0:0:0:0:
276,248,124809,1,8,0:0:0:0:
236,264,124892,1,8,0:0:0:0:
192,264,124976,1,8,0:0:0:0:
152,260,125059,6,8,L|84:244,3,62.9999980773926
220,164,125392,2,8,L|288:148,3,62.9999980773926
148,72,125726,2,8,L|80:56,3,62.9999980773926
32,56,126059,6,0,B|0:152|0:152|48:272,1,188.999994232178,8|0,0:0|0:0,0:0:0:0:
48,260,126392,2,0,B|76:292|76:292|138:295,1,99.0000030212403,8|0,0:0|0:0,0:0:0:0:
248,257,126559,2,0,B|194:203|194:203|60:225,1,202.500007724762,8|0,0:0|0:0,0:0:0:0:
32,233,126892,5,8,0:0:0:0:
124,368,127059,2,0,L|288:356,1,135.000005149842,4|0,0:0|0:0,0:0:0:0:
443,345,127392,6,0,P|474:282|406:219,1,135,12|0,0:0|0:0,0:0:0:0:
407,229,127726,2,0,P|344:221|363:108,1,180,8|0,0:0|0:0,0:0:0:0:
503,73,128226,1,0,0:0:0:0:
377,4,128392,1,8,0:0:0:0:
303,212,128559,2,0,P|236:225|208:111,1,180,4|0,0:0|0:0,0:0:0:0:
132,8,129059,5,8,0:0:0:0:
24,120,129226,2,0,B|0:196|0:196|0:304,1,180,4|0,0:0|0:0,0:0:0:0:
184,296,129726,1,8,0:0:0:0:
40,367,129892,1,0,0:0:0:0:
88,208,130059,2,0,P|120:152|204:120,1,135,8|0,0:0|0:0,0:0:0:0:
208,160,130392,2,0,B|284:160|284:160|400:96,1,180,12|0,0:0|0:0,0:0:0:0:
433,240,130892,5,0,0:0:0:0:
375,109,131059,1,8,0:0:0:0:
508,12,131226,2,0,B|512:100|512:100|480:200,1,180,4|0,0:0|0:0,0:0:0:0:
344,144,131726,1,8,0:0:0:0:
256,252,131892,2,0,B|356:260|356:260|464:232,1,180,4|0,0:0|0:0,0:0:0:0:
480,124,132392,1,8,0:0:0:0:
292,130,132559,5,8,0:0:0:0:
292,130,132642,1,8,0:0:0:0:
292,130,132726,2,0,B|244:170|244:170|92:178,1,180,4|8,0:0|0:0,0:0:0:0:
40,88,133226,5,0,0:0:0:0:
214,83,133392,1,0,0:0:0:0:
55,215,133559,1,0,0:0:0:0:
129,27,133726,1,8,0:0:0:0:
204,208,133892,2,0,P|240:248|316:152,1,180,4|0,0:0|0:0,0:0:0:0:
325,74,134392,1,8,0:0:0:0:
222,129,134559,2,0,B|138:145|138:145|22:137,1,180,4|0,0:0|0:0,0:0:0:0:
140,63,135059,6,0,P|220:47|300:71,1,135,8|0,0:0|0:0,0:0:0:0:
297,96,135392,2,0,P|365:100|485:48,1,180,4|8,0:0|0:0,0:0:0:0:
384,38,135892,2,0,P|368:102|376:158,1,90
444,275,136226,1,0,0:0:0:0:
454,142,136392,1,8,0:0:0:0:
308,48,136559,2,0,P|260:32|200:140,1,180,4|0,0:0|0:0,0:0:0:0:
356,240,137059,1,12,0:0:0:0:
226,246,137226,2,0,P|166:246|102:230,1,90
98,231,137476,5,8,3:0:0:0:
70,223,137559,1,8,3:0:0:0:
46,215,137642,1,8,3:0:0:0:
18,207,137726,2,0,B|-6:187|-6:187|-10:127|30:111|26:59,1,135,4|0,0:0|0:0,0:0:0:0:
52,24,138059,2,0,B|-4:16|-4:16|36:124,1,135,8|0,0:0|0:0,0:0:0:0:
196,107,138392,2,0,B|83:73|83:73|23:89,1,180,8|8,0:0|0:0,0:0:0:0:
232,312,138892,5,8,0:0:0:0:
232,312,138976,1,8,0:0:0:0:
232,312,139059,1,8,0:0:0:0:
96,248,139226,2,0,P|120:192|232:128,1,180,4|0,0:0|0:0,0:0:0:0:
264,260,139726,1,8,0:0:0:0:
312,384,139892,2,0,B|396:360|396:360|448:240,1,180,4|0,0:0|0:0,0:0:0:0:
488,112,140392,2,0,B|446:124|446:124|420:184,1,90,8|0,0:0|0:0,0:0:0:0:
412,304,140726,5,8,0:0:0:0:
408,312,141059,1,8,0:0:0:0:
266,357,141226,2,0,L|162:349,1,90
185,248,141559,2,0,L|289:256,1,90
404,288,141892,2,0,P|464:264|392:184,1,180,4|8,0:0|0:0,0:0:0:0:
212,160,142392,5,8,0:0:0:0:
384,68,142559,1,0,0:0:0:0:
384,68,142642,1,0,0:0:0:0:
384,68,142726,1,0,0:0:0:0:
139,191,142948,6,0,L|92:155,3,60
0,79,143392,1,0,0:0:0:0:
126,287,143559,5,0,0:0:0:0:
301,181,143726,1,8,0:0:0:0:
43,213,143892,1,0,0:0:0:0:
221,379,144059,1,8,0:0:0:0:
158,119,144226,1,0,0:0:0:0:
57,344,144392,1,8,0:0:0:0:
287,242,144559,6,0,P|302:132|240:128,1,180,4|0,0:0|0:0,0:0:0:0:
91,239,145059,1,8,0:0:0:0:
259,368,145226,1,0,0:0:0:0:
284,118,145392,1,8,0:0:0:0:
151,285,145559,1,0,0:0:0:0:
396,248,145726,1,8,0:0:0:0:
160,142,145892,1,0,0:0:0:0:
130,352,146059,5,12,0:0:0:0:
344,113,146226,1,0,0:0:0:0:
10,127,146392,5,8,0:0:0:0:
405,202,146559,1,8,0:0:0:0:
422,208,146892,1,8,0:0:0:0:
439,217,147226,2,0,B|486:242|486:242|443:269|425:330,1,135,12|0,0:0|0:0,0:0:0:0:
437,338,147559,5,8,0:0:0:0:
134,283,147726,1,8,0:0:0:0:
454,167,147892,5,8,0:0:0:0:
201,294,148059,1,8,0:0:0:0:
92,141,148226,5,8,0:0:0:0:
435,236,148392,1,8,0:0:0:0:
501,39,148559,5,8,0:0:0:0:
181,284,148726,2,0,B|160:308|120:340|32:331|24:248|6:169|98:179|83:160|174:90|127:216|185:202|200:224|216:180|248:160|276:144|296:116|288:56|256:16,1,547.199993320313,4|0,0:0|0:0,0:0:0:0:
217,26,152726,5,0,0:0:0:0:
257,193,154059,5,0,0:0:0:0:
418,102,155392,5,0,0:0:0:0:
111,330,156726,5,0,0:0:0:0:
441,285,158059,5,0,0:0:0:0:
146,122,159392,5,0,0:0:0:0:
319,61,160726,6,8,L|387:50,2,60,8|8|8,3:0|3:0|3:0,3:0:0:0:
261,145,161059,2,8,L|187:154,2,60,8|8|8,3:0|3:0|3:0,3:0:0:0:
353,189,161392,1,8,3:0:0:0:
370,212,161504,1,8,3:0:0:0:
383,244,161615,1,8,3:0:0:0:
387,277,161726,1,8,3:0:0:0:
389,313,161837,1,8,3:0:0:0:
377,346,161948,1,8,3:0:0:0:
364,376,162059,2,0,B|292:380|292:380|216:368,1,135.000005149842,12|0,0:3|0:0,0:0:0:0:
28,168,162726,6,0,B|96:156|96:156|176:184,1,135.000005149842,8|0,0:0|0:0,0:0:0:0:
248,264,163226,2,0,B|180:276|180:276|100:248,1,135.000005149842,0|8,0:0|0:0,0:0:0:0:
68,40,163726,2,0,P|56:84|68:160,1,101.250003862381
72,188,164059,2,0,B|148:176|148:176|220:188,1,135.000005149842,8|0,0:0|0:0,0:0:0:0:
408,280,164726,6,0,B|340:296|340:296|252:280,1,135.000005149842
168,344,165392,2,0,B|152:276|152:276|168:188,1,135.000005149842,8|0,0:0|0:0,0:0:0:0:
303,199,165892,2,0,L|219:191,1,67.5000025749208
112,160,166226,1,8,0:0:0:0:
72,272,166392,2,0,P|80:320|180:324,1,135.000005149842,0|8,0:0|0:0,0:0:0:0:
303,199,166892,1,0,0:0:0:0:
148,268,167059,1,0,0:0:0:0:
268,356,167226,6,0,P|316:360|368:276,1,135.000005149842,8|8,0:0|0:0,0:0:0:0:
332,48,168059,2,0,L|328:204,1,135.000005149842,8|8,0:0|0:0,0:0:0:0:
256,276,168559,1,8,0:0:0:0:
108,176,168892,5,8,0:0:0:0:
254,175,169059,1,8,0:0:0:0:
248,40,169392,5,8,0:0:0:0:
181,167,169559,2,0,P|181:236|302:219,1,202.500007724762,0|8,0:0|0:0,0:0:0:0:
476,156,170559,5,8,0:0:0:0:
327,169,170726,1,8,0:0:0:0:
444,304,171059,5,8,0:0:0:0:
444,304,171226,1,8,0:0:0:0:
384,104,171559,5,8,0:0:0:0:
344,250,171726,1,0,0:0:0:0:
235,142,171892,1,8,0:0:0:0:
235,142,171976,1,8,0:0:0:0:
235,142,172059,1,8,0:0:0:0:
93,307,172226,1,0,0:0:0:0:
247,250,172392,1,8,0:0:0:0:
100,96,172559,6,0,P|64:120|144:216,1,180,4|0,0:0|0:0,0:0:0:0:
360,112,173059,1,8,0:0:0:0:
247,250,173226,1,0,0:0:0:0:
180,49,173392,2,0,P|232:25|288:45,1,90,8|0,0:0|0:0,0:0:0:0:
368,272,173726,5,8,0:0:0:0:
229,47,173892,2,0,P|188:64|165:102,1,90,8|0,0:0|0:0,0:0:0:0:
188,240,174226,2,0,B|176:292|176:292|176:340,1,90,8|0,0:0|0:0,0:0:0:0:
352,364,174559,5,8,0:0:0:0:
224,92,174726,1,0,0:0:0:0:
52,304,174892,1,0,0:0:0:0:
20,40,175059,1,8,0:0:0:0:
160,348,175226,1,0,0:0:0:0:
320,256,175392,5,8,0:0:0:0:
64,184,175559,1,0,0:0:0:0:
64,184,175726,1,0,0:0:0:0:
360,64,175892,5,8,0:0:0:0:
168,260,176059,1,0,0:0:0:0:
168,260,176226,1,0,0:0:0:0:
468,252,176392,5,8,0:0:0:0:
196,140,176559,1,0,0:0:0:0:
276,306,176726,1,0,0:0:0:0:
276,16,176892,5,8,0:0:0:0:
207,278,177059,1,0,0:0:0:0:
414,188,177226,1,0,0:0:0:0:
207,67,177392,5,8,0:0:0:0:
6,209,177559,1,0,0:0:0:0:
269,215,177726,1,0,0:0:0:0:
40,52,177892,5,12,0:0:0:0:
140,280,178226,1,8,0:0:0:0:
140,280,178309,1,8,0:0:0:0:
140,280,178392,1,0,0:0:0:0:
296,56,178559,6,0,L|316:256,1,135.000005149842,12|0,0:0|0:0,0:0:0:0:
336,364,178892,1,0,0:0:0:0:
44,104,179059,6,0,B|76:168|76:168|152:212,1,135.000005149842,12|0,0:0|0:0,0:0:0:0:
316,320,179392,1,0,0:0:0:0:
488,56,179559,6,0,B|456:120|456:120|380:164,1,135.000005149842,12|0,0:0|0:0,0:0:0:0:
80,208,179892,1,0,0:0:0:0:
480,288,180059,6,0,P|380:272|304:240,1,135.000005149842,12|0,0:0|0:0,0:0:0:0:
16,56,180392,2,0,P|116:72|192:104,1,135.000005149842,12|0,0:0|0:0,0:0:0:0:
336,328,180726,1,12,0:0:0:0:
344,328,181059,5,12,0:0:0:0:
424,168,181226,1,8,0:0:0:0:
152,304,181392,1,8,0:0:0:0:
172,104,181559,1,8,0:0:0:0:
448,328,181726,1,12,0:0:0:0:
340,80,181892,1,8,0:0:0:0:
234,314,182059,5,12,0:0:0:0:
254,270,182142,1,8,0:0:0:0:
255,222,182225,1,8,0:0:0:0:
235,178,182309,1,8,0:0:0:0:
215,139,182392,1,12,0:0:0:0:
164,110,182476,1,8,0:0:0:0:
105,110,182559,1,8,0:0:0:0:
52,133,182642,1,8,0:0:0:0:
30,185,182726,1,12,0:0:0:0:
85,200,182809,1,8,0:0:0:0:
142,214,182892,1,12,0:0:0:0:
198,228,182976,1,8,0:0:0:0:
256,242,183059,1,12,0:0:0:0:
319,257,183142,1,8,0:0:0:0:
384,273,183226,1,12,0:0:0:0:
448,289,183309,1,8,0:0:0:0:
512,304,183392,5,12,0:0:0:0:
267,248,184726,6,0,P|191:240|127:216,1,135.000005149842,12|0,0:0|0:0,0:0:0:0:
88,154,184976,6,0,P|161:124|257:128,1,135.000005149842,4|0,0:0|0:0,0:0:0:0:
292,124,185226,5,8,0:0:0:0:
58,35,185392,2,0,P|22:103|22:215,1,135.000005149842,12|0,0:0|0:0,0:0:0:0:
76,268,185726,6,0,L|180:272,1,101.250003862381,2|0,0:0|0:0,0:0:0:0:
216,272,186059,6,0,P|271:261|315:229,1,90,8|0,0:0|0:0,0:0:0:0:
418,82,186392,1,8,0:0:0:0:
327,155,186559,1,8,0:0:0:0:
406,242,186726,1,8,0:0:0:0:
311,332,186892,1,8,0:0:0:0:
244,194,187059,1,8,0:0:0:0:
395,323,187226,1,8,0:0:0:0:
146,301,187392,1,8,0:0:0:0:
264,288,187559,5,8,0:0:0:0:
304,264,187642,1,8,0:0:0:0:
336,224,187726,1,8,0:0:0:0:
344,172,187809,1,8,0:0:0:0:
344,128,187892,1,8,0:0:0:0:
360,80,187976,1,8,0:0:0:0:
392,56,188059,2,0,P|440:48|452:132,1,135,8|0,0:0|0:0,0:0:0:0:
428,132,188392,2,0,B|404:176|404:176|408:248,1,90
350,294,188726,6,0,B|322:338|322:338|374:326|458:374,1,180,4|8,0:0|0:0,0:0:0:0:
456,220,189226,1,0,0:0:0:0:
350,294,189392,6,0,B|306:322|306:322|318:270|270:186,1,180,0|8,0:0|0:0,0:0:0:0:
172,60,189892,1,0,0:0:0:0:
113,298,190059,6,0,B|85:254|85:254|137:266|221:218,1,180,0|8,0:0|0:0,0:0:0:0:
352,288,190559,1,0,0:0:0:0:
154,272,190726,6,0,B|110:300|110:300|122:248|81:177,1,180,0|8,0:0|0:0,0:0:0:0:
196,12,191226,1,0,0:0:0:0:
288,280,191392,5,8,0:0:0:0:
80,88,191559,1,0,0:0:0:0:
440,268,191726,5,8,0:0:0:0:
232,76,191892,1,8,0:0:0:0:
232,76,191976,1,8,0:0:0:0:
232,76,192059,1,8,0:0:0:0:
152,284,192226,5,8,0:0:0:0:
384,108,192392,1,8,0:0:0:0:
168,104,192559,6,0,P|112:112|164:220,1,188.999994232178,12|0,0:0|0:0,0:0:0:0:
244,292,192892,6,0,P|288:248|188:184,1,188.999994232178,12|0,0:0|0:0,0:0:0:0:
55,278,193226,6,0,L|275:294,1,188.999994232178,12|0,0:0|0:0,0:0:0:0:
424,312,193559,6,0,B|360:312,1,62.9999980773926,8|0,0:0|0:0,0:0:0:0:
428,300,193726,6,0,B|368:232,1,90,8|0,0:0|0:0,0:0:0:0:
432,292,193892,6,0,L|432:176,1,116.999994644165,8|0,0:0|0:0,0:0:0:0:
416,36,194059,6,0,L|388:40,1,27,8|0,0:0|0:0,0:0:0:0:
360,64,194392,6,0,P|300:92|192:40,1,188.999994232178,12|0,0:0|0:0,0:0:0:0:
168,24,194726,2,0,L|40:40,1,125.999996154785,8|0,0:0|0:0,0:0:0:0:
156,284,195059,1,12,0:0:0:0:
96,120,195226,1,0,0:0:0:0:
312,96,195392,6,0,P|388:92|408:172,1,125.999996154785,12|0,0:0|0:0,0:0:0:0:
296,200,195642,6,0,P|261:267|182:245,1,125.999996154785,12|0,0:0|0:0,0:0:0:0:
216,128,195892,6,0,P|174:64|233:6,1,125.999996154785,12|12,0:0|0:0,0:0:0:0:
348,40,196226,1,8,0:0:0:0:
383,54,196309,1,8,0:0:0:0:
415,73,196392,1,8,0:0:0:0:
443,98,196476,1,8,0:0:0:0:
467,127,196559,1,8,0:0:0:0:
486,160,196642,1,8,0:0:0:0:
496,204,196726,6,0,P|472:288|416:336,1,125.999996154785,12|0,0:0|0:0,0:0:0:0:
136,308,197059,1,12,0:0:0:0:
360,336,197226,1,0,0:0:0:0:
104,100,197392,5,0,0:0:0:0:
256,312,197559,1,0,0:0:0:0:
328,40,197726,5,8,0:0:0:0:
112,232,197892,1,8,0:0:0:0:
112,232,197976,1,8,0:0:0:0:
112,232,198059,1,8,0:0:0:0:
365,165,198226,1,8,0:0:0:0:
176,76,198392,5,8,0:0:0:0:
168,111,198475,1,0,0:0:0:0:
169,148,198558,1,8,3:0:0:0:
178,184,198642,1,8,3:0:0:0:
195,216,198725,1,8,3:0:0:0:
219,244,198808,1,8,3:0:0:0:
248,265,198892,1,8,3:0:0:0:
282,279,198975,1,8,3:0:0:0:
318,285,199058,1,8,3:0:0:0:
355,283,199142,1,8,3:0:0:0:
390,272,199225,1,8,3:0:0:0:
422,254,199308,1,8,3:0:0:0:
448,229,199392,6,0,P|448:164|288:152,1,251.999992309571,4|0,0:0|0:0,0:0:0:0:
380,352,199892,2,0,P|392:288|272:128,1,251.999992309571,4|0,0:0|0:0,0:0:0:0:
76,184,200392,1,8,0:0:0:0:
260,236,200559,1,0,0:0:0:0:
176,56,200726,6,0,B|144:116|144:116|140:228,1,125.999996154785,4|8,0:0|0:0,0:0:0:0:
144,208,200976,1,8,0:0:0:0:
144,208,201059,1,8,0:0:0:0:
220,384,201226,2,0,P|252:312|143:204,1,251.999992309571,4|8,0:0|0:0,0:0:0:0:
119,322,201726,1,8,0:0:0:0:
318,209,201892,1,0,0:0:0:0:
92,40,202059,5,8,0:0:0:0:
188,320,202226,1,0,0:0:0:0:
344,32,202392,5,8,0:0:0:0:
132,224,202559,1,0,0:0:0:0:
480,148,202726,5,8,0:0:0:0:
176,156,202892,1,0,0:0:0:0:
320,364,203059,5,8,0:0:0:0:
272,144,203226,2,0,P|240:88|80:148,1,251.999992309571,12|8,0:0|0:0,0:0:0:0:
80,152,203642,1,8,0:0:0:0:
76,152,203726,1,8,0:0:0:0:
268,248,203892,5,8,0:0:0:0:
72,228,204059,1,8,0:0:0:0:
184,80,204226,1,8,0:0:0:0:
196,248,204392,2,0,P|244:316|340:255,1,188.999994232178,12|0,0:0|0:0,0:0:0:0:
350,254,204726,5,0,0:0:0:0:
234,54,204892,1,0,0:0:0:0:
64,184,205059,2,0,P|56:256|88:344,1,125.999996154785,12|0,0:0|0:0,0:0:0:0:
312,330,205392,5,0,0:0:0:0:
130,164,205559,1,0,0:0:0:0:
312,72,205726,2,0,P|400:92|448:136,1,125.999996154785,12|0,0:0|0:0,0:0:0:0:
424,352,206059,5,0,0:0:0:0:
336,160,206226,1,0,0:0:0:0:
192,272,206392,2,0,P|128:292|48:292,1,125.999996154785,12|0,0:0|0:0,0:0:0:0:
232,84,206726,5,0,0:0:0:0:
468,132,206892,1,0,0:0:0:0:
316,368,207059,2,0,P|256:320|220:224,1,125.999996154785,12|0,0:0|0:0,0:0:0:0:
256,32,207392,5,8,0:0:0:0:
58,267,207559,1,0,0:0:0:0:
419,116,207726,5,4,0:0:0:0:
33,141,207892,1,0,0:0:0:0:
214,37,208059,5,8,0:0:0:0:
85,315,208226,1,0,0:0:0:0:
394,76,208392,5,4,0:0:0:0:
27,200,208559,1,0,0:0:0:0:
175,53,208726,5,8,0:0:0:0:
122,355,208892,1,0,0:0:0:0:
359,44,209059,5,4,0:0:0:0:
37,259,209226,1,0,0:0:0:0:
142,78,209392,5,8,0:0:0:0:
168,383,209559,1,0,0:0:0:0:
317,22,209726,5,4,0:0:0:0:
62,312,209892,1,0,0:0:0:0:
200,184,210059,5,12,3:0:0:0:
216,152,210142,1,8,3:0:0:0:
216,112,210226,1,8,3:0:0:0:
176,92,210309,1,8,3:0:0:0:
136,104,210392,1,12,3:0:0:0:
120,136,210476,1,8,3:0:0:0:
132,178,210559,1,8,3:0:0:0:
172,192,210642,1,8,3:0:0:0:
208,192,210726,1,12,3:0:0:0:
244,192,210809,1,8,3:0:0:0:
280,192,210892,1,8,3:0:0:0:
312,192,210976,1,8,3:0:0:0:
352,192,211059,1,12,3:0:0:0:
392,204,211142,1,8,3:0:0:0:
412,236,211226,1,8,3:0:0:0:
404,268,211309,1,8,3:0:0:0:
372,292,211392,5,12,3:0:0:0:
328,284,211476,1,8,3:0:0:0:
306,243,211559,1,8,3:0:0:0:
304,204,211642,1,8,3:0:0:0:
316,168,211726,1,12,3:0:0:0:
340,136,211809,1,8,3:0:0:0:
368,120,211892,1,8,3:0:0:0:
404,112,211976,1,8,3:0:0:0:
440,120,212059,1,12,3:0:0:0:
480,144,212142,1,8,3:0:0:0:
500,180,212226,1,8,3:0:0:0:
504,228,212309,1,8,3:0:0:0:
492,280,212392,1,12,3:0:0:0:
464,320,212476,1,8,3:0:0:0:
428,360,212559,1,8,3:0:0:0:
384,372,212642,1,8,3:0:0:0:
336,376,212726,6,0,P|272:376|184:288,1,188.999994232178,4|0,0:0|0:0,0:0:0:0:
180,260,213059,5,8,0:0:0:0:
184,216,213142,1,8,0:0:0:0:
184,180,213226,1,8,0:0:0:0:
192,136,213309,1,8,0:0:0:0:
196,100,213392,1,8,0:0:0:0:
180,68,213476,1,8,0:0:0:0:
136,56,213559,1,8,0:0:0:0:
104,88,213642,1,8,0:0:0:0:
112,132,213726,1,8,3:0:0:0:
152,152,213809,1,8,3:0:0:0:
192,144,213892,1,8,3:0:0:0:
228,140,213976,1,8,3:0:0:0:
273,142,214059,6,0,L|260:202,1,31.4999990386963
316,159,214142,2,0,L|288:191,1,31.4999990386963
352,188,214226,2,0,L|320:204,1,31.4999990386963
368,228,214309,2,0,L|314:225,1,31.4999990386963
364,264,214392,2,0,L|310:261,1,31.4999990386963
348,304,214476,2,0,L|311:263,1,31.4999990386963
320,328,214559,2,0,L|288:284,1,31.4999990386963
276,336,214642,2,0,L|284:282,1,31.4999990386963
244,344,214726,6,0,P|208:300|72:312,1,188.999994232178,4|0,0:0|0:0,0:0:0:0:
48,328,215059,6,0,L|54:125,1,157.500001502037,12|0,0:0|0:0,0:0:0:0:
304,192,215726,6,0,L|264:192,1,33.75,8|0,0:0|0:0,0:0:0:0:
232,188,216059,5,4,0:0:0:0:
96,80,216226,1,0,0:0:0:0:
44,248,216392,1,8,0:0:0:0:
203,111,216559,5,0,0:0:0:0:
41,174,216726,1,0,0:0:0:0:
160,303,216892,1,0,0:0:0:0:
340,280,217059,5,8,0:0:0:0:
276,117,217226,1,0,0:0:0:0:
148,236,217392,1,0,0:0:0:0:
312,200,217559,6,0,P|400:184|472:212,1,125.999996154785,0|8,0:0|0:0,0:0:0:0:
420,332,217892,1,0,0:0:0:0:
384,184,218059,2,0,L|360:40,1,125.999996154785
392,256,218392,1,8,0:0:0:0:
400,280,218476,1,0,0:0:0:0:
408,308,218559,1,0,0:0:0:0:
416,328,218642,1,0,0:0:0:0:
428,360,218726,2,0,B|448:384|448:384|490:374|509:348|496:288|480:212,1,188.999994232178
488,212,219059,5,8,0:0:0:0:
408,40,219226,2,0,P|392:100|392:176,1,125.999996154785
376,336,219559,1,0,0:0:0:0:
271,279,219726,2,0,P|207:263|115:307,1,125.999996154785,8|0,0:0|0:0,0:0:0:0:
84,320,220059,2,0,B|112:336|112:336|132:312|128:232,1,125.999996154785
152,36,220392,1,8,0:0:0:0:
56,160,220559,2,0,P|116:192|176:200,1,125.999996154785
437,231,220892,6,0,L|337:227,1,62.9999980773926,4|0,0:0|0:0,0:0:0:0:
141,173,221059,2,0,L|241:169,1,62.9999980773926,4|0,0:0|0:0,0:0:0:0:
424,152,221226,1,8,0:0:0:0:
388,152,221309,1,8,0:0:0:0:
356,152,221392,2,0,P|304:160|316:272,1,180,8|8,0:0|0:0,0:0:0:0:
408,344,221892,5,0,0:0:0:0:
388,228,222059,2,0,P|352:180|296:140,1,90
164,60,222392,2,0,P|136:116|200:236,1,180,8|0,0:0|0:0,0:0:0:0:
288,104,222892,1,0,0:0:0:0:
80,188,223059,1,8,0:0:0:0:
284,304,223226,1,0,0:0:0:0:
180,60,223392,5,0,0:0:0:0:
76,300,223559,1,0,0:0:0:0:
268,80,223726,1,8,0:0:0:0:
12,244,223892,1,0,0:0:0:0:
270,282,224059,5,8,0:0:0:0:
20,153,224226,1,0,0:0:0:0:
255,35,224392,1,12,0:0:0:0:
215,332,224559,5,0,0:0:0:0:
98,41,224726,1,8,0:0:0:0:
349,207,224892,1,0,0:0:0:0:
41,241,225059,1,12,0:0:0:0:
255,35,225226,1,0,0:0:0:0:
200,240,225392,6,0,P|132:228|92:124,1,175.499991966248,12|0,0:0|0:0,0:0:0:0:
132,32,225726,6,0,P|168:96|107:229,1,216,12|0,0:0|0:0,0:0:0:0:
122,339,226059,6,0,B|52:300|52:300|272:272,1,256.499993150711,12|0,0:0|0:0,0:0:0:0:
320,324,226392,6,0,P|376:212|212:144,1,297.000009063721,12|0,0:0|0:0,0:0:0:0:
188,196,226726,6,0,L|204:288,1,90,12|8,0:0|0:0,0:0:0:0:
212,320,227642,5,8,0:0:0:0:
212,320,227726,1,12,0:0:0:0:
368,60,227892,1,12,0:0:0:0:
