osu file format v14

[General]
AudioFilename: audio.mp3
AudioLeadIn: 0
PreviewTime: 45886
Countdown: 0
SampleSet: Soft
StackLeniency: 0.7
Mode: 0
LetterboxInBreaks: 0
WidescreenStoryboard: 0

[Editor]
DistanceSpacing: 1.2
BeatDivisor: 4
GridSize: 4
TimelineZoom: 1.9

[Metadata]
Title:Souzetsu Gekkou
TitleUnicode:壮絶激昂
Artist:Saratoga (CV: Uesaka Sumire)
ArtistUnicode:萨拉托加(CV:上坂堇)
Creator:FN TPS
Version:Extra
Source:碧蓝航线
Tags:
BeatmapID:1850954
BeatmapSetID:885609

[Difficulty]
HPDrainRate:7
CircleSize:4.3
OverallDifficulty:8
ApproachRate:9.4
SliderMultiplier:1.6
SliderTickRate:1

[Events]
//Background and Video events
//Break Periods
//Storyboard Layer 0 (Background)
//Storyboard Layer 1 (Fail)
//Storyboard Layer 2 (Pass)
//Storyboard Layer 3 (Foreground)
//Storyboard Sound Samples

[TimingPoints]
-113,333.333333333333,4,2,0,70,1,0
1220,-133.333333333333,4,2,0,70,0,0
7220,-100,4,2,0,70,0,0
7553,-66.6666666666667,4,2,0,70,0,0
9053,-1000,4,2,0,70,0,0
10553,-400,4,2,0,70,0,0
11887,-200,4,2,0,70,0,0
14220,-43.1034482758621,4,2,0,70,0,0
14553,-83.3333333333333,4,2,0,70,0,0
25220,-100,4,2,0,70,0,0
35886,-133.333333333333,4,2,0,70,0,0
37886,-66.6666666666667,4,2,0,70,0,0
38386,-133.333333333333,4,2,0,70,0,0
40553,-66.6666666666667,4,2,0,70,0,0
41053,-90.9090909090909,4,2,0,70,0,0
44886,-50,4,2,0,70,0,0
45053,-454.545454545455,4,2,0,70,0,0
45886,-100,4,2,0,70,0,0
46553,-50,4,2,0,70,0,0
46886,-58.8235294117647,4,2,0,70,0,0
47220,-71.4285714285714,4,2,0,70,0,0
61553,-58.8235294117647,4,2,0,70,0,0
61886,-50,4,2,0,70,0,0
62220,-43.4782608695652,4,2,0,70,0,0
62553,-71.4285714285714,4,2,0,70,0,0
72886,-33.3333333333333,4,2,0,70,0,0
73220,-83.3333333333333,4,2,0,70,0,0
81553,-66.6666666666667,4,2,0,70,0,0
81886,-83.3333333333333,4,2,0,70,0,0
82220,-66.6666666666667,4,2,0,70,0,0
82553,-100,4,2,0,70,0,0
82886,-76.9230769230769,4,2,0,70,0,0
83220,-62.5,4,2,0,70,0,0
83553,-52.6315789473684,4,2,0,70,0,0
83886,-166.666666666667,4,2,0,70,0,0
84886,-45.4545454545455,4,2,0,70,0,0
85053,-166.666666666667,4,2,0,70,0,0

[HitObjects]
257,217,887,5,0,0:0:0:0:
116,327,1220,6,0,P|106:270|217:205,1,180.000006866455
257,217,1887,2,0,P|211:192|206:116,1,120.000004577637
226,68,2387,1,0,0:0:0:0:
384,192,3220,5,0,0:0:0:0:
256,192,3470,1,0,0:0:0:0:
128,192,3720,1,0,0:0:0:0:
48,318,3887,6,0,P|87:311|149:243,1,120.000004577637
169,333,4387,2,0,P|218:331|248:343,1,60.0000022888184
293,313,4720,1,0,0:0:0:0:
324,250,4887,1,0,0:0:0:0:
441,358,5053,6,0,B|405:347|380:345|358:347|358:347|370:314|365:286,1,120.000004577637
228,333,5553,2,0,P|179:335|149:323,1,60.0000022888184
64,236,5887,5,0,0:0:0:0:
128,236,5998,5,0,0:0:0:0:
192,236,6109,5,0,0:0:0:0:
256,236,6220,5,0,0:0:0:0:
320,236,6331,5,0,0:0:0:0:
384,236,6442,5,0,0:0:0:0:
448,236,6553,5,0,0:0:0:0:
382,343,6720,1,0,0:0:0:0:
415,176,6887,6,0,P|391:143|392:106,1,60.0000022888184
264,73,7220,2,0,P|308:59|347:61,1,80
229,253,7553,2,0,P|245:185|291:143,1,120.000004577637
193,62,7887,5,0,0:0:0:0:
187,60,7970,1,0,0:0:0:0:
181,58,8053,1,0,0:0:0:0:
175,56,8137,1,0,0:0:0:0:
149,84,8220,5,0,0:0:0:0:
143,86,8303,1,0,0:0:0:0:
114,66,8387,5,0,0:0:0:0:
108,64,8470,1,0,0:0:0:0:
75,89,8553,5,0,0:0:0:0:
46,178,8720,1,0,0:0:0:0:
52,225,8803,1,0,0:0:0:0:
58,272,8887,2,0,P|25:282|-9:277,1,60.0000022888184
49,174,9053,6,0,P|82:164|113:167,1,64
172,189,10553,2,0,L|311:199,1,140
373,174,11887,2,0,P|404:161|409:307,1,280
360,103,13220,5,0,0:0:0:0:
363,91,13387,1,0,0:0:0:0:
443,168,13553,1,0,0:0:0:0:
467,95,13720,5,0,0:0:0:0:
470,83,13803,1,0,0:0:0:0:
473,71,13887,1,0,0:0:0:0:
417,234,14053,1,0,0:0:0:0:
373,174,14220,2,0,P|404:161|409:307,1,280
325,369,14553,5,0,0:0:0:0:
187,208,14720,2,0,P|177:265|149:301,1,95.9999970703126
296,381,15053,5,0,0:0:0:0:
271,168,15220,2,0,P|223:201|178:206,1,95.9999970703126
264,379,15553,5,0,0:0:0:0:
358,199,15720,2,0,P|301:189|265:161,1,95.9999970703126
235,363,16053,5,0,0:0:0:0:
397,283,16220,2,0,P|363:235|358:190,1,95.9999970703126
508,285,16553,5,0,0:0:0:0:
454,379,16720,1,0,0:0:0:0:
430,217,16886,1,0,0:0:0:0:
421,179,16970,1,0,0:0:0:0:
425,141,17053,1,0,0:0:0:0:
442,107,17136,1,0,0:0:0:0:
474,85,17220,5,0,0:0:0:0:
300,116,17386,2,0,L|196:137,1,95.9999970703126
425,141,17720,5,0,0:0:0:0:
252,125,17886,2,0,L|145:115,1,95.9999970703126
430,217,18220,6,0,P|378:201|329:213,1,95.9999970703126
240,367,18553,6,0,B|197:344|209:280|227:251|227:251|245:267|245:287,1,143.999995605469
365,339,18886,2,0,P|308:336|272:302,1,95.9999970703126
480,309,19220,5,0,0:0:0:0:
343,267,19386,1,0,0:0:0:0:
54,339,19553,5,0,0:0:0:0:
83,363,19636,1,0,0:0:0:0:
121,357,19720,1,0,0:0:0:0:
142,325,19803,1,0,0:0:0:0:
137,287,19886,5,0,0:0:0:0:
131,128,20053,2,0,L|16:132,1,95.9999970703126
280,132,20386,5,0,0:0:0:0:
131,138,20553,2,0,L|135:253,1,95.9999970703126
125,0,20886,5,0,0:0:0:0:
131,149,21053,2,0,L|246:145,1,95.9999970703126
318,269,21386,5,0,0:0:0:0:
402,132,21553,2,0,P|375:193|386:239,1,95.9999970703126
335,15,21886,5,0,0:0:0:0:
449,195,22053,1,0,0:0:0:0:
234,265,22220,6,0,L|298:277,1,47.9999985351563
402,132,22386,2,0,L|354:140,1,47.9999985351563
182,217,22553,5,0,0:0:0:0:
323,69,22720,2,0,L|351:-32,1,95.9999970703126
328,236,23053,5,0,0:0:0:0:
189,69,23220,2,0,L|161:-32,1,95.9999970703126
256,260,23553,6,0,L|256:212,1,47.9999985351563
256,28,23720,2,0,L|256:-24,1,47.9999985351563
253,148,23886,5,0,0:0:0:0:
408,268,24053,1,0,0:0:0:0:
142,362,24220,1,0,0:0:0:0:
198,182,24386,1,0,0:0:0:0:
421,298,24553,5,0,0:0:0:0:
223,319,24720,1,0,0:0:0:0:
434,328,24886,6,0,L|426:378,1,47.9999985351563
247,379,25053,2,0,L|204:402,1,47.9999985351563
52,384,25220,6,0,P|53:327|126:240,1,160
112,246,25886,1,0,0:0:0:0:
467,228,26220,1,0,0:0:0:0:
488,312,26386,1,0,0:0:0:0:
460,241,26553,6,0,P|440:203|499:110,1,160
496,321,27053,1,0,0:0:0:0:
400,216,27220,1,0,0:0:0:0:
328,206,27386,1,0,0:0:0:0:
230,291,27553,1,0,0:0:0:0:
172,145,27720,1,0,0:0:0:0:
140,139,27803,1,0,0:0:0:0:
108,134,27886,6,0,P|95:92|166:9,1,160
161,9,28553,1,0,0:0:0:0:
477,119,28886,1,0,0:0:0:0:
390,170,29052,1,0,0:0:0:0:
410,103,29220,6,0,P|441:170|437:238,1,120
409,283,29553,6,0,B|383:299|361:309|332:301|332:301|342:285|368:282,1,120
468,330,29886,6,0,P|493:337|511:348,3,40
368,345,30220,5,0,0:0:0:0:
352,346,30303,1,0,0:0:0:0:
336,347,30386,1,0,0:0:0:0:
319,348,30470,1,0,0:0:0:0:
303,349,30553,5,0,0:0:0:0:
287,350,30886,1,0,0:0:0:0:
165,314,31053,6,0,P|117:304|22:369,1,160
2,340,31470,2,0,P|-1:373|3:387,1,40
108,383,31720,1,0,0:0:0:0:
196,215,31886,6,0,P|153:207|113:212,1,80
86,190,32136,2,0,P|81:214|89:239,1,40
251,279,32386,6,0,P|269:232|260:151,1,120
260,157,32720,1,0,0:0:0:0:
117,210,32886,2,0,P|160:218|200:213,1,80
353,83,33220,6,0,B|345:13|345:13|337:29,1,80
450,135,33553,2,0,L|436:225,1,80
435,230,33803,1,0,0:0:0:0:
450,225,33886,1,0,0:0:0:0:
346,257,34053,1,0,0:0:0:0:
401,381,34220,1,0,0:0:0:0:
341,350,34386,1,0,0:0:0:0:
295,140,34553,5,0,0:0:0:0:
291,143,34886,5,0,0:0:0:0:
287,146,35220,5,0,0:0:0:0:
276,37,35553,6,0,B|309:77|296:141|296:141|288:146,1,120
230,99,35886,6,0,P|185:79|47:83,1,180.000006866455
0,122,36553,1,0,0:0:0:0:
206,152,36886,5,0,0:0:0:0:
271,150,37053,2,0,B|305:157|333:150|357:129|357:129|367:146|354:170,1,120.000004577637
359,155,37720,5,0,0:0:0:0:
206,152,37886,2,0,B|171:146|148:129|133:101|133:101|117:113|121:140,1,120.000004577637
120,125,38386,6,0,P|128:179|186:227,1,120.000004577637
402,246,39053,1,0,0:0:0:0:
402,246,39220,2,0,P|352:262|320:338,1,120.000004577637
392,317,39720,5,0,0:0:0:0:
260,337,40053,2,0,L|129:352,1,120.000004577637
140,350,40553,6,0,L|9:365,1,120.000004577637
260,337,40886,1,0,0:0:0:0:
27,247,41053,6,0,L|221:265,1,176.000005371094
324,178,41553,6,0,P|360:137|404:126,1,88.000002685547
240,167,41886,2,0,P|294:163|333:186,1,88.000002685547
300,82,42220,1,0,0:0:0:0:
392,198,42386,1,0,0:0:0:0:
274,229,42553,6,0,P|219:232|180:209,1,88.000002685547
292,310,42886,2,0,P|270:260|278:215,1,88.000002685547
214,357,43220,1,0,0:0:0:0:
180,206,43386,1,0,0:0:0:0:
402,372,43553,1,0,0:0:0:0:
306,162,43886,5,0,0:0:0:0:
284,375,44053,1,0,0:0:0:0:
341,296,44220,1,0,0:0:0:0:
244,119,44386,5,0,0:0:0:0:
352,365,44553,1,0,0:0:0:0:
399,255,44720,1,0,0:0:0:0:
174,130,44886,6,0,P|136:163|96:151,1,80
119,154,45053,6,0,P|160:182|173:212,1,79.2000024169923
177,199,45886,6,0,P|141:185|58:220,1,120
37,292,46220,5,0,0:0:0:0:
479,376,46553,6,0,P|493:284|457:127,1,240
406,77,46886,2,0,P|339:39|191:19,1,204.000003890991
139,38,47220,2,0,P|84:74|23:174,1,167.999994873047
17,241,47553,1,0,0:0:0:0:
39,323,47720,1,0,0:0:0:0:
288,309,47886,6,0,P|301:251|355:222,1,111.999996582031
240,218,48136,2,0,P|290:241|342:223,1,111.999996582031
356,292,48386,1,0,0:0:0:0:
176,263,48553,5,0,0:0:0:0:
417,241,48720,1,0,0:0:0:0:
97,355,48886,1,0,0:0:0:0:
457,13,49220,5,0,0:0:0:0:
416,144,49386,1,0,0:0:0:0:
345,0,49553,1,0,0:0:0:0:
381,75,49720,1,0,0:0:0:0:
490,152,49886,2,0,B|355:142|355:142|321:164,1,167.999994873047
291,223,50220,1,0,0:0:0:0:
294,297,50386,1,0,0:0:0:0:
503,358,50553,6,0,P|446:327|398:333,1,111.999996582031
382,344,50803,1,0,0:0:0:0:
372,364,50886,1,0,0:0:0:0:
294,297,51053,2,0,L|261:251,1,55.9999982910157
222,366,51220,5,0,0:0:0:0:
162,287,51386,1,0,0:0:0:0:
80,384,51553,2,0,P|62:319|67:260,1,111.999996582031
184,71,51886,6,0,P|217:98|242:228,1,167.999994873047
256,219,52220,2,0,P|224:273|166:286,1,111.999996582031
48,115,52553,6,0,P|66:55|158:11,1,167.999994873047
161,21,52886,1,0,0:0:0:0:
239,133,53053,1,0,0:0:0:0:
345,3,53220,6,0,L|365:177,1,167.999994873047
372,177,53553,2,0,L|344:288,1,111.999996582031
495,377,53886,6,0,P|491:321|458:258,1,111.999996582031
496,82,54220,2,0,P|491:159|437:252,1,167.999994873047
428,339,54553,5,0,0:0:0:0:
396,67,54720,1,0,0:0:0:0:
423,345,54886,5,0,0:0:0:0:
391,73,55053,1,0,0:0:0:0:
418,351,55220,5,0,0:0:0:0:
461,58,55386,1,0,0:0:0:0:
463,53,55470,1,0,0:0:0:0:
465,48,55553,1,0,0:0:0:0:
478,277,55720,6,0,B|458:307|458:307|433:298|392:300|367:312|367:312|344:281,1,167.999994873047
336,162,56053,6,0,P|406:119|483:174,1,167.999994873047
437,263,56386,6,0,B|417:310|417:344|417:344|409:311|382:263,1,167.999994873047
401,84,56720,5,0,0:0:0:0:
269,351,56886,1,0,0:0:0:0:
128,95,57053,1,0,0:0:0:0:
59,384,57220,6,0,P|104:342|110:273,1,111.999996582031
112,226,57470,1,0,0:0:0:0:
64,273,57553,2,0,P|127:293|172:253,1,111.999996582031
199,17,57886,6,0,L|161:126,1,111.999996582031
345,81,58220,1,0,0:0:0:0:
383,73,58303,1,0,0:0:0:0:
421,65,58386,1,0,0:0:0:0:
459,57,58470,1,0,0:0:0:0:
497,49,58553,5,0,0:0:0:0:
236,339,58803,1,0,0:0:0:0:
70,0,59053,1,0,0:0:0:0:
91,124,59220,5,0,0:0:0:0:
186,150,59386,2,0,P|209:181|215:221,1,55.9999982910157
326,184,59553,1,0,0:0:0:0:
401,239,59720,2,0,P|395:277|371:309,1,55.9999982910157
456,372,59886,6,0,P|456:301|477:254,1,111.999996582031
494,133,60220,1,0,0:0:0:0:
407,52,60386,1,0,0:0:0:0:
470,263,60553,6,0,P|446:334|343:360,1,167.999994873047
296,308,60886,2,0,P|278:257|298:199,1,111.999996582031
228,15,61220,6,0,P|310:45|311:139,1,167.999994873047
271,174,61553,6,0,P|181:172|106:71,1,204.000003890991
183,74,61886,6,0,P|181:163|52:258,1,240
49,184,62220,6,0,P|146:193|212:264,1,184.000003509522
235,318,62470,1,0,0:0:0:0:
201,383,62553,5,0,0:0:0:0:
78,246,62720,2,0,P|115:271|147:351,1,111.999996582031
291,175,63053,6,0,B|313:167|365:165|409:182|409:182|379:198|351:199,1,167.999994873047
225,212,63386,1,0,0:0:0:0:
377,99,63553,2,0,P|450:123|497:153,1,111.999996582031
159,172,63886,5,0,0:0:0:0:
235,0,64053,2,0,L|223:120,1,111.999996582031
245,256,64386,2,0,B|359:231|359:231|326:282,1,167.999994873047
281,345,64720,1,0,0:0:0:0:
45,234,64886,2,0,P|17:157|25:112,1,111.999996582031
89,345,65220,5,0,0:0:0:0:
121,73,65386,1,0,0:0:0:0:
84,339,65553,5,0,0:0:0:0:
116,67,65720,1,0,0:0:0:0:
79,333,65886,5,0,0:0:0:0:
70,11,66053,5,0,0:0:0:0:
68,6,66136,1,0,0:0:0:0:
66,1,66220,1,0,0:0:0:0:
172,359,66386,5,0,0:0:0:0:
189,48,66720,5,0,0:0:0:0:
191,43,66803,1,0,0:0:0:0:
193,38,66887,1,0,0:0:0:0:
231,251,67053,1,0,0:0:0:0:
281,152,67220,5,0,0:0:0:0:
325,304,67386,1,0,0:0:0:0:
511,167,67553,1,0,0:0:0:0:
426,375,67720,6,0,P|436:345|441:311,1,55.9999982910157
395,97,67886,2,0,P|400:124|409:150,1,55.9999982910157
440,240,68053,1,0,0:0:0:0:
440,240,68136,1,0,0:0:0:0:
440,240,68220,2,0,B|424:236|424:236|439:223|439:223|462:243,1,55.9999982910157
308,383,68386,6,0,P|329:339|334:316,1,55.9999982910157
308,89,68553,2,0,P|295:136|295:159,1,55.9999982910157
305,243,68720,1,0,0:0:0:0:
305,243,68803,1,0,0:0:0:0:
305,243,68886,2,0,B|290:236|290:236|307:226|307:226|326:250,1,55.9999982910157
190,368,69053,6,0,P|212:331|218:305,1,55.9999982910157
227,61,69220,2,0,P|200:94|192:119,1,55.9999982910157
177,215,69386,1,0,0:0:0:0:
177,215,69469,1,0,0:0:0:0:
177,215,69552,2,0,B|163:204|163:204|182:198|182:198|195:226,1,55.9999982910157
76,376,69720,6,0,P|105:344|117:320,1,55.9999982910157
142,31,69886,2,0,P|115:67|108:92,1,55.9999982910157
53,202,70053,1,0,0:0:0:0:
53,202,70136,1,0,0:0:0:0:
53,202,70219,2,0,B|39:191|39:191|58:185|58:185|71:213,1,55.9999982910157
239,383,70386,5,0,0:0:0:0:
272,0,70553,1,0,0:0:0:0:
222,381,70886,5,0,0:0:0:0:
289,2,71053,1,0,0:0:0:0:
206,377,71220,5,0,0:0:0:0:
305,6,71386,1,0,0:0:0:0:
190,372,71553,5,0,0:0:0:0:
321,11,71720,1,0,0:0:0:0:
36,240,71886,5,0,0:0:0:0:
91,227,71970,1,0,0:0:0:0:
145,215,72053,1,0,0:0:0:0:
199,203,72136,1,0,0:0:0:0:
254,191,72220,1,0,0:0:0:0:
308,179,72303,1,0,0:0:0:0:
362,167,72386,1,0,0:0:0:0:
417,155,72470,1,0,0:0:0:0:
471,143,72553,1,0,0:0:0:0:
77,40,72886,6,0,P|210:70|358:267,1,360.000013732911
324,384,73220,5,0,0:0:0:0:
189,261,73386,2,0,P|207:207|196:160,1,95.9999970703126
60,184,73720,5,0,0:0:0:0:
273,225,73886,2,0,P|217:236|182:269,1,95.9999970703126
375,88,74220,5,0,0:0:0:0:
200,169,74386,2,0,P|237:211|283:225,1,95.9999970703126
430,289,74720,5,0,0:0:0:0:
200,169,74886,2,0,P|243:187|273:224,1,95.9999970703126
179,297,75220,5,0,0:0:0:0:
214,99,75386,1,0,0:0:0:0:
343,202,75553,5,0,0:0:0:0:
154,270,75719,1,0,0:0:0:0:
208,27,75886,5,0,0:0:0:0:
381,137,76053,2,0,P|438:137|479:115,1,95.9999970703126
472,120,76386,5,0,0:0:0:0:
293,214,76553,2,0,P|264:263|263:309,1,95.9999970703126
261,301,76886,5,0,0:0:0:0:
269,98,77053,2,0,P|240:48|200:24,1,95.9999970703126
65,112,77386,6,0,P|54:123|80:111,1,95.9999970703126
261,301,77720,6,0,P|255:285|253:314,1,95.9999970703126
347,59,78053,6,0,P|362:62|338:45,1,95.9999970703126
207,196,78386,1,0,0:0:0:0:
264,185,78470,1,0,0:0:0:0:
226,141,78553,5,0,0:0:0:0:
214,349,78720,2,0,L|317:327,1,95.9999970703126
121,102,79053,5,0,0:0:0:0:
312,315,79220,2,0,L|241:236,1,95.9999970703126
299,37,79553,5,0,0:0:0:0:
234,247,79720,2,0,L|201:347,1,95.9999970703126
61,195,80053,5,0,0:0:0:0:
214,349,80220,2,0,L|307:328,1,95.9999970703126
255,157,80553,5,0,0:0:0:0:
205,375,80720,1,0,0:0:0:0:
381,380,80886,5,0,0:0:0:0:
217,227,81053,1,0,0:0:0:0:
426,122,81220,6,0,P|374:80|324:67,1,95.9999970703126
63,215,81553,2,0,P|93:143|138:109,1,120.000004577637
449,198,81886,6,0,P|426:260|389:297,1,95.9999970703126
89,305,82220,2,0,P|151:351|207:357,1,120.000004577637
338,200,82553,6,0,P|288:157|230:161,1,120
221,151,82886,6,0,P|295:148|355:206,1,155.999992858887
345,272,83220,6,0,P|250:276|174:197,1,192
168,212,83553,6,0,P|241:285|374:270,1,227.999993911743
408,349,83886,6,0,B|428:339|441:322|441:322|461:313|461:313|460:292|460:292|496:230|473:160|432:105,1,263.99999194336
311,35,84886,6,0,P|264:28|203:42,1,88.000002685547
77,143,85053,6,0,B|29:196|39:257|39:257|51:255|61:243,1,143.999995605469
75,227,85636,2,0,B|82:216|97:214|97:214|105:238|97:253,1,47.9999985351563
