osu file format v14

[General]
AudioFilename: audio.mp3
AudioLeadIn: 0
PreviewTime: 45719
Countdown: 0
SampleSet: Soft
StackLeniency: 0.2
Mode: 0
LetterboxInBreaks: 0
WidescreenStoryboard: 1

[Editor]
Bookmarks: 47219
DistanceSpacing: 0.5
BeatDivisor: 4
GridSize: 32
TimelineZoom: 2.2

[Metadata]
Title:Souzetsu Gekkou
TitleUnicode:壮絶激昂
Artist:Saratoga (CV: Uesaka Sumire)
ArtistUnicode:萨拉托加(CV:上坂堇)
Creator:- Matha -
Version:krt's Insane
Source:碧蓝航线
Tags:azur lane アズールレーン 激昂壮志 上坂すみれ sahuang Firis Mistlud kurantemelodii krt Agatsu matha my angel azusa
BeatmapID:1634226
BeatmapSetID:776159

[Difficulty]
HPDrainRate:6
CircleSize:4
OverallDifficulty:8
ApproachRate:9
SliderMultiplier:2.1
SliderTickRate:1

[Events]
//Background and Video events
Video,0,"Video.mp4"
0,0,"Insane.jpg",0,0
//Break Periods
2,10753,11886
//Storyboard Layer 0 (Background)
//Storyboard Layer 1 (Fail)
//Storyboard Layer 2 (Pass)
//Storyboard Layer 3 (Foreground)
//Storyboard Sound Samples

[TimingPoints]
1220,333.333333333333,4,2,1,50,1,0
1220,-200,4,2,1,50,0,0
2219,-200,4,2,1,5,0,0
2386,-200,4,2,1,50,0,0
6553,-100,4,2,1,50,0,0
10553,-100,4,2,1,5,0,0
13219,-133.333333333333,4,2,1,50,0,0
14219,-83.3333333333333,4,2,1,50,0,0
14469,-83.3333333333333,4,2,1,5,0,0
14553,-100,4,2,1,50,0,0
25219,-133.333333333333,4,2,1,50,0,0
29553,-117.647058823529,4,2,1,50,0,0
29886,-105.263157894737,4,2,1,50,0,0
30219,-133.333333333333,4,2,1,50,0,0
30553,-200,4,2,1,50,0,0
30803,-200,4,2,1,5,0,0
30886,-200,4,2,1,50,0,0
31053,-100,4,2,1,50,0,0
31553,-133.333333333333,4,2,1,50,0,0
31803,-133.333333333333,4,2,1,5,0,0
31886,-200,4,2,1,50,0,0
32136,-200,4,2,1,5,0,0
32219,-200,4,2,1,50,0,0
32386,-100,4,2,1,50,0,0
34636,-100,4,2,1,5,0,0
34886,-100,4,2,1,50,0,0
34969,-100,4,2,1,5,0,0
35219,-100,4,2,1,50,0,0
35303,-100,4,2,1,5,0,0
35553,-100,4,2,1,50,0,0
35803,-100,4,2,1,5,0,0
35886,-200,4,2,1,40,0,0
40553,-133.333333333333,4,2,1,50,0,0
43886,-100,4,2,1,60,0,0
45053,-200,4,2,1,30,0,0
45803,-200,4,2,1,5,0,0
45886,-133.333333333333,4,2,1,60,0,0
46136,-133.333333333333,4,2,1,5,0,0
46219,-66.6666666666667,4,2,1,60,0,0
46386,-66.6666666666667,4,2,1,5,0,0
46553,-83.3333333333333,4,2,1,70,0,1
48053,-83.3333333333333,4,2,1,5,0,1
48136,-83.3333333333333,4,2,1,70,0,1
48303,-83.3333333333333,4,2,1,5,0,1
48386,-83.3333333333333,4,2,1,70,0,1
49136,-83.3333333333333,4,2,1,5,0,1
49219,-83.3333333333333,4,2,1,70,0,1
51553,-83.3333333333333,4,2,1,70,0,0
51803,-83.3333333333333,4,2,1,5,0,0
51886,-100,4,2,1,70,0,1
52553,-90.9090909090909,4,2,1,70,0,1
53219,-83.3333333333333,4,2,1,70,0,1
53886,-76.9230769230769,4,2,1,70,0,1
54553,-83.3333333333333,4,2,1,70,0,1
56719,-83.3333333333333,4,2,1,70,0,0
57219,-83.3333333333333,4,2,1,70,0,1
58553,-83.3333333333333,4,2,1,70,0,0
58719,-83.3333333333333,4,2,1,5,0,0
58803,-83.3333333333333,4,2,1,70,0,0
58969,-83.3333333333333,4,2,1,5,0,0
59053,-83.3333333333333,4,2,1,70,0,0
59136,-83.3333333333333,4,2,1,5,0,0
59219,-83.3333333333333,4,2,1,70,0,0
59886,-83.3333333333333,4,2,1,70,0,1
67219,-100,4,2,1,70,0,0
67469,-100,4,2,1,5,0,0
67553,-76.9230769230769,4,2,1,70,0,0
67719,-76.9230769230769,4,2,1,5,0,0
67886,-83.3333333333333,4,2,1,70,0,1
68553,-76.9230769230769,4,2,1,70,0,1
69219,-100,4,2,1,70,0,1
70219,-100,4,2,1,70,0,0
70553,-100,4,2,1,70,0,1
72553,-100,4,2,1,70,0,0
72886,-66.6666666666667,4,2,1,70,0,1
73136,-66.6666666666667,4,2,1,5,0,1
73219,-100,4,2,1,50,0,0
82553,-133.333333333333,4,2,1,50,0,0
82803,-133.333333333333,4,2,1,5,0,0
82886,-105.263157894737,4,2,1,50,0,0
83136,-105.263157894737,4,2,1,5,0,0
83219,-95.2380952380952,4,2,1,50,0,0
83469,-95.2380952380952,4,2,1,5,0,0
83553,-80,4,2,1,50,0,0
83803,-80,4,2,1,5,0,0
83886,-66.6666666666667,4,2,1,50,0,0
84553,-66.6666666666667,4,2,1,5,0,0
84719,-66.6666666666667,4,2,1,50,0,0
85053,-250,4,2,1,50,0,0
85719,-250,4,2,1,5,0,0

[Colours]
Combo1 : 184,85,3
Combo2 : 62,255,62
Combo3 : 186,122,250
Combo4 : 247,98,120

[HitObjects]
194,27,886,5,0,0:0:0:0:
194,27,1220,2,0,P|229:111|126:39,1,315,12|0,0:0|0:0,0:0:0:0:
195,104,2386,6,0,P|213:173|178:275,1,157.5,4|0,0:0|0:0,0:0:0:0:
91,364,3219,2,0,P|81:327|101:288,2,78.75,8|0|2,0:0|0:0|0:0,0:0:0:0:
191,254,3886,6,0,P|143:264|34:213,1,157.5,6|8,0:0|3:0,0:0:0:0:
62,215,4719,1,4,3:0:0:0:
44,343,4885,1,4,3:0:0:0:
15,144,5053,6,0,P|62:130|128:162,1,105,6|0,0:0|0:0,0:0:0:0:
145,230,5553,1,8,0:0:0:0:
145,230,5886,2,0,L|192:225,2,35,8|8|8,3:0|3:0|3:0,3:0:0:0:
85,292,6219,2,0,L|38:287,2,35,8|8|8,3:0|3:0|3:0,3:0:0:0:
193,364,6553,5,6,0:0:0:0:
193,364,6886,1,8,3:0:0:0:
246,268,7053,1,8,3:0:0:0:
171,289,7219,1,8,3:0:0:0:
267,342,7386,1,8,3:0:0:0:
189,213,7553,1,8,3:0:0:0:
118,346,7719,1,8,3:0:0:0:
322,287,7886,5,8,3:0:0:0:
347,281,7969,1,8,3:0:0:0:
373,283,8052,1,8,3:0:0:0:
398,292,8135,1,8,3:0:0:0:
418,307,8219,2,0,L|413:373,3,52.5,8|8|8|8,3:0|3:0|3:0|3:0,0:0:0:0:
484,251,8553,1,0,1:0:0:0:
305,154,8719,2,0,L|310:220,1,52.5,8|8,3:0|3:0,0:0:0:0:
325,368,8886,5,12,0:0:0:0:
480,170,9053,1,12,0:0:0:0:
256,192,9219,12,0,10553,0:0:0:0:
458,84,13219,6,0,P|418:97|377:93,1,78.7500030040742,2|0,3:0|0:0,0:0:0:0:
410,13,13553,1,2,3:0:0:0:
433,167,13719,1,0,0:0:0:0:
433,167,13803,1,0,0:0:0:0:
433,167,13886,1,2,3:0:0:0:
324,29,14053,1,8,0:0:0:0:
512,137,14219,6,0,P|513:195|376:231,1,188.999994232178,8|0,0:0|0:0,0:0:0:0:
339,197,14553,6,0,P|381:167|432:166,1,105,6|0,0:0|0:0,0:0:0:0:
343,303,14886,1,8,0:0:0:0:
277,158,15053,2,0,P|301:200|266:373,1,210,0|0,0:0|0:0,0:0:0:0:
142,261,15553,2,0,P|193:256|238:280,1,105,8|0,0:0|0:0,0:0:0:0:
176,339,15886,6,0,P|81:322|79:205,2,210,2|8|2,0:0|0:0|0:0,0:0:0:0:
214,187,16719,1,0,0:0:0:0:
62,149,16886,1,8,0:0:0:0:
87,152,16969,1,0,0:0:0:0:
113,148,17052,1,0,0:0:0:0:
137,137,17135,1,0,0:0:0:0:
158,121,17219,6,0,P|222:103|296:212,1,210,6|8,0:0|0:0,0:0:0:0:
244,350,17719,1,0,0:0:0:0:
244,350,17886,2,0,P|220:282|251:221,1,105,2|0,0:0|0:0,0:0:0:0:
380,225,18219,2,0,P|351:268|303:288,1,105,8|0,0:0|0:0,0:0:0:0:
141,238,18553,6,0,P|211:168|303:207,1,210,6|8,0:0|0:0,0:0:0:0:
378,329,19053,2,0,L|380:222,1,105
347,132,19386,1,8,0:0:0:0:
404,71,19553,1,6,0:0:0:0:
420,92,19637,1,8,0:0:0:0:
430,116,19720,1,8,0:0:0:0:
431,142,19803,1,8,0:0:0:0:
425,168,19886,6,0,P|334:220|297:208,1,105,6|0,0:0|0:0,0:0:0:0:
181,177,20219,1,8,0:0:0:0:
291,61,20386,2,0,B|318:119|277:162|277:162|229:218|279:285,1,210,0|0,0:0|0:0,0:0:0:0:
376,381,20886,2,0,P|375:276|346:250,1,105,8|0,0:0|0:0,0:0:0:0:
208,323,21219,6,0,P|257:339|307:326,1,105,2|0,0:0|0:0,0:0:0:0:
367,173,21553,1,8,0:0:0:0:
204,197,21719,1,0,0:0:0:0:
380,266,21886,1,2,0:0:0:0:
278,137,22053,1,8,0:0:0:0:
307,326,22219,1,8,0:0:0:0:
456,208,22386,1,2,0:0:0:0:
218,291,22553,6,0,P|214:356|236:391,2,105,12|2|2,0:0|0:0|0:0,0:0:0:0:
367,173,23053,2,0,P|371:108|349:73,2,105,8|2|2,0:0|0:0|0:0,0:0:0:0:
157,230,23553,1,8,0:0:0:0:
178,215,23636,1,0,0:0:0:0:
203,207,23719,1,2,0:0:0:0:
229,207,23802,1,2,0:0:0:0:
254,214,23886,5,2,0:0:0:0:
114,305,24053,2,0,P|73:241|82:198,1,105,8|2,0:0|0:0,0:0:0:0:
194,21,24386,2,0,P|197:96|168:129,1,105,8|2,0:0|0:0,0:0:0:0:
6,197,24719,5,8,0:0:0:0:
166,136,24886,1,2,0:0:0:0:
190,126,24969,1,2,0:0:0:0:
216,125,25052,1,2,0:0:0:0:
241,132,25135,1,2,0:0:0:0:
265,148,25219,6,0,L|255:331,2,157.500006008148,6|2|2,0:0|0:0|0:0,0:0:0:0:
265,148,26219,1,2,0:0:0:0:
283,232,26386,1,8,0:0:0:0:
195,102,26553,6,0,P|234:70|336:102,1,157.500006008148,2|2,0:0|0:0,0:0:0:0:
191,187,27053,2,0,P|143:169|120:64,1,157.500006008148,8|0,3:0|0:0,0:0:0:0:
181,23,27553,1,8,0:0:0:0:
106,149,27719,1,8,0:0:0:0:
102,155,27803,1,8,0:0:0:0:
99,162,27886,6,0,B|140:143|189:155|162:188|229:192|265:163,1,157.500006008148,2|2,0:0|0:0,0:0:0:0:
249,172,28553,1,2,0:0:0:0:
327,135,28719,1,0,0:0:0:0:
290,56,28886,1,2,0:0:0:0:
212,93,29052,1,8,0:0:0:0:
314,228,29219,6,0,P|334:183|327:142,1,78.7500030040742,2|2,0:0|0:0,0:0:0:0:
212,276,29553,6,0,P|198:228|166:201,1,89.2500017023087,8|2,0:0|0:0,0:0:0:0:
164,378,29886,6,0,P|123:350|73:353,1,99.7499973363877,8|8,0:0|0:0,0:0:0:0:
10,300,30136,5,8,0:0:0:0:
10,300,30219,2,0,P|2:251|35:182,1,118.125004506111,8|8,0:0|0:0,0:0:0:0:
137,124,30553,6,0,P|90:126|55:100,1,78.75,6|0,0:0|0:0,0:0:0:0:
56,99,30886,1,8,0:0:0:0:
169,202,31053,6,0,P|221:135|158:44,1,210,6|2,0:0|0:0,0:0:0:0:
104,242,31553,6,0,P|153:234|219:274,1,118.125004506111,8|0,0:0|0:0,0:0:0:0:
280,374,31886,6,0,P|278:327|304:292,1,78.75,6|0,0:0|0:0,0:0:0:0:
305,293,32219,1,8,0:0:0:0:
144,318,32386,6,0,P|51:309|45:181,1,210,6|0,0:0|0:0,0:0:0:0:
180,18,32886,2,0,P|195:98|170:135,1,105,8|2,0:0|0:0,0:0:0:0:
104,242,33219,5,6,0:0:0:0:
115,72,33386,1,0,0:0:0:0:
256,166,33553,1,8,0:0:0:0:
60,153,33719,1,2,0:0:0:0:
60,153,33803,1,2,0:0:0:0:
60,153,33886,1,8,0:0:0:0:
212,78,34053,1,8,0:0:0:0:
201,247,34220,1,8,3:0:0:0:
157,159,34386,1,8,3:0:0:0:
383,355,34553,6,0,L|332:368,1,52.5,8|0,0:0|0:0,0:0:0:0:
52,260,34886,6,0,L|103:247,1,52.5,8|0,0:0|0:0,0:0:0:0:
396,56,35219,6,0,L|345:43,1,52.5,8|0,0:0|0:0,0:0:0:0:
256,352,35553,6,0,P|234:288|316:318,1,157.5,8|0,3:0|0:0,0:0:0:0:
256,352,35886,6,0,B|216:368|173:359|202:333|142:326|103:349,1,157.5,6|2,0:0|0:0,0:0:0:0:
37,307,36553,1,8,0:0:0:0:
213,251,36886,5,0,0:0:0:0:
213,251,37053,2,0,P|161:230|111:228,1,105,2|8,0:0|0:0,0:0:0:0:
217,378,37719,2,0,P|214:347|222:318,2,52.5,2|8|2,0:0|0:0|0:0,0:0:0:0:
312,185,38386,6,0,P|291:237|289:287,2,105,6|2|2,0:0|0:0|0:0,0:0:0:0:
390,175,39219,1,8,0:0:0:0:
246,86,39553,5,2,0:0:0:0:
246,86,39719,2,0,P|298:107|348:109,1,105,2|8,0:0|0:0,0:0:0:0:
177,41,40386,5,2,0:0:0:0:
177,41,40469,1,2,0:0:0:0:
177,41,40553,2,0,L|184:143,1,78.7500030040742,8|2,0:0|0:0,0:0:0:0:
190,214,40886,1,8,0:0:0:0:
28,49,41053,5,6,0:0:0:0:
28,49,41386,1,2,0:0:0:0:
117,125,41553,1,8,0:0:0:0:
34,132,41719,1,2,0:0:0:0:
111,42,41886,1,8,0:0:0:0:
111,42,42219,5,2,0:0:0:0:
124,208,42386,1,2,0:0:0:0:
28,49,42553,1,8,0:0:0:0:
200,118,42719,1,2,0:0:0:0:
41,215,42886,1,8,0:0:0:0:
41,215,43219,5,2,0:0:0:0:
192,33,43386,1,2,0:0:0:0:
206,201,43553,1,8,0:0:0:0:
117,125,43719,1,2,0:0:0:0:
317,154,43886,5,8,0:0:0:0:
161,273,44053,2,0,L|171:384,1,105,2|2,0:0|0:0,0:0:0:0:
195,154,44386,5,8,0:0:0:0:
351,273,44553,2,0,L|341:384,1,105,2|2,0:0|0:0,0:0:0:0:
256,224,44886,5,8,3:0:0:0:
464,107,45053,2,0,P|482:37|405:102,1,236.25,8|0,3:0|0:0,0:0:0:0:
415,162,45886,6,0,P|428:221|415:284,1,118.125004506111,0|0,0:0|0:0,0:0:0:0:
357,318,46219,6,0,L|524:289,1,157.500006008148,12|0,3:0|0:0,0:0:0:0:
293,262,46553,6,0,P|271:319|293:377,1,125.999996154785,6|0,0:0|0:0,0:0:0:0:
352,198,46886,2,0,P|294:176|236:198,1,125.999996154785,8|0,0:0|0:0,0:0:0:0:
416,257,47219,2,0,P|437:199|415:141,1,125.999996154785,2|0,0:0|0:0,0:0:0:0:
357,321,47553,2,0,P|414:342|472:320,1,125.999996154785,8|0,0:0|0:0,0:0:0:0:
352,198,47886,6,0,L|201:187,1,125.999996154785,2|0,0:0|0:0,0:0:0:0:
134,200,48136,2,0,P|134:257|165:233,1,125.999996154785,2|0,0:0|0:0,0:0:0:0:
172,135,48386,1,2,0:0:0:0:
229,274,48553,6,0,P|175:326|122:330,1,125.999996154785,2|8,0:0|0:0,0:0:0:0:
226,188,48886,2,0,P|298:226|263:355,1,188.999994232178,8|0,0:0|0:0,0:0:0:0:
267,384,49219,5,6,0:0:0:0:
322,208,49386,1,0,0:0:0:0:
379,381,49553,1,10,0:0:0:0:
229,274,49719,1,0,0:0:0:0:
411,272,49886,1,2,0:0:0:0:
411,272,50219,1,8,0:0:0:0:
267,384,50386,1,0,0:0:0:0:
241,197,50553,6,0,P|234:133|274:77,1,125.999996154785,6|2,0:0|0:0,0:0:0:0:
386,200,50886,1,8,0:0:0:0:
229,274,51053,1,2,0:0:0:0:
229,274,51136,1,2,0:0:0:0:
229,274,51219,1,2,0:0:0:0:
317,152,51386,1,2,0:0:0:0:
276,346,51553,6,0,P|173:338|162:224,1,188.999994232178,8|0,0:0|0:0,0:0:0:0:
201,177,51886,6,0,B|149:199|104:184|114:151|69:125|-1:154,1,210,6|8,0:0|0:0,0:0:0:0:
48,227,52386,1,0,0:0:0:0:
163,101,52553,6,0,P|238:101|242:253,1,231.000007049561,2|8,0:0|0:0,0:0:0:0:
182,257,53053,1,0,0:0:0:0:
363,303,53219,6,0,B|300:275|231:300|253:335|188:375|112:313,1,251.999992309571,6|8,0:0|0:0,0:0:0:0:
182,257,53719,1,0,0:0:0:0:
317,373,53886,6,0,P|418:367|391:224,1,272.999987503052,2|8,0:0|0:0,0:0:0:0:
363,303,54386,1,0,0:0:0:0:
512,142,54553,6,0,P|440:123|396:157,1,125.999996154785,8|2,0:0|0:0,0:0:0:0:
274,298,54886,2,0,P|326:245|319:190,1,125.999996154785,8|2,0:0|0:0,0:0:0:0:
257,13,55219,2,0,P|276:84|327:105,1,125.999996154785,8|2,0:0|0:0,0:0:0:0:
319,105,55469,1,2,0:0:0:0:
319,104,55553,1,8,0:0:0:0:
94,57,55719,5,6,0:0:0:0:
212,366,56053,5,6,0:0:0:0:
421,110,56386,5,6,0:0:0:0:
146,216,56719,5,8,0:0:0:0:
260,76,56886,1,8,0:0:0:0:
323,244,57053,1,8,0:3:0:0:
107,293,57219,6,0,P|66:246|67:184,1,125.999996154785,6|0,0:0|0:0,0:0:0:0:
183,332,57552,2,0,P|136:372|73:371,1,125.999996154785,12|0,0:0|0:0,0:0:0:0:
223,255,57886,2,0,P|262:302|261:364,1,125.999996154785,2|0,0:0|0:0,0:0:0:0:
146,216,58219,1,8,0:0:0:0:
323,244,58386,2,0,P|314:276|272:306,1,62.9999980773926,2|2,0:0|0:0,0:0:0:0:
107,293,58553,6,0,L|111:147,1,125.999996154785,8|0,0:0|0:0,0:0:0:0:
135,55,58803,2,0,P|144:116|110:167,1,125.999996154785,8|0,0:0|0:0,0:0:0:0:
0,90,59053,2,0,L|62:96,1,62.9999980773926,8|0,0:0|0:0,0:0:0:0:
204,181,59219,6,0,P|252:142|313:147,1,125.999996154785,8|2,0:0|0:0,0:0:0:0:
375,200,59469,1,2,0:0:0:0:
375,200,59553,2,0,P|383:260|349:311,1,125.999996154785,8|0,0:0|0:0,0:0:0:0:
266,350,59803,1,8,0:0:0:0:
266,350,59886,5,6,0:0:0:0:
375,200,60053,1,0,0:0:0:0:
372,383,60220,1,8,0:0:0:0:
266,232,60386,1,0,0:0:0:0:
438,290,60553,1,2,0:0:0:0:
438,290,60886,1,8,0:0:0:0:
266,232,61053,1,0,0:0:0:0:
409,102,61219,5,2,0:0:0:0:
351,274,61386,1,8,3:0:0:0:
294,159,61553,1,8,0:0:0:0:
466,217,61720,1,2,0:0:0:0:
324,360,61886,5,8,0:0:0:0:
382,188,62052,1,2,0:0:0:0:
501,324,62219,1,8,0:0:0:0:
382,188,62386,1,8,3:0:0:0:
382,188,62469,1,8,3:0:0:0:
382,188,62553,6,0,P|316:247|428:273,1,251.999992309571,6|8,0:0|0:0,0:0:0:0:
349,118,63053,1,2,0:0:0:0:
245,262,63219,2,0,P|276:337|321:368,1,125.999996154785,0|2,0:0|0:0,0:0:0:0:
501,324,63553,1,8,0:0:0:0:
130,188,63886,6,0,P|196:247|84:273,1,251.999992309571,6|8,0:0|0:0,0:0:0:0:
163,118,64386,1,2,0:0:0:0:
267,262,64552,2,0,P|236:337|191:368,1,125.999996154785,0|0,0:0|0:0,0:0:0:0:
11,324,64886,2,0,P|91:313|140:336,1,125.999996154785,8|2,0:0|0:0,0:0:0:0:
331,315,65219,6,0,P|350:243|316:199,1,125.999996154785,8|2,0:0|0:0,0:0:0:0:
175,77,65552,2,0,P|228:129|283:122,1,125.999996154785,8|2,0:0|0:0,0:0:0:0:
460,60,65886,2,0,P|389:79|368:130,1,125.999996154785,8|0,0:0|0:0,0:0:0:0:
368,122,66135,1,0,0:0:0:0:
369,122,66219,1,8,0:0:0:0:
499,296,66386,6,0,B|436:268|367:293|389:328|324:368|248:306,1,251.999992309571,2|8,0:0|0:0,0:0:0:0:
263,317,66803,1,8,0:0:0:0:
263,317,66886,1,8,0:0:0:0:
318,250,67053,1,8,0:0:0:0:
198,375,67219,6,0,P|179:305|241:237,1,157.5,8|0,0:0|0:0,0:0:0:0:
277,181,67553,6,0,P|235:201|143:162,1,136.499993751526,6|0,0:0|0:0,0:0:0:0:
54,27,67886,6,0,L|71:178,1,125.999996154785,4|8,3:0|0:0,0:0:0:0:
68,152,68136,1,8,0:0:0:0:
68,152,68219,1,8,0:0:0:0:
218,117,68386,1,2,0:0:0:0:
137,310,68553,6,0,L|155:147,1,136.499993751526,6|8,0:0|0:0,0:0:0:0:
152,175,68803,1,8,0:0:0:0:
152,175,68886,1,8,0:0:0:0:
301,210,69053,1,2,0:0:0:0:
256,51,69219,6,0,L|246:114,3,52.5,8|8|8|8,3:0|3:0|3:0|3:0,0:0:0:0:
339,62,69553,2,0,L|329:-1,3,52.5,8|8|8|8,3:0|3:0|3:0|3:0,0:0:0:0:
321,140,69886,1,8,3:0:0:0:
346,133,69969,1,8,3:0:0:0:
372,130,70052,1,8,3:0:0:0:
398,130,70135,1,8,3:0:0:0:
424,134,70219,1,4,0:0:0:0:
88,250,70553,5,8,0:0:0:0:
88,250,70886,1,8,3:0:0:0:
177,331,71053,1,8,3:0:0:0:
174,244,71219,1,8,3:0:0:0:
90,335,71386,1,8,3:0:0:0:
250,285,71553,1,8,3:0:0:0:
127,172,71719,1,8,3:0:0:0:
253,371,71886,5,8,3:0:0:0:
278,365,71969,1,8,3:0:0:0:
301,352,72052,1,8,3:0:0:0:
318,332,72135,1,8,3:0:0:0:
330,309,72219,1,8,3:0:0:0:
334,283,72302,1,8,3:0:0:0:
329,257,72385,1,8,3:0:0:0:
318,234,72469,1,8,3:0:0:0:
300,215,72552,5,8,3:0:0:0:
121,262,72886,6,0,P|99:162|161:201,1,236.250009012223,2|0,0:0|0:0,0:0:0:0:
203,271,73219,6,0,P|155:340|116:346,1,105,6|0,0:0|0:0,0:0:0:0:
10,249,73553,1,8,0:0:0:0:
159,197,73719,2,0,B|217:170|260:211|260:211|316:259|383:209,1,210,0|0,0:0|0:0,0:0:0:0:
480,110,74219,2,0,P|375:111|349:140,1,105,8|0,0:0|0:0,0:0:0:0:
422,278,74552,6,0,P|438:229|425:179,1,105,2|0,0:0|0:0,0:0:0:0:
272,119,74886,1,8,0:0:0:0:
296,282,75052,1,0,0:0:0:0:
365,106,75219,1,2,0:0:0:0:
236,208,75386,1,0,0:0:0:0:
425,179,75552,1,8,0:0:0:0:
307,30,75719,1,0,0:0:0:0:
330,195,75886,6,0,P|298:278|170:274,1,210,2|8,0:0|0:0,0:0:0:0:
272,119,76386,2,0,P|359:105|420:218,1,210,0|0,0:0|0:0,0:0:0:0:
236,208,76886,2,0,P|181:149|181:102,1,105,8|0,0:0|0:0,0:0:0:0:
307,30,77219,5,2,0:0:0:0:
307,30,77386,2,0,L|312:144,1,105,0|8,0:0|0:0,0:0:0:0:
231,312,77719,2,0,L|235:207,1,105,0|2,0:0|0:0,0:0:0:0:
384,77,78053,5,8,0:0:0:0:
248,196,78219,1,8,0:0:0:0:
221,196,78302,1,2,0:0:0:0:
196,189,78385,1,8,0:0:0:0:
174,175,78468,1,8,0:0:0:0:
157,155,78553,6,0,P|78:136|37:160,1,105,6|0,0:0|0:0,0:0:0:0:
168,262,78886,1,8,0:0:0:0:
231,111,79053,2,0,B|289:84|332:125|332:125|388:173|455:123,1,210,0|0,0:0|0:0,0:0:0:0:
273,185,79553,2,0,P|274:290|303:316,1,105,8|0,0:0|0:0,0:0:0:0:
441,243,79886,6,0,P|392:227|342:240,1,105,2|0,0:0|0:0,0:0:0:0:
196,342,80220,1,8,0:0:0:0:
359,318,80386,1,0,0:0:0:0:
183,249,80553,1,2,0:0:0:0:
285,378,80720,1,0,0:0:0:0:
256,189,80886,1,8,0:0:0:0:
107,307,81053,1,0,0:0:0:0:
154,97,81219,5,2,0:0:0:0:
42,224,81386,1,2,0:0:0:0:
34,84,81553,1,8,0:0:0:0:
179,173,81720,1,2,0:0:0:0:
358,97,81886,5,8,0:0:0:0:
470,224,82053,1,2,0:0:0:0:
478,84,82220,1,8,0:0:0:0:
333,173,82387,1,2,0:0:0:0:
151,27,82553,6,0,P|133:89|147:147,1,118.125004506111,6|0,0:0|0:0,0:0:0:0:
212,181,82886,6,0,B|157:171|140:180|143:196|101:221|45:187,1,149.624996004582,6|0,0:0|0:0,0:0:0:0:
25,124,83219,6,0,P|-16:187|49:281,1,165.374994953156,6|0,0:0|0:0,0:0:0:0:
49,348,83553,6,0,P|106:306|233:329,1,196.875,6|0,0:0|0:0,0:0:0:0:
302,283,83886,6,0,B|342:242|343:172|293:104|293:104|282:148|248:177|190:160|190:160|180:204|189:252|235:264|261:220|309:296|288:362|261:390|224:396|201:348|203:325|212:309|242:328,1,630.000024032594,6|0,0:0|0:0,0:0:0:0:
388,358,84720,1,2,0:0:0:0:
388,358,84803,1,2,0:0:0:0:
388,358,84886,1,12,0:0:0:0:
498,161,85053,6,0,P|409:154|349:222,1,168,12|0,0:0|0:0,0:0:0:0:
