osu file format v14

[General]
AudioFilename: audio.mp3
AudioLeadIn: 0
PreviewTime: 45719
Countdown: 0
SampleSet: Soft
StackLeniency: 0.4
Mode: 0
LetterboxInBreaks: 0
WidescreenStoryboard: 1

[Editor]
DistanceSpacing: 1
BeatDivisor: 4
GridSize: 32
TimelineZoom: 1.6

[Metadata]
Title:Souzetsu Gekkou
TitleUnicode:壮絶激昂
Artist:Saratoga (CV: Uesaka Sumire)
ArtistUnicode:萨拉托加(CV:上坂堇)
Creator:- Matha -
Version:Normal
Source:碧蓝航线
Tags:azur lane アズールレーン 激昂壮志 上坂すみれ sahuang Firis Mistlud kurantemelodii krt Agatsu matha my angel azusa
BeatmapID:1640237
BeatmapSetID:776159

[Difficulty]
HPDrainRate:4
CircleSize:3
OverallDifficulty:4
ApproachRate:5
SliderMultiplier:1.1
SliderTickRate:1

[Events]
//Background and Video events
Video,0,"Video.mp4"
0,0,"Normal.jpg",0,0
//Break Periods
2,10753,12019
//Storyboard Layer 0 (Background)
//Storyboard Layer 1 (Fail)
//Storyboard Layer 2 (Pass)
//Storyboard Layer 3 (Foreground)
//Storyboard Sound Samples

[TimingPoints]
1220,333.333333333333,4,2,1,50,1,0
46553,-100,4,2,1,70,0,1
55719,-100,4,2,1,70,0,0
57219,-100,4,2,1,70,0,1
73219,-100,4,2,1,60,0,0

[Colours]
Combo1 : 184,85,3
Combo2 : 62,255,62
Combo3 : 186,122,250
Combo4 : 247,98,120

[HitObjects]
57,129,1220,6,0,B|113:106|162:142|162:142|216:182|275:137,1,220,12|0,0:0|0:0,0:0:0:0:
411,217,2386,2,0,P|455:138|343:13,1,275,4|8,0:0|0:0,0:0:0:0:
351,123,3553,1,2,0:0:0:0:
304,222,3886,6,0,B|276:273|276:273|146:265,1,165,6|8,0:0|3:0,0:0:0:0:
60,284,4719,2,0,P|60:254|71:219,1,55,4|4,3:0|3:0,0:0:0:0:
103,188,5053,2,0,B|102:139|131:106|131:106|108:76|105:32,1,165,6|8,0:0|0:0,0:0:0:0:
214,41,5886,1,8,3:0:0:0:
309,95,6219,1,8,3:0:0:0:
411,55,6553,6,0,P|423:191|341:272,1,220,6|8,0:0|3:0,0:0:0:0:
270,215,7553,1,8,3:0:0:0:
170,168,7886,2,0,B|156:245|156:245|182:290|182:290|168:384,1,220,8|8,3:0|3:0,0:0:0:0:
59,366,8886,2,0,L|70:298,1,55,12|12,0:0|0:0,0:0:0:0:
256,192,9219,12,0,10553,0:0:0:0:
460,142,13219,6,0,P|475:196|459:261,2,110,2|2|2,3:0|3:0|3:0,0:0:0:0:
425,98,14053,1,2,3:0:0:0:
425,98,14219,1,8,0:0:0:0:
320,134,14553,6,0,P|264:125|208:144,1,110,6|8,0:0|0:0,0:0:0:0:
168,171,15053,1,0,0:0:0:0:
168,171,15219,2,0,L|177:286,1,110,2|8,0:0|0:0,0:0:0:0:
254,358,15886,1,2,0:0:0:0:
363,358,16219,1,8,0:0:0:0:
428,269,16553,2,0,P|425:199|459:155,1,110,2|8,0:0|0:0,0:0:0:0:
478,122,17053,1,0,0:0:0:0:
478,122,17219,6,0,B|427:99|371:134|371:134|320:162|264:119,1,220,6|2,0:0|0:0,0:0:0:0:
204,41,18219,1,8,0:0:0:0:
112,102,18553,2,0,L|115:221,1,110,6|8,0:0|0:0,0:0:0:0:
127,265,19053,1,0,0:0:0:0:
127,265,19219,2,0,B|186:251,2,55,2|8|12,0:0|0:0|0:0,0:0:0:0:
208,339,19886,6,0,L|330:310,1,110,6|8,0:0|0:0,0:0:0:0:
372,219,20553,2,0,P|360:176|389:104,1,110,2|8,0:0|0:0,0:0:0:0:
291,48,21219,1,2,0:0:0:0:
182,69,21553,1,8,0:0:0:0:
76,98,21886,2,0,L|63:31,2,55,2|8|8,0:0|0:0|0:0,0:0:0:0:
53,207,22553,6,0,B|106:228|106:228|159:209,1,110,12|2,0:0|0:0,0:0:0:0:
197,174,23053,2,0,L|256:184,1,55,8|2,0:0|0:0,0:0:0:0:
291,221,23386,1,2,0:0:0:0:
291,221,23553,1,8,0:0:0:0:
395,186,23886,2,0,L|400:73,1,110,2|2,0:0|0:0,0:0:0:0:
310,12,24553,2,0,P|255:6|197:24,1,110,2|2,0:0|0:0,0:0:0:0:
115,87,25219,6,0,L|115:222,1,110,6|2,0:0|0:0,0:0:0:0:
106,306,25886,1,2,0:0:0:0:
208,346,26219,1,2,0:0:0:0:
260,329,26386,1,8,0:0:0:0:
260,329,26553,2,0,P|274:277|254:204,2,110,2|2|2,0:0|0:0|0:0,0:0:0:0:
361,364,27553,1,8,0:0:0:0:
448,297,27886,2,0,L|455:178,1,110,2|2,0:0|0:0,0:0:0:0:
421,82,28553,2,0,P|367:66|283:78,1,110,2|2,0:0|0:0,0:0:0:0:
221,128,29219,5,2,0:0:0:0:
125,64,29553,1,8,0:0:0:0:
61,160,29886,1,8,0:0:0:0:
157,224,30219,1,8,0:0:0:0:
157,334,30553,6,0,B|204:329|204:329|238:311|238:311|328:304,1,165,6|6,0:0|0:0,0:0:0:0:
474,353,31553,2,0,L|481:279,1,55,8|0,0:0|0:0,0:0:0:0:
481,243,31886,2,0,P|457:177|353:126,1,165,6|6,0:0|0:0,0:0:0:0:
243,222,32886,1,8,0:0:0:0:
152,160,33219,6,0,L|166:26,1,110,6|8,0:0|0:0,0:0:0:0:
267,13,33886,2,0,P|324:3|389:23,1,110,8|8,0:0|3:0,0:0:0:0:
407,120,34553,2,0,B|461:137|461:137|516:122,2,110,8|8|8,0:0|0:0|0:0,0:0:0:0:
316,183,35553,1,8,3:0:0:0:
230,252,35886,6,0,P|148:197|149:45,1,220,6|8,0:0|0:0,0:0:0:0:
216,13,36886,1,0,0:0:0:0:
216,13,37053,2,0,L|339:1,2,110,2|8|2,0:0|0:0|0:0,0:0:0:0:
246,118,38053,1,2,0:0:0:0:
318,200,38386,6,0,B|249:242|182:201|182:201|115:159|31:206,1,275,6|8,0:0|0:0,0:0:0:0:
37,302,39553,2,0,L|50:361,1,55,2|2,0:0|0:0,0:0:0:0:
102,367,39886,2,0,L|247:358,1,110
293,286,40553,1,8,0:0:0:0:
390,336,40886,1,8,0:0:0:0:
390,336,41053,6,0,P|456:308|490:196,1,165,6|8,0:0|0:0,0:0:0:0:
443,128,41886,2,0,L|306:121,1,110,8|2,0:0|0:0,0:0:0:0:
243,58,42553,1,8,0:0:0:0:
144,107,42886,1,8,0:0:0:0:
51,166,43219,2,0,P|66:220|47:291,1,110,2|8,0:0|0:0,0:0:0:0:
256,192,43886,12,8,45053,3:0:0:0:
77,115,46219,5,12,3:0:0:0:
146,200,46553,6,0,P|218:209|274:178,1,110,6|8,0:0|0:0,0:0:0:0:
319,109,47219,2,0,P|371:93|424:104,1,110,2|8,0:0|0:0,0:0:0:0:
467,205,47886,1,2,0:0:0:0:
450,313,48219,1,8,0:0:0:0:
339,319,48553,2,0,L|322:251,1,55,2|8,0:0|0:0,0:0:0:0:
311,212,48886,1,12,0:0:0:0:
202,235,49219,6,0,P|146:240|85:217,1,110,6|10,0:0|0:0,0:0:0:0:
32,133,49886,2,0,L|37:24,1,110,2|8,0:0|0:0,0:0:0:0:
146,10,50553,2,0,L|144:76,1,55,6|2,0:0|0:0,0:0:0:0:
174,110,50886,1,8,0:0:0:0:
174,110,51053,2,0,L|170:179,1,55,2|2,0:0|0:0,0:0:0:0:
112,258,51553,1,8,0:0:0:0:
206,314,51886,6,0,L|322:300,1,110,6|8,0:0|0:0,0:0:0:0:
368,287,52386,1,0,0:0:0:0:
368,287,52553,2,0,P|369:216|332:166,1,110,2|8,0:0|0:0,0:0:0:0:
256,128,53219,2,0,P|203:141|151:126,1,110,6|8,0:0|0:0,0:0:0:0:
98,110,53719,1,0,0:0:0:0:
98,110,53886,2,0,L|85:247,1,110,2|8,0:0|0:0,0:0:0:0:
124,323,54553,5,8,0:0:0:0:
227,358,54886,2,0,B|283:341|283:341|344:360,1,110,8|8,0:0|0:0,0:0:0:0:
436,321,55553,1,8,0:0:0:0:
436,321,55719,5,6,0:0:0:0:
442,210,56053,1,6,0:0:0:0:
451,100,56386,1,6,0:0:0:0:
289,134,56886,1,8,0:0:0:0:
217,50,57219,6,0,P|158:41|87:69,1,110,2|12,0:0|0:0,0:0:0:0:
48,147,57886,2,0,L|52:266,1,110,2|8,0:0|0:0,0:0:0:0:
151,304,58553,2,0,B|137:347|137:347|91:367,2,82.5,8|8|8,0:0|0:0|0:0,0:0:0:0:
166,251,59219,2,0,P|223:225|290:231,1,110,8|8,0:0|0:0,0:0:0:0:
342,307,59886,5,6,0:0:0:0:
448,278,60219,1,8,0:0:0:0:
491,176,60553,2,0,P|469:118|416:87,1,110,2|8,0:0|0:0,0:0:0:0:
376,98,61053,1,0,0:0:0:0:
376,98,61219,1,8,0:0:0:0:
311,3,61553,1,8,0:0:0:0:
221,63,61886,1,8,0:0:0:0:
281,153,62219,1,8,0:0:0:0:
179,196,62553,6,0,L|185:330,1,110,6|8,0:0|0:0,0:0:0:0:
197,359,63053,1,0,0:0:0:0:
197,359,63219,2,0,P|236:346|310:358,1,110,0|8,0:0|0:0,0:0:0:0:
408,320,63886,2,0,L|407:200,1,110,6|8,0:0|0:0,0:0:0:0:
360,110,64553,2,0,P|298:100|243:117,1,110,0|8,0:0|0:0,0:0:0:0:
212,214,65219,6,0,B|158:199|158:199|68:224,1,110,8|8,0:0|0:0,0:0:0:0:
42,123,65886,2,0,L|55:52,1,55,8|2,0:0|0:0,0:0:0:0:
65,15,66219,1,8,0:0:0:0:
65,15,66386,2,0,L|182:15,2,110,2|8|8,0:0|0:0|0:0,0:0:0:0:
136,164,67553,1,4,0:0:0:0:
198,254,67886,6,0,P|260:250|302:203,1,110,4|8,3:0|0:0,0:0:0:0:
381,152,68553,2,0,L|381:42,1,110,6|8,0:0|0:0,0:0:0:0:
275,11,69219,2,0,B|221:-2|221:-2|150:26,1,110,8|8,3:0|3:0,0:0:0:0:
104,106,69886,2,0,B|53:125|53:125|-1:112,1,110,8|4,3:0|0:0,0:0:0:0:
10,226,70553,6,0,L|24:352,1,110,8|8,0:0|3:0,0:0:0:0:
123,293,71219,1,8,3:0:0:0:
215,233,71553,1,8,3:0:0:0:
303,178,71886,1,8,3:0:0:0:
357,266,72219,1,8,3:0:0:0:
270,321,72553,1,8,3:0:0:0:
194,114,73219,6,0,L|74:105,1,110,6|8,0:0|0:0,0:0:0:0:
22,197,73886,2,0,P|7:249|23:301,1,110,2|8,0:0|0:0,0:0:0:0:
123,347,74553,1,2,0:0:0:0:
232,348,74886,1,8,0:0:0:0:
326,292,75219,2,0,P|347:230|329:177,1,110,2|8,0:0|0:0,0:0:0:0:
353,79,75886,6,0,B|289:74|289:74|247:101|247:101|101:86,1,220,2|2,0:0|0:0,0:0:0:0:
38,128,76886,1,8,0:0:0:0:
83,227,77219,2,0,P|93:283|69:357,1,110,2|8,0:0|0:0,0:0:0:0:
191,341,77886,2,0,P|206:368|229:388,2,55,2|8|8,0:0|0:0|0:0,0:0:0:0:
254,251,78553,6,0,L|256:122,1,110,6|8,0:0|0:0,0:0:0:0:
208,41,79219,2,0,P|158:17|88:27,1,110,2|8,0:0|0:0,0:0:0:0:
48,112,79886,1,2,0:0:0:0:
125,190,80219,1,8,0:0:0:0:
53,273,80553,2,0,P|32:334|50:395,1,110,2|8,0:0|0:0,0:0:0:0:
145,350,81219,6,0,L|258:344,1,110,2|8,0:0|0:0,0:0:0:0:
361,317,81886,2,0,L|369:207,1,110,8|8,0:0|0:0,0:0:0:0:
412,105,82553,1,6,0:0:0:0:
337,24,82886,1,6,0:0:0:0:
242,79,83219,1,6,0:0:0:0:
160,4,83553,1,6,0:0:0:0:
79,78,83886,6,0,B|94:178|94:178|119:206|119:206|89:341,1,275,6|2,0:0|0:0,0:0:0:0:
123,382,84886,2,0,P|152:383|188:368,1,55,12|4,0:0|0:0,0:0:0:0:
