osu file format v14

[General]
AudioFilename: audio.mp3
AudioLeadIn: 0
PreviewTime: 45719
Countdown: 0
SampleSet: Soft
StackLeniency: 0.4
Mode: 0
LetterboxInBreaks: 0
WidescreenStoryboard: 1

[Editor]
DistanceSpacing: 0.1
BeatDivisor: 4
GridSize: 32
TimelineZoom: 1

[Metadata]
Title:Souzetsu Gekkou
TitleUnicode:壮絶激昂
Artist:Saratoga (CV: Uesaka Sumire)
ArtistUnicode:萨拉托加(CV:上坂堇)
Creator:- Matha -
Version:Limit Break
Source:碧蓝航线
Tags:azur lane アズールレーン 激昂壮志 上坂すみれ sahuang Firis Mistlud kurantemelodii krt Agatsu matha my angel azusa
BeatmapID:1630844
BeatmapSetID:776159

[Difficulty]
HPDrainRate:6
CircleSize:4
OverallDifficulty:9
ApproachRate:9.4
SliderMultiplier:2.4
SliderTickRate:1

[Events]
//Background and Video events
0,0,"Extra2.jpg",0,0
Video,0,"Video.mp4"
//Break Periods
//Storyboard Layer 0 (Background)
//Storyboard Layer 1 (Fail)
//Storyboard Layer 2 (Pass)
//Storyboard Layer 3 (Foreground)
//Storyboard Sound Samples

[TimingPoints]
1220,333.333333333333,4,2,1,50,1,0
1220,-166.666666666667,4,2,1,50,0,0
9553,-166.666666666667,4,2,1,20,0,0
12386,-166.666666666667,4,2,1,20,0,0
12886,-166.666666666667,4,2,1,30,0,0
13219,-100,4,2,1,50,0,0
14219,-166.666666666667,4,2,1,50,0,0
14553,-125,4,2,1,50,0,0
15803,-125,4,2,1,5,0,0
15886,-125,4,2,1,50,0,0
17469,-125,4,2,1,5,0,0
17553,-166.666666666667,4,2,1,50,0,0
17886,-125,4,2,1,50,0,0
18136,-125,4,2,1,5,0,0
18219,-166.666666666667,4,2,1,50,0,0
18553,-125,4,2,1,50,0,0
18803,-125,4,2,1,5,0,0
18886,-125,4,2,1,50,0,0
21136,-125,4,2,1,5,0,0
21219,-125,4,2,1,50,0,0
25219,-166.666666666667,4,2,1,30,0,0
25469,-166.666666666667,4,2,1,5,0,0
25553,-166.666666666667,4,2,1,30,0,0
29219,-125,4,2,1,40,0,0
30553,-142.857142857143,4,2,1,40,0,0
31886,-100,4,2,1,40,0,0
32386,-125,4,2,1,40,0,0
34636,-125,4,2,1,5,0,0
34886,-125,4,2,1,40,0,0
34969,-125,4,2,1,5,0,0
35219,-125,4,2,1,40,0,0
35303,-125,4,2,1,5,0,0
35553,-125,4,2,1,40,0,0
35636,-125,4,2,1,5,0,0
35719,-125,4,2,1,40,0,0
35886,-166.666666666667,4,2,1,40,0,0
41053,-125,4,2,1,50,0,0
43886,-125,4,2,1,60,0,0
46219,-76.9230769230769,4,2,1,60,0,0
46553,-100,4,2,1,70,0,1
46803,-100,4,2,1,5,0,1
46886,-100,4,2,1,70,0,1
47136,-100,4,2,1,5,0,1
47219,-100,4,2,1,70,0,1
47469,-100,4,2,1,5,0,1
47553,-100,4,2,1,70,0,1
49469,-100,4,2,1,5,0,1
49553,-100,4,2,1,70,0,1
50469,-100,4,2,1,5,0,1
50553,-100,4,2,1,70,0,1
51553,-166.666666666667,4,2,1,70,0,1
51803,-166.666666666667,4,2,1,5,0,1
51886,-100,4,2,1,70,0,1
52136,-100,4,2,1,5,0,1
52219,-83.3333333333333,4,2,1,70,0,1
52469,-83.3333333333333,4,2,1,5,0,1
52553,-100,4,2,1,70,0,1
52803,-100,4,2,1,5,0,1
52886,-83.3333333333333,4,2,1,70,0,1
53136,-83.3333333333333,4,2,1,5,0,1
53219,-100,4,2,1,70,0,1
53469,-100,4,2,1,5,0,1
53553,-83.3333333333333,4,2,1,70,0,1
53803,-83.3333333333333,4,2,1,5,0,1
53886,-100,4,2,1,70,0,1
54136,-100,4,2,1,5,0,1
54219,-83.3333333333333,4,2,1,70,0,1
54469,-83.3333333333333,4,2,1,5,0,1
54553,-83.3333333333333,4,2,1,70,0,1
55719,-83.3333333333333,4,2,1,60,0,0
55803,-83.3333333333333,4,2,1,5,0,0
56053,-83.3333333333333,4,2,1,60,0,0
56136,-83.3333333333333,4,2,1,5,0,0
56386,-83.3333333333333,4,2,1,60,0,0
56469,-83.3333333333333,4,2,1,5,0,0
56553,-83.3333333333333,4,2,1,60,0,0
57219,-100,4,2,1,70,0,1
57469,-100,4,2,1,5,0,1
57553,-100,4,2,1,70,0,1
57803,-100,4,2,1,5,0,1
57886,-100,4,2,1,70,0,1
58136,-100,4,2,1,5,0,1
58219,-100,4,2,1,70,0,1
60136,-100,4,2,1,5,0,1
60219,-100,4,2,1,70,0,1
60803,-100,4,2,1,5,0,1
60886,-100,4,2,1,70,0,1
61136,-100,4,2,1,5,0,1
61219,-100,4,2,1,70,0,1
62803,-100,4,2,1,5,0,1
62886,-100,4,2,1,70,0,1
67553,-166.666666666667,4,2,1,70,0,1
67803,-166.666666666667,4,2,1,5,0,1
67886,-100,4,2,1,70,0,1
72886,-83.3333333333333,4,2,1,70,0,1
73136,-83.3333333333333,4,2,1,5,0,1
73219,-125,4,2,1,60,0,0
74469,-125,4,2,1,5,0,0
74553,-125,4,2,1,50,0,0
76219,-166.666666666667,4,2,1,50,0,0
77219,-125,4,2,1,50,0,0
82803,-125,4,2,1,5,0,0
82886,-100,4,2,1,50,0,0
83136,-100,4,2,1,5,0,0
83219,-83.3333333333333,4,2,1,50,0,0
83469,-83.3333333333333,4,2,1,5,0,0
83553,-71.4285714285714,4,2,1,50,0,0
83803,-71.4285714285714,4,2,1,5,0,0
83886,-166.666666666667,4,2,1,50,0,0
84636,-166.666666666667,4,2,1,5,0,0
84719,-166.666666666667,4,2,1,50,0,0

[Colours]
Combo1 : 184,85,3
Combo2 : 62,255,62
Combo3 : 186,122,250
Combo4 : 247,98,120

[HitObjects]
84,260,1220,6,0,P|164:322|103:177,1,431.999986816407,6|0,0:0|0:0,0:0:0:0:
121,161,2386,6,0,B|174:192|223:162|223:162|279:129|341:173,1,215.999993408203,6|0,0:0|0:0,0:0:0:0:
262,303,3219,2,0,P|257:260|273:222,1,71.9999978027344,8|0,0:0|0:0,0:0:0:0:
276,231,3469,1,2,0:0:0:0:
286,232,3553,1,0,0:0:0:0:
333,363,3719,1,8,0:0:0:0:
123,307,3886,6,0,B|176:313|176:313|210:296|210:296|284:307,1,143.999995605469,6|0,0:0|0:0,0:0:0:0:
375,278,4386,1,8,3:0:0:0:
151,229,4719,1,4,3:0:0:0:
384,280,4886,1,4,3:0:0:0:
123,307,5053,6,0,B|117:164|117:164|150:228,1,215.999993408203,6|8,0:0|0:0,0:0:0:0:
452,38,5886,5,8,3:0:0:0:
453,51,5997,1,8,3:0:0:0:
450,65,6108,1,8,3:0:0:0:
383,114,6219,5,8,3:0:0:0:
376,126,6331,1,8,3:0:0:0:
374,141,6442,1,8,3:0:0:0:
440,199,6553,6,0,P|455:242|441:296,1,71.9999978027344,6|0,0:0|0:0,0:0:0:0:
187,261,6886,5,8,3:0:0:0:
299,204,7053,1,8,3:0:0:0:
173,150,7219,5,8,3:0:0:0:
370,247,7386,1,8,3:0:0:0:
79,308,7553,5,8,3:0:0:0:
440,199,7719,1,8,3:0:0:0:
206,32,7886,5,8,3:0:0:0:
163,31,7969,1,8,3:0:0:0:
122,45,8052,1,8,3:0:0:0:
89,73,8135,1,8,3:0:0:0:
69,111,8219,1,8,3:0:0:0:
63,153,8302,1,8,3:0:0:0:
72,195,8386,1,8,3:0:0:0:
96,231,8469,1,8,3:0:0:0:
131,256,8552,5,8,3:0:0:0:
311,108,8719,1,2,0:0:0:0:
320,104,8803,1,2,0:0:0:0:
330,100,8886,5,12,0:0:0:0:
264,373,9053,1,12,0:0:0:0:
256,192,9219,12,0,11553,0:0:0:0:
103,72,11886,5,0,0:0:0:0:
82,78,12053,1,0,0:0:0:0:
61,84,12219,1,0,0:0:0:0:
158,142,12386,5,0,0:3:0:0:
142,164,12553,1,0,0:3:0:0:
128,185,12719,1,0,0:3:0:0:
249,159,12886,5,0,0:3:0:0:
251,190,13053,1,0,0:3:0:0:
253,221,13219,6,0,B|260:337|260:337|314:272,1,180,2|0,3:0|0:0,0:0:0:0:
312,273,13553,1,2,3:0:0:0:
184,345,13719,1,0,0:0:0:0:
166,349,13803,1,0,0:0:0:0:
148,353,13886,2,0,L|145:290,1,60,2|0,3:0|0:0,0:0:0:0:
17,78,14053,2,0,L|14:137,1,60,8|0,0:0|0:0,0:0:0:0:
15,213,14219,6,0,B|45:218|69:197|69:197|88:216|130:223,1,107.999996704102,8|0,0:0|0:0,0:0:0:0:
126,224,14553,6,0,P|141:171|123:114,1,96,6|0,0:0|0:0,0:0:0:0:
17,78,14886,1,8,0:0:0:0:
232,15,15053,2,0,L|218:132,1,96,0|2,0:0|0:0,0:0:0:0:
118,43,15386,1,0,0:0:0:0:
213,218,15553,2,0,P|262:215|324:112,1,144,8|0,0:0|0:0,0:0:0:0:
320,133,15886,6,0,L|424:126,1,96,2|0,0:0|0:0,0:0:0:0:
388,277,16219,1,8,0:0:0:0:
237,131,16386,1,0,0:0:0:0:
239,116,16469,1,0,0:0:0:0:
241,101,16553,1,2,0:0:0:0:
429,125,16719,1,0,0:0:0:0:
287,308,16886,1,8,0:0:0:0:
253,304,16969,1,0,0:0:0:0:
220,301,17052,1,0,0:0:0:0:
186,298,17135,1,0,0:0:0:0:
153,295,17219,6,0,P|128:243|173:140,1,144,6|0,0:0|0:0,0:0:0:0:
159,159,17553,6,0,L|257:165,1,71.9999978027344,8|0,0:0|0:0,0:0:0:0:
372,95,17886,6,0,P|397:147|351:250,1,144,2|0,0:0|0:0,0:0:0:0:
366,231,18219,6,0,L|294:226,1,71.9999978027344,8|0,0:0|0:0,0:0:0:0:
387,225,18553,6,0,L|220:214,1,144,6|0,0:0|0:0,0:0:0:0:
228,215,18886,1,8,0:0:0:0:
386,354,19053,1,0,0:0:0:0:
323,147,19219,1,2,0:0:0:0:
307,145,19303,1,2,0:0:0:0:
292,144,19386,1,8,0:0:0:0:
182,290,19553,5,2,0:0:0:0:
150,254,19636,1,8,0:0:0:0:
142,207,19719,1,8,0:0:0:0:
159,163,19802,1,8,0:0:0:0:
197,134,19886,6,0,P|205:76|153:25,1,96,6|0,0:0|0:0,0:0:0:0:
37,121,20219,1,8,0:0:0:0:
228,215,20386,2,0,L|329:196,1,96,0|2,0:0|0:0,0:0:0:0:
87,43,20719,1,0,0:0:0:0:
236,228,20886,2,0,L|385:202,1,144,8|0,0:0|0:0,0:0:0:0:
391,200,21219,6,0,P|398:138|380:97,1,96,2|0,0:0|0:0,0:0:0:0:
181,142,21553,1,8,0:0:0:0:
298,301,21719,1,0,0:0:0:0:
296,142,21886,1,2,0:0:0:0:
293,127,21969,1,2,0:0:0:0:
291,112,22053,1,8,0:0:0:0:
141,226,22219,1,8,0:0:0:0:
177,46,22386,1,2,0:0:0:0:
241,223,22553,5,12,0:0:0:0:
62,49,22719,1,2,0:0:0:0:
16,293,22886,1,2,0:0:0:0:
270,102,23053,5,8,0:0:0:0:
30,171,23219,1,2,0:0:0:0:
219,331,23386,1,2,0:0:0:0:
129,132,23553,1,8,0:0:0:0:
132,103,23636,1,0,0:0:0:0:
136,74,23719,1,2,0:0:0:0:
140,46,23802,1,2,0:0:0:0:
143,17,23886,5,2,0:0:0:0:
296,189,24053,1,8,0:0:0:0:
129,132,24219,5,2,0:0:0:0:
381,97,24386,1,8,0:0:0:0:
111,270,24553,5,2,0:0:0:0:
307,4,24719,1,8,0:0:0:0:
39,95,24886,1,2,0:0:0:0:
43,115,24969,1,2,0:0:0:0:
31,131,25052,1,2,0:0:0:0:
36,152,25135,1,2,0:0:0:0:
29,170,25219,6,0,B|62:196|62:196|150:166,1,107.999996704102,6|0,0:0|0:0,0:0:0:0:
131,166,25553,2,0,L|116:266,1,71.9999978027344,2|0,0:0|0:0,0:0:0:0:
52,290,25886,2,0,L|67:390,1,71.9999978027344,2|0,0:0|0:0,0:0:0:0:
153,324,26219,1,2,0:0:0:0:
304,384,26386,1,8,0:0:0:0:
315,269,26553,6,0,L|321:175,1,71.9999978027344,2|0,0:0|0:0,0:0:0:0:
225,130,26886,1,2,0:0:0:0:
236,278,27053,2,0,L|240:232,1,35.9999989013672,8|0,3:0|0:0,0:0:0:0:
236,231,27219,2,0,B|200:217|200:217|146:228,1,71.9999978027344,2|0,0:0|0:0,0:0:0:0:
119,310,27553,1,8,0:0:0:0:
226,365,27719,1,8,0:0:0:0:
236,361,27803,1,8,0:0:0:0:
246,357,27886,6,0,B|286:368|286:368|346:352,2,71.9999978027344,2|0|2,0:0|0:0|0:0,0:0:0:0:
236,278,28386,1,0,0:0:0:0:
368,186,28553,1,2,0:0:0:0:
370,164,28719,1,0,0:0:0:0:
290,91,28886,1,2,0:0:0:0:
288,69,29052,1,8,0:0:0:0:
469,17,29219,6,0,L|452:151,1,96,2|2,0:0|0:0,0:0:0:0:
378,272,29553,5,8,0:0:0:0:
373,149,29719,1,2,0:0:0:0:
438,349,29886,5,8,0:0:0:0:
506,206,30053,1,8,0:0:0:0:
509,192,30136,1,8,0:0:0:0:
512,178,30219,1,8,0:0:0:0:
285,250,30386,1,8,0:0:0:0:
270,249,30469,1,8,0:0:0:0:
257,249,30553,6,0,B|226:232|226:232|130:255,1,125.999996154785,6|0,0:0|0:0,0:0:0:0:
125,256,30886,1,8,0:0:0:0:
224,55,31053,1,6,0:0:0:0:
224,55,31386,1,2,0:0:0:0:
283,113,31553,2,0,P|329:113|367:85,1,83.9999974365235,8|0,0:0|0:0,0:0:0:0:
202,138,31886,6,0,P|217:197|297:260,1,120,6|0,0:0|0:0,0:0:0:0:
273,246,32136,1,2,0:0:0:0:
290,241,32219,1,8,0:0:0:0:
137,306,32386,6,0,B|178:279|227:308|227:308|277:339|334:301,1,192,6|0,0:0|0:0,0:0:0:0:
289,161,32886,1,8,0:0:0:0:
179,369,33053,1,2,0:0:0:0:
9,212,33219,6,0,L|109:218,1,96,6|0,0:0|0:0,0:0:0:0:
175,122,33553,1,8,0:0:0:0:
137,306,33719,1,2,0:0:0:0:
135,320,33803,1,2,0:0:0:0:
133,334,33886,1,8,0:0:0:0:
63,275,34053,1,8,0:0:0:0:
220,272,34219,1,8,3:0:0:0:
9,212,34386,1,8,3:0:0:0:
182,74,34553,6,0,L|173:130,1,48,8|0,0:0|0:0,0:0:0:0:
166,50,34886,6,0,L|175:106,1,48,8|0,0:0|0:0,0:0:0:0:
189,26,35219,6,0,L|180:82,1,48,8|0,0:0|0:0,0:0:0:0:
158,2,35553,6,0,L|167:58,1,48,8|0,3:0|0:0,0:0:0:0:
168,141,35719,1,2,0:0:0:0:
170,155,35803,1,2,0:0:0:0:
172,169,35886,6,0,L|180:76,1,71.9999978027344,6|0,0:0|0:0,0:0:0:0:
178,97,36386,1,2,0:0:0:0:
261,134,36553,2,0,L|343:131,2,71.9999978027344,8|0|0,0:0|0:0|0:0,0:0:0:0:
190,199,37053,1,2,0:0:0:0:
300,287,37219,6,0,P|309:252|299:205,1,71.9999978027344,0|8,0:0|0:0,0:0:0:0:
261,134,37553,1,0,0:0:0:0:
118,192,37719,2,0,L|203:200,1,71.9999978027344,2|8,0:0|0:0,0:0:0:0:
188,58,38053,2,0,L|103:66,1,71.9999978027344,2|0,0:0|0:0,0:0:0:0:
40,156,38386,6,0,P|33:210|110:281,1,143.999995605469,6|2,0:0|0:0,0:0:0:0:
87,275,39053,1,2,0:0:0:0:
107,348,39219,2,0,L|185:342,1,71.9999978027344,8|0,0:0|0:0,0:0:0:0:
267,270,39553,1,2,0:0:0:0:
268,358,39719,1,2,0:0:0:0:
175,264,39886,6,0,P|165:229|173:188,1,71.9999978027344,0|8,0:0|0:0,0:0:0:0:
258,167,40219,1,0,0:0:0:0:
124,123,40386,1,2,0:0:0:0:
113,124,40469,1,2,0:0:0:0:
102,126,40553,1,8,0:0:0:0:
231,0,40719,1,2,0:0:0:0:
205,96,40886,1,8,0:0:0:0:
342,114,41053,6,0,B|355:191|355:191|336:224|336:224|349:315,1,192,6|2,0:0|0:0,0:0:0:0:
512,357,41553,1,8,0:0:0:0:
427,250,41719,1,2,0:0:0:0:
351,378,41886,2,0,P|301:367|269:313,1,96,8|0,0:0|0:0,0:0:0:0:
292,220,42219,1,2,0:0:0:0:
346,299,42386,1,2,0:0:0:0:
153,277,42553,5,8,0:0:0:0:
311,213,42719,1,2,0:0:0:0:
232,384,42886,2,0,L|245:281,1,96,8|0,0:0|0:0,0:0:0:0:
189,139,43219,1,2,0:0:0:0:
134,355,43386,1,2,0:0:0:0:
358,281,43553,1,8,0:0:0:0:
153,277,43719,1,2,0:0:0:0:
330,59,43886,5,8,0:0:0:0:
307,348,44053,1,2,0:0:0:0:
318,357,44219,1,2,0:0:0:0:
218,70,44386,5,8,0:0:0:0:
388,312,44553,1,2,0:0:0:0:
401,317,44719,1,2,0:0:0:0:
267,0,44886,5,8,3:0:0:0:
229,384,45053,1,8,3:0:0:0:
256,192,45219,12,0,45886,0:0:0:0:
36,154,46219,6,0,B|74:124|81:78|81:78|121:146|80:260,1,233.999989288331,12|0,3:0|0:0,0:0:0:0:
84,235,46553,6,0,B|124:207|172:234|172:234|222:263|278:220,1,180,6|0,0:0|0:0,0:0:0:0:
336,233,46886,2,0,B|311:199|275:185|219:200|219:200|241:236|279:242,1,180,8|0,0:0|0:0,0:0:0:0:
271,317,47219,2,0,P|320:250|244:244,1,180,2|0,0:0|0:0,0:0:0:0:
213,384,47553,1,8,0:0:0:0:
417,267,47719,1,0,0:0:0:0:
260,142,47886,6,0,B|256:211|256:211|275:243|275:243|270:329,1,180,2|0,0:0|0:0,0:0:0:0:
163,310,48219,2,0,B|193:311|220:288|220:288|246:312|297:323,1,120,8|0,0:0|0:0,0:0:0:0:
360,362,48553,1,2,0:0:0:0:
342,151,48719,1,8,0:0:0:0:
341,169,48803,1,8,0:0:0:0:
339,186,48886,1,12,0:0:0:0:
278,330,49053,1,0,0:0:0:0:
485,302,49219,6,0,B|534:264|534:264|358:268,1,180,6|0,0:0|0:0,0:0:0:0:
286,343,49553,1,10,0:0:0:0:
344,135,49719,1,0,0:0:0:0:
134,217,49886,6,0,P|177:185|261:195,1,120,2|0,0:0|0:0,0:0:0:0:
249,201,50136,1,0,0:0:0:0:
244,218,50219,2,0,P|206:181|278:84,1,180,8|0,0:0|0:0,0:0:0:0:
274,91,50553,6,0,B|320:98|320:98|344:88|344:88|421:103,1,120,6|2,0:0|0:0,0:0:0:0:
404,309,50886,1,8,0:0:0:0:
358,169,51053,1,2,0:0:0:0:
374,172,51136,1,2,0:0:0:0:
391,176,51219,1,2,0:0:0:0:
335,362,51386,1,2,0:0:0:0:
156,308,51553,6,0,B|184:297|184:297|208:304|208:304|263:294,1,107.999996704102,8|0,0:0|0:0,0:0:0:0:
277,289,51886,6,0,B|252:247|274:196|274:196|222:198|169:133,1,180,6|0,0:0|0:0,0:0:0:0:
251,106,52219,2,0,P|185:70|221:161,1,215.999993408203,8|0,0:0|0:0,0:0:0:0:
355,236,52553,6,0,B|418:200|477:238|477:238|421:253,1,180,2|0,0:0|0:0,0:0:0:0:
447,356,52886,2,0,B|400:350|362:324|349:279|349:279|441:247,1,215.999993408203,8|0,0:0|0:0,0:0:0:0:
512,164,53219,6,0,P|511:101|385:60,1,180,6|0,0:0|0:0,0:0:0:0:
337,139,53553,2,0,B|379:137|415:171|415:171|380:109|420:43,1,215.999993408203,8|0,0:0|0:0,0:0:0:0:
307,58,53886,6,0,P|260:100|288:205,1,180,2|0,0:0|0:0,0:0:0:0:
268,289,54219,2,0,B|328:246|333:187|304:151|304:151|273:197|291:258,1,215.999993408203,8|0,0:0|0:0,0:0:0:0:
211,349,54553,5,8,0:0:0:0:
383,317,54719,1,2,0:0:0:0:
142,226,54886,5,8,0:0:0:0:
459,275,55053,1,2,0:0:0:0:
92,101,55219,5,8,0:0:0:0:
458,193,55386,1,2,0:0:0:0:
479,198,55469,1,2,0:0:0:0:
500,202,55553,1,8,0:0:0:0:
285,202,55719,6,0,L|291:284,1,71.9999978027344,6|0,0:0|0:0,0:0:0:0:
355,305,56053,6,0,L|280:269,1,71.9999978027344,6|0,0:0|0:0,0:0:0:0:
230,314,56386,6,0,L|298:267,1,71.9999978027344,6|0,0:0|0:0,0:0:0:0:
257,180,56719,6,0,P|241:220|261:278,1,71.9999978027344,8|2,0:0|0:0,0:0:0:0:
381,277,56886,2,0,P|354:243|294:231,1,71.9999978027344,8|2,0:0|0:0,0:0:0:0:
234,339,57053,2,0,P|276:332|316:286,1,71.9999978027344,8|2,0:3|0:0,0:0:0:0:
331,137,57219,6,0,P|287:100|168:168,1,180,2|0,0:0|0:0,0:0:0:0:
159,208,57553,2,0,P|231:190|179:135,1,180,12|0,0:0|0:0,0:0:0:0:
136,31,57886,2,0,B|147:84|106:128|106:128|163:122|198:144,1,180,2|0,0:0|0:0,0:0:0:0:
256,212,58219,1,8,0:0:0:0:
50,55,58386,1,2,0:0:0:0:
52,37,58469,1,2,0:0:0:0:
54,19,58553,5,8,0:0:0:0:
91,321,58803,5,8,0:0:0:0:
314,95,59053,5,8,0:0:0:0:
395,201,59219,6,0,L|420:47,1,120,8|2,0:0|0:0,0:0:0:0:
408,65,59469,1,2,0:0:0:0:
402,47,59553,1,8,0:0:0:0:
239,150,59719,1,8,0:0:0:0:
244,167,59803,1,8,0:0:0:0:
249,182,59886,6,0,B|203:206|164:181|164:181|112:149|49:195,1,180,6|0,0:0|0:0,0:0:0:0:
120,245,60219,1,8,0:0:0:0:
213,46,60386,1,0,0:0:0:0:
300,313,60553,2,0,B|303:249|303:249|330:213|330:213|333:120,1,180,2|0,0:0|0:0,0:0:0:0:
328,124,60886,2,0,P|373:114|402:233,1,180,8|0,0:0|0:0,0:0:0:0:
408,230,61219,5,2,0:0:0:0:
405,41,61386,1,8,3:0:0:0:
300,313,61553,5,8,0:0:0:0:
489,98,61719,1,2,0:0:0:0:
502,314,61886,5,8,0:0:0:0:
305,64,62053,1,2,0:0:0:0:
401,384,62219,5,8,0:0:0:0:
405,41,62386,1,8,3:0:0:0:
405,23,62469,1,8,3:0:0:0:
403,4,62553,6,0,B|321:11|321:11|284:32|284:32|208:2,1,180,6|0,0:0|0:0,0:0:0:0:
216,4,62886,1,8,0:0:0:0:
134,146,63053,1,2,0:0:0:0:
135,163,63136,1,2,0:0:0:0:
136,180,63219,1,2,0:0:0:0:
292,198,63386,1,2,0:0:0:0:
58,53,63553,2,0,L|63:135,1,60,8|0,0:0|0:0,0:0:0:0:
6,172,63719,2,0,L|1:254,1,60,2|0,0:0|0:0,0:0:0:0:
35,325,63886,6,0,B|79:350|122:327|122:327|162:344,1,120,6|0,0:0|0:0,0:0:0:0:
163,348,64136,1,2,0:0:0:0:
177,358,64219,1,8,0:0:0:0:
79,258,64386,1,2,0:0:0:0:
278,250,64553,1,0,0:0:0:0:
171,80,64719,1,0,0:0:0:0:
167,61,64803,1,2,0:0:0:0:
163,43,64886,1,8,0:0:0:0:
177,261,65053,1,2,0:0:0:0:
367,114,65219,5,8,0:0:0:0:
132,148,65386,1,2,0:0:0:0:
422,300,65553,5,8,0:0:0:0:
79,258,65719,1,2,0:0:0:0:
391,110,65886,5,8,0:0:0:0:
107,152,66053,1,2,0:0:0:0:
89,156,66136,1,2,0:0:0:0:
71,160,66219,1,8,0:0:0:0:
441,307,66386,1,2,0:0:0:0:
196,149,66719,5,8,0:0:0:0:
198,129,66803,1,8,0:0:0:0:
199,110,66886,1,8,0:0:0:0:
295,14,67053,1,8,0:0:0:0:
391,110,67219,1,8,0:0:0:0:
295,207,67386,1,8,0:0:0:0:
295,99,67553,6,0,L|295:216,1,107.999996704102,6|0,0:0|0:0,0:0:0:0:
296,224,67886,6,0,P|351:227|406:136,1,120,4|8,3:0|0:0,0:0:0:0:
394,169,68136,1,8,0:0:0:0:
389,151,68219,1,8,0:0:0:0:
342,313,68386,1,2,0:0:0:0:
212,190,68553,6,0,B|185:179|154:195|154:195|124:213|60:189,1,120,6|8,0:0|0:0,0:0:0:0:
81,188,68803,1,8,0:0:0:0:
76,170,68886,1,8,0:0:0:0:
198,267,69053,1,2,0:0:0:0:
215,43,69219,5,8,3:0:0:0:
237,34,69302,1,8,3:0:0:0:
261,32,69385,1,8,3:0:0:0:
284,36,69468,1,8,3:0:0:0:
307,50,69553,5,8,3:0:0:0:
309,85,69636,1,8,3:0:0:0:
311,121,69719,1,8,3:0:0:0:
313,157,69802,1,8,3:0:0:0:
316,193,69886,5,8,3:0:0:0:
262,251,69969,1,8,3:0:0:0:
189,221,70052,1,8,3:0:0:0:
191,142,70135,1,8,3:0:0:0:
265,116,70219,1,4,0:0:0:0:
265,116,70553,5,8,0:0:0:0:
265,116,70886,5,8,3:0:0:0:
341,272,71053,1,8,3:0:0:0:
190,79,71219,5,8,3:0:0:0:
270,320,71386,1,8,3:0:0:0:
119,39,71553,5,8,3:0:0:0:
188,342,71719,1,8,3:0:0:0:
21,143,71886,5,8,3:0:0:0:
73,117,71969,1,8,3:0:0:0:
131,127,72052,1,8,3:0:0:0:
171,170,72135,1,8,3:0:0:0:
177,229,72219,1,8,3:0:0:0:
145,279,72302,1,8,3:0:0:0:
90,300,72385,1,8,3:0:0:0:
34,283,72469,1,8,3:0:0:0:
0,236,72552,1,8,3:0:0:0:
0,236,72886,6,0,B|61:216|108:245|108:245|161:278|221:240,1,215.999993408203,4|0,3:0|0:0,0:0:0:0:
220,242,73219,6,0,B|234:194|234:194|218:132,1,96,6|0,0:0|0:0,0:0:0:0:
91,128,73553,1,8,0:0:0:0:
56,307,73719,2,0,L|172:310,1,96,0|2,0:0|0:0,0:0:0:0:
220,242,74053,1,0,0:0:0:0:
411,333,74219,2,0,P|365:346|296:279,1,144,8|0,0:0|0:0,0:0:0:0:
305,276,74553,6,0,L|309:171,1,96,2|0,0:0|0:0,0:0:0:0:
229,70,74886,1,8,0:0:0:0:
140,200,75053,1,0,0:0:0:0:
140,214,75136,1,2,0:0:0:0:
140,228,75219,1,2,0:0:0:0:
230,171,75386,1,0,0:0:0:0:
61,130,75553,1,8,0:0:0:0:
60,163,75636,1,2,0:0:0:0:
60,197,75719,1,0,0:0:0:0:
59,230,75802,1,2,0:0:0:0:
59,264,75886,6,0,P|99:308|200:299,1,144,6|0,0:0|0:0,0:0:0:0:
185,302,76219,6,0,L|286:302,1,71.9999978027344,8|0,0:0|0:0,0:0:0:0:
346,339,76553,1,2,0:0:0:0:
283,200,76719,1,2,0:0:0:0:
285,185,76803,1,2,0:0:0:0:
286,173,76886,1,8,0:0:0:0:
224,384,77053,1,0,0:0:0:0:
385,237,77219,6,0,L|382:132,1,96,2|0,0:0|0:0,0:0:0:0:
290,67,77553,1,8,0:0:0:0:
194,209,77719,1,2,0:0:0:0:
196,223,77803,1,2,0:0:0:0:
199,237,77886,1,2,0:0:0:0:
130,95,78053,1,8,0:0:0:0:
286,173,78219,1,8,0:0:0:0:
81,206,78386,1,8,0:0:0:0:
67,209,78469,1,8,0:0:0:0:
53,213,78553,6,0,P|33:277|81:356,1,144,6|0,0:0|0:0,0:0:0:0:
78,345,78886,1,8,0:0:0:0:
199,237,79053,1,0,0:0:0:0:
202,223,79136,1,0,0:0:0:0:
204,209,79220,1,2,0:0:0:0:
184,328,79386,1,0,0:0:0:0:
151,136,79553,2,0,P|191:120|254:133,1,96,8|0,0:0|0:0,0:0:0:0:
321,241,79886,5,2,0:0:0:0:
118,276,80053,1,0,0:0:0:0:
252,134,80219,1,8,0:0:0:0:
271,362,80386,1,0,0:0:0:0:
137,166,80553,1,2,0:0:0:0:
138,151,80636,1,0,0:0:0:0:
139,136,80719,1,0,0:0:0:0:
250,283,80886,1,8,0:0:0:0:
24,185,81053,1,0,0:0:0:0:
214,27,81219,5,2,0:0:0:0:
131,240,81386,1,2,0:0:0:0:
370,181,81553,1,12,0:0:0:0:
106,129,81719,5,2,0:0:0:0:
345,70,81886,1,8,0:0:0:0:
262,283,82053,1,2,0:0:0:0:
214,27,82219,5,12,0:0:0:0:
184,364,82386,1,2,0:0:0:0:
0,219,82553,6,0,P|43:204|135:245,1,144,6|0,0:0|0:0,0:0:0:0:
248,259,82886,6,0,P|205:244|100:318,1,180,6|0,0:0|0:0,0:0:0:0:
195,333,83219,6,0,B|260:366|303:338|303:338|362:299|422:347,1,215.999993408203,6|0,0:0|0:0,0:0:0:0:
488,384,83553,6,0,P|497:287|334:237,1,251.999992309571,6|0,0:0|0:0,0:0:0:0:
248,259,83886,6,0,B|195:109|269:54|339:142|291:185|212:231|149:137,1,323.999990112305,6|2,0:0|0:0,0:0:0:0:
170,42,84719,5,2,0:0:0:0:
172,55,84803,1,2,0:0:0:0:
175,69,84886,1,12,0:0:0:0:
195,332,85053,1,4,0:0:0:0:
