osu file format v14

[General]
AudioFilename: audio.mp3
AudioLeadIn: 0
PreviewTime: 45719
Countdown: 0
SampleSet: Soft
StackLeniency: 0.4
Mode: 0
LetterboxInBreaks: 0
WidescreenStoryboard: 1

[Editor]
DistanceSpacing: 1.1
BeatDivisor: 4
GridSize: 32
TimelineZoom: 1.6

[Metadata]
Title:Souzetsu Gekkou
TitleUnicode:壮絶激昂
Artist:Saratoga (CV: Uesaka Sumire)
ArtistUnicode:萨拉托加(CV:上坂堇)
Creator:- Matha -
Version:Agatsu's Hard
Source:碧蓝航线
Tags:azur lane アズールレーン 激昂壮志 上坂すみれ sahuang Firis Mistlud kurantemelodii krt Agatsu matha my angel azusa
BeatmapID:1632969
BeatmapSetID:776159

[Difficulty]
HPDrainRate:5
CircleSize:4
OverallDifficulty:6
ApproachRate:8
SliderMultiplier:1.5
SliderTickRate:1

[Events]
//Background and Video events
Video,0,"Video.mp4"
0,0,"Hard.jpg",0,0
//Break Periods
2,10753,12469
//Storyboard Layer 0 (Background)
//Storyboard Layer 1 (Fail)
//Storyboard Layer 2 (Pass)
//Storyboard Layer 3 (Foreground)
//Storyboard Sound Samples

[TimingPoints]
1220,333.333333333333,4,2,1,50,1,0
6553,-100,4,2,1,60,0,0
10553,-100,4,2,1,5,0,0
13219,-125,4,2,1,40,0,0
14219,-125,4,2,1,45,0,0
14553,-100,4,2,1,60,0,0
25219,-125,4,2,1,45,0,0
30553,-100,4,2,1,50,0,0
34553,-100,4,2,1,55,0,0
35886,-125,4,2,1,45,0,0
40553,-125,4,2,1,50,0,0
41053,-100,4,2,1,55,0,0
46553,-100,4,2,1,70,0,1
55719,-100,4,2,1,70,0,0
57219,-100,4,2,1,70,0,1
73219,-100,4,2,1,60,0,0
83886,-200,4,2,1,60,0,0
84803,-100,4,2,1,60,0,0

[Colours]
Combo1 : 184,85,3
Combo2 : 62,255,62
Combo3 : 186,122,250
Combo4 : 247,98,120

[HitObjects]
72,329,1220,6,0,L|229:313,1,150,12|0,0:0|0:0,0:0:0:0:
287,265,1719,1,0,0:0:0:0:
461,123,2219,1,0,0:0:0:0:
461,123,2386,6,0,L|311:107,1,150,4|0,0:0|0:0,0:0:0:0:
145,201,3219,2,0,L|147:87,1,112.5,8|2,0:0|0:0,0:0:0:0:
151,66,3553,1,2,0:0:0:0:
231,82,3719,1,2,0:0:0:0:
289,23,3886,6,0,P|351:21|413:88,1,150,6|0,0:0|0:0,0:0:0:0:
413,162,4386,2,0,P|364:216|291:218,1,150,8|4,3:0|3:0,0:0:0:0:
227,166,4886,1,4,3:0:0:0:
149,194,5053,6,0,L|130:348,1,150,6|0,0:0|0:0,0:0:0:0:
49,356,5553,1,8,0:0:0:0:
99,198,5886,6,0,L|155:193,2,50,8|8|8,3:0|3:0|3:0,3:0:0:0:
56,163,6219,2,0,L|0:158,2,50,8|8|8,3:0|3:0|3:0,3:0:0:0:
83,115,6553,6,0,P|131:74|216:89,1,150,6|8,0:0|3:0,0:0:0:0:
269,145,7053,1,8,3:0:0:0:
238,221,7219,2,0,L|245:301,1,75,8|8,3:0|3:0,0:0:0:0:
315,339,7553,1,8,3:0:0:0:
376,284,7719,1,8,3:0:0:0:
458,284,7886,6,0,L|464:238,3,37.5,8|8|8|8,3:0|3:0|3:0|3:0,0:0:0:0:
487,213,8219,2,0,L|482:175,3,37.5,8|8|8|8,3:0|3:0|3:0|3:0,0:0:0:0:
454,144,8553,2,0,L|373:137,1,75,8|0,3:0|3:0,3:0:0:0:
337,134,8803,1,0,0:0:0:0:
337,134,8886,1,12,0:0:0:0:
252,48,9053,1,12,0:0:0:0:
256,192,9136,12,0,10553,0:0:0:0:
81,92,13219,6,0,L|158:86,1,60,2|0,3:0|0:0,0:0:0:0:
215,127,13553,2,0,L|292:121,1,60,2|0,3:0|0:0,0:0:0:0:
346,70,13886,2,0,L|343:28,2,30,2|0|8,3:0|0:0|0:0,0:0:0:0:
420,105,14219,2,0,P|433:140|431:173,1,60,8|0,0:0|0:0,0:0:0:0:
359,201,14553,6,0,P|420:204|480:264,1,150,6|8,0:0|0:0,0:0:0:0:
440,336,15053,1,0,0:0:0:0:
361,311,15219,2,0,L|280:317,1,75,2|0,0:0|0:0,0:0:0:0:
208,288,15553,2,0,L|127:294,1,75,8|0,0:0|0:0,0:0:0:0:
74,234,15886,6,0,L|87:78,1,150,2|8,0:0|0:0,0:0:0:0:
154,37,16386,1,0,0:0:0:0:
233,59,16553,2,0,L|314:67,1,75,2|0,0:0|0:0,0:0:0:0:
379,106,16886,2,0,L|381:143,3,37.5,8|0|0|0,0:0|0:0|0:0|0:0,0:0:0:0:
400,179,17219,6,0,B|369:214|369:214|260:204,1,150,6|8,0:0|0:0,0:0:0:0:
230,278,17719,1,0,0:0:0:0:
154,245,17886,2,0,L|160:170,1,75,2|0,0:0|0:0,0:0:0:0:
125,94,18219,2,0,P|92:82|52:86,1,75,8|0,0:0|0:0,0:0:0:0:
2,152,18553,6,0,B|-8:223|26:224|11:307,1,150,6|8,0:0|0:0,0:0:0:0:
74,354,19053,2,0,P|107:366|147:362,1,75,0|2,0:0|0:0,0:0:0:0:
215,317,19386,1,8,0:0:0:0:
293,342,19553,2,0,L|335:337,3,37.5,2|8|8|8,0:0|0:0|0:0|0:0,0:0:0:0:
370,345,19886,6,0,B|396:310|396:310|375:200,1,150,6|8,0:0|0:0,0:0:0:0:
313,151,20386,1,0,0:0:0:0:
236,182,20553,2,0,L|157:173,1,75,2|0,0:0|0:0,0:0:0:0:
80,156,20886,2,0,P|69:103|78:73,1,75,8|0,0:0|0:0,0:0:0:0:
136,29,21219,6,0,B|204:19|204:19|215:21|215:21|291:9,1,150,2|8,0:0|0:0,0:0:0:0:
344,80,21719,1,0,0:0:0:0:
344,80,21886,2,0,L|355:156,1,75,2|8,0:0|0:0,0:0:0:0:
275,176,22219,1,8,0:0:0:0:
275,176,22386,1,2,0:0:0:0:
202,214,22553,6,0,P|192:248|194:289,2,75,12|2|2,0:0|0:0|0:0,0:0:0:0:
275,176,23053,2,0,P|285:142|283:101,2,75,8|2|2,0:0|0:0|0:0,0:0:0:0:
202,214,23553,2,0,L|160:215,3,37.5,8|0|2|2,0:0|0:0|0:0|0:0,0:0:0:0:
127,233,23886,5,2,0:0:0:0:
49,205,24053,2,0,L|69:52,1,150,8|8,0:0|0:0,0:0:0:0:
132,3,24553,2,0,P|173:2|208:19,1,75,2|8,0:0|0:0,0:0:0:0:
251,82,24886,2,0,L|246:126,3,37.5,2|2|2|2,0:0|0:0|0:0|0:0,0:0:0:0:
225,144,25219,6,0,L|232:214,1,60,6|0,0:0|0:0,0:0:0:0:
285,268,25553,2,0,L|292:338,1,60,2|0,0:0|0:0,0:0:0:0:
375,328,25886,2,0,L|361:189,1,120,2|2,0:0|0:0,0:0:0:0:
313,140,26386,1,8,0:0:0:0:
229,152,26553,6,0,L|169:144,1,60,2|0,0:0|0:0,0:0:0:0:
94,182,26886,2,0,P|81:215|82:253,1,60,2|8,0:0|3:0,0:0:0:0:
22,307,27219,2,0,P|81:288|137:306,1,120,2|8,0:0|0:0,0:0:0:0:
208,364,27719,1,8,0:0:0:0:
208,364,27803,1,8,0:0:0:0:
208,364,27886,6,0,L|275:357,1,60,2|0,0:0|0:0,0:0:0:0:
337,311,28219,2,0,P|347:266|340:236,1,60,2|0,0:0|0:0,0:0:0:0:
306,177,28553,2,0,P|296:132|303:102,2,60,2|0|2,0:0|0:0|0:0,0:0:0:0:
345,252,29053,1,8,0:0:0:0:
264,272,29219,6,0,L|137:249,1,120,2|8,0:0|0:0,0:0:0:0:
137,97,29886,2,0,L|212:111,1,60,8|8,0:0|0:0,0:0:0:0:
195,108,30136,1,8,0:0:0:0:
195,108,30219,1,8,0:0:0:0:
275,70,30386,1,0,0:0:0:0:
351,103,30553,6,0,L|360:182,1,75,6|0,0:0|0:0,0:0:0:0:
312,245,30886,1,8,0:0:0:0:
233,220,31053,2,0,B|166:215|166:215|153:220|153:220|75:215,1,150,6|2,0:0|0:0,0:0:0:0:
17,167,31553,2,0,P|8:126|15:91,1,75,8|0,0:0|0:0,0:0:0:0:
76,39,31886,6,0,L|156:43,1,75,6|0,0:0|0:0,0:0:0:0:
215,94,32219,1,8,0:0:0:0:
286,51,32386,2,0,B|356:45|356:85|438:69,1,150,6|2,0:0|0:0,0:0:0:0:
499,119,32886,2,0,L|489:197,1,75,8|2,0:0|0:0,0:0:0:0:
429,249,33219,6,0,L|439:327,1,75,12|2,0:0|0:0,0:0:0:0:
375,377,33553,2,0,P|331:380|294:360,1,75,8|2,0:0|0:0,0:0:0:0:
304,367,33803,1,2,0:0:0:0:
304,367,33886,1,8,0:0:0:0:
248,306,34053,1,8,0:0:0:0:
306,248,34219,2,0,L|317:171,1,75,8|8,3:0|3:0,0:0:0:0:
254,118,34553,6,0,B|185:122|193:179|121:180,1,150,8|8,0:0|0:0,0:0:0:0:
8,299,35219,2,0,B|77:303|69:360|141:361,1,150,8|8,0:0|3:0,0:0:0:0:
257,301,35886,6,0,L|270:169,1,120,6|0,0:0|0:0,0:0:0:0:
218,113,36386,1,2,0:0:0:0:
218,113,36553,1,8,0:0:0:0:
364,31,36886,2,0,L|430:38,1,60,0|2,0:0|0:0,0:0:0:0:
487,92,37219,5,0,0:0:0:0:
487,92,37386,2,0,L|498:211,1,120,8|2,0:0|0:0,0:0:0:0:
450,280,37886,1,8,0:0:0:0:
450,280,38053,2,0,P|419:289|386:283,1,60,2|0,0:0|0:0,0:0:0:0:
329,228,38386,6,0,B|294:208|294:208|213:215,1,120,6|2,0:0|0:0,0:0:0:0:
91,329,39053,1,2,0:0:0:0:
91,329,39219,1,8,0:0:0:0:
109,161,39553,2,0,L|102:96,1,60,2|2,0:0|0:0,0:0:0:0:
156,37,39886,5,0,0:0:0:0:
156,37,40053,2,0,L|298:24,1,120,8|2,0:0|0:0,0:0:0:0:
313,44,40469,1,2,0:0:0:0:
313,44,40553,2,0,P|326:75|321:118,1,60,8|2,0:0|0:0,0:0:0:0:
263,157,40886,1,8,0:0:0:0:
308,226,41053,6,0,P|244:186|164:206,1,150,6|2,0:0|0:0,0:0:0:0:
135,272,41553,2,0,P|138:309|157:340,1,75,8|2,0:0|0:0,0:0:0:0:
234,370,41886,2,0,L|315:361,1,75,8|0,0:0|0:0,0:0:0:0:
371,308,42219,1,2,0:0:0:0:
371,308,42386,1,2,0:0:0:0:
328,237,42553,6,0,L|323:157,1,75,8|2,0:0|0:0,0:0:0:0:
268,100,42886,2,0,P|230:91|187:101,1,75,8|0,0:0|0:0,0:0:0:0:
129,147,43219,1,2,0:0:0:0:
129,147,43386,1,2,0:0:0:0:
163,222,43553,2,0,L|158:296,1,75,8|2,0:0|0:0,0:0:0:0:
220,351,43886,6,0,P|255:355|295:344,2,75,8|2|2,0:0|0:0|0:0,0:0:0:0:
158,296,44386,2,0,P|122:286|84:289,2,75,8|2|2,0:0|0:0|0:0,0:0:0:0:
250,225,44886,1,8,3:0:0:0:
181,156,45053,1,8,3:0:0:0:
436,58,46219,6,0,L|446:138,1,75,12|0,3:0|0:0,0:0:0:0:
503,202,46553,6,0,P|446:164|352:179,1,150,6|8,0:0|0:0,0:0:0:0:
308,238,47053,1,0,0:0:0:0:
240,179,47219,2,0,L|158:167,1,75,2|0,0:0|0:0,0:0:0:0:
308,238,47553,1,8,0:0:0:0:
255,310,47719,1,0,0:0:0:0:
327,363,47886,6,0,L|405:352,1,75,2|0,0:0|0:0,0:0:0:0:
469,294,48219,2,0,P|480:251|472:202,1,75,8|0,0:0|0:0,0:0:0:0:
468,130,48553,1,2,0:0:0:0:
380,109,48719,1,8,0:0:0:0:
326,181,48886,2,0,L|249:171,1,75,8|0,0:0|0:0,0:0:0:0:
176,121,49219,6,0,P|167:77|174:44,1,75,6|0,0:0|0:0,0:0:0:0:
251,171,49553,2,0,P|260:215|253:248,1,75,10|0,0:0|0:0,0:0:0:0:
186,303,49886,2,0,L|96:293,1,75,2|0,0:0|0:0,0:0:0:0:
35,245,50219,1,8,0:0:0:0:
112,198,50386,1,0,0:0:0:0:
35,149,50553,6,0,L|28:71,1,75,6|2,0:0|0:0,0:0:0:0:
93,12,50886,2,0,P|144:8|179:24,1,75,8|2,0:0|0:0,0:0:0:0:
186,37,51136,1,2,0:0:0:0:
186,37,51219,1,2,0:0:0:0:
237,110,51386,1,2,0:0:0:0:
173,174,51553,2,0,L|162:253,1,75,8|0,0:0|0:0,0:0:0:0:
212,323,51886,6,0,B|282:313|282:313|293:317|293:317|363:305,1,150,6|8,0:0|0:0,0:0:0:0:
448,323,52386,1,0,0:0:0:0:
501,249,52553,2,0,L|493:172,1,75,2|0,0:0|0:0,0:0:0:0:
440,101,52886,1,8,0:0:0:0:
375,163,53053,1,0,0:0:0:0:
325,88,53219,6,0,B|253:77|255:129|177:112,1,150,6|8,0:0|0:0,0:0:0:0:
102,68,53719,1,0,0:0:0:0:
27,118,53886,2,0,P|11:153|14:201,1,75,2|0,0:0|0:0,0:0:0:0:
70,256,54219,2,0,L|149:267,1,75,8|0,0:0|0:0,0:0:0:0:
210,203,54553,5,8,0:0:0:0:
273,266,54719,1,2,0:0:0:0:
340,206,54886,2,0,P|378:215|421:206,1,75,8|2,0:0|0:0,0:0:0:0:
479,148,55219,2,0,L|486:73,1,75,8|2,0:0|0:0,0:0:0:0:
489,44,55469,1,2,0:0:0:0:
489,44,55553,1,8,0:0:0:0:
365,59,55719,6,0,B|295:50|295:50|287:43|287:43|215:33,2,150,6|6|6,0:0|0:0|0:0,0:0:0:0:
249,197,56719,1,8,0:0:0:0:
249,197,56886,2,0,L|167:185,1,75,8|8,0:0|0:3,0:0:0:0:
114,118,57219,6,0,B|75:150|75:150|72:264,1,150,2|12,0:0|0:0,0:0:0:0:
152,291,57719,1,0,0:0:0:0:
240,271,57886,2,0,L|249:188,1,75,2|0,0:0|0:0,0:0:0:0:
152,291,58219,1,8,0:0:0:0:
212,357,58386,1,2,0:0:0:0:
339,311,58553,6,0,B|309:282|309:282|239:270,2,112.5,8|8|8,0:0|0:0|0:0,0:0:0:0:
429,308,59219,1,8,0:0:0:0:
475,230,59386,2,0,L|516:226,2,37.5,2|2|8,0:0|0:0|0:0,0:0:0:0:
412,165,59719,1,2,0:0:0:0:
412,165,59803,1,8,0:0:0:0:
412,165,59886,6,0,P|427:116|423:80,1,75,6|0,0:0|0:0,0:0:0:0:
374,18,60219,2,0,L|299:27,1,75,8|0,0:0|0:0,0:0:0:0:
225,78,60553,2,0,L|150:87,1,75,2|0,0:0|0:0,0:0:0:0:
79,142,60886,1,8,0:0:0:0:
162,174,61053,1,0,0:0:0:0:
94,232,61219,6,0,L|86:316,1,75,2|8,0:0|3:0,0:0:0:0:
159,360,61553,2,0,L|241:353,1,75,8|2,0:0|0:0,0:0:0:0:
303,296,61886,2,0,L|385:289,1,75,8|2,0:0|0:0,0:0:0:0:
447,232,62219,2,0,P|457:192|450:152,1,75,8|8,0:0|3:0,0:0:0:0:
437,132,62469,1,8,3:0:0:0:
437,132,62553,6,0,B|395:103|395:103|290:118,1,150,6|8,0:0|0:0,0:0:0:0:
177,2,63053,2,0,B|164:73|201:69|186:156,1,150,2|2,0:0|0:0,0:0:0:0:
122,212,63553,2,0,L|47:200,1,75,8|0,0:0|0:0,0:0:0:0:
186,149,63886,6,0,P|241:135|323:188,1,150,6|8,0:0|0:0,0:0:0:0:
278,300,64386,2,0,P|333:314|415:261,1,150,2|0,0:0|0:0,0:0:0:0:
442,185,64886,2,0,L|448:110,1,75,8|2,0:0|0:0,0:0:0:0:
388,42,65219,5,8,0:0:0:0:
314,93,65386,1,2,0:0:0:0:
245,34,65553,2,0,L|167:41,1,75,8|2,0:0|0:0,0:0:0:0:
86,73,65886,1,8,0:0:0:0:
97,162,66053,2,0,L|98:203,2,37.5,2|2|8,0:0|0:0|0:0,0:0:0:0:
155,293,66386,6,0,B|190:260|190:260|188:151,1,150,2|8,0:0|0:0,0:0:0:0:
187,127,66803,1,8,0:0:0:0:
187,127,66886,1,8,0:0:0:0:
258,71,67053,1,8,0:0:0:0:
335,116,67219,2,0,L|428:126,1,75,8|8,0:0|0:0,0:0:0:0:
494,156,67553,1,4,0:0:0:0:
428,217,67719,1,0,0:0:0:0:
506,260,67886,6,0,L|497:341,2,75,6|8|8,3:0|0:0|3:0,0:0:0:0:
428,217,68386,1,2,0:0:0:0:
341,244,68553,2,0,L|332:318,2,75,6|8|8,0:0|0:0|0:0,0:0:0:0:
270,187,69053,1,2,0:0:0:0:
189,226,69219,6,0,L|148:220,3,37.5,8|8|8|8,3:0|3:0|3:0|3:0,0:0:0:0:
116,192,69553,2,0,L|78:197,3,37.5,8|8|8|8,3:0|3:0|3:0|3:0,0:0:0:0:
46,166,69886,2,0,L|40:117,3,37.5,8|8|8|8,3:0|3:0|3:0|3:0,0:0:0:0:
11,94,70219,2,0,L|22:17,1,75,4|0,0:0|0:0,0:0:0:0:
123,45,70553,6,0,B|190:40|187:97|264:84,1,150,8|8,0:0|3:0,0:0:0:0:
329,23,71053,1,8,3:0:0:0:
405,70,71219,2,0,P|418:102|412:146,1,75,8|8,3:0|3:0,0:0:0:0:
331,179,71553,2,0,P|318:211|324:255,1,75,8|8,3:0|3:0,0:0:0:0:
395,302,71886,6,0,L|437:295,3,37.5,8|8|8|8,3:0|3:0|3:0|3:0,0:0:0:0:
476,299,72219,2,0,L|482:261,3,37.5,8|8|8|8,3:0|3:0|3:0|3:0,0:0:0:0:
498,219,72553,1,8,3:0:0:0:
429,44,72886,2,0,B|393:33|393:33|356:46,1,75,2|0,0:0|0:0,0:0:0:0:
287,101,73219,6,0,L|128:81,1,150,6|8,0:0|0:0,0:0:0:0:
68,127,73719,1,0,0:0:0:0:
111,197,73886,2,0,L|100:279,1,75,2|0,0:0|0:0,0:0:0:0:
146,340,74219,2,0,L|221:335,1,75,8|0,0:0|0:0,0:0:0:0:
293,293,74553,6,0,B|361:289|363:341|435:327,1,150,2|8,0:0|0:0,0:0:0:0:
417,201,75053,1,0,0:0:0:0:
417,201,75219,2,0,L|343:194,1,75,2|0,0:0|0:0,0:0:0:0:
315,115,75553,1,8,0:0:0:0:
315,115,75719,1,0,0:0:0:0:
359,45,75886,6,0,P|411:30|495:76,1,150,2|8,0:0|0:0,0:0:0:0:
499,154,76386,1,0,0:0:0:0:
431,201,76553,2,0,L|426:285,1,75,2|0,0:0|0:0,0:0:0:0:
376,342,76886,2,0,P|332:349|286:330,1,75,8|0,0:0|0:0,0:0:0:0:
250,277,77219,6,0,B|180:271|180:271|165:278|165:278|77:271,1,150,2|8,0:0|0:0,0:0:0:0:
47,211,77719,1,0,0:0:0:0:
47,211,77886,2,0,P|44:174|57:134,1,75,2|8,0:0|0:0,0:0:0:0:
123,91,78219,2,0,L|170:86,3,37.5,8|0|8|8,0:0|0:0|0:0|0:0,0:0:0:0:
202,82,78553,6,0,L|184:240,1,150,6|8,0:0|0:0,0:0:0:0:
245,287,79053,1,0,0:0:0:0:
322,261,79219,2,0,L|399:256,1,75,2|0,0:0|0:0,0:0:0:0:
477,277,79553,2,0,L|487:202,1,75,8|0,0:0|0:0,0:0:0:0:
467,122,79886,6,0,P|417:88|323:106,1,150,2|8,0:0|0:0,0:0:0:0:
285,168,80386,1,0,0:0:0:0:
285,168,80553,2,0,L|273:255,1,75,2|0,0:0|0:0,0:0:0:0:
195,265,80886,1,8,0:0:0:0:
195,265,81053,1,0,0:0:0:0:
116,288,81219,6,0,L|132:130,1,150,2|8,0:0|0:0,0:0:0:0:
195,86,81719,1,2,0:0:0:0:
273,110,81886,2,0,L|358:97,1,75,8|2,0:0|0:0,0:0:0:0:
425,124,82219,2,0,P|439:158|437:199,1,75,8|2,0:0|0:0,0:0:0:0:
374,249,82553,6,0,L|367:329,1,75,6|0,0:0|0:0,0:0:0:0:
270,364,82886,2,0,L|276:289,1,75,6|0,0:0|0:0,0:0:0:0:
184,254,83219,2,0,L|178:329,1,75,6|0,0:0|0:0,0:0:0:0:
80,369,83553,2,0,L|86:294,1,75,6|0,0:0|0:0,0:0:0:0:
96,161,83886,6,0,B|191:145|169:231|271:211,1,187.5,6|2,0:0|0:0,0:0:0:0:
267,211,84803,1,2,0:0:0:0:
267,211,84886,1,12,0:0:0:0:
364,147,85053,1,12,0:0:0:0:
