osu file format v14

[General]
AudioFilename: Nightcore - Cold As Ice.mp3
AudioLeadIn: 0
PreviewTime: 159937
Countdown: 1
SampleSet: Normal
StackLeniency: 0.7
Mode: 0
LetterboxInBreaks: 1
WidescreenStoryboard: 1

[Editor]
Bookmarks: 25920,37170,63233,160170
DistanceSpacing: 1.6
BeatDivisor: 4
GridSize: 4
TimelineZoom: 1.7

[Metadata]
Title:Cold As Ice (PH Electro Remix) (Nightcore Mix)
TitleUnicode:Cold As Ice (PH Electro Remix) (Nightcore Mix)
Artist:Sarah Connor
ArtistUnicode:Sarah Connor
Creator:Gologle
Version:Frozen
Source:
Tags:Nightcore Cold as Ice Electronic Dance English Saggi Rikka
BeatmapID:1062873
BeatmapSetID:358119

[Difficulty]
HPDrainRate:6
CircleSize:4
OverallDifficulty:9
ApproachRate:9
SliderMultiplier:1.4
SliderTickRate:1

[Events]
//Background and Video events
0,0,"7jbtgz6rhziedi6sur6s8.png",0,0
//Break Periods
//Storyboard Layer 0 (Background)
//Storyboard Layer 1 (Fail)
//Storyboard Layer 2 (Pass)
//Storyboard Layer 3 (Foreground)
//Storyboard Layer 4 (Overlay)
//Storyboard Sound Samples

[TimingPoints]
1733,375,4,1,0,100,1,0
1920,-100,4,1,0,50,0,0
13733,-66.6666666666667,4,1,0,60,0,0
24608,-66.6666666666667,4,1,0,70,0,0
25920,-66.6666666666667,4,1,0,100,0,0
26108,-66.6666666666667,4,1,0,100,0,0
34170,-100,4,1,0,100,0,0
36795,-100,4,1,0,90,0,0
48608,-100,4,1,0,49,0,0
51795,-100,4,1,0,75,0,0
63045,-100,4,1,0,100,0,1
63233,-133.333333333333,4,1,0,100,0,1
85733,-133.333333333333,4,1,0,100,0,0
86670,-133.333333333333,4,1,0,50,0,0
98295,-66.6666666666667,4,1,0,100,0,0
99608,-100,4,1,0,100,0,1
100733,-100,4,1,0,100,0,1
106733,-100,4,1,0,100,0,1
107108,-100,4,1,0,100,0,1
111233,-100,4,1,0,50,0,0
114233,-100,4,1,0,70,0,0
116858,-200,4,1,0,75,0,0
117233,-100,4,1,0,70,0,0
123045,-100,4,1,0,70,0,0
134295,-100,4,1,0,70,0,0
147420,-100,4,1,0,50,0,0
148545,-100,4,1,0,70,0,0
149670,-100,4,1,0,85,0,0
151545,-100,4,1,0,100,0,0
153420,-100,4,1,0,100,0,0
159795,-100,4,1,0,100,0,0
160733,-100,4,1,0,100,0,1
174608,-50,4,1,0,100,0,1
174795,-100,4,1,0,100,0,1
177795,-100,4,1,0,100,0,1
178170,-100,4,1,0,100,0,1
179858,-100,4,1,0,100,0,1
184920,-100,4,1,0,80,0,0
185295,-100,4,1,0,68,0,0
185670,-100,4,1,0,53,0,0
186045,-100,4,1,0,32,0,0
186420,-100,4,1,0,20,0,0
186795,-100,4,1,0,15,0,0
187170,-100,4,1,0,10,0,0

[HitObjects]
256,192,233,12,0,1545,0:0:0:0:
256,192,1733,5,0,0:0:0:0:
212,92,1920,5,0,0:0:0:0:
128,168,2108,2,0,P|128:220|140:248,1,70
300,291,2483,1,0,0:0:0:0:
384,216,2670,2,0,P|384:163|372:136,2,70
248,108,3233,1,0,0:0:0:0:
248,108,3420,2,0,P|248:160|260:188,1,70
164,256,3795,1,0,0:0:0:0:
64,124,3983,2,2,P|104:152|120:180,1,70
240,36,4358,2,2,P|200:64|184:92,1,70
288,232,4733,6,0,P|320:244|364:244,1,70
424,144,5108,1,0,0:0:0:0:
424,144,5295,2,0,L|340:144,2,70
488,244,5858,5,0,0:0:0:0:
424,340,6045,1,0,0:0:0:0:
424,340,6233,2,0,P|367:346|346:335,1,70
236,236,6608,5,0,0:0:0:0:
236,236,6795,1,0,0:0:0:0:
280,80,6983,2,2,P|264:116|264:160,1,70
392,132,7358,2,2,P|408:95|408:51,1,70
324,232,7733,5,0,0:0:0:0:
208,168,7920,1,0,0:0:0:0:
184,284,8108,2,0,P|200:320|228:340,1,70
388,264,8483,2,0,P|328:260|304:260,2,70
196,256,9045,1,0,0:0:0:0:
64,192,9233,2,0,P|56:228|56:264,1,70
204,228,9608,2,0,P|212:192|212:156,1,70
304,68,9983,5,10,0:0:0:0:
244,176,10170,1,10,0:0:0:0:
384,108,10358,1,10,0:0:0:0:
280,240,10545,1,0,0:0:0:0:
276,252,10733,6,0,P|236:276|200:284,1,70
84,196,11108,1,0,0:0:0:0:
256,268,11295,1,0,0:0:0:0:
260,268,11483,2,0,P|296:252|332:228,1,70
440,248,11858,5,0,0:0:0:0:
260,160,12045,1,0,0:0:0:0:
260,160,12233,2,0,P|224:176|188:200,1,70
320,268,12608,5,0,0:0:0:0:
400,160,12795,1,0,0:0:0:0:
400,160,12983,2,0,P|380:116|352:96,1,70
248,120,13358,2,0,P|268:164|296:184,1,70
216,300,13733,5,0,0:0:0:0:
80,268,13920,1,0,0:0:0:0:
80,252,14014,1,0,0:0:0:0:
84,236,14108,2,0,P|132:196|180:184,1,105.000004005432
224,84,14483,1,0,0:0:0:0:
348,52,14670,2,2,P|352:112|328:160,2,105.000004005432
136,64,15233,5,0,0:0:0:0:
104,152,15420,1,0,0:0:0:0:
116,176,15514,1,0,0:0:0:0:
128,200,15608,1,0,0:0:0:0:
216,233,15795,1,0,0:0:0:0:
300,296,15983,2,2,P|356:300|392:332,2,105.000004005432
208,336,16545,1,0,0:0:0:0:
212,232,16733,2,0,P|256:184|308:176,1,105.000004005432
368,96,17108,6,0,P|320:60|264:56,1,105.000004005432
276,152,17483,5,0,0:0:0:0:
228,48,17670,1,0,0:0:0:0:
224,164,17858,1,0,0:0:0:0:
176,44,18045,1,2,0:0:0:0:
172,176,18233,1,2,0:0:0:0:
128,40,18420,1,2,0:0:0:0:
112,188,18608,1,0,0:0:0:0:
216,276,18795,1,0,0:0:0:0:
116,184,18983,6,0,P|80:240|80:288,1,105.000004005432,2|0,0:0|0:0,0:0:0:0:
272,276,19358,2,0,P|265:224|233:183,1,105.000004005432,2|0,0:0|0:0,0:0:0:0:
160,288,19733,5,0,0:0:0:0:
184,296,19826,1,0,0:0:0:0:
208,304,19920,1,0,0:0:0:0:
336,308,20108,2,0,P|392:296|452:300,2,105.000004005432
272,216,20670,1,8,0:0:0:0:
272,216,20858,2,8,P|304:152|340:132,1,105.000004005432
428,204,21233,6,0,P|396:268|360:288,1,105.000004005432
252,232,21608,1,0,0:0:0:0:
252,232,21795,1,0,0:0:0:0:
136,288,21983,1,8,0:0:0:0:
136,288,22170,2,8,P|116:224|136:180,1,105.000004005432
212,100,22545,2,0,P|261:113|310:97,1,105.000004005432
416,184,22920,5,0,0:0:0:0:
296,104,23108,1,0,0:0:0:0:
388,228,23295,1,0,0:0:0:0:
256,136,23483,1,0,0:0:0:0:
356,268,23670,1,0,0:0:0:0:
216,168,23858,1,0,0:0:0:0:
324,308,24045,1,0,0:0:0:0:
176,200,24233,1,2,0:0:0:0:
120,52,24795,6,0,P|112:112|68:148,2,105.000004005432
204,112,25358,2,0,P|260:124|292:176,1,105.000004005432
236,244,25733,1,2,0:0:0:0:
344,244,25920,1,2,0:0:0:0:
316,72,26108,5,2,1:0:0:0:
295,121,26295,1,2,1:0:0:0:
275,171,26483,1,2,1:0:0:0:
255,221,26670,1,2,1:0:0:0:
328,332,26858,6,0,P|256:320|212:340,1,105.000004005432
120,232,27233,2,0,P|192:244|236:224,2,105.000004005432
192,52,27795,6,0,P|172:104|172:172,1,105.000004005432
248,232,28170,1,2,0:0:0:0:
220,120,28358,1,2,0:0:0:0:
248,232,28545,1,2,0:0:0:0:
248,232,28733,2,0,P|304:244|344:276,2,105.000004005432
208,153,29295,1,0,0:0:0:0:
208,153,29483,1,0,0:0:0:0:
96,192,29670,6,2,P|80:256|88:312,1,105.000004005432
196,256,30045,2,2,P|212:192|204:135,1,105.000004005432
160,68,30420,1,0,0:0:0:0:
160,68,30608,1,0,0:0:0:0:
284,124,30795,6,0,P|348:136|420:120,2,105.000004005432
272,200,31358,1,2,0:0:0:0:
264,276,31545,2,0,P|200:264|128:279,2,105.000004005432,0|0|2,0:0|0:0|0:0,0:0:0:0:
372,208,32108,1,0,0:0:0:0:
392,84,32295,1,0,0:0:0:0:
268,108,32483,1,0,0:0:0:0:
144,136,32670,6,2,P|64:160|36:196,1,105.000004005432
152,240,33045,2,2,P|232:216|260:180,1,105.000004005432
256,92,33420,5,2,0:0:0:0:
180,228,33608,1,2,0:0:0:0:
348,232,33795,1,2,0:0:0:0:
256,92,33983,1,2,0:0:0:0:
112,124,34170,6,0,P|88:184|88:212,1,70
240,208,34545,1,2,0:0:0:0:
376,124,34733,1,2,0:0:0:0:
376,124,34920,2,0,P|336:84|316:80,2,70
376,252,35670,5,2,0:0:0:0:
244,252,35858,1,2,0:0:0:0:
236,128,36045,2,2,P|220:76|268:132,1,210
244,284,36983,5,0,0:0:0:0:
244,284,37170,2,0,P|176:284|152:276,1,70
196,160,37545,2,0,P|180:108|228:164,1,210,0|8,0:0|0:0,0:0:0:0:
220,296,38295,1,0,0:0:0:0:
336,272,38483,2,0,P|384:276|416:292,1,70,8|0,0:0|0:0,0:0:0:0:
336,156,38858,2,0,P|288:160|256:176,1,70,8|0,0:0|0:0,0:0:0:0:
152,60,39233,6,0,P|200:64|232:80,2,70,8|0|8,0:0|0:0|0:0,0:0:0:0:
152,176,39795,2,0,P|152:224|160:272,2,70,0|8|0,0:0|0:0|0:0,0:0:0:0:
280,204,40358,1,8,0:0:0:0:
280,80,40545,2,0,P|320:84|352:104,2,70,0|8|0,0:0|0:0|0:0,0:0:0:0:
132,120,41108,2,0,P|160:156|184:172,1,70,8|0,0:0|0:0,0:0:0:0:
396,148,41483,6,0,P|352:176|320:184,1,70,8|0,0:0|0:0,0:0:0:0:
116,148,41858,2,0,P|160:176|192:184,1,70,8|0,0:0|0:0,0:0:0:0:
256,56,42233,2,0,L|256:132,2,70,8|0|8,0:0|0:0|0:0,0:0:0:0:
280,224,42795,6,0,P|256:276|252:216,1,140
140,64,43358,1,8,0:0:0:0:
220,144,43545,2,0,P|264:136|316:156,1,70,0|8,0:0|0:0,0:0:0:0:
376,72,43920,1,8,0:0:0:0:
256,216,44108,1,8,0:0:0:0:
232,128,44295,6,0,P|256:76|260:136,1,140
372,288,44858,1,8,0:0:0:0:
292,208,45045,2,0,P|248:216|196:196,1,70,0|8,0:0|0:0,0:0:0:0:
136,280,45420,1,8,0:0:0:0:
256,136,45608,1,8,0:0:0:0:
336,236,45795,6,0,P|320:292|296:320,2,70,0|8|0,0:0|0:0|0:0,0:0:0:0:
212,224,46358,1,8,0:0:0:0:
160,120,46545,1,0,0:0:0:0:
215,239,46733,6,0,P|259:219|279:187,1,70,8|0,0:0|0:0,0:0:0:0:
275,190,47108,1,10,0:0:0:0:
331,279,47295,1,10,0:0:0:0:
272,200,47858,6,0,P|228:180|207:147,1,70,8|0,0:0|0:0,0:0:0:0:
212,151,48233,1,10,0:0:0:0:
156,240,48420,1,10,0:0:0:0:
184,96,48795,5,0,0:0:0:0:
304,144,48983,2,0,P|304:184|280:224,1,70
192,160,49358,1,0,0:0:0:0:
192,160,49545,2,0,P|176:240|204:304,1,140
296,212,50108,1,0,0:0:0:0:
376,80,50295,1,0,0:0:0:0:
216,84,50483,6,0,P|172:84|136:96,1,70
64,220,50858,1,0,0:0:0:0:
228,220,51045,1,0,0:0:0:0:
228,220,51233,2,0,P|272:220|308:208,2,70
248,68,51795,5,0,0:0:0:0:
364,144,51983,1,0,0:0:0:0:
240,208,52170,1,0,0:0:0:0:
364,272,52358,1,0,0:0:0:0:
364,272,52545,2,0,P|372:308|360:352,2,70
172,224,53108,1,0,0:0:0:0:
248,292,53295,1,0,0:0:0:0:
268,196,53483,6,2,P|244:152|216:132,1,70,10|2,0:0|0:0,0:0:0:0:
128,88,53858,2,2,P|184:64|208:68,1,70,10|2,0:0|0:0,0:0:0:0:
340,96,54233,2,2,P|284:72|260:76,2,70,10|2|2,0:0|0:0|0:0,0:0:0:0:
316,172,54795,6,0,P|272:232|200:260,1,140
200,124,55358,1,0,0:0:0:0:
340,88,55545,2,0,P|380:112|396:132,1,70
344,252,55920,2,0,P|304:228|288:207,1,70
172,176,56295,6,0,P|216:115|288:87,1,140
288,223,56858,1,0,0:0:0:0:
147,259,57045,2,0,P|107:234|91:214,1,70
144,95,57420,2,0,P|183:118|199:139,1,70
224,320,57795,5,0,0:0:0:0:
344,188,57983,2,0,P|372:160|376:120,2,70
216,72,58545,1,0,0:0:0:0:
124,184,58733,6,0,P|148:220|180:236,1,70,8|0,0:0|0:0,0:0:0:0:
188,236,59108,1,10,0:0:0:0:
244,128,59295,1,10,0:0:0:0:
388,184,59858,6,0,P|364:220|332:236,1,70,8|0,0:0|0:0,0:0:0:0:
324,236,60233,1,10,0:0:0:0:
268,128,60420,1,10,0:0:0:0:
140,292,60983,5,10,0:0:0:0:
256,88,61358,1,10,0:0:0:0:
372,292,61733,1,10,0:0:0:0:
256,192,61920,12,0,63045,0:0:0:0:
416,140,63233,6,0,L|376:180,1,52.5000020027161
332,308,63608,1,0,0:0:0:0:
240,192,63795,1,0,0:0:0:0:
96,140,63983,2,0,L|136:180,1,52.5000020027161
180,308,64358,1,4,0:0:0:0:
272,192,64545,1,0,0:0:0:0:
176,84,64733,2,0,L|116:68,1,52.5000020027161
164,196,65108,6,0,L|128:240,1,52.5000020027161
232,240,65483,2,0,L|212:296,1,52.5000020027161
312,272,65858,2,0,L|312:336,1,52.5000020027161,4|0,0:0|0:0,0:0:0:0:
420,176,66233,2,0,L|448:120,1,52.5000020027161
340,64,66608,6,0,L|312:120,1,52.5000020027161
232,128,66983,1,0,0:0:0:0:
336,232,67170,1,0,0:0:0:0:
232,128,67358,1,4,0:0:0:0:
333,272,67545,1,0,0:0:0:0:
188,180,67733,2,0,L|116:180,1,52.5000020027161
252,288,68108,6,0,L|196:336,1,52.5000020027161
336,328,68483,1,0,0:0:0:0:
288,164,68670,1,0,0:0:0:0:
372,172,68858,2,0,L|368:108,1,52.5000020027161,4|0,0:0|0:0,0:0:0:0:
272,156,69233,2,0,L|208:188,1,52.5000020027161
136,72,69608,5,0,0:0:0:0:
72,156,69795,1,0,0:0:0:0:
72,156,69983,1,0,0:0:0:0:
168,200,70170,1,0,0:0:0:0:
168,200,70358,1,4,0:0:0:0:
264,240,70545,1,0,0:0:0:0:
264,240,70733,2,0,L|328:244,1,52.5000020027161
376,108,71108,6,0,L|344:156,1,52.5000020027161
248,52,71483,2,0,L|272:104,1,52.5000020027161
308,204,71858,2,0,L|312:260,1,52.5000020027161,4|0,0:0|0:0,0:0:0:0:
144,208,72233,2,0,L|152:144,1,52.5000020027161
340,188,72608,5,0,0:0:0:0:
208,300,72795,1,0,0:0:0:0:
124,148,72983,1,0,0:0:0:0:
316,272,73170,1,0,0:0:0:0:
144,248,73357,1,0,0:0:0:0:
244,96,73545,1,0,0:0:0:0:
280,248,73733,6,2,L|248:296,2,52.5000020027161
412,188,74295,1,2,0:0:0:0:
208,192,74483,1,2,0:0:0:0:
412,188,74670,1,2,0:0:0:0:
264,88,74858,1,10,0:0:0:0:
160,172,75233,6,0,L|176:228,1,52.5000020027161
364,256,75608,2,0,L|344:196,1,52.5000020027161
368,40,75983,1,0,0:0:0:0:
324,176,76170,1,0,0:0:0:0:
212,88,76358,1,4,0:0:0:0:
112,188,76545,1,0,0:0:0:0:
228,120,76733,2,0,L|256:192,1,52.5000020027161
156,280,77108,6,0,L|216:300,1,52.5000020027161
360,272,77483,1,0,0:0:0:0:
360,180,77670,2,0,L|300:200,1,52.5000020027161,0|4,0:0|0:0,0:0:0:0:
156,172,78045,1,0,0:0:0:0:
260,96,78233,2,0,L|320:88,1,52.5000020027161
252,212,78608,5,0,0:0:0:0:
352,308,78795,1,0,0:0:0:0:
112,248,78983,2,0,L|88:300,1,52.5000020027161
96,160,79358,2,0,L|119:107,1,52.5000020027161,4|0,0:0|0:0,0:0:0:0:
268,68,79733,2,0,L|240:132,1,52.5000020027161
328,256,80108,5,0,0:0:0:0:
164,288,80295,1,0,0:0:0:0:
224,136,80483,1,0,0:0:0:0:
233,295,80670,1,0,0:0:0:0:
84,219,80857,1,4,0:0:0:0:
224,136,81045,1,0,0:0:0:0:
400,136,81233,2,0,L|436:184,1,52.5000020027161
300,232,81608,5,0,0:0:0:0:
256,92,81795,1,0,0:0:0:0:
211,232,81983,1,0,0:0:0:0:
256,92,82170,1,0,0:0:0:0:
132,92,82358,1,4,0:0:0:0:
380,92,82545,1,0,0:0:0:0:
256,212,82733,2,0,L|256:268,1,52.5000020027161
152,316,83108,5,0,0:0:0:0:
184,180,83295,1,0,0:0:0:0:
328,180,83483,1,0,0:0:0:0:
360,316,83670,1,0,0:0:0:0:
256,280,83858,2,0,L|296:216,1,52.5000020027161,4|0,0:0|0:0,0:0:0:0:
184,200,84233,2,0,L|144:152,1,52.5000020027161
240,72,84608,5,0,0:0:0:0:
368,128,84795,1,0,0:0:0:0:
228,168,84983,2,0,L|204:216,1,52.5000020027161
288,228,85358,2,0,P|276:276|284:296,1,52.5000020027161,4|0,0:0|0:0,0:0:0:0:
368,336,85733,2,0,L|360:264,1,52.5000020027161
432,228,86108,2,0,P|444:276|436:296,1,52.5000020027161
320,320,86483,5,0,0:0:0:0:
232,224,86670,1,0,0:0:0:0:
140,320,86858,1,0,0:0:0:0:
68,212,87045,1,0,0:0:0:0:
68,212,87233,2,0,P|63:169|68:153,1,52.5000020027161
224,160,87608,6,0,P|228:202|223:218,1,52.5000020027161
156,288,87983,1,0,0:0:0:0:
152,152,88170,1,0,0:0:0:0:
152,152,88358,1,0,0:0:0:0:
260,148,88545,1,0,0:0:0:0:
376,152,88733,1,0,0:0:0:0:
376,152,88920,2,0,P|372:192|360:216,1,52.5000020027161
252,296,89295,6,0,P|208:292|180:300,2,52.5000020027161
228,168,89858,1,0,0:0:0:0:
88,224,90045,1,0,0:0:0:0:
88,224,90233,2,0,P|80:164|88:108,1,105.000004005432
176,92,90795,1,0,0:0:0:0:
268,68,90983,6,2,P|272:104|268:128,1,52.5000020027161
120,216,91358,2,2,P|160:208|180:208,1,52.5000020027161
392,216,91733,2,2,P|352:208|332:208,2,52.5000020027161
212,304,92295,6,0,P|200:240|216:192,1,105.000004005432
288,148,92858,1,0,0:0:0:0:
208,100,93045,1,0,0:0:0:0:
288,52,93233,2,2,P|332:52|364:60,2,52.5000020027161
140,108,93795,6,0,P|104:144|88:204,1,105.000004005432
192,200,94358,2,0,P|220:208|244:228,1,52.5000020027161
312,312,94733,1,0,0:0:0:0:
432,200,94920,2,2,P|404:208|380:228,1,52.5000020027161
312,136,95295,1,0,0:0:0:0:
192,132,95483,2,0,P|148:140|128:160,2,52.5000020027161
284,232,96045,1,0,0:0:0:0:
392,168,96233,5,2,0:0:0:0:
111,196,96608,1,10,0:0:0:0:
226,318,96795,1,10,0:0:0:0:
118,168,97358,5,2,0:0:0:0:
399,196,97733,1,10,0:0:0:0:
283,318,97920,1,10,0:0:0:0:
156,248,98483,5,10,0:0:0:0:
256,80,98858,1,10,0:0:0:0:
360,252,99233,1,10,0:0:0:0:
96,296,99608,6,0,P|136:260|164:256,1,70
272,320,99983,1,0,0:0:0:0:
288,204,100170,1,0,0:0:0:0:
388,168,100358,2,0,P|400:116|392:92,1,70
136,104,100733,2,0,P|124:156|132:180,1,70
260,260,101108,5,0,0:0:0:0:
408,212,101295,1,0,0:0:0:0:
264,152,101483,2,0,P|212:160|184:176,1,70
272,268,101858,2,0,P|323:260|351:244,1,70
407,152,102233,2,0,P|437:170|456:200,1,70
344,252,102608,5,0,0:0:0:0:
268,152,102795,1,0,0:0:0:0:
140,152,102983,1,0,0:0:0:0:
64,252,103170,1,0,0:0:0:0:
168,264,103358,2,0,P|196:216|196:172,1,70
336,140,103733,2,0,P|308:188|308:232,1,70
424,216,104108,5,0,0:0:0:0:
288,320,104295,1,0,0:0:0:0:
88,216,104483,1,0,0:0:0:0:
224,320,104670,1,0,0:0:0:0:
320,196,104858,1,0,0:0:0:0:
256,324,105045,1,0,0:0:0:0:
256,176,105233,2,0,P|232:136|192:108,1,70
116,236,105608,5,0,0:0:0:0:
248,284,105795,1,0,0:0:0:0:
324,164,105983,2,0,P|360:192|376:220,1,70
264,264,106358,1,0,0:0:0:0:
164,160,106545,1,0,0:0:0:0:
296,64,106733,2,0,P|260:88|240:124,1,70
352,172,107108,5,0,0:0:0:0:
232,232,107295,1,0,0:0:0:0:
212,332,107483,2,0,P|176:320|132:280,1,70
104,176,107858,1,0,0:0:0:0:
224,232,108045,1,0,0:0:0:0:
260,96,108233,2,0,P|220:88|184:96,1,70
344,192,108608,5,0,0:0:0:0:
260,288,108795,2,0,P|220:296|184:288,1,70
116,200,109170,1,0,0:0:0:0:
216,124,109358,2,0,L|296:128,1,70
396,200,109733,2,0,P|364:228|328:228,1,70
212,104,110108,6,0,L|292:56,1,70
268,256,110483,2,0,L|244:180,1,70
128,328,110858,2,0,L|188:268,1,70
136,104,111233,5,2,0:0:0:0:
240,196,111420,1,0,0:0:0:0:
304,72,111608,1,2,0:0:0:0:
388,184,111795,1,0,0:0:0:0:
240,196,111983,1,2,0:0:0:0:
96,200,112358,5,2,0:0:0:0:
164,80,112545,1,0,0:0:0:0:
164,80,112733,2,0,P|208:88|232:112,2,70,2|0|2,0:0|0:0|0:0,0:0:0:0:
156,196,113295,1,0,0:0:0:0:
241,302,113483,2,0,L|280:244,1,70,2|0,0:0|0:0,0:0:0:0:
320,129,113858,2,0,L|352:192,1,70,2|0,0:0|0:0,0:0:0:0:
424,304,114233,5,2,0:0:0:0:
304,292,114420,1,0,0:0:0:0:
184,280,114608,1,2,0:0:0:0:
64,268,114795,1,0,0:0:0:0:
156,192,114983,1,2,0:0:0:0:
88,80,115358,5,2,0:0:0:0:
208,92,115545,1,0,0:0:0:0:
328,104,115733,2,0,L|412:112,1,70,2|0,0:0|0:0,0:0:0:0:
356,192,116108,2,0,L|292:232,2,70,2|0|2,0:0|0:0|0:0,0:0:0:0:
460,124,116858,1,2,0:0:0:0:
288,136,117233,6,0,P|248:176|240:208,2,70,2|0|2,0:0|0:0|0:0,0:0:0:0:
364,232,117795,1,0,0:0:0:0:
260,316,117983,2,0,L|172:304,1,70,2|0,0:0|0:0,0:0:0:0:
188,200,118358,1,2,0:0:0:0:
92,268,118545,2,0,L|32:324,2,70,0|2|0,0:0|0:0|0:0,0:0:0:0:
112,160,119108,2,0,L|172:104,1,70,2|0,0:0|0:0,0:0:0:0:
344,72,119483,5,2,0:0:0:0:
357,204,119670,1,0,0:0:0:0:
219,162,119858,1,2,0:0:0:0:
360,160,120045,5,0,0:0:0:0:
360,160,120232,1,2,0:0:0:0:
360,160,120420,2,0,P|340:200|308:228,2,70,0|2|0,0:0|0:0|0:0,0:0:0:0:
320,84,120983,2,0,P|290:65|256:59,1,70,2|0,0:0|0:0,0:0:0:0:
144,104,121358,1,2,0:0:0:0:
124,208,121545,1,0,0:0:0:0:
124,208,121733,2,0,P|144:248|176:276,2,70,2|0|2,0:0|0:0|0:0,0:0:0:0:
240,156,122295,1,0,0:0:0:0:
240,156,122483,6,0,P|288:156|316:168,1,70,2|0,0:0|0:0,0:0:0:0:
248,264,122858,2,0,P|200:264|172:252,1,70,2|0,0:0|0:0,0:0:0:0:
112,84,123233,5,2,0:0:0:0:
112,84,123326,1,0,0:0:0:0:
112,84,123420,1,0,0:0:0:0:
132,216,123608,1,2,0:0:0:0:
272,192,123795,1,0,0:0:0:0:
408,256,123983,2,0,P|424:200|416:168,2,70,2|2|2,0:0|0:0|0:0,0:0:0:0:
288,304,124545,1,0,0:0:0:0:
168,188,124733,6,0,P|128:232|128:256,2,70,2|0|2,0:0|0:0|0:0,0:0:0:0:
244,276,125295,1,0,0:0:0:0:
384,208,125483,2,0,P|392:164|376:128,1,70,2|0,0:0|0:0,0:0:0:0:
288,68,125858,1,2,0:0:0:0:
200,140,126045,2,0,P|192:184|256:256,1,140
332,148,126608,5,2,0:0:0:0:
308,264,126795,1,0,0:0:0:0:
380,128,126983,1,2,0:0:0:0:
372,268,127170,1,0,0:0:0:0:
236,336,127358,1,2,0:0:0:0:
224,336,127545,2,0,L|156:300,2,70,0|2|0,0:0|0:0|0:0,0:0:0:0:
252,180,128108,1,2,0:0:0:0:
104,220,128295,1,0,0:0:0:0:
116,228,128483,6,2,L|196:256,1,70,10|2,0:0|0:0,0:0:0:0:
368,160,128858,2,2,L|296:184,1,70,10|2,0:0|0:0,0:0:0:0:
136,256,129233,6,0,P|92:252|60:224,2,70,2|2|2,0:0|0:0|0:0,0:0:0:0:
160,120,129795,1,0,0:0:0:0:
136,256,129983,2,0,P|92:252|60:224,2,70,2|2|2,0:0|0:0|0:0,0:0:0:0:
252,192,130545,1,0,0:0:0:0:
376,256,130733,6,2,P|420:252|452:224,2,70
352,120,131295,1,0,0:0:0:0:
376,256,131483,2,2,P|420:252|452:224,2,70
264,184,132045,6,0,P|236:224|244:320,1,140
368,280,132608,1,2,0:0:0:0:
240,336,132795,1,0,0:0:0:0:
76,280,132983,1,2,0:0:0:0:
212,336,133170,1,0,0:0:0:0:
228,188,133358,1,2,0:0:0:0:
76,276,133545,2,10,L|28:216,1,70
284,112,134483,6,0,P|328:128|352:152,2,70
180,120,135045,2,0,P|120:180|120:240,1,140
244,220,135608,1,8,0:0:0:0:
412,216,135795,1,0,0:0:0:0:
232,220,135983,2,0,P|180:228|148:256,1,70,8|0,0:0|0:0,0:0:0:0:
80,160,136358,2,0,L|80:84,2,70,8|0|8,0:0|0:0|0:0,0:0:0:0:
104,288,136920,1,0,0:0:0:0:
104,288,137108,1,8,0:0:0:0:
256,244,137295,6,0,P|308:240|336:256,2,70,0|8|0,0:0|0:0|0:0,0:0:0:0:
148,200,137858,1,0,0:0:0:0:
132,184,138045,2,0,P|124:144|188:72,1,140
336,116,138608,1,8,0:0:0:0:
212,96,138795,1,0,0:0:0:0:
324,192,138983,2,0,L|380:236,1,70,8|0,0:0|0:0,0:0:0:0:
244,256,139358,2,0,L|188:300,1,70,8|0,0:0|0:0,0:0:0:0:
84,168,139733,2,0,L|140:212,2,70,8|0|8,0:0|0:0|0:0,0:0:0:0:
220,84,140295,6,0,B|312:104|312:104|344:144,1,140
272,236,140858,2,0,B|260:196|260:196|276:168,1,70,8|0,0:0|0:0,0:0:0:0:
344,208,141233,1,8,0:0:0:0:
256,316,141420,1,0,0:0:0:0:
204,192,141608,1,8,0:0:0:0:
336,340,141795,6,0,B|428:320|428:320|460:280,1,140,0|0,0:0|0:0,0:0:0:0:
388,188,142358,2,0,B|376:227|376:227|392:256,1,70,8|0,0:0|0:0,0:0:0:0:
460,216,142733,1,8,0:0:0:0:
356,136,142920,1,0,0:0:0:0:
336,136,143014,1,0,0:0:0:0:
316,136,143108,1,8,0:0:0:0:
160,112,143295,6,0,B|136:136|136:136|136:184,2,70,0|8|0,0:0|0:0|0:0,0:0:0:0:
244,176,143858,1,8,0:0:0:0:
244,176,144045,2,0,P|252:216|252:256,2,70,0|8|0,0:0|0:0|0:0,0:0:0:0:
80,236,144608,1,8,0:0:0:0:
240,288,144795,1,0,0:0:0:0:
372,220,145358,6,0,B|400:176|400:176|400:144,1,70
252,128,145733,1,0,0:0:0:0:
396,104,145920,1,0,0:0:0:0:
240,192,146483,6,10,P|272:212|296:232,1,70
156,296,146858,2,10,P|156:240|164:208,1,70
292,168,147233,2,10,P|292:224|284:256,1,70
180,284,147608,6,0,L|116:328,1,70
204,208,147983,2,0,L|268:252,1,70
176,132,148358,2,0,L|112:176,1,70
200,56,148733,2,0,L|264:100,1,70
332,100,149108,6,0,L|396:56,1,70
308,176,149483,2,0,L|244:132,1,70
336,252,149858,2,0,L|400:208,1,70
312,328,150233,2,0,L|248:284,1,70
232,208,150608,6,0,P|256:160|256:124,1,70
176,72,150983,2,0,P|164:124|164:164,1,70
264,228,151358,1,0,0:0:0:0:
264,228,151545,1,0,0:0:0:0:
372,140,151733,6,0,P|336:112|308:96,1,70
224,224,152108,2,0,P|260:196|288:180,1,70
384,308,152483,2,0,P|348:280|320:264,1,70
184,267,152858,2,0,P|155:285|128:308,1,70
232,332,153233,5,4,0:0:0:0:
308,304,153420,2,0,L|292:260,1,35,0|8,0:0|0:0,0:0:0:0:
368,196,153701,2,0,L|328:160,1,35,0|8,0:0|0:0,0:0:0:0:
408,56,153982,2,0,L|352:56,1,35,0|8,0:0|0:0,0:0:0:0:
104,56,154263,2,0,L|139:56,1,35,0|8,0:0|0:0,0:0:0:0:
256,56,154545,1,4,0:0:0:0:
280,52,154733,5,4,0:0:0:0:
204,80,154920,2,0,L|220:124,1,35,0|8,0:0|0:0,0:0:0:0:
144,188,155201,2,0,L|184:224,1,35,0|8,0:0|0:0,0:0:0:0:
104,328,155482,2,0,L|159:328,1,35,0|8,0:0|0:0,0:0:0:0:
408,328,155764,2,0,L|373:328,1,35,0|8,0:0|0:0,0:0:0:0:
256,268,156045,1,4,0:0:0:0:
288,128,156233,6,0,L|328:100,3,35
264,84,156608,2,0,L|220:92,3,35
232,152,156983,2,0,L|204:180,3,35
264,204,157358,2,0,L|272:240,3,35
256,192,157733,12,0,159233,0:0:0:0:
160,88,159983,5,2,0:0:0:0:
288,116,160170,1,2,0:0:0:0:
336,240,160358,1,2,0:0:0:0:
196,176,160545,2,2,P|156:200|128:232,2,70,10|2|2,0:0|0:0|0:0,0:0:0:0:
348,112,161108,2,0,P|400:96|444:96,1,70
412,224,161483,1,2,0:0:0:0:
412,224,161670,2,0,P|368:256|352:276,1,70
256,276,162045,1,0,0:0:0:0:
153,267,162233,2,2,P|129:242|100:224,2,70
296,184,162795,5,0,0:0:0:0:
244,60,162983,2,0,P|288:48|320:52,1,70
420,136,163358,1,0,0:0:0:0:
268,60,163545,2,0,P|224:48|192:52,1,70
92,136,163920,1,0,0:0:0:0:
244,200,164108,2,0,P|268:232|272:264,1,70
132,280,164483,5,10,0:0:0:0:
384,192,164858,1,10,0:0:0:0:
172,48,165233,1,10,0:0:0:0:
356,80,165795,6,0,P|360:160|336:224,1,140
212,172,166358,1,0,0:0:0:0:
176,312,166545,2,0,P|224:316|260:304,1,70
220,148,166920,1,2,0:0:0:0:
292,292,167108,1,2,0:0:0:0:
155,304,167295,6,0,P|152:224|176:160,1,140
300,212,167858,1,0,0:0:0:0:
336,72,168045,2,0,P|288:68|252:80,1,70
292,236,168420,1,2,0:0:0:0:
220,92,168608,1,2,0:0:0:0:
172,260,168795,2,0,P|156:308|136:336,2,70
180,108,169358,2,0,P|200:76|236:60,1,70
376,140,169733,5,2,0:0:0:0:
376,140,169920,1,2,0:0:0:0:
200,268,170108,1,2,0:0:0:0:
200,268,170295,1,10,0:0:0:0:
136,244,170858,5,2,0:0:0:0:
136,244,171045,1,2,0:0:0:0:
312,116,171233,1,2,0:0:0:0:
312,116,171420,1,10,0:0:0:0:
332,240,171795,5,2,0:0:0:0:
332,240,171889,1,2,0:0:0:0:
332,240,171983,2,2,P|268:256|232:256,1,70
160,128,172358,2,2,P|196:108|236:100,2,70
336,180,172920,2,0,P|380:164|400:144,1,70
248,40,173295,1,0,0:0:0:0:
160,192,173483,1,0,0:0:0:0:
256,92,173670,1,0,0:0:0:0:
376,208,173858,6,2,P|392:244|396:288,1,70
228,224,174233,2,2,P|212:188|208:144,1,70
376,136,174608,1,8,0:0:0:0:
196,268,174795,6,0,P|152:276|112:264,2,70
268,84,175358,1,0,0:0:0:0:
268,84,175545,2,0,P|304:64|336:64,2,70
356,212,176108,1,0,0:0:0:0:
404,76,176295,1,0,0:0:0:0:
356,212,176483,2,2,P|324:248|300:256,1,70
224,89,176858,2,2,P|271:99|290:116,1,70
183,270,177233,2,2,P|168:224|173:199,2,70
392,200,177795,6,0,P|404:128|384:56,1,140
144,140,178358,1,0,0:0:0:0:
320,104,178545,2,0,P|328:160|308:180,1,70
140,136,178920,1,0,0:0:0:0:
260,276,179108,1,0,0:0:0:0:
120,200,179295,6,0,P|108:128|128:56,1,140
368,140,179858,1,0,0:0:0:0:
192,104,180045,2,0,P|184:160|204:180,1,70
372,136,180420,1,0,0:0:0:0:
252,276,180608,1,0,0:0:0:0:
156,176,180795,6,0,P|132:132|128:92,2,70
256,52,181358,1,0,0:0:0:0:
356,176,181545,2,0,P|380:132|384:92,2,70
128,216,182108,1,10,0:0:0:0:
268,308,182295,1,10,0:0:0:0:
404,148,182858,5,2,0:0:0:0:
168,184,183233,1,10,0:0:0:0:
76,76,183420,1,10,0:0:0:0:
376,148,183983,5,10,0:0:0:0:
108,244,184358,1,10,0:0:0:0:
388,148,184733,1,10,0:0:0:0:
