osu file format v14

[General]
AudioFilename: audio.mp3
AudioLeadIn: 0
PreviewTime: -1
Countdown: 0
SampleSet: Normal
StackLeniency: 0.4
Mode: 0
LetterboxInBreaks: 0
WidescreenStoryboard: 0

[Editor]
DistanceSpacing: 0.7
BeatDivisor: 8
GridSize: 8
TimelineZoom: 2.1

[Metadata]
Title:202- Sazanami
TitleUnicode:202- Sazanami
Artist:Saradisk
ArtistUnicode:Saradisk
Creator:Bulldog
Version:Insane
Source:
Tags:
BeatmapID:1214919
BeatmapSetID:573521

[Difficulty]
HPDrainRate:3
CircleSize:5
OverallDifficulty:8
ApproachRate:9
SliderMultiplier:1.6
SliderTickRate:1

[Events]
//Background and Video events
0,0,"maxresdefault (1).jpg",0,0
//Break Periods
//Storyboard Layer 0 (Background)
//Storyboard Layer 1 (Fail)
//Storyboard Layer 2 (Pass)
//Storyboard Layer 3 (Foreground)
//Storyboard Sound Samples

[TimingPoints]
902,392.156862745098,4,1,0,64,1,0
12666,-66.6666666666667,4,1,0,70,0,0
27568,-50,4,1,0,75,0,1
52666,-100,4,1,0,53,0,0
65215,-66.6666666666667,4,1,0,70,0,0
76196,387.096774193548,4,1,0,64,1,0
77744,357.142857142857,4,1,0,64,1,0
79172,342.857142857143,4,1,0,64,1,0
80543,333.333333333333,4,1,0,100,1,0
80543,-100,4,1,0,85,0,0
81876,-50,4,1,0,90,0,1
103209,-66.6666666666667,4,1,0,100,0,0

[HitObjects]
113,47,902,5,0,0:0:0:0:
269,111,1098,1,0,0:0:0:0:
140,173,1294,1,0,0:0:0:0:
293,226,1490,1,0,0:0:0:0:
293,226,1588,1,0,0:0:0:0:
293,226,1686,2,0,P|264:257|199:266,1,80
225,164,2078,2,0,P|254:133|319:124,1,80
446,85,2470,5,0,0:0:0:0:
337,173,2666,1,0,0:0:0:0:
474,192,2862,1,0,0:0:0:0:
369,286,3058,1,0,0:0:0:0:
369,286,3156,1,0,0:0:0:0:
369,286,3254,2,0,P|332:301|277:298,1,80
308,237,3647,2,0,L|229:209,1,80
66,147,4039,5,0,0:0:0:0:
228,143,4235,1,0,0:0:0:0:
106,71,4431,1,0,0:0:0:0:
133,208,4627,1,0,1:0:0:0:
133,208,4725,1,0,1:0:0:0:
133,208,4823,2,0,P|146:253|171:290,1,80,0|0,1:0|1:0,1:0:0:0:
240,221,5215,2,0,P|279:217|318:225,1,80
461,289,5607,5,0,0:0:0:0:
339,356,5803,1,0,0:0:0:0:
306,242,6000,1,0,0:0:0:0:
217,358,6196,1,0,0:0:0:0:
217,358,6294,1,0,0:0:0:0:
217,358,6392,2,0,P|181:328|162:287,1,80
175,219,6784,2,0,P|154:184|123:159,1,80
72,98,7176,6,0,P|71:55|117:8,1,80
142,77,7568,2,0,P|175:111|224:119,1,80
285,113,7960,1,0,0:0:0:0:
325,116,8058,1,0,0:0:0:0:
361,133,8156,1,0,0:0:0:0:
389,161,8254,1,0,0:0:0:0:
405,197,8352,1,0,0:0:0:0:
408,236,8451,1,0,0:0:0:0:
396,274,8549,2,0,L|370:328,1,40
333,294,8745,6,0,L|250:327,1,80
191,333,9137,2,0,L|152:242,1,80
139,185,9529,1,0,0:0:0:0:
147,158,9627,1,0,0:0:0:0:
161,133,9725,1,0,0:0:0:0:
181,113,9823,1,0,0:0:0:0:
205,99,9921,1,0,0:0:0:0:
232,93,10019,1,0,0:0:0:0:
264,89,10117,2,0,L|324:97,1,40
309,132,10313,6,0,L|297:217,1,80
107,234,10705,2,0,L|107:152,1,80
181,48,11098,1,0,0:0:0:0:
212,72,11196,1,0,0:0:0:0:
232,108,11294,1,0,0:0:0:0:
231,147,11392,1,0,0:0:0:0:
220,185,11490,1,0,0:0:0:0:
208,223,11588,1,0,0:0:0:0:
201,262,11686,2,0,P|199:290|211:333,1,40
263,295,11882,6,0,L|343:349,1,80
266,228,12274,2,0,L|320:148,1,80
212,192,12666,2,0,P|175:165|101:194,1,120.000004577637
202,260,13058,2,0,P|176:300|202:375,1,120.000004577637
246,319,13451,6,0,P|325:285|367:227,1,120.000004577637
331,120,13843,2,0,P|271:118|201:81,1,120.000004577637
103,41,14235,2,0,L|117:107,1,60.0000022888184
225,174,14529,2,0,L|237:232,1,60.0000022888184
47,85,14823,2,0,L|61:151,1,60.0000022888184
139,215,15019,6,0,P|179:278|253:311,1,120.000004577637
387,179,15411,2,0,P|324:219|291:293,1,120.000004577637
419,309,15803,2,0,L|386:258,1,60.0000022888184
267,206,16098,2,0,L|300:257,1,60.0000022888184
305,135,16392,2,0,L|272:84,1,60.0000022888184
168,57,16588,6,0,P|187:117|161:209,1,120.000004577637
147,315,16980,2,0,P|196:250|268:213,1,120.000004577637
372,151,17372,2,0,L|427:122,1,60.0000022888184
355,225,17666,2,0,L|384:280,1,60.0000022888184
280,200,17960,2,0,L|225:228,1,60.0000022888184
305,135,18156,6,0,L|239:8,1,120.000004577637
149,79,18549,2,0,L|185:150,1,60.0000022888184
259,293,18941,2,0,L|213:206,1,60.0000022888184
89,249,19235,2,0,L|185:199,1,60.0000022888184
307,136,19529,2,0,L|211:186,1,60.0000022888184
89,249,19725,6,0,L|198:192,1,120.000004577637
362,107,20117,2,0,L|396:172,1,60.0000022888184
450,264,20509,2,0,L|364:263,1,60.0000022888184
270,261,20803,2,0,L|326:167,1,60.0000022888184
362,107,21098,2,0,L|426:196,1,60.0000022888184
476,264,21294,6,0,L|355:264,1,120.000004577637
116,148,21686,2,0,L|200:112,1,60.0000022888184
368,88,22078,2,0,L|298:118,1,60.0000022888184
157,232,22372,2,0,L|241:196,1,60.0000022888184
411,175,22666,2,0,L|341:205,1,60.0000022888184
202,336,22862,6,0,L|357:273,1,120.000004577637
467,218,23254,2,0,L|467:134,1,60.0000022888184
253,120,23647,2,0,L|253:181,1,60.0000022888184
438,233,23941,2,0,L|438:149,1,60.0000022888184
220,102,24235,2,0,L|220:163,1,60.0000022888184
218,276,24431,5,0,0:0:0:0:
350,146,24627,1,0,0:0:0:0:
313,327,24823,1,0,0:0:0:0:
409,100,25019,1,0,0:0:0:0:
450,316,25215,1,0,0:0:0:0:
272,133,25411,1,0,0:0:0:0:
444,183,25607,1,0,0:0:0:0:
262,239,25803,1,0,0:0:0:0:
360,82,26000,6,0,L|392:43,1,30.0000011444092
232,156,26392,2,0,L|232:108,1,30.0000011444092
268,212,26588,2,0,L|306:173,1,30.0000011444092
214,251,26784,2,0,P|199:298|247:285,3,120.000004577637
423,169,27568,6,0,P|410:132|379:102,1,80
297,62,27764,1,0,0:0:0:0:
302,274,27960,2,0,P|323:280|399:265,1,80
464,224,28156,1,0,0:0:0:0:
188,134,28352,2,0,B|109:154|109:154|186:190,1,160
200,244,28647,2,0,B|172:323|172:323|245:281,1,160
301,296,28941,2,0,B|323:330|323:330|350:287,1,80
393,166,29137,6,0,B|388:119|397:85|397:85|343:111|308:79,1,160
321,88,29529,2,0,B|326:135|317:169|317:169|371:143|406:175,1,160
396,299,29921,2,0,L|313:322,1,80
334,250,30117,1,0,0:0:0:0:
334,250,30215,2,0,L|250:221,1,80
324,175,30411,1,0,0:0:0:0:
324,175,30509,2,0,L|262:88,1,80
428,215,30705,5,0,0:0:0:0:
428,215,30803,1,0,0:0:0:0:
428,215,30901,1,0,0:0:0:0:
229,332,31098,2,0,P|136:350|51:316,1,160
384,219,31490,2,0,P|350:130|368:40,1,160
384,219,31784,2,0,P|407:247|424:306,1,80
357,67,32078,2,0,P|286:63|257:77,1,80
181,176,32274,6,0,P|160:213|197:183,1,120
79,160,32666,2,0,P|76:246|121:301,1,160
226,80,33058,6,0,P|197:44|199:90,1,120
234,227,33352,2,0,P|270:246|323:254,1,80
469,176,33647,2,0,P|443:207|411:230,1,80
277,163,33843,6,0,P|354:173|415:125,1,160
415,125,34235,2,0,P|338:115|278:164,1,160
397,330,34627,2,0,P|381:261|358:234,1,80
212,121,34921,2,0,P|270:161|305:166,1,80
484,88,35215,2,0,P|420:119|399:147,1,80
264,275,35411,6,0,P|171:280|177:209,1,160
163,233,35803,2,0,P|256:228|250:299,1,160
107,335,36196,2,0,P|85:290|84:235,1,80
212,128,36490,2,0,P|261:136|306:168,1,80
310,325,36784,2,0,P|272:358|219:373,1,80
66,180,36980,6,0,P|81:109|166:36,1,160
259,318,37372,2,0,P|186:326|90:270,1,160
147,202,37764,2,0,P|150:155|181:121,1,80
257,109,38058,2,0,P|301:147|306:179,1,80,0|0,0:3|0:3,0:3:0:0:
288,247,38352,2,0,P|251:270|213:266,1,80,0|0,0:3|0:3,0:3:0:0:
201,49,38549,5,0,0:0:0:0:
419,226,38745,1,0,0:0:0:0:
405,88,38941,1,0,0:0:0:0:
216,267,39137,1,0,0:0:0:0:
235,129,39333,2,0,P|223:106|266:113,1,80
364,275,39529,2,0,P|353:308|320:293,1,80
235,129,39725,2,0,P|223:106|266:113,1,80
364,275,39921,2,0,P|353:308|320:293,1,80
235,129,40117,6,0,P|217:93|318:78,1,160
376,182,40509,2,0,P|281:214|203:221,1,160
78,191,40902,2,0,L|160:158,1,80
328,89,41196,2,0,L|252:121,1,80
44,288,41490,2,0,L|126:255,1,80
284,192,41686,6,0,B|319:175|368:155|444:193,1,160
222,368,42078,2,0,L|190:277,1,80
131,106,42470,1,0,0:0:0:0:
180,80,42568,1,0,0:0:0:0:
235,77,42666,1,0,0:0:0:0:
289,90,42764,2,0,P|352:142|386:228,1,160
365,278,43058,2,0,L|299:324,1,80
276,258,43254,6,0,L|176:231,1,80
118,213,43451,1,0,0:0:0:0:
82,58,43647,2,0,P|165:64|244:101,1,160
363,220,44039,2,0,P|325:232|287:223,1,80
287,48,44333,2,0,P|352:46|380:72,1,80
231,171,44627,2,0,P|229:105|255:77,1,80
408,97,44823,6,0,P|433:150|408:272,1,160
327,354,45215,2,0,P|293:310|281:249,1,80
260,114,45607,2,0,B|245:33|245:33|204:108,1,160
149,118,45902,2,0,B|72:84|72:84|108:160,1,160
90,215,46196,2,0,B|54:234|54:234|95:264,1,80
146,317,46392,6,0,P|201:335|326:331,1,160
412,192,46784,1,0,0:0:0:0:
409,188,46980,2,0,P|351:136|172:122,1,240
122,292,47568,1,0,0:0:0:0:
122,292,47764,1,0,0:0:0:0:
291,350,47960,6,0,P|382:347|455:303,1,160
347,287,48352,2,0,P|270:272|216:215,1,160
289,110,48745,2,0,P|272:177|401:154,1,240
331,159,49137,2,0,L|245:150,1,80
43,135,49529,6,0,L|214:86,1,160
405,43,49921,2,0,L|394:132,1,80
294,230,50313,2,0,B|289:273|289:273|255:232,1,80
260,111,50607,2,0,B|234:78|234:78|221:135,1,80
191,177,50901,2,0,B|164:209|164:209|222:210,1,80
319,149,51098,6,0,B|393:119|393:119|421:212,1,160
285,231,51490,2,0,B|308:307|308:307|382:277,1,160
344,225,51882,2,0,B|418:195|418:195|446:288,1,160
310,307,52274,2,0,B|333:383|333:383|407:353,1,160
376,301,52666,6,0,B|500:241|385:211|258:184|381:156|518:132|366:64|366:64|322:47|257:52|208:63,1,480
64,96,54039,1,0,0:0:0:0:
171,171,54235,2,0,P|204:192|264:189,1,80
116,52,54627,1,0,0:0:0:0:
108,197,54823,2,0,P|109:236|141:282,1,80
234,119,55215,1,0,0:0:0:0:
38,156,55411,2,0,P|32:194|44:245,1,80
254,303,55803,5,0,0:0:0:0:
174,180,56000,2,0,P|141:202|124:238,1,80
254,303,56392,1,0,0:0:0:0:
310,177,56588,2,0,P|274:159|234:163,1,80
254,303,56980,1,0,0:0:0:0:
381,289,57176,2,0,P|381:249|361:214,1,80
250,100,57568,1,0,0:0:0:0:
407,150,57764,2,0,P|377:201|352:221,1,80
168,319,58352,2,0,L|175:226,1,80
352,64,58941,5,0,0:0:0:0:
233,131,59137,2,0,P|253:165|287:184,1,80
412,162,59529,1,0,0:0:0:0:
492,257,59725,2,0,P|472:291|438:310,1,80
296,316,60117,1,0,0:0:0:0:
212,234,60313,2,0,P|201:183|203:144,1,80
264,43,60705,1,0,0:0:0:0:
363,128,60901,2,0,P|374:179|372:217,1,80
301,335,61490,2,0,L|265:250,1,80
148,24,62078,5,0,0:0:0:0:
80,137,62274,2,0,P|100:171|134:190,1,80
273,197,62666,1,0,0:0:0:0:
216,79,62862,2,0,P|178:92|150:120,1,80
86,235,63254,1,0,0:0:0:0:
184,329,63451,2,0,P|215:297|225:255,1,80
377,278,64039,2,0,P|333:268|302:238,1,80
212,113,64431,2,0,L|217:81,7,20
209,126,64823,2,0,L|193:218,1,80
226,311,65215,6,0,P|246:253|310:205,1,120.000004577637
446,335,65607,2,0,P|386:333|333:305,1,120.000004577637
193,191,66000,2,0,L|180:132,1,60.0000022888184
296,47,66294,2,0,L|308:105,1,60.0000022888184
434,174,66588,2,0,L|421:115,1,60.0000022888184
296,47,66784,6,0,P|243:49|179:90,1,120.000004577637
209,293,67176,2,0,P|242:249|248:176,1,120.000004577637
94,56,67568,2,0,L|71:115,1,60.0000022888184
72,255,67862,2,0,L|105:306,1,60.0000022888184
246,309,68156,2,0,L|279:258,1,60.0000022888184
410,163,68352,6,0,P|429:223|403:315,1,120.000004577637
246,309,68745,2,0,P|193:274|155:186,1,120.000004577637
300,122,69137,2,0,L|327:61,1,60.0000022888184
331,240,69431,2,0,L|360:295,1,60.0000022888184
217,199,69725,2,0,L|162:227,1,60.0000022888184
300,122,69921,6,0,P|372:129|433:163,1,120.000004577637
453,292,70313,2,0,L|382:275,1,60.0000022888184
267,330,70705,2,0,L|310:288,1,60.0000022888184
331,222,71000,2,0,L|316:163,1,60.0000022888184
372,45,71294,2,0,L|336:97,1,60.0000022888184
262,122,71490,6,0,P|207:111|135:73,1,120.000004577637
82,202,71882,2,0,L|96:284,1,60.0000022888184
253,347,72274,2,0,L|267:265,1,60.0000022888184
382,256,72568,2,0,L|322:245,1,60.0000022888184
254,36,72862,2,0,L|239:117,1,60.0000022888184
184,137,73058,6,0,P|153:133|81:231,1,120.000004577637
109,341,73451,2,0,L|178:339,1,60.0000022888184
201,195,73843,2,0,L|182:132,1,60.0000022888184
313,265,74137,2,0,L|382:263,1,60.0000022888184
313,96,74431,2,0,L|294:33,1,60.0000022888184
422,177,74627,6,0,P|447:228|264:178,1,480.000018310548
374,86,75705,2,0,L|446:54,1,60.0000022888184
344,246,76000,2,0,L|381:298,1,60.0000022888184
235,280,76196,6,0,B|182:202,1,80
168,171,76583,2,0,B|246:118,1,80
277,104,76970,2,0,B|330:182,1,80
344,213,77357,2,0,B|266:266,1,80
191,309,77744,6,0,B|142:239,1,80
139,127,78101,2,0,B|209:78,1,80
321,75,78458,2,0,B|370:145,1,80
373,257,78815,2,0,B|303:306,1,80
140,341,79172,6,0,B|137:338|139:339|94:264,1,80
107,76,79514,2,0,B|110:73|109:75|184:30,1,80
372,43,79857,2,0,B|375:46|373:45|418:120,1,80
405,308,80200,2,0,B|402:311|403:309|328:354,1,80
136,237,80543,6,0,L|139:172,1,40
210,78,80876,2,0,L|209:118,1,40
185,58,81043,2,0,L|183:97,1,40
77,343,81376,2,0,L|79:282,1,40
139,157,81543,1,0,0:0:0:0:
184,141,81626,1,0,0:0:0:0:
228,124,81709,1,0,0:0:0:0:
272,103,81793,1,0,0:0:0:0:
315,84,81876,6,0,P|426:112|464:220,1,160
454,333,82209,1,0,0:0:0:0:
360,171,82376,1,0,0:0:0:0:
292,349,82543,2,0,P|223:298|229:160,1,160
210,99,82876,2,0,P|269:37|371:46,1,160
451,105,83209,6,0,P|389:188|335:205,1,160
61,279,83543,2,0,P|123:196|177:179,1,160
427,316,83876,2,0,P|324:304|283:265,1,160
213,55,84209,1,0,0:0:0:0:
47,234,84376,1,0,0:0:0:0:
65,286,84459,1,0,0:0:0:0:
113,315,84543,1,0,0:0:0:0:
168,321,84626,1,0,0:0:0:0:
222,308,84709,1,0,0:0:0:0:
320,258,84876,6,0,P|376:187|378:120,1,160
213,55,85209,2,0,P|162:103|159:194,1,160
317,338,85543,1,0,0:0:0:0:
282,201,85709,1,0,0:0:0:0:
155,137,85876,2,0,P|73:177|183:232,1,240
271,138,86209,2,0,P|231:56|176:166,1,240
270,253,86543,2,0,P|353:194|269:137,1,240
153,251,86876,2,0,P|211:336|270:252,1,240
290,63,87209,6,0,P|393:108|421:158,1,160
412,291,87543,1,0,0:0:0:0:
242,160,87709,1,0,0:0:0:0:
319,345,87876,1,0,0:0:0:0:
143,201,88042,1,0,0:0:0:0:
115,350,88209,2,0,L|262:231,1,160
425,328,88542,6,0,P|282:324|241:296,1,160
97,174,88876,1,0,0:0:0:0:
316,211,89042,1,0,0:0:0:0:
316,211,89126,1,0,0:0:0:0:
316,211,89209,1,0,0:0:0:0:
155,66,89376,1,0,0:0:0:0:
78,256,89542,2,0,P|181:354|230:363,1,160
375,325,89876,5,0,0:0:0:0:
162,257,90042,1,0,0:0:0:0:
382,212,90209,1,0,0:0:0:0:
165,153,90376,1,0,0:0:0:0:
387,131,90542,2,0,B|333:97|333:97|292:122|292:122|279:83|279:83|245:99|245:99|185:51|119:84,1,320
36,143,91042,1,0,0:0:0:0:
70,326,91209,6,0,P|111:329|157:315,1,80
215,167,91376,2,0,P|165:191|143:213,1,80
85,351,91542,2,0,P|125:342|165:316,1,80
185,147,91709,2,0,P|146:187|134:215,1,80
231,340,91876,1,0,0:0:0:0:
345,136,92042,1,0,0:0:0:0:
206,250,92209,1,0,0:0:0:0:
431,195,92376,1,0,0:0:0:0:
382,340,92542,6,0,P|306:270|303:186,1,160
302,30,92875,1,0,0:0:0:0:
374,266,93042,1,0,0:0:0:0:
104,181,93209,2,0,P|127:107|216:71,1,160
309,158,93542,2,0,P|285:232|216:268,1,160
196,70,93876,2,0,P|271:90|309:158,1,160
216,268,94209,2,0,P|140:247|102:179,1,160
360,187,94542,1,0,0:0:0:0:
373,241,94626,1,0,0:0:0:0:
350,292,94709,1,0,0:0:0:0:
308,329,94792,2,0,P|249:350|201:349,1,80
102,179,95042,2,0,L|147:113,1,80
248,77,95209,2,0,L|203:143,1,80
164,200,95375,1,0,0:0:0:0:
440,246,95542,6,0,P|391:314|304:362,1,160
71,176,95876,2,0,P|120:109|207:61,1,160
218,180,96209,1,0,0:0:0:0:
315,219,96376,1,0,0:0:0:0:
391,166,96542,2,0,P|347:99|282:53,1,160
121,218,96876,2,0,P|164:284|229:330,1,160
327,335,97209,1,0,0:0:0:0:
401,274,97376,1,0,0:0:0:0:
387,173,97542,2,0,B|377:135|377:135|336:162,1,80
251,225,97709,2,0,B|218:248|218:248|208:210,1,80
216,74,97876,6,0,P|152:34|70:68,1,160
40,325,98209,1,0,0:0:0:0:
141,124,98376,1,0,0:0:0:0:
195,340,98542,1,0,0:0:0:0:
278,131,98709,2,0,L|326:216,1,80
425,231,98876,2,0,L|382:152,1,80
338,60,99042,1,0,0:0:0:0:
141,124,99209,6,0,P|97:180|131:288,1,160
343,310,99542,2,0,P|387:254|353:146,1,160
323,73,99876,1,0,0:0:0:0:
186,265,100042,1,0,0:0:0:0:
302,183,100209,1,0,0:0:0:0:
113,147,100376,1,0,0:0:0:0:
397,206,100542,6,0,P|451:264|406:329,1,160
207,346,100876,2,0,P|153:288|198:222,1,160
397,206,101209,2,0,P|451:148|406:83,1,160
207,38,101542,2,0,P|153:96|198:161,1,160
364,303,101876,5,0,0:0:0:0:
353,70,102042,1,0,0:0:0:0:
227,210,102209,1,0,0:0:0:0:
472,218,102376,1,0,0:0:0:0:
225,336,102542,2,0,P|143:275|130:217,1,160
182,47,102876,2,0,P|264:108|277:166,1,160
73,353,103209,6,0,L|49:222,1,120.000004577637
182,47,103542,2,0,L|193:111,1,60.0000022888184
204,166,103708,2,0,L|218:240,1,60.0000022888184
386,331,103876,2,0,L|375:267,1,60.0000022888184
364,212,104042,2,0,L|350:138,1,60.0000022888184
78,65,104376,1,0,0:0:0:0:
164,261,104542,5,0,0:0:0:0:
315,123,104709,1,0,0:0:0:0:
31,213,104875,1,0,0:0:0:0:
187,85,105042,1,0,0:0:0:0:
322,268,105209,2,0,B|366:318|414:333|414:333|366:319|269:313,1,240.000009155274
80,317,105709,1,0,0:0:0:0:
171,189,105876,6,0,L|242:79,1,120.000004577637
467,80,106209,2,0,L|476:168,1,60.0000022888184
366,157,106376,2,0,L|368:188,1,30.0000011444092
315,185,106459,2,0,L|313:234,1,30.0000011444092
270,214,106542,2,0,P|256:263|198:320,1,120.000004577637
