osu file format v14

[General]
AudioFilename: audio.mp3
AudioLeadIn: 0
PreviewTime: 62483
Countdown: 0
SampleSet: Soft
StackLeniency: 0.7
Mode: 3
LetterboxInBreaks: 0
SpecialStyle: 0
WidescreenStoryboard: 0

[Editor]
Bookmarks: 1392,10120,27574,45029,62483,79938,97392
DistanceSpacing: 0.8
BeatDivisor: 4
GridSize: 32
TimelineZoom: 1.4

[Metadata]
Title:Ren Ren Ai Ai Cir Cir Cula Cula Tion Tion
TitleUnicode:恋恋愛愛サーサーキュレーキュレーションション
Artist:Sara
ArtistUnicode:皿
Creator:Garalulu
Version:Hard Hard
Source:化物語
Tags:breakcore 千石撫子 Sengoku Nadeko 花澤 香菜 Hanazawa Kana bakemonogatari renai circulation
BeatmapID:1447052
BeatmapSetID:683691

[Difficulty]
HPDrainRate:8.5
CircleSize:4
OverallDifficulty:7
ApproachRate:10
SliderMultiplier:1.4
SliderTickRate:1

[Events]
//Background and Video events
0,0,"hoihoii.png",0,0
//Break Periods
//Storyboard Layer 0 (Background)
//Storyboard Layer 1 (Fail)
//Storyboard Layer 2 (Pass)
//Storyboard Layer 3 (Foreground)
//Storyboard Sound Samples

[TimingPoints]
302,272.727272727273,4,2,1,50,1,0
1392,-38.4615384615385,4,2,1,50,0,0
1407.2222,-125,4,2,1,50,0,0
1529,-100,4,2,1,50,0,0
1665,-38.4615384615385,4,2,1,50,0,0
1680.2222,-125,4,2,1,50,0,0
1802,-100,4,2,1,50,0,0
2483,-38.4615384615385,4,2,1,50,0,0
2498.2222,-125,4,2,1,50,0,0
2620,-100,4,2,1,50,0,0
2756.2222,-38.4615384615385,4,2,1,50,0,0
2771,-125,4,2,1,50,0,0
2893,-100,4,2,1,50,0,0
3574,-38.4615384615385,4,2,1,50,0,0
3589.2222,-125,4,2,1,50,0,0
3711,-100,4,2,1,50,0,0
3847,-38.4615384615385,4,2,1,50,0,0
3862.2222,-125,4,2,1,50,0,0
3984,-100,4,2,1,50,0,0
4665,-38.4615384615385,4,2,1,50,0,0
4680.2222,-125,4,2,1,50,0,0
4802,-100,4,2,1,50,0,0
4938,-38.4615384615385,4,2,1,50,0,0
4953.2222,-125,4,2,1,50,0,0
5075,-100,4,2,1,50,0,0
5756,-38.4615384615385,4,2,1,50,0,0
5771.2222,-125,4,2,1,50,0,0
5893,-100,4,2,1,50,0,0
6029,-38.4615384615385,4,2,1,50,0,0
6044.2222,-125,4,2,1,50,0,0
6166,-100,4,2,1,50,0,0
6506,-125,4,2,1,50,0,0
6566.4444,-38.4615384615385,4,2,1,50,0,0
6574,-100,4,2,1,50,0,0
6779,-125,4,2,1,50,0,0
6839.4444,-38.4615384615385,4,2,1,50,0,0
6862.2222,-125,4,2,1,50,0,0
6984,-100,4,2,1,50,0,0
7120,-38.4615384615385,4,2,1,50,0,0
7135.2222,-125,4,2,1,50,0,0
7257,-100,4,2,1,50,0,0
7938,-38.4615384615385,4,2,1,50,0,0
7953.2222,-125,4,2,1,50,0,0
8075,-100,4,2,1,50,0,0
8211,-38.4615384615385,4,2,1,50,0,0
8226.2222,-125,4,2,1,50,0,0
8348,-100,4,2,1,50,0,0
8688,-125,4,2,1,50,0,0
8748.4444,-38.4615384615385,4,2,1,50,0,0
8756,-100,4,2,1,50,0,0
8961,-125,4,2,1,50,0,0
9021.4444,-38.4615384615385,4,2,1,50,0,0
9044.2222,-125,4,2,1,50,0,0
9166,-100,4,2,1,50,0,0
9302,-38.4615384615385,4,2,1,50,0,0
9317,-125,4,2,1,50,0,0
9439,-100,4,2,1,50,0,0
9574,-38.4615384615385,4,2,1,50,0,0
9589,-125,4,2,1,50,0,0
9832,-38.4615384615385,4,2,1,50,0,0
9862.2222,-125,4,2,1,50,0,0
10105,-38.4615384615385,4,2,1,50,0,0
10135.2222,-125,4,2,1,50,0,0
10257,-100,4,2,1,50,0,0
10392,-38.4615384615385,4,2,1,50,0,0
10407.2222,-125,4,2,1,50,0,0
10529,-100,4,2,1,50,0,0
10802,-125,4,2,1,50,0,0
10923.7778,-38.4615384615385,4,2,1,50,0,0
10938,-100,4,2,1,50,0,0
11074,-125,4,2,1,50,0,0
11195.7778,-38.4615384615385,4,2,1,50,0,0
11226.2222,-125,4,2,1,50,0,0
11348,-100,4,2,1,50,0,0
11483,-38.4615384615385,4,2,1,50,0,0
11498.2222,-125,4,2,1,50,0,0
11620,-100,4,2,1,50,0,0
11756,-38.4615384615385,4,2,1,50,0,0
11771.2222,-125,4,2,1,50,0,0
11893,-100,4,2,1,50,0,0
12029,-38.4615384615385,4,2,1,50,0,0
12044.2222,-125,4,2,1,50,0,0
12166,-100,4,2,1,50,0,0
12302,-38.4615384615385,4,2,1,50,0,0
12317.2222,-125,4,2,1,50,0,0
12439,-100,4,2,1,50,0,0
12574,-38.4615384615385,4,2,1,50,0,0
12589.2222,-125,4,2,1,50,0,0
12711,-100,4,2,1,50,0,0
12983,-125,4,2,1,50,0,0
13104.7778,-38.4615384615385,4,2,1,50,0,0
13119,-100,4,2,1,50,0,0
13255,-125,4,2,1,50,0,0
13376.7778,-38.4615384615385,4,2,1,50,0,0
13407.2222,-125,4,2,1,50,0,0
13529,-100,4,2,1,50,0,0
13665,-38.4615384615385,4,2,1,50,0,0
13680.2222,-125,4,2,1,50,0,0
13802,-100,4,2,1,50,0,0
13938,-38.4615384615385,4,2,1,50,0,0
13953.2222,-125,4,2,1,50,0,0
14075,-100,4,2,1,50,0,0
14211,-38.4615384615385,4,2,1,50,0,0
14226.2222,-125,4,2,1,50,0,0
14348,-100,4,2,1,50,0,0
15029,-38.4615384615385,4,2,1,50,0,0
15044.2222,-125,4,2,1,50,0,0
15166,-100,4,2,1,50,0,0
15302,-38.4615384615385,4,2,1,50,0,0
15317.2222,-125,4,2,1,50,0,0
15439,-100,4,2,1,50,0,0
16120,-38.4615384615385,4,2,1,50,0,0
16135.2222,-125,4,2,1,50,0,0
16257,-100,4,2,1,50,0,0
16392,-38.4615384615385,4,2,1,50,0,0
16407.2222,-125,4,2,1,50,0,0
16529,-100,4,2,1,50,0,0
17211,-38.4615384615385,4,2,1,50,0,0
17226.2222,-125,4,2,1,50,0,0
17348,-100,4,2,1,50,0,0
17483,-38.4615384615385,4,2,1,50,0,0
17498.2222,-125,4,2,1,50,0,0
17620,-100,4,2,1,50,0,0
17756,-38.4615384615385,4,2,1,50,0,0
17771.2222,-125,4,2,1,50,0,0
17893,-100,4,2,1,50,0,0
18029,-38.4615384615385,4,2,1,50,0,0
18044.2222,-125,4,2,1,50,0,0
18166,-100,4,2,1,50,0,0
18302,-38.4615384615385,4,2,1,50,0,0
18317.2222,-125,4,2,1,50,0,0
18558.7778,-38.4615384615385,4,2,1,50,0,0
18589.2222,-125,4,2,1,50,0,0
18831.7778,-38.4615384615385,4,2,1,50,0,0
18862.2222,-125,4,2,1,50,0,0
18984,-100,4,2,1,50,0,0
19120,-38.4615384615385,4,2,1,50,0,0
19135.2222,-125,4,2,1,50,0,0
19257,-100,4,2,1,50,0,0
19529,-125,4,2,1,50,0,0
19650.7778,-38.4615384615385,4,2,1,50,0,0
19665,-100,4,2,1,50,0,0
19801,-125,4,2,1,50,0,0
19922.7778,-38.4615384615385,4,2,1,50,0,0
19953.2222,-125,4,2,1,50,0,0
20075,-100,4,2,1,50,0,0
20211,-38.4615384615385,4,2,1,50,0,0
20226.2222,-125,4,2,1,50,0,0
20348,-100,4,2,1,50,0,0
20483,-38.4615384615385,4,2,1,50,0,0
20498.2222,-125,4,2,1,50,0,0
20620,-100,4,2,1,50,0,0
20756,-38.4615384615385,4,2,1,50,0,0
20771.2222,-125,4,2,1,50,0,0
20893,-100,4,2,1,50,0,0
21029,-38.4615384615385,4,2,1,50,0,0
21044.2222,-125,4,2,1,50,0,0
21166,-100,4,2,1,50,0,0
21302,-38.4615384615385,4,2,1,50,0,0
21317.2222,-125,4,2,1,50,0,0
21439,-100,4,2,1,50,0,0
21711,-125,4,2,1,50,0,0
21832.7778,-38.4615384615385,4,2,1,50,0,0
21847,-100,4,2,1,50,0,0
21983,-125,4,2,1,50,0,0
22104.7778,-38.4615384615385,4,2,1,50,0,0
22135.2222,-125,4,2,1,50,0,0
22257,-100,4,2,1,50,0,0
22392,-38.4615384615385,4,2,1,50,0,0
22407.2222,-125,4,2,1,50,0,0
22529,-100,4,2,1,50,0,0
22665,-38.4615384615385,4,2,1,50,0,0
22680.2222,-125,4,2,1,50,0,0
22802,-100,4,2,1,50,0,0
22938,-38.4615384615385,4,2,1,50,0,0
22953.2222,-125,4,2,1,50,0,0
23075,-100,4,2,1,50,0,0
23756,-38.4615384615385,4,2,1,50,0,0
23771.2222,-125,4,2,1,50,0,0
23893,-100,4,2,1,50,0,0
24029,-38.4615384615385,4,2,1,50,0,0
24044.2222,-125,4,2,1,50,0,0
24166,-100,4,2,1,50,0,0
24847,-38.4615384615385,4,2,1,50,0,0
24862.2222,-125,4,2,1,50,0,0
24984,-100,4,2,1,50,0,0
25120,-38.4615384615385,4,2,1,50,0,0
25135.2222,-125,4,2,1,50,0,0
25257,-100,4,2,1,50,0,0
25938,-38.4615384615385,4,2,1,50,0,0
25953.2222,-125,4,2,1,50,0,0
26075,-100,4,2,1,50,0,0
26211,-38.4615384615385,4,2,1,50,0,0
26226.2222,-125,4,2,1,50,0,0
26348,-100,4,2,1,50,0,0
46120,-38.4615384615385,4,2,1,50,0,0
46135.2222,-125,4,2,1,50,0,0
46378.7778,-38.4615384615385,4,2,1,50,0,0
46408.2222,-125,4,2,1,50,0,0
46651.7778,-38.4615384615385,4,2,1,50,0,0
46665,-100,4,2,1,50,0,0
47756,-38.4615384615385,4,2,1,50,0,0
47771.2222,-125,4,2,1,50,0,0
48014.7778,-38.4615384615385,4,2,1,50,0,0
48044.2222,-125,4,2,1,50,0,0
48287.7778,-38.4615384615385,4,2,1,50,0,0
48302,-100,4,2,1,50,0,0
54847,-38.4615384615385,4,2,1,50,0,0
54862.2222,-125,4,2,1,50,0,0
55105.7778,-38.4615384615385,4,2,1,50,0,0
55135.2222,-125,4,2,1,50,0,0
55378.7778,-38.4615384615385,4,2,1,50,0,0
55392,-100,4,2,1,50,0,0
56483,-38.4615384615385,4,2,1,50,0,0
56498.2222,-125,4,2,1,50,0,0
56741.7778,-38.4615384615385,4,2,1,50,0,0
56771.2222,-125,4,2,1,50,0,0
57014.7778,-38.4615384615385,4,2,1,50,0,0
57029,-100,4,2,1,50,0,0
62483,-38.4615384615385,4,2,1,50,0,1
62498.2222,-125,4,2,1,50,0,1
62620,-100,4,2,1,50,0,1
62756,-38.4615384615385,4,2,1,50,0,1
62771.2222,-125,4,2,1,50,0,1
62893,-100,4,2,1,50,0,1
63165,-125,4,2,1,50,0,1
63286.7778,-38.4615384615385,4,2,1,50,0,1
63301,-100,4,2,1,50,0,1
63437,-125,4,2,1,50,0,1
63558.7778,-38.4615384615385,4,2,1,50,0,1
63589.2222,-125,4,2,1,50,0,1
63711,-100,4,2,1,50,0,1
63846,-38.4615384615385,4,2,1,50,0,1
63861.2222,-125,4,2,1,50,0,1
63983,-100,4,2,1,50,0,1
64120,-38.4615384615385,4,2,1,50,0,1
64135.2222,-125,4,2,1,50,0,1
64257,-100,4,2,1,50,0,1
64392,-38.4615384615385,4,2,1,50,0,1
64407.2222,-125,4,2,1,50,0,1
64529,-100,4,2,1,50,0,1
64665,-38.4615384615385,4,2,1,50,0,1
64680.2222,-125,4,2,1,50,0,1
64802,-100,4,2,1,50,0,1
64938,-38.4615384615385,4,2,1,50,0,1
64953.2222,-125,4,2,1,50,0,1
65075,-100,4,2,1,50,0,1
65347,-125,4,2,1,50,0,1
65468.7778,-38.4615384615385,4,2,1,50,0,1
65484,-100,4,2,1,50,0,1
65620,-125,4,2,1,50,0,1
65741.7778,-38.4615384615385,4,2,1,50,0,1
65757,-100,4,2,1,50,0,1
66029,-38.4615384615385,4,2,1,50,0,1
66044.2222,-125,4,2,1,50,0,1
66166,-100,4,2,1,50,0,1
66301,-38.4615384615385,4,2,1,50,0,1
66316.2222,-125,4,2,1,50,0,1
66438,-100,4,2,1,50,0,1
66574,-38.4615384615385,4,2,1,50,0,1
66589.2222,-125,4,2,1,50,0,1
66711,-100,4,2,1,50,0,1
67392,-38.4615384615385,4,2,1,50,0,1
67407.2222,-125,4,2,1,50,0,1
67529,-100,4,2,1,50,0,1
67665,-38.4615384615385,4,2,1,50,0,1
67680.2222,-125,4,2,1,50,0,1
67802,-100,4,2,1,50,0,1
68483,-38.4615384615385,4,2,1,50,0,1
68498.2222,-125,4,2,1,50,0,1
68620,-100,4,2,1,50,0,1
68755,-38.4615384615385,4,2,1,50,0,1
68770.2222,-125,4,2,1,50,0,1
68892,-100,4,2,1,50,0,1
69574,-38.4615384615385,4,2,1,50,0,1
69589.2222,-125,4,2,1,50,0,1
69711,-100,4,2,1,50,0,1
69846,-38.4615384615385,4,2,1,50,0,1
69861.2222,-125,4,2,1,50,0,1
69983,-100,4,2,1,50,0,1
70665,-38.4615384615385,4,2,1,50,0,1
70680.2222,-125,4,2,1,50,0,1
70923,-38.4615384615385,4,2,1,50,0,1
70953.2222,-125,4,2,1,50,0,1
71196.7778,-38.4615384615385,4,2,1,50,0,1
71225.2222,-125,4,2,1,50,0,1
71347,-100,4,2,1,50,0,1
71483,-38.4615384615385,4,2,1,50,0,1
71498.2222,-125,4,2,1,50,0,1
71620,-100,4,2,1,50,0,1
71892,-125,4,2,1,50,0,1
72013.7778,-38.4615384615385,4,2,1,50,0,1
72028,-100,4,2,1,50,0,1
72165,-125,4,2,1,50,0,1
72286.7778,-38.4615384615385,4,2,1,50,0,1
72316.2222,-125,4,2,1,50,0,1
72438,-100,4,2,1,50,0,1
72574,-38.4615384615385,4,2,1,50,0,1
72589.2222,-125,4,2,1,50,0,1
72711,-100,4,2,1,50,0,1
72847,-38.4615384615385,4,2,1,50,0,1
72862.2222,-125,4,2,1,50,0,1
72984,-100,4,2,1,50,0,1
73120,-38.4615384615385,4,2,1,50,0,1
73135.2222,-125,4,2,1,50,0,1
73257,-100,4,2,1,50,0,1
73392,-38.4615384615385,4,2,1,50,0,1
73407.2222,-125,4,2,1,50,0,1
73529,-100,4,2,1,50,0,1
73665,-38.4615384615385,4,2,1,50,0,1
73680.2222,-125,4,2,1,50,0,1
73802,-100,4,2,1,50,0,1
74074,-125,4,2,1,50,0,1
74195.7778,-38.4615384615385,4,2,1,50,0,1
74210,-100,4,2,1,50,0,1
74347,-125,4,2,1,50,0,1
74468.7778,-38.4615384615385,4,2,1,50,0,1
74498.2222,-125,4,2,1,50,0,1
74620,-100,4,2,1,50,0,1
74755,-38.4615384615385,4,2,1,50,0,1
74770.2222,-125,4,2,1,50,0,1
74892,-100,4,2,1,50,0,1
75028,-38.4615384615385,4,2,1,50,0,1
75043.2222,-125,4,2,1,50,0,1
75165,-38.4615384615385,4,2,1,50,0,1
75172.4444,-125,4,2,1,50,0,1
75234,-100,4,2,1,50,0,1
75301,-38.4615384615385,4,2,1,50,0,1
75316.2222,-125,4,2,1,50,0,1
75438,-38.4615384615385,4,2,1,50,0,1
75445.4444,-125,4,2,1,50,0,1
75507,-100,4,2,1,50,0,1
76119,-38.4615384615385,4,2,1,50,0,1
76134.2222,-125,4,2,1,50,0,1
76256,-100,4,2,1,50,0,1
76392,-38.4615384615385,4,2,1,50,0,1
76407.2222,-125,4,2,1,50,0,1
76529,-100,4,2,1,50,0,1
77210,-38.4615384615385,4,2,1,50,0,1
77225.2222,-125,4,2,1,50,0,1
77347,-100,4,2,1,50,0,1
77483,-38.4615384615385,4,2,1,50,0,1
77498.2222,-125,4,2,1,50,0,1
77620,-100,4,2,1,50,0,1
77756,-38.4615384615385,4,2,1,50,0,1
77763.4444,-125,4,2,1,50,0,1
77825,-100,4,2,1,50,0,1
78029,-38.4615384615385,4,2,1,50,0,1
78036.4444,-125,4,2,1,50,0,1
78098,-100,4,2,1,50,0,1
78301,-38.4615384615385,4,2,1,50,0,1
78316.2222,-125,4,2,1,50,0,1
78438,-100,4,2,1,50,0,1
78574,-38.4615384615385,4,2,1,50,0,1
78581.4444,-125,4,2,1,50,0,1
78643,-100,4,2,1,50,0,1
79392,-100,4,2,1,50,0,0
79938,-38.4615384615385,4,2,1,50,0,0
79953.2222,-125,4,2,1,50,0,0
80074,-100,4,2,1,50,0,0
80211,-38.4615384615385,4,2,1,50,0,0
80226.2222,-125,4,2,1,50,0,0
80347,-100,4,2,1,50,0,0
81029,-38.4615384615385,4,2,1,50,0,0
81044.2222,-125,4,2,1,50,0,0
81165,-100,4,2,1,50,0,0
81302,-38.4615384615385,4,2,1,50,0,0
81317.2222,-125,4,2,1,50,0,0
81438,-100,4,2,1,50,0,0
82120,-38.4615384615385,4,2,1,50,0,0
82135.2222,-125,4,2,1,50,0,0
82256,-100,4,2,1,50,0,0
82393,-38.4615384615385,4,2,1,50,0,0
82408.2222,-125,4,2,1,50,0,0
82529,-100,4,2,1,50,0,0
83211,-38.4615384615385,4,2,1,50,0,0
83226.2222,-125,4,2,1,50,0,0
83347,-100,4,2,1,50,0,0
83484,-38.4615384615385,4,2,1,50,0,0
83499.2222,-125,4,2,1,50,0,0
83620,-100,4,2,1,50,0,0
84302,-38.4615384615385,4,2,1,50,0,0
84317.2222,-125,4,2,1,50,0,0
84438,-100,4,2,1,50,0,0
84575,-38.4615384615385,4,2,1,50,0,0
84590.2222,-125,4,2,1,50,0,0
84711,-100,4,2,1,50,0,0
85052,-125,4,2,1,50,0,0
85112.4444,-38.4615384615385,4,2,1,50,0,0
85120,-100,4,2,1,50,0,0
85324,-125,4,2,1,50,0,0
85384.4444,-38.4615384615385,4,2,1,50,0,0
85408.2222,-125,4,2,1,50,0,0
85529,-100,4,2,1,50,0,0
85666,-38.4615384615385,4,2,1,50,0,0
85681.2222,-125,4,2,1,50,0,0
85802,-100,4,2,1,50,0,0
86484,-38.4615384615385,4,2,1,50,0,0
86499.2222,-125,4,2,1,50,0,0
86620,-100,4,2,1,50,0,0
86757,-38.4615384615385,4,2,1,50,0,0
86772.2222,-125,4,2,1,50,0,0
86893,-100,4,2,1,50,0,0
87233,-125,4,2,1,50,0,0
87293.4444,-38.4615384615385,4,2,1,50,0,0
87301,-100,4,2,1,50,0,0
87506,-125,4,2,1,50,0,0
87566.4444,-38.4615384615385,4,2,1,50,0,0
87590.2222,-125,4,2,1,50,0,0
87711,-100,4,2,1,50,0,0
87848,-38.4615384615385,4,2,1,50,0,0
87863.2222,-125,4,2,1,50,0,0
87984,-100,4,2,1,50,0,0
88120,-38.4615384615385,4,2,1,50,0,0
88135.2222,-125,4,2,1,50,0,0
88378.7778,-38.4615384615385,4,2,1,50,0,0
88408.2222,-125,4,2,1,50,0,0
88651.7778,-38.4615384615385,4,2,1,50,0,0
88680.2222,-125,4,2,1,50,0,0
88801,-100,4,2,1,50,0,0
88938,-38.4615384615385,4,2,1,50,0,0
88953.2222,-125,4,2,1,50,0,0
89074,-100,4,2,1,50,0,0
89756,-38.4615384615385,4,2,1,50,0,0
89771.2222,-125,4,2,1,50,0,0
89892,-100,4,2,1,50,0,0
90029,-38.4615384615385,4,2,1,50,0,0
90044.2222,-125,4,2,1,50,0,0
90165,-100,4,2,1,50,0,0
90847,-38.4615384615385,4,2,1,50,0,0
90862.2222,-125,4,2,1,50,0,0
90983,-100,4,2,1,50,0,0
91120,-38.4615384615385,4,2,1,50,0,0
91135.2222,-125,4,2,1,50,0,0
91256,-100,4,2,1,50,0,0
91938,-38.4615384615385,4,2,1,50,0,0
91953.2222,-125,4,2,1,50,0,0
92074,-100,4,2,1,50,0,0
92211,-38.4615384615385,4,2,1,50,0,0
92226.2222,-125,4,2,1,50,0,0
92347,-100,4,2,1,50,0,0
93029,-38.4615384615385,4,2,1,50,0,0
93044.2222,-125,4,2,1,50,0,0
93165,-100,4,2,1,50,0,0
93302,-38.4615384615385,4,2,1,50,0,0
93317.2222,-125,4,2,1,50,0,0
93438,-100,4,2,1,50,0,0
93779,-125,4,2,1,50,0,0
93839.4444,-38.4615384615385,4,2,1,50,0,0
93847,-100,4,2,1,50,0,0
94052,-125,4,2,1,50,0,0
94112.4444,-38.4615384615385,4,2,1,50,0,0
94135.2222,-125,4,2,1,50,0,0
94256,-100,4,2,1,50,0,0
94393,-38.4615384615385,4,2,1,50,0,0
94408.2222,-125,4,2,1,50,0,0
94529,-100,4,2,1,50,0,0
95211,-38.4615384615385,4,2,1,50,0,0
95226.2222,-125,4,2,1,50,0,0
95347,-100,4,2,1,50,0,0
95484,-38.4615384615385,4,2,1,50,0,0
95499.2222,-125,4,2,1,50,0,0
95620,-100,4,2,1,50,0,0
96302,-38.4615384615385,4,2,1,50,0,0
96317.2222,-125,4,2,1,50,0,0
96438,-100,4,2,1,50,0,0
96574,-38.4615384615385,4,2,1,50,0,0
96581.2222,-125,4,2,1,50,0,0
96642,-100,4,2,1,50,0,0
96847,-38.4615384615385,4,2,1,50,0,0
96862.2222,-125,4,2,1,50,0,0
96983,-100,4,2,1,50,0,0

[HitObjects]
64,192,574,128,0,847:0:0:0:0:
448,192,574,128,0,847:0:0:0:0:
192,192,847,1,0,0:0:0:0:
320,192,983,128,0,1120:0:0:0:0:
192,192,1120,1,0,0:0:0:0:
320,192,1256,128,0,1392:0:0:0:0:
64,192,1392,128,0,1665:0:0:0:0:
448,192,1529,128,0,1665:0:0:0:0:
192,192,1665,128,0,2211:0:0:0:0:
320,192,1802,128,0,1938:0:0:0:0:
448,192,2074,128,0,2211:0:0:0:0:
64,192,2211,128,0,2483:0:0:0:0:
320,192,2347,128,0,2483:0:0:0:0:
448,192,2483,128,0,2688:0:0:0:0:
192,192,2620,128,0,2756:0:0:0:0:
320,192,2688,128,0,2756:0:0:0:0:
64,192,2756,128,0,2961:0:0:0:0:
320,192,2892,128,0,3029:0:0:0:0:
192,192,2961,128,0,3029:0:0:0:0:
448,192,3029,128,0,3097:0:0:0:0:
64,192,3097,128,0,3165:0:0:0:0:
192,192,3165,128,0,3302:0:0:0:0:
448,192,3302,128,0,3370:0:0:0:0:
64,192,3370,128,0,3438:0:0:0:0:
192,192,3438,128,0,3574:0:0:0:0:
448,192,3574,128,0,3847:0:0:0:0:
64,192,3711,128,0,3847:0:0:0:0:
320,192,3847,128,0,4392:0:0:0:0:
192,192,3983,128,0,4120:0:0:0:0:
64,192,4256,128,0,4392:0:0:0:0:
448,192,4392,128,0,4665:0:0:0:0:
192,192,4529,128,0,4665:0:0:0:0:
64,192,4665,128,0,4870:0:0:0:0:
320,192,4802,128,0,4938:0:0:0:0:
192,192,4870,128,0,4938:0:0:0:0:
448,192,4938,128,0,5142:0:0:0:0:
192,192,5074,128,0,5211:0:0:0:0:
320,192,5142,128,0,5211:0:0:0:0:
64,192,5211,128,0,5279:0:0:0:0:
448,192,5279,128,0,5347:0:0:0:0:
320,192,5347,128,0,5483:0:0:0:0:
64,192,5483,128,0,5552:0:0:0:0:
448,192,5552,128,0,5620:0:0:0:0:
320,192,5620,128,0,5756:0:0:0:0:
64,192,5756,128,0,6029:0:0:0:0:
448,192,5892,128,0,6029:0:0:0:0:
192,192,6029,128,0,6574:0:0:0:0:
320,192,6165,128,0,6302:0:0:0:0:
448,192,6438,128,0,6574:0:0:0:0:
64,192,6574,128,0,6847:0:0:0:0:
320,192,6711,128,0,6847:0:0:0:0:
448,192,6847,128,0,7052:0:0:0:0:
192,192,6983,128,0,7120:0:0:0:0:
320,192,7052,128,0,7120:0:0:0:0:
64,192,7120,128,0,7324:0:0:0:0:
320,192,7256,128,0,7392:0:0:0:0:
192,192,7324,128,0,7392:0:0:0:0:
448,192,7392,128,0,7461:0:0:0:0:
64,192,7461,128,0,7529:0:0:0:0:
192,192,7529,128,0,7665:0:0:0:0:
448,192,7665,128,0,7733:0:0:0:0:
64,192,7733,128,0,7802:0:0:0:0:
192,192,7802,128,0,7938:0:0:0:0:
448,192,7938,128,0,8211:0:0:0:0:
64,192,8074,128,0,8211:0:0:0:0:
320,192,8211,128,0,8756:0:0:0:0:
192,192,8347,128,0,8483:0:0:0:0:
64,192,8620,128,0,8756:0:0:0:0:
448,192,8756,128,0,9029:0:0:0:0:
192,192,8892,128,0,9029:0:0:0:0:
64,192,9029,128,0,9233:0:0:0:0:
320,192,9165,128,0,9302:0:0:0:0:
192,192,9233,128,0,9302:0:0:0:0:
448,192,9302,128,0,9506:0:0:0:0:
192,192,9438,128,0,9574:0:0:0:0:
320,192,9506,128,0,9574:0:0:0:0:
64,192,9574,1,0,0:0:0:0:
448,192,9574,1,8,0:0:0:0:
64,192,9847,1,0,0:0:0:0:
448,192,9847,1,8,0:0:0:0:
64,192,10120,128,2,10324:0:0:0:0:
448,192,10120,1,4,0:0:0:0:
192,192,10120,1,0,0:0:0:0:
320,192,10324,128,0,10392:0:0:0:0:
64,192,10392,128,2,10597:0:0:0:0:
448,192,10392,1,0,0:0:0:0:
320,192,10597,128,0,10665:0:0:0:0:
64,192,10665,128,8,10802:0:0:0:0:
448,192,10665,1,0,0:0:0:0:
192,192,10733,128,0,10802:0:0:0:0:
320,192,10802,1,0,0:0:0:0:
448,192,10938,128,8,11074:0:0:0:0:
64,192,10938,1,0,0:0:0:0:
320,192,11006,128,0,11074:0:0:0:0:
192,192,11074,1,0,0:0:0:0:
64,192,11211,128,2,11415:0:0:0:0:
448,192,11211,1,0,0:0:0:0:
192,192,11415,128,0,11483:0:0:0:0:
448,192,11483,128,2,11688:0:0:0:0:
64,192,11483,1,0,0:0:0:0:
320,192,11688,128,0,11756:0:0:0:0:
64,192,11756,128,8,11892:0:0:0:0:
448,192,11756,1,0,0:0:0:0:
320,192,11892,128,0,12029:0:0:0:0:
64,192,11961,128,0,12029:0:0:0:0:
192,192,12029,1,0,0:0:0:0:
448,192,12029,128,8,12165:0:0:0:0:
192,192,12165,128,0,12302:0:0:0:0:
448,192,12233,128,0,12302:0:0:0:0:
320,192,12302,128,2,12506:0:0:0:0:
64,192,12302,1,0,0:0:0:0:
64,192,12506,128,0,12574:0:0:0:0:
320,192,12574,128,2,12779:0:0:0:0:
448,192,12574,1,0,0:0:0:0:
192,192,12779,128,0,12847:0:0:0:0:
448,192,12847,128,8,12983:0:0:0:0:
64,192,12847,1,0,0:0:0:0:
320,192,12915,128,0,12983:0:0:0:0:
192,192,12983,1,0,0:0:0:0:
64,192,13120,128,8,13256:0:0:0:0:
448,192,13120,1,0,0:0:0:0:
192,192,13188,128,0,13256:0:0:0:0:
320,192,13256,1,0,0:0:0:0:
320,192,13392,128,2,13597:0:0:0:0:
192,192,13392,1,0,0:0:0:0:
448,192,13597,128,0,13665:0:0:0:0:
320,192,13665,1,0,0:0:0:0:
192,192,13665,128,2,13870:0:0:0:0:
64,192,13870,128,0,13938:0:0:0:0:
448,192,13938,1,0,0:0:0:0:
192,192,13938,1,8,0:0:0:0:
448,192,14074,128,0,14142:0:0:0:0:
320,192,14211,1,0,0:0:0:0:
64,192,14211,1,8,0:0:0:0:
320,192,14347,128,0,14415:0:0:0:0:
448,192,14483,128,2,14620:0:0:0:0:
192,192,14483,1,0,0:0:0:0:
64,192,14620,128,0,14688:0:0:0:0:
192,192,14688,128,0,14756:0:0:0:0:
320,192,14756,128,0,14824:0:0:0:0:
448,192,14756,128,2,14824:0:0:0:0:
64,192,14892,128,0,14961:0:0:0:0:
448,192,14961,128,0,15029:0:0:0:0:
64,192,15029,1,8,0:0:0:0:
192,192,15029,1,0,0:0:0:0:
320,192,15165,128,0,15233:0:0:0:0:
448,192,15302,1,8,0:0:0:0:
320,192,15302,1,0,0:0:0:0:
192,192,15438,128,0,15506:0:0:0:0:
192,192,15574,1,0,0:0:0:0:
64,192,15574,128,2,15711:0:0:0:0:
448,192,15711,128,0,15779:0:0:0:0:
320,192,15779,128,0,15847:0:0:0:0:
192,192,15847,128,0,15915:0:0:0:0:
64,192,15847,128,2,15915:0:0:0:0:
448,192,15983,128,0,16052:0:0:0:0:
192,192,16052,128,0,16120:0:0:0:0:
320,192,16120,1,8,0:0:0:0:
448,192,16120,1,0,0:0:0:0:
64,192,16256,128,0,16324:0:0:0:0:
64,192,16392,1,0,0:0:0:0:
192,192,16392,1,8,0:0:0:0:
448,192,16529,128,0,16597:0:0:0:0:
320,192,16665,128,2,16802:0:0:0:0:
448,192,16665,1,0,0:0:0:0:
192,192,16733,128,0,16802:0:0:0:0:
64,192,16802,1,0,0:0:0:0:
448,192,16870,128,0,16938:0:0:0:0:
192,192,16938,128,2,17074:0:0:0:0:
64,192,16938,1,0,0:0:0:0:
320,192,17006,128,0,17074:0:0:0:0:
448,192,17074,1,0,0:0:0:0:
64,192,17142,128,0,17211:0:0:0:0:
320,192,17211,128,0,17347:0:0:0:0:
448,192,17211,128,8,17347:0:0:0:0:
192,192,17347,128,0,17483:0:0:0:0:
320,192,17483,128,0,17620:0:0:0:0:
448,192,17483,128,8,17620:0:0:0:0:
64,192,17620,128,0,17756:0:0:0:0:
320,192,17756,128,2,17892:0:0:0:0:
448,192,17756,128,0,17892:0:0:0:0:
192,192,17892,1,8,0:0:0:0:
64,192,17892,1,0,0:0:0:0:
320,192,18029,128,2,18165:0:0:0:0:
448,192,18029,128,0,18165:0:0:0:0:
192,192,18165,1,8,0:0:0:0:
64,192,18165,1,0,0:0:0:0:
64,192,18302,1,8,0:0:0:0:
320,192,18302,1,0,0:0:0:0:
448,192,18302,1,0,0:0:0:0:
448,192,18574,1,0,0:0:0:0:
320,192,18574,1,0,0:0:0:0:
64,192,18574,1,8,0:0:0:0:
448,192,18847,128,2,19052:0:0:0:0:
64,192,18847,1,4,0:0:0:0:
320,192,18847,1,0,0:0:0:0:
192,192,19052,128,0,19120:0:0:0:0:
448,192,19120,128,2,19324:0:0:0:0:
64,192,19120,1,4,0:0:0:0:
192,192,19324,128,0,19392:0:0:0:0:
448,192,19392,128,8,19529:0:0:0:0:
64,192,19392,1,0,0:0:0:0:
320,192,19461,128,0,19529:0:0:0:0:
192,192,19529,1,0,0:0:0:0:
64,192,19665,128,8,19802:0:0:0:0:
448,192,19665,1,0,0:0:0:0:
192,192,19733,128,0,19802:0:0:0:0:
320,192,19802,1,0,0:0:0:0:
448,192,19938,128,2,20142:0:0:0:0:
64,192,19938,1,0,0:0:0:0:
320,192,20142,128,0,20211:0:0:0:0:
64,192,20211,128,2,20415:0:0:0:0:
448,192,20211,1,0,0:0:0:0:
192,192,20415,128,0,20483:0:0:0:0:
448,192,20483,128,8,20620:0:0:0:0:
64,192,20483,1,0,0:0:0:0:
192,192,20620,128,0,20756:0:0:0:0:
448,192,20688,128,0,20756:0:0:0:0:
320,192,20756,1,0,0:0:0:0:
64,192,20756,128,8,20892:0:0:0:0:
320,192,20892,128,0,21029:0:0:0:0:
64,192,20961,128,0,21029:0:0:0:0:
192,192,21029,128,2,21233:0:0:0:0:
448,192,21029,1,0,0:0:0:0:
448,192,21233,128,0,21302:0:0:0:0:
192,192,21302,128,2,21506:0:0:0:0:
64,192,21302,1,0,0:0:0:0:
320,192,21506,128,0,21574:0:0:0:0:
64,192,21574,128,8,21711:0:0:0:0:
448,192,21574,1,0,0:0:0:0:
192,192,21642,128,0,21711:0:0:0:0:
320,192,21711,1,0,0:0:0:0:
448,192,21847,128,8,21983:0:0:0:0:
64,192,21847,1,0,0:0:0:0:
320,192,21915,128,0,21983:0:0:0:0:
192,192,21983,1,0,0:0:0:0:
192,192,22120,128,2,22324:0:0:0:0:
320,192,22120,1,0,0:0:0:0:
64,192,22324,128,0,22392:0:0:0:0:
192,192,22392,1,0,0:0:0:0:
320,192,22392,128,2,22597:0:0:0:0:
448,192,22597,128,0,22665:0:0:0:0:
64,192,22665,1,8,0:0:0:0:
320,192,22665,1,0,0:0:0:0:
64,192,22802,128,0,22870:0:0:0:0:
192,192,22938,1,0,0:0:0:0:
448,192,22938,1,8,0:0:0:0:
192,192,23074,128,0,23142:0:0:0:0:
64,192,23211,128,2,23347:0:0:0:0:
320,192,23211,1,0,0:0:0:0:
448,192,23347,128,0,23415:0:0:0:0:
320,192,23415,128,0,23483:0:0:0:0:
192,192,23483,128,0,23552:0:0:0:0:
64,192,23483,128,2,23552:0:0:0:0:
448,192,23620,128,0,23688:0:0:0:0:
64,192,23688,128,0,23756:0:0:0:0:
448,192,23756,1,8,0:0:0:0:
320,192,23756,1,0,0:0:0:0:
192,192,23892,128,0,23961:0:0:0:0:
64,192,24029,1,8,0:0:0:0:
192,192,24029,1,0,0:0:0:0:
320,192,24165,128,0,24233:0:0:0:0:
320,192,24302,1,0,0:0:0:0:
448,192,24302,128,2,24438:0:0:0:0:
64,192,24438,128,0,24506:0:0:0:0:
192,192,24506,128,0,24574:0:0:0:0:
320,192,24574,128,0,24642:0:0:0:0:
448,192,24574,128,2,24642:0:0:0:0:
64,192,24711,128,0,24779:0:0:0:0:
320,192,24779,128,0,24847:0:0:0:0:
192,192,24847,1,0,0:0:0:0:
64,192,24847,1,8,0:0:0:0:
448,192,24983,128,0,25052:0:0:0:0:
448,192,25120,1,0,0:0:0:0:
320,192,25120,1,8,0:0:0:0:
64,192,25256,128,0,25324:0:0:0:0:
192,192,25392,128,2,25529:0:0:0:0:
64,192,25392,1,0,0:0:0:0:
320,192,25461,128,0,25529:0:0:0:0:
448,192,25529,1,0,0:0:0:0:
64,192,25597,128,0,25665:0:0:0:0:
320,192,25665,128,2,25802:0:0:0:0:
448,192,25665,1,0,0:0:0:0:
192,192,25733,128,0,25802:0:0:0:0:
64,192,25802,1,0,0:0:0:0:
448,192,25870,128,0,25938:0:0:0:0:
192,192,25938,128,8,26074:0:0:0:0:
64,192,25938,128,0,26074:0:0:0:0:
320,192,26074,128,0,26211:0:0:0:0:
192,192,26211,128,8,26347:0:0:0:0:
64,192,26211,128,0,26347:0:0:0:0:
448,192,26347,128,0,26483:0:0:0:0:
64,192,26483,1,2,0:0:0:0:
192,192,26483,1,0,0:0:0:0:
64,192,26620,1,2,0:0:0:0:
192,192,26620,1,0,0:0:0:0:
320,192,26756,1,0,0:0:0:0:
448,192,26756,1,2,0:0:0:0:
64,192,26824,1,2,0:0:0:0:
448,192,26892,1,2,0:0:0:0:
64,192,27029,1,0,0:0:0:0:
192,192,27029,1,8,0:0:0:0:
320,192,27165,1,2,0:0:0:0:
448,192,27165,1,0,0:0:0:0:
64,192,27302,1,0,0:0:0:0:
192,192,27302,1,8,0:0:0:0:
320,192,27438,1,0,0:0:0:0:
64,192,27574,1,2,0:0:0:0:
448,192,27574,1,4,0:0:0:0:
64,192,27711,1,0,0:0:0:0:
192,192,27711,1,2,0:0:0:0:
320,192,27847,1,8,0:0:0:0:
448,192,27847,1,0,0:0:0:0:
64,192,27983,1,0,0:0:0:0:
192,192,28052,1,8,0:0:0:0:
448,192,28120,1,0,0:0:0:0:
320,192,28120,1,2,0:0:0:0:
64,192,28188,1,8,0:0:0:0:
192,192,28256,1,2,0:0:0:0:
320,192,28324,1,2,0:0:0:0:
448,192,28392,1,8,0:0:0:0:
64,192,28392,1,0,0:0:0:0:
192,192,28529,1,0,0:0:0:0:
64,192,28665,1,2,0:0:0:0:
448,192,28665,1,0,0:0:0:0:
448,192,28802,1,2,0:0:0:0:
320,192,28802,1,0,0:0:0:0:
192,192,28938,1,8,0:0:0:0:
64,192,28938,1,0,0:0:0:0:
448,192,29074,1,2,0:0:0:0:
320,192,29142,1,8,0:0:0:0:
192,192,29211,1,2,0:0:0:0:
64,192,29211,1,0,0:0:0:0:
448,192,29279,1,8,0:0:0:0:
320,192,29347,1,2,0:0:0:0:
192,192,29415,1,2,0:0:0:0:
64,192,29483,1,8,0:0:0:0:
448,192,29483,1,0,0:0:0:0:
320,192,29620,1,0,0:0:0:0:
192,192,29756,1,2,0:0:0:0:
448,192,29756,1,0,0:0:0:0:
192,192,29892,1,2,0:0:0:0:
320,192,29892,1,0,0:0:0:0:
448,192,30029,1,8,0:0:0:0:
64,192,30029,1,0,0:0:0:0:
192,192,30165,1,2,0:0:0:0:
320,192,30233,1,0,0:0:0:0:
64,192,30302,1,0,0:0:0:0:
448,192,30302,1,2,0:0:0:0:
448,192,30438,1,0,0:0:0:0:
192,192,30438,1,8,0:0:0:0:
64,192,30574,1,0,0:0:0:0:
320,192,30574,1,8,0:0:0:0:
448,192,30711,1,2,0:0:0:0:
320,192,30779,1,2,0:0:0:0:
64,192,30847,1,0,0:0:0:0:
192,192,30847,1,2,0:0:0:0:
448,192,30915,1,0,0:0:0:0:
320,192,30983,1,2,0:0:0:0:
192,192,31052,1,2,0:0:0:0:
64,192,31120,1,8,0:0:0:0:
448,192,31120,1,0,0:0:0:0:
320,192,31256,1,2,0:0:0:0:
448,192,31392,1,0,0:0:0:0:
64,192,31392,1,8,0:0:0:0:
320,192,31529,1,0,0:0:0:0:
192,192,31665,1,2,0:0:0:0:
64,192,31665,1,0,0:0:0:0:
320,192,31802,1,8,0:0:0:0:
448,192,31802,1,0,0:0:0:0:
192,192,31870,1,8,0:0:0:0:
64,192,31938,1,2,0:0:0:0:
448,192,31938,1,0,0:0:0:0:
192,192,32074,1,0,0:0:0:0:
64,192,32074,1,2,0:0:0:0:
320,192,32211,1,8,0:0:0:0:
448,192,32211,1,0,0:0:0:0:
192,192,32347,1,0,0:0:0:0:
320,192,32415,1,8,0:0:0:0:
64,192,32483,1,0,0:0:0:0:
448,192,32483,1,2,0:0:0:0:
192,192,32552,1,8,0:0:0:0:
320,192,32620,1,2,0:0:0:0:
448,192,32688,1,2,0:0:0:0:
64,192,32756,1,0,0:0:0:0:
192,192,32756,1,8,0:0:0:0:
320,192,32892,1,0,0:0:0:0:
64,192,33029,1,0,0:0:0:0:
448,192,33029,1,2,0:0:0:0:
448,192,33165,1,2,0:0:0:0:
320,192,33165,1,0,0:0:0:0:
192,192,33302,1,8,0:0:0:0:
64,192,33302,1,0,0:0:0:0:
320,192,33438,1,0,0:0:0:0:
192,192,33506,1,8,0:0:0:0:
64,192,33574,1,2,0:0:0:0:
448,192,33574,1,0,0:0:0:0:
320,192,33642,1,8,0:0:0:0:
192,192,33711,1,2,0:0:0:0:
64,192,33779,1,2,0:0:0:0:
320,192,33847,1,8,0:0:0:0:
448,192,33847,1,0,0:0:0:0:
64,192,33983,1,0,0:0:0:0:
192,192,34120,1,0,0:0:0:0:
320,192,34120,1,2,0:0:0:0:
64,192,34256,1,0,0:0:0:0:
320,192,34256,1,2,0:0:0:0:
448,192,34392,1,8,0:0:0:0:
192,192,34392,1,0,0:0:0:0:
64,192,34529,1,0,0:0:0:0:
320,192,34665,1,2,0:0:0:0:
192,192,34665,1,0,0:0:0:0:
192,192,34802,1,2,0:0:0:0:
448,192,34802,1,0,0:0:0:0:
320,192,34938,1,8,0:0:0:0:
64,192,34938,1,0,0:0:0:0:
192,192,35074,1,8,0:0:0:0:
320,192,35074,1,0,0:0:0:0:
64,192,35211,1,2,0:0:0:0:
448,192,35211,1,0,0:0:0:0:
320,192,35347,1,2,0:0:0:0:
448,192,35415,1,2,0:0:0:0:
192,192,35483,1,8,0:0:0:0:
64,192,35483,1,0,0:0:0:0:
320,192,35620,1,2,0:0:0:0:
192,192,35688,1,8,0:0:0:0:
64,192,35756,1,2,0:0:0:0:
448,192,35756,1,0,0:0:0:0:
320,192,35824,1,8,0:0:0:0:
192,192,35892,1,2,0:0:0:0:
64,192,35892,1,4,0:0:0:0:
448,192,36029,1,2,0:0:0:0:
320,192,36029,1,0,0:0:0:0:
192,192,36165,1,8,0:0:0:0:
320,192,36302,1,0,0:0:0:0:
448,192,36302,1,2,0:0:0:0:
64,192,36438,1,0,0:0:0:0:
320,192,36438,1,2,0:0:0:0:
192,192,36574,1,0,0:0:0:0:
448,192,36574,1,8,0:0:0:0:
64,192,36711,1,0,0:0:0:0:
320,192,36779,1,8,0:0:0:0:
448,192,36847,1,0,0:0:0:0:
192,192,36847,1,2,0:0:0:0:
64,192,36915,1,8,0:0:0:0:
320,192,36983,1,2,0:0:0:0:
192,192,37052,1,2,0:0:0:0:
64,192,37120,1,8,0:0:0:0:
448,192,37120,1,0,0:0:0:0:
320,192,37256,1,0,0:0:0:0:
64,192,37392,1,0,0:0:0:0:
192,192,37392,1,2,0:0:0:0:
192,192,37529,1,2,0:0:0:0:
448,192,37529,1,0,0:0:0:0:
320,192,37665,1,8,0:0:0:0:
64,192,37665,1,0,0:0:0:0:
448,192,37802,1,2,0:0:0:0:
192,192,37870,1,8,0:0:0:0:
320,192,37938,1,2,0:0:0:0:
64,192,37938,1,0,0:0:0:0:
448,192,38006,1,8,0:0:0:0:
192,192,38074,1,2,0:0:0:0:
320,192,38142,1,2,0:0:0:0:
448,192,38211,1,8,0:0:0:0:
64,192,38211,1,0,0:0:0:0:
320,192,38347,1,0,0:0:0:0:
64,192,38483,1,0,0:0:0:0:
448,192,38483,1,2,0:0:0:0:
64,192,38620,1,2,0:0:0:0:
320,192,38620,1,0,0:0:0:0:
192,192,38756,1,8,0:0:0:0:
448,192,38756,1,0,0:0:0:0:
64,192,38892,1,0,0:0:0:0:
448,192,38892,1,2,0:0:0:0:
320,192,39029,1,2,0:0:0:0:
192,192,39029,1,0,0:0:0:0:
320,192,39165,1,0,0:0:0:0:
64,192,39165,1,8,0:0:0:0:
192,192,39302,1,2,0:0:0:0:
448,192,39370,1,8,0:0:0:0:
320,192,39438,1,2,0:0:0:0:
192,192,39506,1,2,0:0:0:0:
64,192,39574,1,2,0:0:0:0:
448,192,39574,1,0,0:0:0:0:
320,192,39642,1,8,0:0:0:0:
192,192,39711,1,2,0:0:0:0:
64,192,39779,1,2,0:0:0:0:
320,192,39847,1,8,0:0:0:0:
448,192,39847,1,0,0:0:0:0:
192,192,39983,1,2,0:0:0:0:
320,192,40120,1,8,0:0:0:0:
448,192,40120,1,0,0:0:0:0:
192,192,40256,1,0,0:0:0:0:
64,192,40392,128,2,40597:0:0:0:0:
448,192,40392,128,8,40597:0:0:0:0:
64,192,40665,1,2,0:0:0:0:
448,192,40665,1,0,0:0:0:0:
64,192,40802,1,2,0:0:0:0:
192,192,40802,1,0,0:0:0:0:
448,192,40938,1,8,0:0:0:0:
320,192,40938,1,0,0:0:0:0:
64,192,41074,1,0,0:0:0:0:
320,192,41142,1,8,0:0:0:0:
448,192,41211,1,0,0:0:0:0:
192,192,41211,1,2,0:0:0:0:
64,192,41279,1,8,0:0:0:0:
320,192,41347,1,2,0:0:0:0:
448,192,41415,1,2,0:0:0:0:
64,192,41483,1,0,0:0:0:0:
192,192,41483,1,8,0:0:0:0:
320,192,41620,1,0,0:0:0:0:
64,192,41756,1,2,0:0:0:0:
448,192,41756,1,0,0:0:0:0:
448,192,41892,1,0,0:0:0:0:
320,192,41892,1,2,0:0:0:0:
192,192,42029,1,8,0:0:0:0:
64,192,42029,1,0,0:0:0:0:
448,192,42165,1,0,0:0:0:0:
192,192,42233,1,8,0:0:0:0:
320,192,42302,1,2,0:0:0:0:
64,192,42302,1,0,0:0:0:0:
448,192,42370,1,8,0:0:0:0:
192,192,42438,1,2,0:0:0:0:
64,192,42506,1,2,0:0:0:0:
320,192,42574,1,8,0:0:0:0:
448,192,42574,1,0,0:0:0:0:
192,192,42711,1,0,0:0:0:0:
64,192,42847,1,2,0:0:0:0:
320,192,42847,1,0,0:0:0:0:
192,192,42983,1,2,0:0:0:0:
320,192,42983,1,0,0:0:0:0:
448,192,43120,1,8,0:0:0:0:
64,192,43120,1,0,0:0:0:0:
320,192,43256,1,0,0:0:0:0:
192,192,43324,1,8,0:0:0:0:
448,192,43392,1,0,0:0:0:0:
64,192,43392,1,2,0:0:0:0:
320,192,43461,1,8,0:0:0:0:
192,192,43529,1,2,0:0:0:0:
320,192,43597,1,0,0:0:0:0:
448,192,43665,1,0,0:0:0:0:
64,192,43665,1,2,0:0:0:0:
192,192,43802,1,8,0:0:0:0:
64,192,43802,1,0,0:0:0:0:
448,192,43938,1,0,0:0:0:0:
320,192,43938,1,2,0:0:0:0:
64,192,44006,1,8,0:0:0:0:
192,192,44074,1,2,0:0:0:0:
320,192,44142,1,2,0:0:0:0:
64,192,44211,1,0,0:0:0:0:
448,192,44211,1,2,0:0:0:0:
320,192,44347,1,2,0:0:0:0:
192,192,44415,1,8,0:0:0:0:
448,192,44483,1,0,0:0:0:0:
64,192,44483,1,8,0:0:0:0:
64,192,44756,128,2,44961:0:0:0:0:
448,192,44756,128,8,44961:0:0:0:0:
64,192,45029,128,2,45574:0:0:0:0:
448,192,45029,1,4,0:0:0:0:
192,192,45302,128,0,45574:0:0:0:0:
320,192,45574,128,2,45847:0:0:0:0:
448,192,45711,128,0,45847:0:0:0:0:
64,192,45847,128,2,46120:0:0:0:0:
192,192,45983,128,0,46120:0:0:0:0:
320,192,46120,1,0,0:0:0:0:
448,192,46120,1,8,0:0:0:0:
192,192,46392,1,0,0:0:0:0:
64,192,46392,1,0,0:0:0:0:
448,192,46392,1,8,0:0:0:0:
64,192,46665,1,0,0:0:0:0:
448,192,46665,128,2,47211:0:0:0:0:
320,192,46938,128,0,47211:0:0:0:0:
192,192,47211,128,2,47483:0:0:0:0:
64,192,47347,128,0,47483:0:0:0:0:
448,192,47483,128,2,47756:0:0:0:0:
320,192,47620,128,0,47756:0:0:0:0:
192,192,47756,1,0,0:0:0:0:
64,192,47756,1,8,0:0:0:0:
320,192,48029,1,0,0:0:0:0:
448,192,48029,1,0,0:0:0:0:
64,192,48029,1,8,0:0:0:0:
64,192,48302,128,2,48574:0:0:0:0:
320,192,48438,128,0,48574:0:0:0:0:
192,192,48574,128,2,48847:0:0:0:0:
448,192,48711,128,0,48847:0:0:0:0:
320,192,48847,128,8,49120:0:0:0:0:
64,192,48983,128,0,49120:0:0:0:0:
448,192,49120,128,8,49392:0:0:0:0:
320,192,49256,128,8,49392:0:0:0:0:
64,192,49392,128,2,49665:0:0:0:0:
448,192,49529,128,0,49665:0:0:0:0:
192,192,49665,128,2,49938:0:0:0:0:
448,192,49802,128,0,49938:0:0:0:0:
320,192,49938,128,8,50211:0:0:0:0:
448,192,50074,128,0,50211:0:0:0:0:
192,192,50211,128,8,50483:0:0:0:0:
320,192,50347,128,8,50483:0:0:0:0:
448,192,50483,128,2,50756:0:0:0:0:
64,192,50620,128,0,50756:0:0:0:0:
320,192,50756,128,2,51029:0:0:0:0:
64,192,50892,128,0,51029:0:0:0:0:
192,192,51029,128,8,51302:0:0:0:0:
64,192,51165,128,0,51302:0:0:0:0:
320,192,51302,128,8,51574:0:0:0:0:
192,192,51438,128,0,51574:0:0:0:0:
64,192,51574,128,2,51847:0:0:0:0:
320,192,51711,128,0,51847:0:0:0:0:
192,192,51847,128,2,52120:0:0:0:0:
64,192,51983,128,0,52120:0:0:0:0:
448,192,52120,128,8,52392:0:0:0:0:
192,192,52256,128,0,52392:0:0:0:0:
320,192,52392,128,8,52665:0:0:0:0:
448,192,52529,128,8,52665:0:0:0:0:
192,192,52665,1,0,0:0:0:0:
64,192,52665,1,2,0:0:0:0:
320,192,52802,1,8,0:0:0:0:
448,192,52802,1,0,0:0:0:0:
192,192,52938,1,2,0:0:0:0:
320,192,53006,1,2,0:0:0:0:
64,192,53074,1,2,0:0:0:0:
448,192,53211,1,0,0:0:0:0:
192,192,53211,1,8,0:0:0:0:
320,192,53347,1,2,0:0:0:0:
64,192,53347,1,0,0:0:0:0:
192,192,53483,128,8,53688:0:0:0:0:
448,192,53483,128,2,53688:0:0:0:0:
448,192,53756,128,2,54302:0:0:0:0:
192,192,53756,1,0,0:0:0:0:
192,192,54029,128,0,54302:0:0:0:0:
320,192,54302,128,8,54574:0:0:0:0:
64,192,54438,128,0,54574:0:0:0:0:
448,192,54574,128,8,54847:0:0:0:0:
192,192,54711,128,0,54847:0:0:0:0:
320,192,54847,1,0,0:0:0:0:
64,192,54847,1,2,0:0:0:0:
192,192,55120,1,0,0:0:0:0:
64,192,55120,1,2,0:0:0:0:
448,192,55120,1,0,0:0:0:0:
64,192,55392,128,8,55938:0:0:0:0:
320,192,55392,1,0,0:0:0:0:
320,192,55665,128,0,55938:0:0:0:0:
192,192,55938,128,2,56211:0:0:0:0:
448,192,56074,128,0,56347:0:0:0:0:
64,192,56211,128,2,56483:0:0:0:0:
320,192,56347,128,0,56483:0:0:0:0:
448,192,56483,1,8,0:0:0:0:
192,192,56483,1,0,0:0:0:0:
320,192,56756,1,0,0:0:0:0:
448,192,56756,1,8,0:0:0:0:
64,192,56756,1,0,0:0:0:0:
448,192,57029,128,2,57302:0:0:0:0:
192,192,57165,128,0,57438:0:0:0:0:
320,192,57302,128,2,57574:0:0:0:0:
64,192,57438,128,0,57711:0:0:0:0:
192,192,57574,128,8,57847:0:0:0:0:
448,192,57711,128,0,57983:0:0:0:0:
320,192,57847,128,8,58120:0:0:0:0:
192,192,57983,128,8,58256:0:0:0:0:
448,192,58120,128,2,58392:0:0:0:0:
64,192,58256,128,0,58529:0:0:0:0:
320,192,58392,128,2,58665:0:0:0:0:
448,192,58529,128,0,58802:0:0:0:0:
192,192,58665,128,8,58938:0:0:0:0:
64,192,58802,128,0,59074:0:0:0:0:
320,192,58938,128,8,59211:0:0:0:0:
192,192,59074,128,8,59347:0:0:0:0:
64,192,59211,128,2,59483:0:0:0:0:
320,192,59347,128,0,59620:0:0:0:0:
192,192,59483,128,2,59756:0:0:0:0:
448,192,59620,128,0,59892:0:0:0:0:
320,192,59756,128,8,60029:0:0:0:0:
64,192,59892,128,0,60165:0:0:0:0:
192,192,60029,128,8,60302:0:0:0:0:
320,192,60165,128,8,60438:0:0:0:0:
448,192,60302,128,2,60574:0:0:0:0:
192,192,60438,128,0,60711:0:0:0:0:
320,192,60574,128,2,60847:0:0:0:0:
448,192,60711,128,0,60983:0:0:0:0:
64,192,60847,128,8,61120:0:0:0:0:
320,192,60983,128,0,61256:0:0:0:0:
192,192,61120,128,8,61392:0:0:0:0:
64,192,61256,128,8,61392:0:0:0:0:
448,192,61392,1,2,0:0:0:0:
320,192,61392,1,0,0:0:0:0:
192,192,61529,1,2,0:0:0:0:
64,192,61529,1,0,0:0:0:0:
64,192,61665,1,0,0:0:0:0:
448,192,61665,1,2,0:0:0:0:
320,192,61802,1,2,0:0:0:0:
448,192,61802,1,0,0:0:0:0:
192,192,61938,1,8,0:0:0:0:
64,192,61938,1,0,0:0:0:0:
64,192,62211,128,2,62415:0:0:0:0:
448,192,62211,128,8,62415:0:0:0:0:
448,192,62483,1,4,0:0:0:0:
64,192,62483,128,2,62688:0:0:0:0:
448,192,62620,1,2,0:0:0:0:
320,192,62688,128,0,62756:0:0:0:0:
192,192,62756,1,0,0:0:0:0:
64,192,62756,128,8,62961:0:0:0:0:
320,192,62961,128,8,63029:0:0:0:0:
448,192,63029,1,0,0:0:0:0:
64,192,63029,128,8,63165:0:0:0:0:
192,192,63097,128,0,63165:0:0:0:0:
320,192,63165,1,2,0:0:0:0:
64,192,63302,1,0,0:0:0:0:
448,192,63302,128,8,63438:0:0:0:0:
320,192,63370,128,0,63438:0:0:0:0:
192,192,63438,1,0,0:0:0:0:
448,192,63574,1,0,0:0:0:0:
64,192,63574,128,2,63779:0:0:0:0:
320,192,63711,1,2,0:0:0:0:
192,192,63779,128,0,63847:0:0:0:0:
64,192,63847,1,0,0:0:0:0:
448,192,63847,128,8,64052:0:0:0:0:
320,192,64052,128,8,64120:0:0:0:0:
448,192,64120,1,0,0:0:0:0:
64,192,64120,128,8,64256:0:0:0:0:
320,192,64256,128,2,64392:0:0:0:0:
64,192,64324,128,2,64392:0:0:0:0:
192,192,64392,1,0,0:0:0:0:
448,192,64392,128,8,64529:0:0:0:0:
192,192,64529,128,0,64665:0:0:0:0:
448,192,64597,128,0,64665:0:0:0:0:
64,192,64665,1,0,0:0:0:0:
320,192,64665,128,2,64870:0:0:0:0:
192,192,64802,1,2,0:0:0:0:
64,192,64870,128,0,64938:0:0:0:0:
448,192,64938,1,0,0:0:0:0:
320,192,64938,128,8,65142:0:0:0:0:
64,192,65074,1,2,0:0:0:0:
192,192,65142,128,0,65211:0:0:0:0:
448,192,65211,128,2,65347:0:0:0:0:
320,192,65279,128,0,65347:0:0:0:0:
192,192,65347,1,8,0:0:0:0:
448,192,65483,1,0,0:0:0:0:
64,192,65483,128,2,65620:0:0:0:0:
192,192,65552,128,8,65620:0:0:0:0:
320,192,65620,1,2,0:0:0:0:
192,192,65756,1,0,0:0:0:0:
320,192,65756,128,0,65961:0:0:0:0:
64,192,65892,1,2,0:0:0:0:
448,192,65961,128,2,66029:0:0:0:0:
192,192,66029,128,8,66233:0:0:0:0:
320,192,66029,1,0,0:0:0:0:
64,192,66233,128,8,66302:0:0:0:0:
448,192,66302,1,0,0:0:0:0:
192,192,66302,1,8,0:0:0:0:
448,192,66438,128,0,66506:0:0:0:0:
64,192,66574,1,8,0:0:0:0:
320,192,66574,1,0,0:0:0:0:
320,192,66711,128,0,66779:0:0:0:0:
320,192,66847,1,0,0:0:0:0:
448,192,66847,128,2,66915:0:0:0:0:
64,192,66983,128,2,67052:0:0:0:0:
320,192,66983,128,0,67052:0:0:0:0:
192,192,67052,128,0,67120:0:0:0:0:
448,192,67120,128,0,67188:0:0:0:0:
320,192,67120,128,8,67188:0:0:0:0:
64,192,67256,128,0,67324:0:0:0:0:
448,192,67324,128,8,67392:0:0:0:0:
192,192,67392,1,0,0:0:0:0:
64,192,67392,1,8,0:0:0:0:
320,192,67529,128,2,67597:0:0:0:0:
320,192,67665,1,0,0:0:0:0:
448,192,67665,1,8,0:0:0:0:
192,192,67802,128,0,67870:0:0:0:0:
64,192,67938,128,2,68006:0:0:0:0:
192,192,67938,1,0,0:0:0:0:
448,192,68074,128,0,68142:0:0:0:0:
192,192,68074,128,2,68142:0:0:0:0:
320,192,68142,128,0,68211:0:0:0:0:
64,192,68211,128,8,68279:0:0:0:0:
192,192,68211,128,0,68279:0:0:0:0:
448,192,68347,128,0,68415:0:0:0:0:
192,192,68415,128,0,68483:0:0:0:0:
448,192,68483,1,2,0:0:0:0:
320,192,68483,1,0,0:0:0:0:
64,192,68620,128,2,68688:0:0:0:0:
192,192,68756,1,8,0:0:0:0:
64,192,68756,1,0,0:0:0:0:
448,192,68892,128,0,68961:0:0:0:0:
448,192,69029,1,0,0:0:0:0:
320,192,69029,128,2,69165:0:0:0:0:
192,192,69097,128,0,69165:0:0:0:0:
64,192,69165,1,2,0:0:0:0:
448,192,69233,128,0,69302:0:0:0:0:
64,192,69302,1,0,0:0:0:0:
192,192,69302,128,2,69438:0:0:0:0:
320,192,69370,128,0,69438:0:0:0:0:
448,192,69438,1,2,0:0:0:0:
64,192,69506,128,0,69574:0:0:0:0:
448,192,69574,128,0,69711:0:0:0:0:
320,192,69574,128,8,69711:0:0:0:0:
192,192,69711,128,2,69847:0:0:0:0:
64,192,69711,128,0,69847:0:0:0:0:
448,192,69847,128,0,69983:0:0:0:0:
320,192,69847,128,8,69983:0:0:0:0:
64,192,69983,128,0,70120:0:0:0:0:
192,192,69983,128,8,70120:0:0:0:0:
448,192,70120,128,2,70256:0:0:0:0:
320,192,70188,128,8,70256:0:0:0:0:
64,192,70256,128,2,70392:0:0:0:0:
192,192,70324,128,2,70392:0:0:0:0:
448,192,70392,128,0,70529:0:0:0:0:
320,192,70392,128,8,70529:0:0:0:0:
64,192,70529,1,8,0:0:0:0:
192,192,70529,1,0,0:0:0:0:
448,192,70665,1,0,0:0:0:0:
320,192,70665,1,0,0:0:0:0:
64,192,70665,1,8,0:0:0:0:
64,192,70938,1,8,0:0:0:0:
320,192,70938,1,0,0:0:0:0:
448,192,70938,1,0,0:0:0:0:
64,192,71211,1,0,0:0:0:0:
448,192,71211,128,2,71415:0:0:0:0:
192,192,71415,128,0,71483:0:0:0:0:
320,192,71483,1,0,0:0:0:0:
448,192,71483,128,2,71688:0:0:0:0:
192,192,71688,128,0,71756:0:0:0:0:
64,192,71756,1,0,0:0:0:0:
448,192,71756,128,8,71892:0:0:0:0:
320,192,71824,128,0,71892:0:0:0:0:
192,192,71892,1,0,0:0:0:0:
448,192,72029,1,0,0:0:0:0:
64,192,72029,128,8,72165:0:0:0:0:
192,192,72097,128,0,72165:0:0:0:0:
320,192,72165,1,0,0:0:0:0:
64,192,72302,1,0,0:0:0:0:
448,192,72302,128,2,72506:0:0:0:0:
320,192,72506,128,0,72574:0:0:0:0:
448,192,72574,1,0,0:0:0:0:
64,192,72574,128,2,72779:0:0:0:0:
192,192,72779,128,0,72847:0:0:0:0:
64,192,72847,1,0,0:0:0:0:
448,192,72847,128,8,72983:0:0:0:0:
192,192,72983,128,0,73120:0:0:0:0:
448,192,73052,128,0,73120:0:0:0:0:
320,192,73120,1,0,0:0:0:0:
64,192,73120,128,8,73256:0:0:0:0:
320,192,73256,128,8,73392:0:0:0:0:
64,192,73324,128,0,73392:0:0:0:0:
448,192,73392,1,0,0:0:0:0:
192,192,73392,128,2,73597:0:0:0:0:
448,192,73597,128,0,73665:0:0:0:0:
64,192,73665,1,0,0:0:0:0:
192,192,73665,128,2,73870:0:0:0:0:
320,192,73870,128,0,73938:0:0:0:0:
448,192,73938,1,0,0:0:0:0:
64,192,73938,128,8,74074:0:0:0:0:
192,192,74006,128,0,74074:0:0:0:0:
320,192,74074,1,0,0:0:0:0:
64,192,74211,1,0,0:0:0:0:
448,192,74211,128,8,74347:0:0:0:0:
320,192,74279,128,0,74347:0:0:0:0:
192,192,74347,1,0,0:0:0:0:
320,192,74483,1,0,0:0:0:0:
192,192,74483,128,2,74688:0:0:0:0:
448,192,74620,1,2,0:0:0:0:
64,192,74688,128,0,74756:0:0:0:0:
320,192,74756,128,2,74961:0:0:0:0:
192,192,74756,1,0,0:0:0:0:
64,192,74892,1,2,0:0:0:0:
448,192,74961,128,0,75029:0:0:0:0:
320,192,75029,1,0,0:0:0:0:
192,192,75029,1,8,0:0:0:0:
64,192,75165,128,0,75233:0:0:0:0:
448,192,75302,1,0,0:0:0:0:
320,192,75302,1,8,0:0:0:0:
192,192,75438,128,0,75506:0:0:0:0:
192,192,75574,1,0,0:0:0:0:
64,192,75574,128,2,75642:0:0:0:0:
448,192,75711,128,0,75779:0:0:0:0:
192,192,75711,128,0,75779:0:0:0:0:
320,192,75779,128,0,75847:0:0:0:0:
64,192,75847,128,0,75915:0:0:0:0:
192,192,75847,128,8,75915:0:0:0:0:
448,192,75983,128,8,76052:0:0:0:0:
64,192,76052,128,0,76120:0:0:0:0:
320,192,76120,1,0,0:0:0:0:
448,192,76120,1,2,0:0:0:0:
192,192,76256,128,0,76324:0:0:0:0:
192,192,76392,1,0,0:0:0:0:
64,192,76392,1,8,0:0:0:0:
320,192,76529,128,0,76597:0:0:0:0:
448,192,76665,128,2,76733:0:0:0:0:
320,192,76665,1,0,0:0:0:0:
64,192,76802,128,0,76870:0:0:0:0:
320,192,76802,128,2,76870:0:0:0:0:
192,192,76870,128,2,76938:0:0:0:0:
448,192,76938,128,0,77006:0:0:0:0:
320,192,76938,128,2,77006:0:0:0:0:
64,192,77074,128,2,77142:0:0:0:0:
320,192,77142,128,0,77211:0:0:0:0:
64,192,77211,1,8,0:0:0:0:
192,192,77211,1,0,0:0:0:0:
448,192,77347,128,8,77415:0:0:0:0:
320,192,77483,1,0,0:0:0:0:
448,192,77483,1,2,0:0:0:0:
64,192,77620,128,8,77688:0:0:0:0:
448,192,77688,128,8,77756:0:0:0:0:
64,192,77756,1,0,0:0:0:0:
192,192,77756,128,2,77892:0:0:0:0:
320,192,77824,128,0,77892:0:0:0:0:
448,192,77892,1,2,0:0:0:0:
64,192,77961,128,0,78029:0:0:0:0:
448,192,78029,1,0,0:0:0:0:
320,192,78029,128,2,78165:0:0:0:0:
192,192,78097,128,0,78165:0:0:0:0:
64,192,78165,1,2,0:0:0:0:
448,192,78233,128,0,78302:0:0:0:0:
64,192,78302,128,0,78438:0:0:0:0:
192,192,78302,128,8,78438:0:0:0:0:
320,192,78438,128,2,78574:0:0:0:0:
448,192,78438,128,0,78574:0:0:0:0:
64,192,78574,128,2,78711:0:0:0:0:
192,192,78642,128,8,78711:0:0:0:0:
448,192,78711,128,2,78847:0:0:0:0:
320,192,78779,128,8,78847:0:0:0:0:
192,192,78847,1,8,0:0:0:0:
64,192,78847,1,0,0:0:0:0:
320,192,78983,1,2,0:0:0:0:
448,192,78983,1,0,0:0:0:0:
64,192,79120,1,2,0:0:0:0:
320,192,79188,1,2,0:0:0:0:
192,192,79256,1,2,0:0:0:0:
64,192,79392,1,0,0:0:0:0:
320,192,79392,1,8,0:0:0:0:
448,192,79529,1,0,0:0:0:0:
192,192,79597,1,0,0:0:0:0:
320,192,79665,128,8,79870:0:0:0:0:
448,192,79665,128,2,79870:0:0:0:0:
64,192,79938,128,2,80211:0:0:0:0:
320,192,79938,1,4,0:0:0:0:
448,192,80074,128,0,80347:0:0:0:0:
192,192,80211,128,2,80756:0:0:0:0:
320,192,80347,128,0,80483:0:0:0:0:
64,192,80483,128,8,80620:0:0:0:0:
448,192,80620,128,0,80892:0:0:0:0:
64,192,80756,128,8,80892:0:0:0:0:
192,192,80824,128,0,80892:0:0:0:0:
320,192,80892,128,0,81029:0:0:0:0:
448,192,81029,128,2,81233:0:0:0:0:
192,192,81165,128,0,81302:0:0:0:0:
320,192,81233,128,2,81302:0:0:0:0:
64,192,81302,128,2,81506:0:0:0:0:
320,192,81438,128,0,81574:0:0:0:0:
192,192,81506,128,2,81574:0:0:0:0:
448,192,81574,128,8,81642:0:0:0:0:
64,192,81642,128,0,81711:0:0:0:0:
192,192,81711,128,0,81847:0:0:0:0:
448,192,81847,128,0,81915:0:0:0:0:
64,192,81915,128,0,81983:0:0:0:0:
192,192,81983,128,0,82120:0:0:0:0:
448,192,82120,128,2,82392:0:0:0:0:
320,192,82120,1,0,0:0:0:0:
64,192,82256,128,0,82529:0:0:0:0:
320,192,82392,128,2,82938:0:0:0:0:
192,192,82529,128,2,82665:0:0:0:0:
448,192,82665,128,8,82802:0:0:0:0:
64,192,82802,128,0,83074:0:0:0:0:
448,192,82938,128,8,83074:0:0:0:0:
320,192,83006,128,0,83074:0:0:0:0:
192,192,83074,128,0,83211:0:0:0:0:
64,192,83211,128,2,83415:0:0:0:0:
320,192,83347,128,0,83483:0:0:0:0:
192,192,83415,128,2,83483:0:0:0:0:
448,192,83483,128,0,83688:0:0:0:0:
192,192,83620,128,0,83756:0:0:0:0:
320,192,83688,128,2,83756:0:0:0:0:
64,192,83756,128,8,83824:0:0:0:0:
448,192,83824,128,0,83892:0:0:0:0:
320,192,83892,128,0,84029:0:0:0:0:
64,192,84029,128,0,84097:0:0:0:0:
448,192,84097,128,0,84165:0:0:0:0:
320,192,84165,128,0,84302:0:0:0:0:
64,192,84302,128,2,84574:0:0:0:0:
192,192,84302,1,0,0:0:0:0:
448,192,84438,128,0,84711:0:0:0:0:
192,192,84574,128,2,85120:0:0:0:0:
320,192,84711,128,0,84847:0:0:0:0:
64,192,84847,128,8,84983:0:0:0:0:
448,192,84983,128,0,85256:0:0:0:0:
64,192,85120,128,8,85256:0:0:0:0:
192,192,85188,128,8,85256:0:0:0:0:
320,192,85256,128,8,85392:0:0:0:0:
448,192,85392,128,2,85597:0:0:0:0:
192,192,85529,128,8,85665:0:0:0:0:
320,192,85597,128,2,85665:0:0:0:0:
64,192,85665,128,2,85870:0:0:0:0:
320,192,85802,128,0,85938:0:0:0:0:
192,192,85870,128,2,85938:0:0:0:0:
448,192,85938,128,8,86006:0:0:0:0:
64,192,86006,128,0,86074:0:0:0:0:
192,192,86074,128,0,86211:0:0:0:0:
448,192,86211,128,8,86279:0:0:0:0:
64,192,86279,128,8,86347:0:0:0:0:
192,192,86347,128,8,86483:0:0:0:0:
448,192,86483,128,2,86756:0:0:0:0:
320,192,86483,1,0,0:0:0:0:
64,192,86620,128,0,86892:0:0:0:0:
320,192,86756,128,2,87302:0:0:0:0:
192,192,86892,128,2,87029:0:0:0:0:
448,192,87029,128,8,87165:0:0:0:0:
64,192,87165,128,0,87438:0:0:0:0:
448,192,87302,128,8,87574:0:0:0:0:
192,192,87438,128,8,87574:0:0:0:0:
64,192,87574,128,0,87711:0:0:0:0:
320,192,87574,128,2,87711:0:0:0:0:
448,192,87711,128,2,87847:0:0:0:0:
192,192,87847,128,2,87983:0:0:0:0:
64,192,87847,128,0,87983:0:0:0:0:
320,192,87983,128,0,88120:0:0:0:0:
64,192,88120,1,0,0:0:0:0:
448,192,88120,1,8,0:0:0:0:
64,192,88392,1,0,0:0:0:0:
448,192,88392,1,8,0:0:0:0:
448,192,88665,128,2,88938:0:0:0:0:
192,192,88665,1,0,0:0:0:0:
64,192,88802,128,0,89074:0:0:0:0:
320,192,88938,128,2,89483:0:0:0:0:
192,192,89074,128,0,89211:0:0:0:0:
448,192,89211,128,8,89347:0:0:0:0:
64,192,89347,128,0,89620:0:0:0:0:
448,192,89483,128,8,89620:0:0:0:0:
320,192,89552,128,8,89620:0:0:0:0:
192,192,89620,128,8,89756:0:0:0:0:
64,192,89756,128,2,89961:0:0:0:0:
320,192,89892,128,0,90029:0:0:0:0:
192,192,89961,128,2,90029:0:0:0:0:
448,192,90029,128,2,90233:0:0:0:0:
192,192,90165,128,2,90302:0:0:0:0:
320,192,90233,128,0,90302:0:0:0:0:
64,192,90302,128,8,90370:0:0:0:0:
448,192,90370,128,0,90438:0:0:0:0:
320,192,90438,128,0,90574:0:0:0:0:
64,192,90574,128,8,90642:0:0:0:0:
448,192,90642,128,8,90711:0:0:0:0:
320,192,90711,128,8,90847:0:0:0:0:
64,192,90847,128,2,91120:0:0:0:0:
192,192,90847,1,0,0:0:0:0:
448,192,90983,128,0,91256:0:0:0:0:
192,192,91120,128,2,91665:0:0:0:0:
320,192,91256,128,0,91392:0:0:0:0:
64,192,91392,128,8,91529:0:0:0:0:
448,192,91529,128,0,91802:0:0:0:0:
64,192,91665,128,8,91802:0:0:0:0:
192,192,91733,128,8,91802:0:0:0:0:
320,192,91802,128,8,91938:0:0:0:0:
448,192,91938,128,2,92142:0:0:0:0:
192,192,92074,128,2,92211:0:0:0:0:
320,192,92142,128,0,92211:0:0:0:0:
64,192,92211,128,2,92415:0:0:0:0:
320,192,92347,128,8,92483:0:0:0:0:
192,192,92415,128,8,92483:0:0:0:0:
448,192,92483,128,8,92552:0:0:0:0:
64,192,92552,128,0,92620:0:0:0:0:
192,192,92620,128,0,92756:0:0:0:0:
448,192,92756,128,8,92824:0:0:0:0:
64,192,92824,128,8,92892:0:0:0:0:
192,192,92892,128,8,93029:0:0:0:0:
448,192,93029,128,2,93302:0:0:0:0:
320,192,93029,1,0,0:0:0:0:
64,192,93165,128,0,93438:0:0:0:0:
320,192,93302,128,2,93847:0:0:0:0:
192,192,93438,128,0,93574:0:0:0:0:
448,192,93574,128,8,93711:0:0:0:0:
64,192,93711,128,0,93983:0:0:0:0:
448,192,93847,128,8,93983:0:0:0:0:
320,192,93915,128,0,93983:0:0:0:0:
192,192,93983,128,0,94120:0:0:0:0:
64,192,94120,128,2,94324:0:0:0:0:
320,192,94256,128,0,94392:0:0:0:0:
192,192,94324,128,2,94392:0:0:0:0:
448,192,94392,128,2,94597:0:0:0:0:
192,192,94529,128,0,94665:0:0:0:0:
320,192,94597,128,0,94665:0:0:0:0:
64,192,94665,128,8,94733:0:0:0:0:
448,192,94733,128,0,94802:0:0:0:0:
320,192,94802,128,0,94938:0:0:0:0:
64,192,94938,128,8,95006:0:0:0:0:
448,192,95006,128,0,95074:0:0:0:0:
320,192,95074,128,0,95211:0:0:0:0:
64,192,95211,128,2,95483:0:0:0:0:
192,192,95211,1,0,0:0:0:0:
448,192,95347,128,2,95483:0:0:0:0:
320,192,95415,128,2,95483:0:0:0:0:
192,192,95483,128,2,96029:0:0:0:0:
320,192,95620,128,2,95756:0:0:0:0:
64,192,95756,128,8,95892:0:0:0:0:
448,192,95892,128,8,96029:0:0:0:0:
320,192,95961,128,8,96029:0:0:0:0:
64,192,96029,128,2,96165:0:0:0:0:
320,192,96165,128,0,96302:0:0:0:0:
64,192,96233,128,0,96302:0:0:0:0:
448,192,96302,128,8,96438:0:0:0:0:
192,192,96302,128,0,96438:0:0:0:0:
64,192,96438,128,0,96574:0:0:0:0:
320,192,96506,128,0,96574:0:0:0:0:
448,192,96574,128,2,96711:0:0:0:0:
192,192,96642,128,2,96711:0:0:0:0:
320,192,96711,128,2,96847:0:0:0:0:
448,192,96847,1,0,0:0:0:0:
64,192,96847,1,8,0:0:0:0:
192,192,96983,128,8,97120:0:0:0:0:
320,192,97052,128,8,97120:0:0:0:0:
448,192,97120,1,8,0:0:0:0:
64,192,97120,1,2,0:0:0:0:
