osu file format v14

[General]
AudioFilename: audio.mp3
AudioLeadIn: 0
PreviewTime: 62483
Countdown: 0
SampleSet: Soft
StackLeniency: 0.7
Mode: 3
LetterboxInBreaks: 0
SpecialStyle: 0
WidescreenStoryboard: 0

[Editor]
Bookmarks: 1392,10120,27574,45029,62483,79938,97392
DistanceSpacing: 0.8
BeatDivisor: 4
GridSize: 32
TimelineZoom: 1.4

[Metadata]
Title:Ren Ren Ai Ai Cir Cir Cula Cula Tion Tion
TitleUnicode:恋恋愛愛サーサーキュレーキュレーションション
Artist:Sara
ArtistUnicode:皿
Creator:Garalulu
Version:Normal Normal
Source:化物語
Tags:breakcore 千石撫子 Sengoku Nadeko 花澤 香菜 Hanazawa Kana bakemonogatari renai circulation
BeatmapID:1447038
BeatmapSetID:683691

[Difficulty]
HPDrainRate:8
CircleSize:4
OverallDifficulty:6.5
ApproachRate:10
SliderMultiplier:1.4
SliderTickRate:1

[Events]
//Background and Video events
0,0,"hoihoi.png",0,0
//Break Periods
//Storyboard Layer 0 (Background)
//Storyboard Layer 1 (Fail)
//Storyboard Layer 2 (Pass)
//Storyboard Layer 3 (Foreground)
//Storyboard Sound Samples

[TimingPoints]
302,272.727272727273,4,2,1,50,1,0
62483,-100,4,2,1,50,0,1
79392,-100,4,2,1,50,0,0

[HitObjects]
320,192,574,128,0,847:0:0:0:0:
192,192,847,1,0,0:0:0:0:
448,192,983,128,0,1120:0:0:0:0:
192,192,1120,1,0,0:0:0:0:
448,192,1256,128,0,1392:0:0:0:0:
64,192,1392,128,0,1665:0:0:0:0:
320,192,1529,1,0,0:0:0:0:
192,192,1665,128,0,2211:0:0:0:0:
448,192,1802,1,0,0:0:0:0:
320,192,2074,1,0,0:0:0:0:
64,192,2211,128,0,2483:0:0:0:0:
192,192,2347,1,0,0:0:0:0:
448,192,2483,1,0,0:0:0:0:
448,192,2756,1,0,0:0:0:0:
192,192,2892,1,0,0:0:0:0:
64,192,3029,1,0,0:0:0:0:
320,192,3165,128,0,3302:0:0:0:0:
192,192,3302,1,0,0:0:0:0:
320,192,3438,128,0,3574:0:0:0:0:
448,192,3574,128,0,3847:0:0:0:0:
192,192,3711,1,0,0:0:0:0:
320,192,3847,128,0,4392:0:0:0:0:
64,192,3983,1,0,0:0:0:0:
192,192,4256,1,0,0:0:0:0:
448,192,4392,128,0,4665:0:0:0:0:
320,192,4529,1,0,0:0:0:0:
64,192,4665,1,0,0:0:0:0:
64,192,4938,1,0,0:0:0:0:
320,192,5074,1,0,0:0:0:0:
448,192,5211,1,0,0:0:0:0:
192,192,5347,128,0,5483:0:0:0:0:
320,192,5483,1,0,0:0:0:0:
192,192,5620,128,0,5756:0:0:0:0:
64,192,5756,128,0,6029:0:0:0:0:
448,192,5892,1,0,0:0:0:0:
320,192,6029,128,0,6574:0:0:0:0:
64,192,6165,1,0,0:0:0:0:
448,192,6438,1,0,0:0:0:0:
192,192,6574,128,0,6847:0:0:0:0:
320,192,6711,1,0,0:0:0:0:
64,192,6847,1,0,0:0:0:0:
64,192,7120,1,0,0:0:0:0:
320,192,7256,1,0,0:0:0:0:
448,192,7392,1,0,0:0:0:0:
192,192,7529,128,0,7665:0:0:0:0:
320,192,7665,1,0,0:0:0:0:
192,192,7802,128,0,7938:0:0:0:0:
448,192,7938,128,0,8211:0:0:0:0:
64,192,8074,1,0,0:0:0:0:
192,192,8211,128,0,8756:0:0:0:0:
448,192,8347,1,0,0:0:0:0:
64,192,8620,1,0,0:0:0:0:
320,192,8756,128,0,9029:0:0:0:0:
192,192,8892,1,0,0:0:0:0:
448,192,9029,1,0,0:0:0:0:
448,192,9302,1,0,0:0:0:0:
320,192,9438,1,0,0:0:0:0:
64,192,9574,1,8,0:0:0:0:
192,192,9574,1,0,0:0:0:0:
192,192,9847,1,0,0:0:0:0:
64,192,9847,1,8,0:0:0:0:
64,192,10120,128,2,10392:0:0:0:0:
448,192,10120,1,4,0:0:0:0:
320,192,10392,1,0,0:0:0:0:
192,192,10392,128,2,10665:0:0:0:0:
448,192,10665,1,8,0:0:0:0:
64,192,10665,1,0,0:0:0:0:
192,192,10938,1,0,0:0:0:0:
448,192,10938,1,8,0:0:0:0:
448,192,11211,128,2,11483:0:0:0:0:
64,192,11211,1,0,0:0:0:0:
320,192,11483,128,2,11756:0:0:0:0:
192,192,11483,1,0,0:0:0:0:
64,192,11756,1,8,0:0:0:0:
448,192,11756,1,0,0:0:0:0:
320,192,12029,1,0,0:0:0:0:
64,192,12029,1,8,0:0:0:0:
192,192,12302,128,2,12574:0:0:0:0:
448,192,12302,1,0,0:0:0:0:
64,192,12574,128,2,12847:0:0:0:0:
320,192,12574,1,0,0:0:0:0:
192,192,12847,1,8,0:0:0:0:
448,192,12847,1,0,0:0:0:0:
192,192,13120,1,8,0:0:0:0:
64,192,13120,1,0,0:0:0:0:
320,192,13392,128,2,13665:0:0:0:0:
64,192,13392,1,0,0:0:0:0:
448,192,13665,128,2,13938:0:0:0:0:
192,192,13665,1,0,0:0:0:0:
64,192,13938,1,0,0:0:0:0:
320,192,13938,1,8,0:0:0:0:
320,192,14211,1,8,0:0:0:0:
448,192,14211,1,0,0:0:0:0:
64,192,14483,1,0,0:0:0:0:
192,192,14483,128,2,14756:0:0:0:0:
320,192,14756,128,2,15029:0:0:0:0:
448,192,14756,1,0,0:0:0:0:
192,192,15029,1,0,0:0:0:0:
64,192,15029,1,8,0:0:0:0:
64,192,15302,1,8,0:0:0:0:
192,192,15302,1,0,0:0:0:0:
320,192,15574,128,2,15847:0:0:0:0:
448,192,15574,1,0,0:0:0:0:
192,192,15847,128,2,16120:0:0:0:0:
64,192,15847,1,0,0:0:0:0:
320,192,16120,1,0,0:0:0:0:
448,192,16120,1,8,0:0:0:0:
448,192,16392,1,8,0:0:0:0:
320,192,16392,1,0,0:0:0:0:
64,192,16665,128,2,16938:0:0:0:0:
192,192,16665,1,0,0:0:0:0:
320,192,16938,1,0,0:0:0:0:
448,192,16938,128,2,17211:0:0:0:0:
192,192,17211,1,8,0:0:0:0:
64,192,17211,1,0,0:0:0:0:
192,192,17483,1,8,0:0:0:0:
64,192,17483,1,0,0:0:0:0:
448,192,17756,1,2,0:0:0:0:
192,192,17892,1,8,0:0:0:0:
320,192,18029,1,2,0:0:0:0:
64,192,18165,1,8,0:0:0:0:
320,192,18302,1,0,0:0:0:0:
448,192,18302,1,8,0:0:0:0:
448,192,18574,1,8,0:0:0:0:
320,192,18574,1,0,0:0:0:0:
64,192,18847,128,2,19120:0:0:0:0:
192,192,18847,1,4,0:0:0:0:
448,192,19120,128,2,19392:0:0:0:0:
320,192,19120,1,4,0:0:0:0:
64,192,19392,1,0,0:0:0:0:
192,192,19392,1,8,0:0:0:0:
192,192,19665,1,8,0:0:0:0:
320,192,19665,1,0,0:0:0:0:
448,192,19938,1,0,0:0:0:0:
64,192,19938,128,2,20211:0:0:0:0:
192,192,20211,1,0,0:0:0:0:
320,192,20211,128,2,20483:0:0:0:0:
64,192,20483,1,0,0:0:0:0:
448,192,20483,1,8,0:0:0:0:
320,192,20756,1,0,0:0:0:0:
448,192,20756,1,8,0:0:0:0:
192,192,21029,128,2,21302:0:0:0:0:
64,192,21029,1,0,0:0:0:0:
320,192,21302,1,0,0:0:0:0:
448,192,21302,128,2,21574:0:0:0:0:
192,192,21574,1,8,0:0:0:0:
64,192,21574,1,0,0:0:0:0:
192,192,21847,1,8,0:0:0:0:
448,192,21847,1,0,0:0:0:0:
320,192,22120,1,0,0:0:0:0:
64,192,22120,128,2,22392:0:0:0:0:
192,192,22392,1,0,0:0:0:0:
448,192,22392,128,2,22665:0:0:0:0:
320,192,22665,1,0,0:0:0:0:
64,192,22665,1,8,0:0:0:0:
448,192,22938,1,0,0:0:0:0:
64,192,22938,1,8,0:0:0:0:
320,192,23211,128,2,23483:0:0:0:0:
192,192,23211,1,0,0:0:0:0:
64,192,23483,128,2,23756:0:0:0:0:
448,192,23483,1,0,0:0:0:0:
192,192,23756,1,8,0:0:0:0:
320,192,23756,1,0,0:0:0:0:
192,192,24029,1,8,0:0:0:0:
64,192,24029,1,0,0:0:0:0:
64,192,24302,1,0,0:0:0:0:
448,192,24302,128,2,24574:0:0:0:0:
192,192,24574,1,0,0:0:0:0:
320,192,24574,128,2,24847:0:0:0:0:
64,192,24847,1,0,0:0:0:0:
448,192,24847,1,8,0:0:0:0:
192,192,25120,1,0,0:0:0:0:
448,192,25120,1,8,0:0:0:0:
320,192,25392,128,2,25665:0:0:0:0:
64,192,25392,1,0,0:0:0:0:
192,192,25665,1,0,0:0:0:0:
448,192,25665,128,2,25938:0:0:0:0:
320,192,25938,1,8,0:0:0:0:
64,192,25938,1,0,0:0:0:0:
192,192,26211,1,0,0:0:0:0:
320,192,26211,1,8,0:0:0:0:
64,192,26483,1,2,0:0:0:0:
192,192,26620,1,2,0:0:0:0:
320,192,26756,1,2,0:0:0:0:
448,192,26892,1,2,0:0:0:0:
64,192,27029,1,0,0:0:0:0:
192,192,27029,1,8,0:0:0:0:
320,192,27165,1,2,0:0:0:0:
64,192,27302,1,0,0:0:0:0:
192,192,27302,1,8,0:0:0:0:
192,192,27574,1,2,0:0:0:0:
448,192,27574,1,4,0:0:0:0:
320,192,27711,1,2,0:0:0:0:
448,192,27847,1,8,0:0:0:0:
64,192,27847,1,0,0:0:0:0:
320,192,28120,1,2,0:0:0:0:
192,192,28256,1,2,0:0:0:0:
64,192,28392,1,8,0:0:0:0:
448,192,28392,1,0,0:0:0:0:
320,192,28665,1,2,0:0:0:0:
448,192,28802,1,2,0:0:0:0:
64,192,28938,1,0,0:0:0:0:
192,192,28938,1,8,0:0:0:0:
320,192,29211,1,2,0:0:0:0:
64,192,29347,1,2,0:0:0:0:
448,192,29483,1,0,0:0:0:0:
192,192,29483,1,8,0:0:0:0:
64,192,29756,1,2,0:0:0:0:
320,192,29892,1,2,0:0:0:0:
192,192,30029,1,8,0:0:0:0:
64,192,30029,1,0,0:0:0:0:
448,192,30165,1,2,0:0:0:0:
320,192,30302,1,2,0:0:0:0:
192,192,30438,1,8,0:0:0:0:
64,192,30438,1,0,0:0:0:0:
448,192,30574,1,8,0:0:0:0:
320,192,30711,1,2,0:0:0:0:
192,192,30847,1,2,0:0:0:0:
320,192,30983,1,2,0:0:0:0:
64,192,31120,1,0,0:0:0:0:
448,192,31120,1,8,0:0:0:0:
192,192,31256,1,2,0:0:0:0:
64,192,31392,1,8,0:0:0:0:
448,192,31392,1,0,0:0:0:0:
192,192,31665,1,2,0:0:0:0:
320,192,31802,1,8,0:0:0:0:
64,192,31938,1,2,0:0:0:0:
192,192,32074,1,2,0:0:0:0:
320,192,32211,1,8,0:0:0:0:
448,192,32211,1,0,0:0:0:0:
192,192,32483,1,2,0:0:0:0:
64,192,32620,1,2,0:0:0:0:
320,192,32756,1,8,0:0:0:0:
448,192,32756,1,0,0:0:0:0:
192,192,33029,1,2,0:0:0:0:
448,192,33165,1,2,0:0:0:0:
320,192,33302,1,8,0:0:0:0:
64,192,33302,1,0,0:0:0:0:
192,192,33574,1,2,0:0:0:0:
320,192,33711,1,2,0:0:0:0:
448,192,33847,1,8,0:0:0:0:
64,192,33847,1,0,0:0:0:0:
320,192,34120,1,2,0:0:0:0:
448,192,34256,1,2,0:0:0:0:
64,192,34392,1,8,0:0:0:0:
192,192,34392,1,0,0:0:0:0:
320,192,34665,1,2,0:0:0:0:
192,192,34802,1,2,0:0:0:0:
448,192,34938,1,0,0:0:0:0:
64,192,34938,1,8,0:0:0:0:
320,192,35074,1,8,0:0:0:0:
192,192,35211,1,2,0:0:0:0:
448,192,35347,1,2,0:0:0:0:
64,192,35483,1,0,0:0:0:0:
320,192,35483,1,8,0:0:0:0:
192,192,35620,1,2,0:0:0:0:
448,192,35756,1,2,0:0:0:0:
64,192,35892,1,4,0:0:0:0:
192,192,35892,1,2,0:0:0:0:
448,192,36029,1,0,0:0:0:0:
320,192,36029,1,2,0:0:0:0:
64,192,36165,1,8,0:0:0:0:
192,192,36302,1,2,0:0:0:0:
320,192,36438,1,2,0:0:0:0:
448,192,36574,1,8,0:0:0:0:
192,192,36574,1,0,0:0:0:0:
320,192,36847,1,2,0:0:0:0:
192,192,36983,1,2,0:0:0:0:
64,192,37120,1,8,0:0:0:0:
320,192,37120,1,0,0:0:0:0:
448,192,37392,1,2,0:0:0:0:
192,192,37529,1,2,0:0:0:0:
448,192,37665,1,0,0:0:0:0:
320,192,37665,1,8,0:0:0:0:
64,192,37938,1,2,0:0:0:0:
320,192,38074,1,2,0:0:0:0:
192,192,38211,1,8,0:0:0:0:
64,192,38211,1,0,0:0:0:0:
448,192,38483,1,2,0:0:0:0:
320,192,38620,1,2,0:0:0:0:
192,192,38756,1,8,0:0:0:0:
64,192,38756,1,0,0:0:0:0:
448,192,38892,1,2,0:0:0:0:
64,192,39029,1,2,0:0:0:0:
320,192,39165,1,8,0:0:0:0:
448,192,39165,1,0,0:0:0:0:
192,192,39302,1,2,0:0:0:0:
320,192,39438,1,2,0:0:0:0:
64,192,39574,1,2,0:0:0:0:
192,192,39711,1,2,0:0:0:0:
320,192,39847,1,8,0:0:0:0:
448,192,39847,1,0,0:0:0:0:
64,192,39983,1,2,0:0:0:0:
192,192,40120,1,8,0:0:0:0:
320,192,40120,1,0,0:0:0:0:
64,192,40392,128,8,40665:0:0:0:0:
448,192,40392,128,2,40665:0:0:0:0:
192,192,40665,1,2,0:0:0:0:
448,192,40802,1,2,0:0:0:0:
64,192,40938,1,0,0:0:0:0:
320,192,40938,1,8,0:0:0:0:
192,192,41211,1,2,0:0:0:0:
320,192,41347,1,2,0:0:0:0:
448,192,41483,1,8,0:0:0:0:
64,192,41483,1,0,0:0:0:0:
320,192,41756,1,2,0:0:0:0:
64,192,41892,1,2,0:0:0:0:
192,192,42029,1,8,0:0:0:0:
448,192,42029,1,0,0:0:0:0:
320,192,42302,1,2,0:0:0:0:
192,192,42438,1,2,0:0:0:0:
64,192,42574,1,0,0:0:0:0:
448,192,42574,1,8,0:0:0:0:
320,192,42847,1,2,0:0:0:0:
448,192,42983,1,2,0:0:0:0:
64,192,43120,1,8,0:0:0:0:
320,192,43120,1,0,0:0:0:0:
192,192,43392,1,2,0:0:0:0:
64,192,43529,1,2,0:0:0:0:
192,192,43665,1,2,0:0:0:0:
448,192,43665,1,0,0:0:0:0:
320,192,43802,1,8,0:0:0:0:
64,192,43938,1,2,0:0:0:0:
448,192,44074,1,2,0:0:0:0:
320,192,44211,1,2,0:0:0:0:
192,192,44211,1,0,0:0:0:0:
64,192,44347,1,2,0:0:0:0:
448,192,44483,1,0,0:0:0:0:
320,192,44483,1,8,0:0:0:0:
64,192,44756,128,8,45029:0:0:0:0:
448,192,44756,128,2,45029:0:0:0:0:
192,192,45029,128,6,45574:0:0:0:0:
320,192,45302,128,0,45574:0:0:0:0:
64,192,45574,128,2,45711:0:0:0:0:
448,192,45574,1,0,0:0:0:0:
192,192,45711,128,0,45847:0:0:0:0:
64,192,45847,1,0,0:0:0:0:
448,192,45847,128,2,45983:0:0:0:0:
320,192,45983,128,0,46120:0:0:0:0:
448,192,46120,1,0,0:0:0:0:
192,192,46120,1,8,0:0:0:0:
192,192,46392,1,8,0:0:0:0:
448,192,46392,1,0,0:0:0:0:
320,192,46665,128,2,47211:0:0:0:0:
192,192,46938,128,0,47211:0:0:0:0:
448,192,47211,128,2,47347:0:0:0:0:
64,192,47211,1,0,0:0:0:0:
320,192,47347,128,0,47483:0:0:0:0:
64,192,47483,128,2,47620:0:0:0:0:
448,192,47483,1,0,0:0:0:0:
192,192,47620,128,0,47756:0:0:0:0:
64,192,47756,1,0,0:0:0:0:
320,192,47756,1,8,0:0:0:0:
320,192,48029,1,8,0:0:0:0:
64,192,48029,1,0,0:0:0:0:
448,192,48302,128,2,48438:0:0:0:0:
192,192,48438,128,0,48574:0:0:0:0:
320,192,48574,128,2,48711:0:0:0:0:
64,192,48711,128,0,48847:0:0:0:0:
192,192,48847,128,8,48983:0:0:0:0:
448,192,48983,128,0,49120:0:0:0:0:
64,192,49120,128,8,49256:0:0:0:0:
320,192,49256,128,8,49392:0:0:0:0:
448,192,49392,128,2,49529:0:0:0:0:
192,192,49529,128,0,49665:0:0:0:0:
64,192,49665,128,2,49802:0:0:0:0:
320,192,49802,128,0,49938:0:0:0:0:
192,192,49938,128,8,50074:0:0:0:0:
448,192,50074,128,0,50211:0:0:0:0:
320,192,50211,128,8,50347:0:0:0:0:
192,192,50347,128,8,50483:0:0:0:0:
64,192,50483,128,2,50620:0:0:0:0:
320,192,50620,128,0,50756:0:0:0:0:
448,192,50756,128,2,50892:0:0:0:0:
192,192,50892,128,0,51029:0:0:0:0:
320,192,51029,128,8,51165:0:0:0:0:
64,192,51165,128,0,51302:0:0:0:0:
192,192,51302,128,8,51438:0:0:0:0:
320,192,51438,128,0,51574:0:0:0:0:
448,192,51574,128,2,51711:0:0:0:0:
192,192,51711,128,0,51847:0:0:0:0:
64,192,51847,128,2,51983:0:0:0:0:
448,192,51983,128,0,52120:0:0:0:0:
320,192,52120,128,8,52256:0:0:0:0:
64,192,52256,128,0,52392:0:0:0:0:
192,192,52392,128,8,52529:0:0:0:0:
320,192,52529,128,8,52665:0:0:0:0:
64,192,52665,1,2,0:0:0:0:
448,192,52665,1,0,0:0:0:0:
192,192,52938,128,0,53211:0:0:0:0:
320,192,52938,1,2,0:0:0:0:
64,192,53211,1,0,0:0:0:0:
448,192,53211,1,8,0:0:0:0:
64,192,53483,128,8,53756:0:0:0:0:
448,192,53483,128,2,53756:0:0:0:0:
320,192,53756,128,2,54302:0:0:0:0:
64,192,54029,128,0,54302:0:0:0:0:
448,192,54302,128,8,54438:0:0:0:0:
192,192,54302,1,0,0:0:0:0:
64,192,54438,128,0,54574:0:0:0:0:
192,192,54574,128,8,54711:0:0:0:0:
448,192,54574,1,0,0:0:0:0:
320,192,54711,128,0,54847:0:0:0:0:
64,192,54847,1,2,0:0:0:0:
192,192,54847,1,0,0:0:0:0:
64,192,55120,1,2,0:0:0:0:
192,192,55120,1,0,0:0:0:0:
192,192,55392,128,8,55938:0:0:0:0:
448,192,55665,128,0,55938:0:0:0:0:
64,192,55938,128,2,56074:0:0:0:0:
320,192,55938,1,0,0:0:0:0:
448,192,56074,128,0,56211:0:0:0:0:
320,192,56211,128,2,56347:0:0:0:0:
64,192,56211,1,0,0:0:0:0:
192,192,56347,128,0,56483:0:0:0:0:
448,192,56483,1,8,0:0:0:0:
320,192,56483,1,0,0:0:0:0:
320,192,56756,1,0,0:0:0:0:
448,192,56756,1,8,0:0:0:0:
64,192,57029,128,2,57302:0:0:0:0:
320,192,57165,128,0,57302:0:0:0:0:
192,192,57302,128,2,57574:0:0:0:0:
448,192,57438,128,0,57574:0:0:0:0:
320,192,57574,128,8,57847:0:0:0:0:
64,192,57711,128,0,57847:0:0:0:0:
448,192,57847,128,8,58120:0:0:0:0:
192,192,57983,128,8,58120:0:0:0:0:
64,192,58120,128,2,58392:0:0:0:0:
320,192,58256,128,0,58392:0:0:0:0:
448,192,58392,128,2,58665:0:0:0:0:
192,192,58529,128,0,58665:0:0:0:0:
320,192,58665,128,8,58938:0:0:0:0:
64,192,58802,128,0,58938:0:0:0:0:
192,192,58938,128,8,59211:0:0:0:0:
320,192,59074,128,8,59211:0:0:0:0:
448,192,59211,128,2,59483:0:0:0:0:
192,192,59347,128,0,59483:0:0:0:0:
64,192,59483,128,2,59756:0:0:0:0:
320,192,59620,128,0,59756:0:0:0:0:
192,192,59756,128,8,60029:0:0:0:0:
448,192,59892,128,0,60029:0:0:0:0:
320,192,60029,128,8,60302:0:0:0:0:
192,192,60165,128,8,60302:0:0:0:0:
64,192,60302,128,2,60574:0:0:0:0:
320,192,60438,128,0,60574:0:0:0:0:
448,192,60574,128,2,60847:0:0:0:0:
64,192,60711,128,0,60847:0:0:0:0:
192,192,60847,128,8,61120:0:0:0:0:
448,192,60983,128,0,61120:0:0:0:0:
320,192,61120,128,8,61392:0:0:0:0:
192,192,61256,128,8,61392:0:0:0:0:
448,192,61392,1,0,0:0:0:0:
64,192,61392,1,2,0:0:0:0:
192,192,61529,1,2,0:0:0:0:
320,192,61665,1,2,0:0:0:0:
192,192,61802,1,2,0:0:0:0:
64,192,61938,1,8,0:0:0:0:
448,192,61938,1,0,0:0:0:0:
192,192,62211,128,8,62483:0:0:0:0:
320,192,62211,128,2,62483:0:0:0:0:
448,192,62483,1,2,0:0:0:0:
64,192,62483,128,4,63029:0:0:0:0:
320,192,62620,1,2,0:0:0:0:
192,192,62756,1,8,0:0:0:0:
448,192,63029,128,0,63574:0:0:0:0:
320,192,63029,1,8,0:0:0:0:
192,192,63165,1,2,0:0:0:0:
64,192,63302,1,8,0:0:0:0:
192,192,63574,128,0,64120:0:0:0:0:
320,192,63574,1,2,0:0:0:0:
448,192,63711,1,2,0:0:0:0:
64,192,63847,1,8,0:0:0:0:
320,192,64120,128,0,64665:0:0:0:0:
448,192,64120,1,8,0:0:0:0:
64,192,64256,1,2,0:0:0:0:
192,192,64392,1,8,0:0:0:0:
64,192,64665,1,2,0:0:0:0:
192,192,64802,1,2,0:0:0:0:
64,192,64938,1,8,0:0:0:0:
448,192,64938,1,0,0:0:0:0:
320,192,65074,1,2,0:0:0:0:
192,192,65211,1,2,0:0:0:0:
448,192,65347,1,8,0:0:0:0:
64,192,65347,1,0,0:0:0:0:
320,192,65483,1,2,0:0:0:0:
448,192,65620,1,2,0:0:0:0:
192,192,65756,1,0,0:0:0:0:
64,192,65892,1,2,0:0:0:0:
320,192,66029,1,0,0:0:0:0:
448,192,66029,1,8,0:0:0:0:
320,192,66302,1,8,0:0:0:0:
448,192,66438,1,0,0:0:0:0:
64,192,66574,1,0,0:0:0:0:
192,192,66574,1,8,0:0:0:0:
448,192,66847,128,0,67392:0:0:0:0:
64,192,66847,1,2,0:0:0:0:
192,192,66983,1,2,0:0:0:0:
320,192,67120,1,8,0:0:0:0:
64,192,67392,128,0,67938:0:0:0:0:
192,192,67392,1,8,0:0:0:0:
320,192,67529,1,2,0:0:0:0:
448,192,67665,1,8,0:0:0:0:
320,192,67938,128,0,68483:0:0:0:0:
192,192,67938,1,2,0:0:0:0:
64,192,68074,1,2,0:0:0:0:
448,192,68211,1,8,0:0:0:0:
192,192,68483,128,0,69029:0:0:0:0:
64,192,68483,1,2,0:0:0:0:
448,192,68620,1,2,0:0:0:0:
320,192,68756,1,8,0:0:0:0:
448,192,69029,1,2,0:0:0:0:
320,192,69165,1,2,0:0:0:0:
448,192,69302,1,2,0:0:0:0:
192,192,69438,1,2,0:0:0:0:
320,192,69574,1,8,0:0:0:0:
448,192,69574,1,0,0:0:0:0:
64,192,69711,1,2,0:0:0:0:
192,192,69847,1,8,0:0:0:0:
320,192,69847,1,0,0:0:0:0:
64,192,69983,1,8,0:0:0:0:
320,192,70120,1,2,0:0:0:0:
192,192,70256,1,2,0:0:0:0:
448,192,70392,1,8,0:0:0:0:
320,192,70529,1,8,0:0:0:0:
192,192,70665,1,8,0:0:0:0:
64,192,70665,1,0,0:0:0:0:
448,192,70938,1,8,0:0:0:0:
320,192,70938,1,0,0:0:0:0:
192,192,71074,1,8,0:0:0:0:
64,192,71211,128,0,71756:0:0:0:0:
320,192,71211,1,2,0:0:0:0:
320,192,71483,1,2,0:0:0:0:
448,192,71756,128,0,72302:0:0:0:0:
192,192,71756,1,8,0:0:0:0:
192,192,72029,1,8,0:0:0:0:
320,192,72302,128,0,72847:0:0:0:0:
64,192,72302,1,2,0:0:0:0:
64,192,72574,1,2,0:0:0:0:
192,192,72847,128,0,73392:0:0:0:0:
448,192,72847,1,8,0:0:0:0:
448,192,73120,1,8,0:0:0:0:
64,192,73392,128,0,73938:0:0:0:0:
320,192,73392,1,2,0:0:0:0:
192,192,73665,1,2,0:0:0:0:
448,192,73938,128,0,74483:0:0:0:0:
320,192,73938,1,8,0:0:0:0:
192,192,74211,1,8,0:0:0:0:
64,192,74483,1,2,0:0:0:0:
320,192,74620,1,2,0:0:0:0:
192,192,74756,1,2,0:0:0:0:
448,192,74892,1,2,0:0:0:0:
192,192,75029,1,0,0:0:0:0:
64,192,75029,1,8,0:0:0:0:
192,192,75302,1,0,0:0:0:0:
64,192,75302,1,8,0:0:0:0:
448,192,75574,128,0,76120:0:0:0:0:
320,192,75574,1,2,0:0:0:0:
64,192,75847,1,8,0:0:0:0:
192,192,75983,1,8,0:0:0:0:
320,192,76120,128,0,76665:0:0:0:0:
64,192,76120,1,2,0:0:0:0:
192,192,76392,1,8,0:0:0:0:
448,192,76665,1,2,0:0:0:0:
320,192,76802,1,2,0:0:0:0:
192,192,76938,1,2,0:0:0:0:
64,192,77074,1,2,0:0:0:0:
320,192,77211,1,8,0:0:0:0:
448,192,77211,1,0,0:0:0:0:
192,192,77347,1,8,0:0:0:0:
64,192,77347,1,0,0:0:0:0:
320,192,77483,1,2,0:0:0:0:
448,192,77620,1,8,0:0:0:0:
64,192,77620,1,0,0:0:0:0:
192,192,77756,1,2,0:0:0:0:
320,192,77892,1,2,0:0:0:0:
64,192,78029,1,2,0:0:0:0:
192,192,78165,1,2,0:0:0:0:
320,192,78302,1,8,0:0:0:0:
448,192,78302,1,0,0:0:0:0:
64,192,78438,1,2,0:0:0:0:
320,192,78574,1,2,0:0:0:0:
192,192,78711,1,2,0:0:0:0:
448,192,78847,1,0,0:0:0:0:
64,192,78847,1,8,0:0:0:0:
320,192,78983,1,2,0:0:0:0:
192,192,79120,1,2,0:0:0:0:
320,192,79256,1,2,0:0:0:0:
64,192,79392,1,0,0:0:0:0:
448,192,79392,1,8,0:0:0:0:
192,192,79665,128,8,79938:0:0:0:0:
320,192,79665,128,2,79938:0:0:0:0:
64,192,79938,128,2,80211:0:0:0:0:
448,192,79938,1,4,0:0:0:0:
192,192,80211,128,2,80756:0:0:0:0:
448,192,80211,1,0,0:0:0:0:
320,192,80483,1,8,0:0:0:0:
64,192,80756,128,0,81029:0:0:0:0:
320,192,80756,1,8,0:0:0:0:
448,192,81029,1,2,0:0:0:0:
192,192,81029,1,0,0:0:0:0:
448,192,81302,1,2,0:0:0:0:
192,192,81302,1,0,0:0:0:0:
320,192,81438,1,0,0:0:0:0:
64,192,81574,1,8,0:0:0:0:
320,192,81711,128,0,81847:0:0:0:0:
192,192,81847,1,0,0:0:0:0:
320,192,81983,128,0,82120:0:0:0:0:
448,192,82120,128,2,82392:0:0:0:0:
64,192,82120,1,0,0:0:0:0:
320,192,82392,128,2,82938:0:0:0:0:
64,192,82392,1,0,0:0:0:0:
192,192,82665,1,8,0:0:0:0:
448,192,82938,128,0,83211:0:0:0:0:
192,192,82938,1,8,0:0:0:0:
64,192,83211,1,2,0:0:0:0:
320,192,83211,1,0,0:0:0:0:
64,192,83483,1,2,0:0:0:0:
320,192,83483,1,0,0:0:0:0:
192,192,83620,1,0,0:0:0:0:
448,192,83756,1,8,0:0:0:0:
192,192,83892,128,0,84029:0:0:0:0:
320,192,84029,1,0,0:0:0:0:
192,192,84165,128,0,84302:0:0:0:0:
64,192,84302,128,2,84574:0:0:0:0:
448,192,84302,1,0,0:0:0:0:
320,192,84574,128,2,85120:0:0:0:0:
448,192,84574,1,0,0:0:0:0:
64,192,84847,1,8,0:0:0:0:
192,192,85120,128,0,85392:0:0:0:0:
64,192,85120,1,8,0:0:0:0:
448,192,85392,1,2,0:0:0:0:
320,192,85392,1,0,0:0:0:0:
448,192,85665,1,2,0:0:0:0:
320,192,85665,1,0,0:0:0:0:
64,192,85802,1,0,0:0:0:0:
192,192,85938,1,8,0:0:0:0:
192,192,86211,1,8,0:0:0:0:
448,192,86483,128,2,86756:0:0:0:0:
64,192,86483,1,0,0:0:0:0:
192,192,86756,128,2,87302:0:0:0:0:
64,192,86756,1,0,0:0:0:0:
448,192,87029,1,8,0:0:0:0:
320,192,87302,128,0,87574:0:0:0:0:
448,192,87302,1,8,0:0:0:0:
192,192,87574,1,2,0:0:0:0:
320,192,87711,1,2,0:0:0:0:
64,192,87847,1,2,0:0:0:0:
448,192,87847,1,0,0:0:0:0:
192,192,87983,1,0,0:0:0:0:
320,192,88120,1,8,0:0:0:0:
448,192,88120,1,0,0:0:0:0:
320,192,88392,1,8,0:0:0:0:
448,192,88392,1,0,0:0:0:0:
64,192,88665,1,0,0:0:0:0:
448,192,88665,128,2,88938:0:0:0:0:
64,192,88938,1,0,0:0:0:0:
320,192,88938,128,2,89483:0:0:0:0:
192,192,89211,1,8,0:0:0:0:
192,192,89483,1,8,0:0:0:0:
448,192,89483,128,0,89756:0:0:0:0:
64,192,89756,1,2,0:0:0:0:
320,192,89756,1,0,0:0:0:0:
64,192,90029,1,2,0:0:0:0:
320,192,90029,1,0,0:0:0:0:
192,192,90165,1,2,0:0:0:0:
448,192,90302,1,8,0:0:0:0:
192,192,90438,128,0,90574:0:0:0:0:
320,192,90574,1,8,0:0:0:0:
192,192,90711,128,8,90847:0:0:0:0:
448,192,90847,1,0,0:0:0:0:
64,192,90847,128,2,91120:0:0:0:0:
448,192,91120,1,0,0:0:0:0:
192,192,91120,128,2,91665:0:0:0:0:
320,192,91392,1,8,0:0:0:0:
320,192,91665,1,8,0:0:0:0:
64,192,91665,128,0,91938:0:0:0:0:
448,192,91938,1,2,0:0:0:0:
64,192,92074,1,2,0:0:0:0:
320,192,92211,1,2,0:0:0:0:
448,192,92211,1,0,0:0:0:0:
192,192,92347,1,8,0:0:0:0:
64,192,92483,1,8,0:0:0:0:
320,192,92620,128,0,92756:0:0:0:0:
192,192,92756,1,8,0:0:0:0:
320,192,92892,128,8,93029:0:0:0:0:
64,192,93029,1,0,0:0:0:0:
448,192,93029,128,2,93302:0:0:0:0:
64,192,93302,1,0,0:0:0:0:
192,192,93302,128,2,93847:0:0:0:0:
448,192,93574,1,8,0:0:0:0:
448,192,93847,1,8,0:0:0:0:
320,192,93847,128,0,94120:0:0:0:0:
64,192,94120,1,2,0:0:0:0:
192,192,94120,1,0,0:0:0:0:
64,192,94392,1,2,0:0:0:0:
192,192,94392,1,0,0:0:0:0:
448,192,94529,1,0,0:0:0:0:
320,192,94665,1,8,0:0:0:0:
320,192,94938,1,8,0:0:0:0:
448,192,95211,1,0,0:0:0:0:
64,192,95211,128,2,95483:0:0:0:0:
192,192,95347,1,2,0:0:0:0:
448,192,95483,1,0,0:0:0:0:
320,192,95483,128,2,96029:0:0:0:0:
64,192,95756,1,8,0:0:0:0:
64,192,96029,1,0,0:0:0:0:
192,192,96029,128,2,96302:0:0:0:0:
448,192,96302,1,8,0:0:0:0:
320,192,96302,1,0,0:0:0:0:
448,192,96574,1,2,0:0:0:0:
64,192,96574,1,0,0:0:0:0:
320,192,96711,1,2,0:0:0:0:
192,192,96847,1,8,0:0:0:0:
320,192,96983,128,8,97120:0:0:0:0:
64,192,97120,1,8,0:0:0:0:
448,192,97120,1,2,0:0:0:0:
