osu file format v14

[General]
AudioFilename: audio.mp3
AudioLeadIn: 0
PreviewTime: 62483
Countdown: 0
SampleSet: Soft
StackLeniency: 0.7
Mode: 3
LetterboxInBreaks: 0
SpecialStyle: 0
WidescreenStoryboard: 0

[Editor]
Bookmarks: 1392,10120,27574,45029,62483,79938,97392
DistanceSpacing: 0.8
BeatDivisor: 4
GridSize: 32
TimelineZoom: 1.4

[Metadata]
Title:Ren Ren Ai Ai Cir Cir Cula Cula Tion Tion
TitleUnicode:恋恋愛愛サーサーキュレーキュレーションション
Artist:Sara
ArtistUnicode:皿
Creator:Garalulu
Version:Easy Easy
Source:化物語
Tags:breakcore 千石撫子 Sengoku Nadeko 花澤 香菜 Hanazawa Kana bakemonogatari renai circulation
BeatmapID:1447019
BeatmapSetID:683691

[Difficulty]
HPDrainRate:7
CircleSize:4
OverallDifficulty:6
ApproachRate:10
SliderMultiplier:1.4
SliderTickRate:1

[Events]
//Background and Video events
0,0,"hoihoi.png",0,0
//Break Periods
//Storyboard Layer 0 (Background)
//Storyboard Layer 1 (Fail)
//Storyboard Layer 2 (Pass)
//Storyboard Layer 3 (Foreground)
//Storyboard Sound Samples

[TimingPoints]
302,272.727272727273,4,2,1,50,1,0
62483,-100,4,2,1,50,0,1
79392,-100,4,2,1,50,0,0

[HitObjects]
192,192,574,128,0,847:0:0:0:0:
320,192,847,1,0,0:0:0:0:
320,192,1120,1,0,0:0:0:0:
64,192,1392,128,0,1665:0:0:0:0:
320,192,1665,128,0,2211:0:0:0:0:
192,192,2211,128,0,2483:0:0:0:0:
448,192,2483,1,0,0:0:0:0:
64,192,2756,1,0,0:0:0:0:
448,192,3574,128,0,3847:0:0:0:0:
192,192,3847,128,0,4392:0:0:0:0:
320,192,4392,128,0,4665:0:0:0:0:
64,192,4665,1,0,0:0:0:0:
448,192,4938,1,0,0:0:0:0:
192,192,5756,128,0,6029:0:0:0:0:
448,192,6029,128,0,6574:0:0:0:0:
64,192,6574,128,0,6847:0:0:0:0:
320,192,6847,1,0,0:0:0:0:
192,192,7120,1,0,0:0:0:0:
320,192,7938,128,0,8211:0:0:0:0:
64,192,8211,128,0,8756:0:0:0:0:
448,192,8756,128,0,9029:0:0:0:0:
192,192,9029,1,0,0:0:0:0:
320,192,9302,1,0,0:0:0:0:
64,192,9574,1,8,0:0:0:0:
64,192,9847,1,8,0:0:0:0:
448,192,10120,1,6,0:0:0:0:
320,192,10392,1,2,0:0:0:0:
64,192,10665,1,8,0:0:0:0:
192,192,10938,1,8,0:0:0:0:
320,192,11211,1,2,0:0:0:0:
448,192,11483,1,2,0:0:0:0:
192,192,11756,1,8,0:0:0:0:
320,192,12029,1,8,0:0:0:0:
64,192,12302,1,2,0:0:0:0:
192,192,12574,1,2,0:0:0:0:
448,192,12847,1,8,0:0:0:0:
320,192,13120,1,8,0:0:0:0:
192,192,13392,1,2,0:0:0:0:
64,192,13665,1,2,0:0:0:0:
320,192,13938,1,8,0:0:0:0:
192,192,14211,1,8,0:0:0:0:
320,192,14483,1,2,0:0:0:0:
448,192,14756,1,2,0:0:0:0:
64,192,15029,1,8,0:0:0:0:
192,192,15302,1,8,0:0:0:0:
320,192,15574,1,2,0:0:0:0:
448,192,15847,1,2,0:0:0:0:
192,192,16120,1,8,0:0:0:0:
320,192,16392,1,8,0:0:0:0:
448,192,16665,1,2,0:0:0:0:
64,192,16938,1,2,0:0:0:0:
320,192,17211,1,8,0:0:0:0:
192,192,17483,1,8,0:0:0:0:
448,192,17756,1,2,0:0:0:0:
448,192,18029,1,2,0:0:0:0:
64,192,18302,1,8,0:0:0:0:
64,192,18574,1,8,0:0:0:0:
320,192,18847,1,6,0:0:0:0:
192,192,19120,1,6,0:0:0:0:
448,192,19392,1,8,0:0:0:0:
320,192,19665,1,8,0:0:0:0:
192,192,19938,1,2,0:0:0:0:
64,192,20211,1,2,0:0:0:0:
320,192,20483,1,8,0:0:0:0:
192,192,20756,1,8,0:0:0:0:
448,192,21029,1,2,0:0:0:0:
320,192,21302,1,2,0:0:0:0:
64,192,21574,1,8,0:0:0:0:
192,192,21847,1,8,0:0:0:0:
320,192,22120,1,2,0:0:0:0:
448,192,22392,1,2,0:0:0:0:
192,192,22665,1,8,0:0:0:0:
320,192,22938,1,8,0:0:0:0:
192,192,23211,1,2,0:0:0:0:
64,192,23483,1,2,0:0:0:0:
448,192,23756,1,8,0:0:0:0:
320,192,24029,1,8,0:0:0:0:
192,192,24302,1,2,0:0:0:0:
64,192,24574,1,2,0:0:0:0:
320,192,24847,1,8,0:0:0:0:
192,192,25120,1,8,0:0:0:0:
64,192,25392,1,2,0:0:0:0:
448,192,25665,1,2,0:0:0:0:
192,192,25938,1,8,0:0:0:0:
320,192,26211,1,8,0:0:0:0:
64,192,26483,1,2,0:0:0:0:
192,192,26756,128,2,27029:0:0:0:0:
448,192,27029,1,8,0:0:0:0:
320,192,27302,1,8,0:0:0:0:
192,192,27574,1,6,0:0:0:0:
64,192,27847,1,8,0:0:0:0:
320,192,28120,128,2,28392:0:0:0:0:
192,192,28392,1,8,0:0:0:0:
320,192,28665,1,2,0:0:0:0:
448,192,28938,1,8,0:0:0:0:
192,192,29211,128,2,29483:0:0:0:0:
320,192,29483,1,8,0:0:0:0:
192,192,29756,1,2,0:0:0:0:
448,192,30029,1,8,0:0:0:0:
64,192,30302,1,2,0:0:0:0:
320,192,30574,128,8,30847:0:0:0:0:
192,192,30847,1,2,0:0:0:0:
320,192,31120,1,8,0:0:0:0:
192,192,31392,1,8,0:0:0:0:
320,192,31665,1,2,0:0:0:0:
64,192,31938,1,2,0:0:0:0:
192,192,32211,1,8,0:0:0:0:
448,192,32483,128,2,32756:0:0:0:0:
320,192,32756,1,8,0:0:0:0:
192,192,33029,1,2,0:0:0:0:
320,192,33302,1,8,0:0:0:0:
64,192,33574,128,2,33847:0:0:0:0:
192,192,33847,1,8,0:0:0:0:
320,192,34120,1,2,0:0:0:0:
64,192,34392,1,8,0:0:0:0:
448,192,34665,128,2,34938:0:0:0:0:
192,192,34938,1,8,0:0:0:0:
64,192,35211,1,2,0:0:0:0:
320,192,35483,1,8,0:0:0:0:
192,192,35756,1,2,0:0:0:0:
64,192,35892,1,4,0:0:0:0:
448,192,36029,1,2,0:0:0:0:
320,192,36302,1,2,0:0:0:0:
64,192,36574,1,8,0:0:0:0:
448,192,36847,128,2,37120:0:0:0:0:
320,192,37120,1,8,0:0:0:0:
192,192,37392,1,2,0:0:0:0:
448,192,37665,1,8,0:0:0:0:
64,192,37938,128,2,38211:0:0:0:0:
192,192,38211,1,8,0:0:0:0:
448,192,38483,1,2,0:0:0:0:
64,192,38756,1,8,0:0:0:0:
320,192,39029,1,2,0:0:0:0:
192,192,39302,128,2,39574:0:0:0:0:
448,192,39574,1,2,0:0:0:0:
64,192,39847,1,8,0:0:0:0:
448,192,40120,1,8,0:0:0:0:
64,192,40392,128,10,40665:0:0:0:0:
320,192,40665,1,2,0:0:0:0:
64,192,40938,1,8,0:0:0:0:
320,192,41211,128,2,41483:0:0:0:0:
64,192,41483,1,8,0:0:0:0:
192,192,41756,1,2,0:0:0:0:
448,192,42029,1,8,0:0:0:0:
192,192,42302,128,2,42574:0:0:0:0:
448,192,42574,1,8,0:0:0:0:
64,192,42847,1,2,0:0:0:0:
448,192,43120,1,8,0:0:0:0:
64,192,43392,128,2,43665:0:0:0:0:
448,192,43665,1,2,0:0:0:0:
320,192,43938,1,2,0:0:0:0:
192,192,44211,1,2,0:0:0:0:
320,192,44483,1,8,0:0:0:0:
192,192,44756,128,10,45029:0:0:0:0:
64,192,45029,128,6,45574:0:0:0:0:
320,192,45302,128,0,45574:0:0:0:0:
192,192,45574,128,2,45847:0:0:0:0:
448,192,45847,128,2,46120:0:0:0:0:
192,192,46120,1,8,0:0:0:0:
192,192,46392,1,8,0:0:0:0:
448,192,46665,128,2,47211:0:0:0:0:
192,192,46938,128,0,47211:0:0:0:0:
320,192,47211,128,2,47483:0:0:0:0:
64,192,47483,128,2,47756:0:0:0:0:
320,192,47756,1,8,0:0:0:0:
320,192,48029,1,8,0:0:0:0:
64,192,48302,128,2,48574:0:0:0:0:
192,192,48574,128,2,48847:0:0:0:0:
448,192,48847,128,8,49120:0:0:0:0:
320,192,49120,128,8,49392:0:0:0:0:
64,192,49392,128,2,49665:0:0:0:0:
192,192,49665,128,2,49938:0:0:0:0:
64,192,49938,128,8,50211:0:0:0:0:
192,192,50211,128,8,50483:0:0:0:0:
448,192,50483,128,2,50756:0:0:0:0:
320,192,50756,128,2,51029:0:0:0:0:
448,192,51029,128,8,51302:0:0:0:0:
320,192,51302,128,8,51574:0:0:0:0:
192,192,51574,128,2,51847:0:0:0:0:
448,192,51847,128,2,52120:0:0:0:0:
64,192,52120,128,8,52392:0:0:0:0:
320,192,52392,128,8,52665:0:0:0:0:
192,192,52665,1,2,0:0:0:0:
192,192,52938,128,2,53211:0:0:0:0:
320,192,53211,1,8,0:0:0:0:
320,192,53483,128,10,53756:0:0:0:0:
448,192,53756,128,2,54302:0:0:0:0:
192,192,54029,128,0,54302:0:0:0:0:
320,192,54302,128,8,54574:0:0:0:0:
64,192,54574,128,8,54847:0:0:0:0:
320,192,54847,1,2,0:0:0:0:
320,192,55120,1,2,0:0:0:0:
64,192,55392,128,8,55938:0:0:0:0:
320,192,55665,128,0,55938:0:0:0:0:
192,192,55938,128,2,56211:0:0:0:0:
448,192,56211,128,2,56483:0:0:0:0:
192,192,56483,1,8,0:0:0:0:
192,192,56756,1,8,0:0:0:0:
448,192,57029,128,2,57302:0:0:0:0:
320,192,57302,128,2,57574:0:0:0:0:
64,192,57574,128,8,57847:0:0:0:0:
192,192,57847,128,8,58120:0:0:0:0:
448,192,58120,128,2,58392:0:0:0:0:
320,192,58392,128,2,58665:0:0:0:0:
448,192,58665,128,8,58938:0:0:0:0:
320,192,58938,128,8,59211:0:0:0:0:
64,192,59211,128,2,59483:0:0:0:0:
192,192,59483,128,2,59756:0:0:0:0:
64,192,59756,128,8,60029:0:0:0:0:
192,192,60029,128,8,60302:0:0:0:0:
320,192,60302,128,2,60574:0:0:0:0:
64,192,60574,128,2,60847:0:0:0:0:
448,192,60847,128,8,61120:0:0:0:0:
192,192,61120,128,8,61392:0:0:0:0:
320,192,61392,1,2,0:0:0:0:
320,192,61665,1,2,0:0:0:0:
192,192,61938,1,8,0:0:0:0:
192,192,62211,128,10,62483:0:0:0:0:
448,192,62483,128,6,63029:0:0:0:0:
192,192,62756,1,8,0:0:0:0:
64,192,63029,128,8,63574:0:0:0:0:
320,192,63302,1,8,0:0:0:0:
192,192,63574,128,2,64120:0:0:0:0:
448,192,63847,1,8,0:0:0:0:
320,192,64120,128,8,64665:0:0:0:0:
64,192,64392,1,8,0:0:0:0:
448,192,64665,128,2,65211:0:0:0:0:
64,192,64938,1,8,0:0:0:0:
64,192,65211,128,2,65756:0:0:0:0:
448,192,65483,1,2,0:0:0:0:
192,192,65756,1,0,0:0:0:0:
320,192,66029,1,8,0:0:0:0:
192,192,66302,1,8,0:0:0:0:
320,192,66574,1,8,0:0:0:0:
64,192,66847,128,2,67392:0:0:0:0:
448,192,67120,1,8,0:0:0:0:
192,192,67392,128,8,67938:0:0:0:0:
64,192,67665,1,8,0:0:0:0:
320,192,67938,128,2,68483:0:0:0:0:
192,192,68211,1,8,0:0:0:0:
448,192,68483,128,2,69029:0:0:0:0:
64,192,68756,1,8,0:0:0:0:
64,192,69029,128,2,69574:0:0:0:0:
448,192,69302,1,2,0:0:0:0:
448,192,69574,128,8,70120:0:0:0:0:
64,192,69847,1,8,0:0:0:0:
320,192,70120,1,2,0:0:0:0:
192,192,70392,1,8,0:0:0:0:
320,192,70665,1,8,0:0:0:0:
192,192,70938,1,8,0:0:0:0:
64,192,71211,128,2,71756:0:0:0:0:
320,192,71483,1,2,0:0:0:0:
448,192,71756,128,8,72302:0:0:0:0:
192,192,72029,1,8,0:0:0:0:
320,192,72302,128,2,72847:0:0:0:0:
64,192,72574,1,2,0:0:0:0:
192,192,72847,128,8,73392:0:0:0:0:
448,192,73120,1,8,0:0:0:0:
64,192,73392,128,2,73938:0:0:0:0:
448,192,73665,1,2,0:0:0:0:
448,192,73938,128,8,74483:0:0:0:0:
64,192,74211,1,8,0:0:0:0:
320,192,74483,1,2,0:0:0:0:
192,192,74756,1,2,0:0:0:0:
320,192,75029,1,8,0:0:0:0:
192,192,75302,1,8,0:0:0:0:
448,192,75574,128,2,76120:0:0:0:0:
64,192,75847,1,8,0:0:0:0:
320,192,76120,128,2,76665:0:0:0:0:
448,192,76392,1,8,0:0:0:0:
192,192,76665,128,2,77211:0:0:0:0:
320,192,76938,1,2,0:0:0:0:
64,192,77211,128,8,77756:0:0:0:0:
448,192,77483,1,2,0:0:0:0:
448,192,77756,128,2,78302:0:0:0:0:
64,192,78029,1,2,0:0:0:0:
64,192,78302,128,8,78847:0:0:0:0:
448,192,78574,1,2,0:0:0:0:
192,192,78847,1,8,0:0:0:0:
320,192,79120,1,2,0:0:0:0:
192,192,79392,1,8,0:0:0:0:
320,192,79665,128,10,79938:0:0:0:0:
64,192,79938,128,6,80211:0:0:0:0:
320,192,80211,128,2,80756:0:0:0:0:
64,192,80483,1,8,0:0:0:0:
192,192,80756,128,8,81029:0:0:0:0:
448,192,81029,1,2,0:0:0:0:
64,192,81302,1,2,0:0:0:0:
320,192,81574,1,8,0:0:0:0:
192,192,81847,1,0,0:0:0:0:
448,192,82120,128,2,82392:0:0:0:0:
192,192,82392,128,2,82938:0:0:0:0:
448,192,82665,1,8,0:0:0:0:
320,192,82938,128,8,83211:0:0:0:0:
64,192,83211,1,2,0:0:0:0:
448,192,83483,1,2,0:0:0:0:
192,192,83756,1,8,0:0:0:0:
320,192,84029,1,0,0:0:0:0:
192,192,84302,128,2,84574:0:0:0:0:
448,192,84574,128,2,85120:0:0:0:0:
192,192,84847,1,8,0:0:0:0:
64,192,85120,128,8,85392:0:0:0:0:
320,192,85392,1,2,0:0:0:0:
192,192,85665,1,2,0:0:0:0:
448,192,85938,1,8,0:0:0:0:
64,192,86211,1,8,0:0:0:0:
320,192,86483,128,2,86756:0:0:0:0:
64,192,86756,128,2,87302:0:0:0:0:
320,192,87029,1,8,0:0:0:0:
448,192,87302,128,8,87574:0:0:0:0:
192,192,87574,1,2,0:0:0:0:
320,192,87847,1,2,0:0:0:0:
64,192,88120,1,8,0:0:0:0:
64,192,88392,1,8,0:0:0:0:
448,192,88665,128,2,88938:0:0:0:0:
192,192,88938,128,2,89483:0:0:0:0:
448,192,89211,1,8,0:0:0:0:
320,192,89483,128,8,89756:0:0:0:0:
64,192,89756,1,2,0:0:0:0:
448,192,90029,1,2,0:0:0:0:
192,192,90302,1,8,0:0:0:0:
320,192,90574,1,8,0:0:0:0:
64,192,90847,128,2,91120:0:0:0:0:
320,192,91120,128,2,91665:0:0:0:0:
64,192,91392,1,8,0:0:0:0:
192,192,91665,128,8,91938:0:0:0:0:
448,192,91938,1,2,0:0:0:0:
64,192,92211,1,2,0:0:0:0:
320,192,92483,1,8,0:0:0:0:
192,192,92756,1,8,0:0:0:0:
320,192,93029,128,2,93302:0:0:0:0:
64,192,93302,128,2,93847:0:0:0:0:
320,192,93574,1,8,0:0:0:0:
448,192,93847,128,8,94120:0:0:0:0:
192,192,94120,1,2,0:0:0:0:
320,192,94392,1,2,0:0:0:0:
64,192,94665,1,8,0:0:0:0:
448,192,94938,1,8,0:0:0:0:
192,192,95211,128,2,95483:0:0:0:0:
448,192,95483,128,2,96029:0:0:0:0:
192,192,95756,1,8,0:0:0:0:
64,192,96029,128,2,96302:0:0:0:0:
320,192,96302,1,8,0:0:0:0:
192,192,96574,1,2,0:0:0:0:
448,192,96847,1,8,0:0:0:0:
448,192,97120,1,10,0:0:0:0:
