osu file format v14

[General]
AudioFilename: audio.mp3
AudioLeadIn: 0
PreviewTime: 1394
Countdown: 0
SampleSet: Normal
StackLeniency: 0.7
Mode: 1
LetterboxInBreaks: 0
WidescreenStoryboard: 1

[Editor]
DistanceSpacing: 0.8
BeatDivisor: 1
GridSize: 32
TimelineZoom: 1

[Metadata]
Title:Ren Ren Ai Ai Cir Cir Cula Cula Tion Tion
TitleUnicode:恋恋愛愛サーサーキュレーキュレーションション
Artist:Sara
ArtistUnicode:皿
Creator:Backfire
Version:Kan Kan Tan Tan
Source:化物語
Tags:breakcore 千石撫子 Sengoku Nadeko 花澤 香菜 Hanazawa Kana bakemonogatari renai circulation Aloda newyams99 JUDYDANNY
BeatmapID:1404086
BeatmapSetID:663337

[Difficulty]
HPDrainRate:7
CircleSize:5
OverallDifficulty:3
ApproachRate:5
SliderMultiplier:1.2
SliderTickRate:1

[Events]
//Background and Video events
0,0,"cutecutepicturepictureofofgrillgrill.jpg",0,0
//Break Periods
//Storyboard Layer 0 (Background)
//Storyboard Layer 1 (Fail)
//Storyboard Layer 2 (Pass)
//Storyboard Layer 3 (Foreground)
//Storyboard Sound Samples

[TimingPoints]
1394,272.727272727273,4,1,0,100,1,0
62484,-100,4,1,0,100,0,1
79939,-100,4,1,0,100,0,0

[HitObjects]
288,160,1394,5,0,0:0:0:0:
352,192,2484,1,0,0:0:0:0:
352,192,3575,1,0,0:0:0:0:
352,160,4666,1,8,0:0:0:0:
416,192,5757,1,0,0:0:0:0:
416,192,6848,1,0,0:0:0:0:
416,192,7939,1,0,0:0:0:0:
320,192,9030,1,8,0:0:0:0:
352,192,9575,1,8,0:0:0:0:
320,192,9848,1,8,0:0:0:0:
352,192,10121,1,4,0:0:0:0:
384,160,11212,1,0,0:0:0:0:
288,160,11484,1,0,0:0:0:0:
416,192,12303,1,8,0:0:0:0:
352,160,13394,1,0,0:0:0:0:
352,160,13666,1,0,0:0:0:0:
416,192,14484,1,0,0:0:0:0:
448,224,15575,1,8,0:0:0:0:
384,192,16666,1,0,0:0:0:0:
224,128,16939,1,0,0:0:0:0:
416,192,17757,1,8,0:0:0:0:
416,192,18303,1,8,0:0:0:0:
320,192,18575,1,8,0:0:0:0:
416,192,18848,1,4,0:0:0:0:
416,192,19939,1,0,0:0:0:0:
352,192,20212,1,0,0:0:0:0:
480,224,21030,1,8,0:0:0:0:
352,192,22121,1,0,0:0:0:0:
352,192,22394,1,0,0:0:0:0:
352,160,23212,1,0,0:0:0:0:
352,192,24303,1,8,0:0:0:0:
416,192,25394,1,0,0:0:0:0:
352,192,25666,1,0,0:0:0:0:
416,192,26484,1,8,0:0:0:0:
416,192,27030,1,8,0:0:0:0:
352,160,27303,1,8,0:0:0:0:
416,192,27575,1,4,0:0:0:0:
416,192,28121,1,8,0:0:0:0:
416,192,28666,1,0,0:0:0:0:
288,160,29757,1,8,0:0:0:0:
416,160,30303,1,8,0:0:0:0:
320,160,30848,1,0,0:0:0:0:
416,192,31939,1,0,0:0:0:0:
416,192,33030,1,8,0:0:0:0:
416,192,34121,1,0,0:0:0:0:
448,192,34666,1,0,0:0:0:0:
384,160,35212,1,8,0:0:0:0:
384,160,35757,1,8,0:0:0:0:
384,160,36303,1,0,0:0:0:0:
384,192,37394,1,0,0:0:0:0:
416,192,37939,1,0,0:0:0:0:
384,192,38484,1,8,0:0:0:0:
416,192,39575,1,0,0:0:0:0:
416,192,40121,1,8,0:0:0:0:
416,192,40666,1,0,0:0:0:0:
416,192,41212,1,0,0:0:0:0:
416,192,41757,1,8,0:0:0:0:
416,192,42303,1,8,0:0:0:0:
416,192,42848,1,0,0:0:0:0:
416,192,43939,1,0,0:0:0:0:
416,192,44484,1,8,0:0:0:0:
416,192,45030,1,4,0:0:0:0:
416,192,45575,1,8,0:0:0:0:
416,192,46121,1,8,0:0:0:0:
416,192,47212,1,8,0:0:0:0:
416,192,47757,1,0,0:0:0:0:
416,192,48303,1,8,0:0:0:0:
416,192,49394,1,0,0:0:0:0:
384,160,49939,1,8,0:0:0:0:
416,192,50484,1,0,0:0:0:0:
288,192,50757,1,0,0:0:0:0:
416,192,51575,1,0,0:0:0:0:
416,192,52666,1,0,0:0:0:0:
416,192,53212,1,8,0:0:0:0:
416,192,53757,1,4,0:0:0:0:
352,128,54303,1,8,0:0:0:0:
416,160,54848,1,8,0:0:0:0:
32,288,55394,1,0,0:0:0:0:
416,160,55939,1,0,0:0:0:0:
416,160,56484,1,8,0:0:0:0:
384,160,57030,1,8,0:0:0:0:
384,160,57575,1,0,0:0:0:0:
384,160,58121,1,8,0:0:0:0:
384,160,59212,1,0,0:0:0:0:
384,160,60303,1,0,0:0:0:0:
352,192,60848,1,8,0:0:0:0:
384,160,61394,1,0,0:0:0:0:
384,160,61666,1,0,0:0:0:0:
384,160,61939,1,0,0:0:0:0:
384,160,62484,1,4,0:0:0:0:
384,160,63030,1,8,0:0:0:0:
384,160,63575,1,0,0:0:0:0:
384,160,64121,1,8,0:0:0:0:
384,160,64666,1,0,0:0:0:0:
352,192,64939,1,0,0:0:0:0:
384,160,65212,1,8,0:0:0:0:
384,160,65757,1,8,0:0:0:0:
384,160,66848,1,0,0:0:0:0:
320,160,67394,5,8,0:0:0:0:
384,160,67939,1,8,0:0:0:0:
352,160,68484,1,0,0:0:0:0:
384,160,69030,1,0,0:0:0:0:
288,160,69303,1,0,0:0:0:0:
384,192,69575,1,8,0:0:0:0:
384,160,70121,1,8,0:0:0:0:
384,160,71212,1,8,0:0:0:0:
384,160,71757,1,0,0:0:0:0:
384,160,72303,1,8,0:0:0:0:
384,160,72848,1,0,0:0:0:0:
384,160,73394,1,8,0:0:0:0:
320,160,73666,1,8,0:0:0:0:
384,160,73939,1,8,0:0:0:0:
384,160,74484,1,0,0:0:0:0:
384,160,75575,1,0,0:0:0:0:
384,160,76121,1,8,0:0:0:0:
384,160,76666,1,0,0:0:0:0:
320,192,76939,1,0,0:0:0:0:
384,160,77212,1,8,0:0:0:0:
384,160,77757,1,0,0:0:0:0:
384,160,78303,1,8,0:0:0:0:
384,160,78848,1,8,0:0:0:0:
384,160,79939,1,4,0:0:0:0:
384,160,80484,1,8,0:0:0:0:
384,160,81030,1,8,0:0:0:0:
384,160,82121,1,0,0:0:0:0:
384,160,82666,1,8,0:0:0:0:
384,160,83212,1,0,0:0:0:0:
384,160,84303,1,8,0:0:0:0:
384,160,84848,1,0,0:0:0:0:
384,160,85394,1,8,0:0:0:0:
384,160,86484,1,8,0:0:0:0:
384,160,87030,1,0,0:0:0:0:
384,160,87575,1,8,0:0:0:0:
384,160,88121,1,8,0:0:0:0:
320,160,88394,1,8,0:0:0:0:
384,160,88666,1,0,0:0:0:0:
384,160,89212,1,8,0:0:0:0:
384,160,89757,1,8,0:0:0:0:
384,160,90848,1,0,0:0:0:0:
384,160,91394,1,8,0:0:0:0:
384,160,91939,1,0,0:0:0:0:
384,160,93030,1,8,0:0:0:0:
384,160,93575,1,0,0:0:0:0:
384,160,94121,1,8,0:0:0:0:
384,160,95212,1,0,0:0:0:0:
384,160,95757,1,8,0:0:0:0:
384,160,96303,1,0,0:0:0:0:
384,160,96848,1,8,0:0:0:0:
256,192,97121,12,0,99575,0:0:0:0:
