osu file format v14

[General]
AudioFilename: audio.mp3
AudioLeadIn: 0
PreviewTime: 1394
Countdown: 0
SampleSet: Normal
StackLeniency: 0.7
Mode: 1
LetterboxInBreaks: 0
WidescreenStoryboard: 0

[Editor]
DistanceSpacing: 0.8
BeatDivisor: 4
GridSize: 32
TimelineZoom: 2.399999

[Metadata]
Title:Ren Ren Ai Ai Cir Cir Cula Cula Tion Tion
TitleUnicode:恋恋愛愛サーサーキュレーキュレーションション
Artist:Sara
ArtistUnicode:皿
Creator:Backfire
Version:JuDa's Oni Oni
Source:化物語
Tags:breakcore 千石撫子 Sengoku Nadeko 花澤 香菜 Hanazawa Kana bakemonogatari renai circulation Aloda newyams99 JUDYDANNY
BeatmapID:1404085
BeatmapSetID:663337

[Difficulty]
HPDrainRate:5
CircleSize:5
OverallDifficulty:5.5
ApproachRate:5
SliderMultiplier:1.4
SliderTickRate:1

[Events]
//Background and Video events
0,0,"cutecutepicturepictureofofgrillgrill.jpg",0,0
//Break Periods
//Storyboard Layer 0 (Background)
//Storyboard Layer 1 (Fail)
//Storyboard Layer 2 (Pass)
//Storyboard Layer 3 (Foreground)
//Storyboard Sound Samples

[TimingPoints]
1394,272.727272727273,4,1,0,70,1,0
1394,-125,4,1,0,70,0,0
10121,-100,4,1,0,85,0,0
26484,-100,4,1,0,93,0,0
45030,-100,4,1,0,100,0,0
62484,-100,4,1,0,100,0,1
79939,-100,4,1,0,93,0,0

[HitObjects]
160,160,1394,5,0,0:0:0:0:
160,160,1666,1,0,0:0:0:0:
160,160,2212,1,0,0:0:0:0:
128,128,2484,1,0,0:0:0:0:
160,160,2689,1,8,0:0:0:0:
128,160,2757,1,0,0:0:0:0:
128,96,2962,1,0,0:0:0:0:
160,160,3575,1,0,0:0:0:0:
160,160,3848,1,0,0:0:0:0:
160,160,4394,1,0,0:0:0:0:
128,64,4666,1,8,0:0:0:0:
160,160,4871,1,0,0:0:0:0:
160,128,4939,1,8,0:0:0:0:
128,64,5144,1,8,0:0:0:0:
160,160,5757,1,0,0:0:0:0:
160,160,6030,1,0,0:0:0:0:
160,160,6575,1,0,0:0:0:0:
128,64,6848,1,0,0:0:0:0:
160,160,7053,1,8,0:0:0:0:
160,128,7121,1,0,0:0:0:0:
160,160,7325,1,0,0:0:0:0:
160,160,7939,1,0,0:0:0:0:
160,160,8212,1,0,0:0:0:0:
160,160,8757,1,0,0:0:0:0:
160,160,9030,1,8,0:0:0:0:
160,160,9303,1,8,0:0:0:0:
160,64,9439,1,0,0:0:0:0:
160,160,9575,1,8,0:0:0:0:
160,160,9848,1,8,0:0:0:0:
160,160,10121,1,4,0:0:0:0:
192,64,10394,1,4,0:0:0:0:
96,96,10666,1,8,0:0:0:0:
128,64,10803,1,0,0:0:0:0:
192,64,10939,1,8,0:0:0:0:
128,32,11075,1,8,0:0:0:0:
64,96,11212,1,0,0:0:0:0:
96,64,11348,1,8,0:0:0:0:
128,32,11484,1,0,0:0:0:0:
160,32,11553,1,0,0:0:0:0:
160,64,11621,1,0,0:0:0:0:
160,64,11757,1,8,0:0:0:0:
160,64,12030,1,8,0:0:0:0:
160,64,12303,1,0,0:0:0:0:
160,64,12575,1,0,0:0:0:0:
160,64,12848,1,8,0:0:0:0:
160,0,12984,1,0,0:0:0:0:
160,64,13121,1,8,0:0:0:0:
160,32,13257,1,8,0:0:0:0:
160,32,13394,1,0,0:0:0:0:
160,32,13462,1,0,0:0:0:0:
160,32,13530,1,0,0:0:0:0:
160,32,13666,1,8,0:0:0:0:
160,32,13803,1,0,0:0:0:0:
160,64,13939,1,8,0:0:0:0:
160,64,14212,1,8,0:0:0:0:
160,64,14484,1,0,0:0:0:0:
160,64,14757,1,0,0:0:0:0:
160,32,14894,1,0,0:0:0:0:
160,64,15030,1,8,0:0:0:0:
160,64,15303,1,8,0:0:0:0:
160,32,15439,1,8,0:0:0:0:
160,64,15575,1,0,0:0:0:0:
160,32,15712,1,0,0:0:0:0:
160,32,15780,1,0,0:0:0:0:
160,32,15848,1,8,0:0:0:0:
160,64,15984,1,0,0:0:0:0:
160,64,16121,1,8,0:0:0:0:
160,64,16394,1,8,0:0:0:0:
160,64,16666,1,0,0:0:0:0:
160,64,16939,1,8,0:0:0:0:
160,64,17075,1,8,0:0:0:0:
160,64,17212,1,0,0:0:0:0:
160,32,17348,1,8,0:0:0:0:
160,32,17416,1,8,0:0:0:0:
160,32,17484,1,0,0:0:0:0:
160,32,17621,1,0,0:0:0:0:
160,32,17757,1,8,0:0:0:0:
160,64,17894,1,8,0:0:0:0:
160,64,18030,1,0,0:0:0:0:
160,64,18166,1,8,0:0:0:0:
160,64,18303,1,8,0:0:0:0:
160,64,18575,1,8,0:0:0:0:
160,64,18848,1,4,0:0:0:0:
160,64,19121,1,4,0:0:0:0:
160,64,19394,1,8,0:0:0:0:
192,32,19530,1,0,0:0:0:0:
160,64,19666,1,8,0:0:0:0:
160,64,19803,1,8,0:0:0:0:
160,64,19939,1,0,0:0:0:0:
160,64,20075,1,8,0:0:0:0:
160,64,20212,1,0,0:0:0:0:
160,64,20280,1,0,0:0:0:0:
160,64,20348,1,0,0:0:0:0:
160,64,20484,1,8,0:0:0:0:
160,64,20757,1,8,0:0:0:0:
160,64,21030,1,0,0:0:0:0:
160,64,21303,1,0,0:0:0:0:
160,64,21575,1,8,0:0:0:0:
192,32,21712,1,0,0:0:0:0:
160,64,21848,1,8,0:0:0:0:
160,64,21984,1,8,0:0:0:0:
160,64,22121,1,0,0:0:0:0:
160,64,22189,1,0,0:0:0:0:
160,64,22257,1,0,0:0:0:0:
160,64,22394,1,8,0:0:0:0:
160,64,22530,1,0,0:0:0:0:
160,64,22666,1,8,0:0:0:0:
160,64,22939,1,8,0:0:0:0:
160,64,23212,1,0,0:0:0:0:
160,64,23484,1,0,0:0:0:0:
192,32,23621,1,0,0:0:0:0:
160,64,23757,1,8,0:0:0:0:
160,64,24030,1,8,0:0:0:0:
160,64,24166,1,8,0:0:0:0:
160,64,24303,1,0,0:0:0:0:
160,64,24439,1,0,0:0:0:0:
160,0,24507,1,0,0:0:0:0:
160,64,24575,1,8,0:0:0:0:
160,64,24712,1,0,0:0:0:0:
160,64,24848,1,8,0:0:0:0:
160,64,25121,1,8,0:0:0:0:
160,64,25394,1,0,0:0:0:0:
160,64,25666,1,8,0:0:0:0:
192,32,25803,1,8,0:0:0:0:
192,64,25939,1,0,0:0:0:0:
128,64,26075,1,8,0:0:0:0:
160,32,26144,1,8,0:0:0:0:
128,64,26212,1,0,0:0:0:0:
128,64,26348,1,8,0:0:0:0:
160,64,26484,1,0,0:0:0:0:
128,64,26621,1,0,0:0:0:0:
160,64,26757,1,0,0:0:0:0:
160,32,26825,1,0,0:0:0:0:
160,64,26894,1,0,0:0:0:0:
160,64,26962,1,0,0:0:0:0:
160,64,27030,1,8,0:0:0:0:
160,64,27166,1,0,0:0:0:0:
160,64,27303,1,8,0:0:0:0:
128,64,27439,1,8,0:0:0:0:
160,64,27575,5,4,0:0:0:0:
160,64,27848,1,8,0:0:0:0:
160,64,28121,1,8,0:0:0:0:
160,64,28257,1,0,0:0:0:0:
160,64,28394,1,8,0:0:0:0:
160,32,28530,1,8,0:0:0:0:
160,64,28666,1,0,0:0:0:0:
160,64,28803,1,0,0:0:0:0:
160,64,28939,1,8,0:0:0:0:
128,32,29075,1,8,0:0:0:0:
160,32,29144,1,8,0:0:0:0:
160,64,29212,1,8,0:0:0:0:
160,0,29348,1,0,0:0:0:0:
160,64,29484,1,8,0:0:0:0:
160,64,29757,1,0,0:0:0:0:
96,0,29894,1,0,0:0:0:0:
160,64,30030,1,8,0:0:0:0:
160,64,30166,1,0,0:0:0:0:
160,64,30234,1,0,0:0:0:0:
160,64,30303,1,0,0:0:0:0:
128,32,30439,1,8,0:0:0:0:
160,64,30575,1,0,0:0:0:0:
128,32,30712,1,8,0:0:0:0:
160,64,30780,1,8,0:0:0:0:
160,64,30848,1,0,0:0:0:0:
160,64,30984,1,0,0:0:0:0:
128,32,31121,1,8,0:0:0:0:
192,0,31257,1,0,0:0:0:0:
128,32,31394,1,8,0:0:0:0:
128,32,31666,1,8,0:0:0:0:
128,32,31803,1,8,0:0:0:0:
160,64,31939,1,0,0:0:0:0:
160,0,32212,1,8,0:0:0:0:
64,64,32484,1,8,0:0:0:0:
96,32,32621,1,0,0:0:0:0:
160,0,32757,1,8,0:0:0:0:
160,64,32894,1,8,0:0:0:0:
160,64,33030,1,0,0:0:0:0:
160,32,33166,1,0,0:0:0:0:
128,0,33303,1,8,0:0:0:0:
160,32,33439,1,8,0:0:0:0:
160,64,33507,1,8,0:0:0:0:
128,0,33575,1,8,0:0:0:0:
192,32,33712,1,0,0:0:0:0:
128,0,33848,1,8,0:0:0:0:
160,64,33984,1,8,0:0:0:0:
160,64,34121,1,0,0:0:0:0:
128,0,34257,1,0,0:0:0:0:
128,0,34394,1,8,0:0:0:0:
128,0,34666,1,8,0:0:0:0:
160,64,34803,1,0,0:0:0:0:
160,64,34939,1,8,0:0:0:0:
160,64,35075,1,8,0:0:0:0:
160,64,35144,1,8,0:0:0:0:
160,64,35212,1,0,0:0:0:0:
160,64,35348,1,8,0:0:0:0:
128,0,35484,1,0,0:0:0:0:
128,0,35621,1,8,0:0:0:0:
192,0,35757,1,0,0:0:0:0:
160,0,35825,1,0,0:0:0:0:
128,0,35894,1,8,0:0:0:0:
128,0,36030,1,0,0:0:0:0:
128,0,36166,1,8,0:0:0:0:
128,0,36303,1,0,0:0:0:0:
224,32,36575,1,8,0:0:0:0:
128,0,36848,1,8,0:0:0:0:
128,0,36984,1,0,0:0:0:0:
128,0,37121,1,8,0:0:0:0:
160,64,37257,1,8,0:0:0:0:
128,0,37394,1,0,0:0:0:0:
128,0,37530,1,0,0:0:0:0:
128,0,37666,1,8,0:0:0:0:
128,0,37803,1,8,0:0:0:0:
160,64,37871,1,8,0:0:0:0:
128,0,37939,1,8,0:0:0:0:
128,0,38075,1,0,0:0:0:0:
128,0,38212,1,8,0:0:0:0:
128,0,38484,1,0,0:0:0:0:
128,0,38621,1,0,0:0:0:0:
128,0,38757,1,8,0:0:0:0:
160,32,38894,1,0,0:0:0:0:
160,32,38962,1,0,0:0:0:0:
128,0,39030,1,0,0:0:0:0:
128,0,39166,1,8,0:0:0:0:
160,32,39303,1,0,0:0:0:0:
128,0,39439,1,8,0:0:0:0:
160,32,39507,1,8,0:0:0:0:
160,32,39575,1,0,0:0:0:0:
160,32,39712,1,0,0:0:0:0:
160,32,39780,1,0,0:0:0:0:
128,0,39848,1,8,0:0:0:0:
128,0,39984,1,0,0:0:0:0:
128,0,40121,1,8,0:0:0:0:
128,0,40394,1,0,0:0:0:0:
128,0,40530,1,8,0:0:0:0:
128,0,40666,1,0,0:0:0:0:
160,32,40803,1,0,0:0:0:0:
128,0,40939,1,8,0:0:0:0:
128,0,41212,1,8,0:0:0:0:
128,0,41348,1,0,0:0:0:0:
128,0,41484,1,8,0:0:0:0:
160,32,41621,1,8,0:0:0:0:
128,0,41757,1,0,0:0:0:0:
128,0,41894,1,0,0:0:0:0:
128,0,42030,1,8,0:0:0:0:
128,0,42166,1,8,0:0:0:0:
160,32,42234,1,8,0:0:0:0:
128,0,42303,1,8,0:0:0:0:
128,0,42439,1,0,0:0:0:0:
128,0,42575,1,8,0:0:0:0:
128,0,42848,1,0,0:0:0:0:
128,0,42984,1,0,0:0:0:0:
128,0,43121,1,8,0:0:0:0:
128,0,43394,1,8,0:0:0:0:
128,0,43530,1,0,0:0:0:0:
128,32,43666,1,8,0:0:0:0:
128,32,43803,1,8,0:0:0:0:
128,32,43939,1,0,0:0:0:0:
160,32,44075,1,8,0:0:0:0:
160,32,44144,1,8,0:0:0:0:
160,32,44212,1,0,0:0:0:0:
128,0,44348,1,0,0:0:0:0:
128,0,44484,1,8,0:0:0:0:
128,0,44553,1,8,0:0:0:0:
128,0,44621,1,8,0:0:0:0:
128,32,44689,1,2,0:0:0:0:
128,0,44757,1,0,0:0:0:0:
128,0,45030,5,4,0:0:0:0:
192,32,45303,5,8,0:0:0:0:
160,32,45439,1,0,0:0:0:0:
160,32,45575,1,8,0:0:0:0:
160,32,45644,1,8,0:0:0:0:
160,32,45712,1,0,0:0:0:0:
160,32,45848,1,8,0:0:0:0:
160,32,45984,1,8,0:0:0:0:
160,32,46121,5,0,0:0:0:0:
160,32,46257,1,8,0:0:0:0:
160,32,46394,5,0,0:0:0:0:
160,32,46666,5,8,0:0:0:0:
160,32,46939,5,8,0:0:0:0:
160,32,47212,1,0,0:0:0:0:
160,32,47348,1,8,0:0:0:0:
160,32,47484,1,0,0:0:0:0:
160,32,47553,1,0,0:0:0:0:
160,32,47621,1,8,0:0:0:0:
160,32,47757,5,8,0:0:0:0:
160,0,47894,1,0,0:0:0:0:
160,32,48030,5,8,0:0:0:0:
160,32,48303,5,0,0:0:0:0:
160,32,48439,5,8,0:0:0:0:
160,32,48575,5,0,0:0:0:0:
160,32,48712,5,0,0:0:0:0:
160,32,48848,5,8,0:0:0:0:
160,32,48984,1,0,0:0:0:0:
160,32,49121,1,8,0:0:0:0:
160,32,49257,1,8,0:0:0:0:
160,32,49394,1,0,0:0:0:0:
160,32,49462,1,0,0:0:0:0:
160,32,49666,1,0,0:0:0:0:
160,32,49734,1,0,0:0:0:0:
160,32,49939,1,8,0:0:0:0:
192,0,50075,1,0,0:0:0:0:
160,32,50212,1,8,0:0:0:0:
160,32,50348,1,8,0:0:0:0:
160,32,50484,1,0,0:0:0:0:
160,32,50553,1,0,0:0:0:0:
160,32,50757,1,0,0:0:0:0:
160,32,50825,1,0,0:0:0:0:
160,32,51030,1,8,0:0:0:0:
160,32,51166,1,0,0:0:0:0:
160,32,51303,1,8,0:0:0:0:
160,32,51439,1,0,0:0:0:0:
160,32,51575,1,0,0:0:0:0:
160,32,51644,1,0,0:0:0:0:
160,0,51848,1,0,0:0:0:0:
160,0,51916,1,0,0:0:0:0:
160,0,52121,1,8,0:0:0:0:
160,0,52257,1,0,0:0:0:0:
160,0,52394,1,8,0:0:0:0:
160,0,52530,1,8,0:0:0:0:
160,0,52666,1,0,0:0:0:0:
160,0,52803,1,8,0:0:0:0:
160,0,52939,1,0,0:0:0:0:
160,0,53007,1,0,0:0:0:0:
160,0,53075,1,0,0:0:0:0:
160,0,53212,1,8,0:0:0:0:
160,0,53348,1,0,0:0:0:0:
160,0,53484,1,8,0:0:0:0:
128,96,53757,1,4,0:0:0:0:
160,0,54030,1,8,0:0:0:0:
160,32,54166,1,0,0:0:0:0:
160,0,54303,5,8,0:0:0:0:
160,32,54371,1,8,0:0:0:0:
160,32,54439,1,0,0:0:0:0:
160,0,54575,5,8,0:0:0:0:
160,0,54712,5,8,0:0:0:0:
160,0,54848,1,0,0:0:0:0:
160,32,54984,1,8,0:0:0:0:
160,0,55121,1,0,0:0:0:0:
160,0,55394,1,8,0:0:0:0:
160,0,55666,1,8,0:0:0:0:
160,32,55939,1,0,0:0:0:0:
96,32,56075,1,8,0:0:0:0:
160,0,56212,5,0,0:0:0:0:
160,32,56280,1,0,0:0:0:0:
160,32,56348,1,8,0:0:0:0:
128,0,56484,5,8,0:0:0:0:
160,32,56621,1,0,0:0:0:0:
192,96,56757,5,8,0:0:0:0:
128,0,57030,5,0,0:0:0:0:
160,32,57166,1,8,0:0:0:0:
128,0,57303,5,0,0:0:0:0:
128,0,57439,5,0,0:0:0:0:
128,0,57575,5,8,0:0:0:0:
128,0,57712,5,0,0:0:0:0:
128,0,57848,5,8,0:0:0:0:
128,0,57984,5,8,0:0:0:0:
128,0,58121,1,0,0:0:0:0:
128,0,58189,1,0,0:0:0:0:
128,0,58394,1,0,0:0:0:0:
128,0,58462,1,0,0:0:0:0:
128,0,58666,1,8,0:0:0:0:
128,0,58803,1,0,0:0:0:0:
128,0,58939,1,8,0:0:0:0:
128,0,59075,1,0,0:0:0:0:
128,0,59212,1,0,0:0:0:0:
128,0,59280,1,0,0:0:0:0:
128,0,59484,1,0,0:0:0:0:
128,0,59553,1,0,0:0:0:0:
128,0,59757,1,8,0:0:0:0:
128,0,59894,1,0,0:0:0:0:
128,0,60030,1,8,0:0:0:0:
128,0,60166,1,8,0:0:0:0:
128,0,60303,1,0,0:0:0:0:
128,32,60371,1,0,0:0:0:0:
128,32,60575,1,0,0:0:0:0:
128,32,60644,1,0,0:0:0:0:
128,32,60848,1,8,0:0:0:0:
128,32,60984,1,0,0:0:0:0:
128,32,61121,1,8,0:0:0:0:
128,32,61257,1,8,0:0:0:0:
128,32,61394,1,0,0:0:0:0:
128,32,61530,1,0,0:0:0:0:
128,32,61666,1,0,0:0:0:0:
128,32,61734,1,0,0:0:0:0:
160,32,61803,1,0,0:0:0:0:
160,32,61871,1,0,0:0:0:0:
128,32,61939,1,8,0:0:0:0:
160,32,62212,1,0,0:0:0:0:
128,32,62484,1,4,0:0:0:0:
128,32,62757,1,8,0:0:0:0:
128,32,63030,1,8,0:0:0:0:
128,32,63166,1,0,0:0:0:0:
160,32,63303,1,8,0:0:0:0:
160,32,63439,1,8,0:0:0:0:
160,32,63575,1,0,0:0:0:0:
128,96,63644,1,0,0:0:0:0:
160,32,63712,1,0,0:0:0:0:
128,32,63848,1,8,0:0:0:0:
128,32,64121,5,8,0:0:0:0:
128,64,64257,1,8,0:0:0:0:
128,32,64394,1,8,0:0:0:0:
160,0,64530,1,8,0:0:0:0:
128,32,64666,5,0,0:0:0:0:
128,32,64803,1,0,0:0:0:0:
128,32,64939,1,8,0:0:0:0:
128,32,65075,1,0,0:0:0:0:
160,64,65144,1,0,0:0:0:0:
160,64,65212,1,8,0:0:0:0:
128,32,65348,1,8,0:0:0:0:
160,64,65484,1,0,0:0:0:0:
128,32,65621,1,8,0:0:0:0:
160,96,65689,1,8,0:0:0:0:
160,64,65757,1,0,0:0:0:0:
160,64,65894,1,0,0:0:0:0:
128,32,66030,1,8,0:0:0:0:
128,32,66303,1,8,0:0:0:0:
128,32,66439,1,0,0:0:0:0:
128,32,66575,1,8,0:0:0:0:
128,32,66712,1,0,0:0:0:0:
128,32,66848,1,8,0:0:0:0:
128,32,67121,1,8,0:0:0:0:
224,64,67394,1,0,0:0:0:0:
160,32,67530,1,0,0:0:0:0:
160,32,67666,1,8,0:0:0:0:
96,32,67803,1,8,0:0:0:0:
128,32,67939,1,0,0:0:0:0:
128,32,68212,1,8,0:0:0:0:
128,32,68484,5,0,0:0:0:0:
128,32,68621,1,8,0:0:0:0:
128,32,68757,1,0,0:0:0:0:
160,32,68894,1,8,0:0:0:0:
128,32,69030,5,0,0:0:0:0:
128,32,69166,1,0,0:0:0:0:
160,0,69303,1,8,0:0:0:0:
128,32,69439,1,0,0:0:0:0:
160,0,69507,1,0,0:0:0:0:
128,32,69575,5,8,0:0:0:0:
128,32,69712,1,0,0:0:0:0:
128,32,69848,1,8,0:0:0:0:
128,32,69984,1,8,0:0:0:0:
192,0,70121,1,0,0:0:0:0:
160,0,70257,1,8,0:0:0:0:
160,0,70325,1,8,0:0:0:0:
160,0,70394,1,0,0:0:0:0:
160,0,70530,1,8,0:0:0:0:
128,32,70666,1,8,0:0:0:0:
128,32,70939,1,8,0:0:0:0:
128,32,71212,1,4,0:0:0:0:
192,64,71484,1,8,0:0:0:0:
192,96,71757,1,8,0:0:0:0:
192,64,71894,1,0,0:0:0:0:
192,96,72030,1,8,0:0:0:0:
192,64,72166,1,8,0:0:0:0:
192,32,72303,1,0,0:0:0:0:
192,32,72439,1,8,0:0:0:0:
192,32,72575,1,0,0:0:0:0:
192,32,72644,1,0,0:0:0:0:
160,0,72712,1,0,0:0:0:0:
192,96,72848,1,8,0:0:0:0:
192,96,73121,1,8,0:0:0:0:
160,64,73257,1,8,0:0:0:0:
128,0,73394,1,0,0:0:0:0:
192,32,73530,1,0,0:0:0:0:
160,0,73666,1,8,0:0:0:0:
160,64,73803,1,0,0:0:0:0:
160,64,73939,1,8,0:0:0:0:
160,0,74075,1,8,0:0:0:0:
128,96,74144,1,8,0:0:0:0:
192,32,74212,1,0,0:0:0:0:
160,0,74348,1,8,0:0:0:0:
160,64,74484,1,0,0:0:0:0:
160,0,74621,1,0,0:0:0:0:
160,64,74689,1,0,0:0:0:0:
160,32,74757,1,8,0:0:0:0:
160,0,74894,1,0,0:0:0:0:
160,64,75030,1,8,0:0:0:0:
160,32,75166,1,0,0:0:0:0:
160,64,75303,1,8,0:0:0:0:
192,32,75439,1,0,0:0:0:0:
160,64,75575,5,8,0:0:0:0:
160,64,75848,5,8,0:0:0:0:
160,64,76121,5,0,0:0:0:0:
192,32,76257,5,0,0:0:0:0:
160,64,76394,5,8,0:0:0:0:
160,64,76666,5,0,0:0:0:0:
160,0,76803,5,0,0:0:0:0:
160,64,76871,5,0,0:0:0:0:
160,64,76939,5,0,0:0:0:0:
160,0,77075,5,0,0:0:0:0:
160,64,77212,5,8,0:0:0:0:
192,0,77348,1,8,0:0:0:0:
160,64,77484,1,0,0:0:0:0:
160,32,77553,1,0,0:0:0:0:
160,0,77621,1,8,0:0:0:0:
192,64,77689,1,8,0:0:0:0:
192,64,77757,1,0,0:0:0:0:
160,64,77894,1,8,0:0:0:0:
160,64,78030,1,0,0:0:0:0:
160,0,78098,1,0,0:0:0:0:
160,32,78166,1,0,0:0:0:0:
160,64,78303,1,8,0:0:0:0:
160,32,78439,1,8,0:0:0:0:
160,32,78507,1,8,0:0:0:0:
160,32,78575,1,0,0:0:0:0:
160,32,78712,1,8,0:0:0:0:
160,64,78848,1,8,0:0:0:0:
160,0,78984,1,0,0:0:0:0:
160,64,79121,1,0,0:0:0:0:
160,32,79189,1,0,0:0:0:0:
160,32,79257,1,0,0:0:0:0:
160,64,79394,1,8,0:0:0:0:
160,0,79530,1,8,0:0:0:0:
160,32,79598,1,8,0:0:0:0:
160,64,79666,1,0,0:0:0:0:
160,160,79939,5,4,0:0:0:0:
160,160,80212,1,0,0:0:0:0:
160,96,80348,1,0,0:0:0:0:
96,32,80484,1,8,0:0:0:0:
160,32,80621,1,0,0:0:0:0:
160,128,80757,1,8,0:0:0:0:
128,128,81030,1,0,0:0:0:0:
160,160,81234,1,8,0:0:0:0:
128,160,81303,1,0,0:0:0:0:
128,96,81507,1,8,0:0:0:0:
128,64,81575,1,0,0:0:0:0:
160,96,81712,1,0,0:0:0:0:
160,96,81848,1,8,0:0:0:0:
160,160,82121,1,0,0:0:0:0:
160,160,82394,1,0,0:0:0:0:
128,64,82530,1,0,0:0:0:0:
128,64,82666,1,8,0:0:0:0:
192,32,82803,1,8,0:0:0:0:
160,160,82939,1,0,0:0:0:0:
128,64,83212,1,8,0:0:0:0:
160,160,83416,1,0,0:0:0:0:
160,128,83484,1,8,0:0:0:0:
128,64,83689,1,0,0:0:0:0:
160,64,83757,1,8,0:0:0:0:
160,32,83894,1,0,0:0:0:0:
160,64,84030,1,8,0:0:0:0:
160,160,84303,1,0,0:0:0:0:
160,160,84575,1,0,0:0:0:0:
160,96,84712,1,0,0:0:0:0:
160,32,84848,1,8,0:0:0:0:
160,160,85121,1,8,0:0:0:0:
128,64,85394,1,0,0:0:0:0:
160,160,85598,1,8,0:0:0:0:
160,128,85666,1,0,0:0:0:0:
160,160,85871,1,8,0:0:0:0:
160,128,85939,1,0,0:0:0:0:
160,64,86075,1,0,0:0:0:0:
160,0,86212,1,8,0:0:0:0:
160,160,86484,1,0,0:0:0:0:
160,160,86757,1,0,0:0:0:0:
160,96,86894,1,0,0:0:0:0:
160,64,87030,1,8,0:0:0:0:
160,128,87166,1,8,0:0:0:0:
160,160,87303,1,0,0:0:0:0:
160,160,87575,1,8,0:0:0:0:
160,96,87712,1,8,0:0:0:0:
160,96,87848,1,0,0:0:0:0:
160,96,87984,1,0,0:0:0:0:
128,32,88121,1,8,0:0:0:0:
192,128,88394,1,8,0:0:0:0:
128,32,88666,1,0,0:0:0:0:
160,128,88939,1,0,0:0:0:0:
160,96,89075,1,0,0:0:0:0:
128,32,89212,1,8,0:0:0:0:
160,64,89348,1,0,0:0:0:0:
128,32,89484,1,8,0:0:0:0:
192,128,89757,1,0,0:0:0:0:
128,64,89962,1,8,0:0:0:0:
128,64,90030,1,0,0:0:0:0:
128,64,90234,1,8,0:0:0:0:
128,64,90303,1,0,0:0:0:0:
160,64,90439,1,0,0:0:0:0:
128,64,90575,1,8,0:0:0:0:
128,64,90848,1,0,0:0:0:0:
128,64,91121,1,0,0:0:0:0:
128,64,91257,1,0,0:0:0:0:
128,64,91394,1,8,0:0:0:0:
160,0,91530,1,8,0:0:0:0:
128,64,91666,1,0,0:0:0:0:
128,64,91939,1,8,0:0:0:0:
128,64,92144,1,0,0:0:0:0:
128,64,92212,1,8,0:0:0:0:
128,64,92416,1,0,0:0:0:0:
128,64,92484,1,8,0:0:0:0:
160,64,92621,1,0,0:0:0:0:
128,64,92757,1,8,0:0:0:0:
128,64,93030,1,0,0:0:0:0:
128,64,93303,1,0,0:0:0:0:
160,32,93439,1,0,0:0:0:0:
128,64,93575,1,8,0:0:0:0:
160,64,93712,1,0,0:0:0:0:
128,64,93848,1,8,0:0:0:0:
128,64,94121,1,0,0:0:0:0:
128,64,94325,1,8,0:0:0:0:
128,64,94394,1,0,0:0:0:0:
128,64,94598,1,8,0:0:0:0:
128,64,94666,1,0,0:0:0:0:
160,64,94803,1,0,0:0:0:0:
128,64,94939,1,8,0:0:0:0:
128,64,95212,1,0,0:0:0:0:
128,64,95348,1,0,0:0:0:0:
128,64,95484,1,0,0:0:0:0:
128,64,95553,1,0,0:0:0:0:
128,64,95621,1,0,0:0:0:0:
128,64,95757,1,8,0:0:0:0:
128,64,95894,1,8,0:0:0:0:
160,64,95962,1,8,0:0:0:0:
128,64,96030,1,0,0:0:0:0:
160,64,96166,1,0,0:0:0:0:
128,64,96303,1,8,0:0:0:0:
128,64,96439,1,8,0:0:0:0:
128,64,96575,1,0,0:0:0:0:
128,64,96644,1,0,0:0:0:0:
128,64,96712,1,0,0:0:0:0:
128,64,96848,1,8,0:0:0:0:
160,64,96984,1,8,0:0:0:0:
128,64,97121,1,4,0:0:0:0:
