osu file format v14

[General]
AudioFilename: audio.mp3
AudioLeadIn: 0
PreviewTime: 1394
Countdown: 0
SampleSet: Normal
StackLeniency: 0.7
Mode: 1
LetterboxInBreaks: 0
WidescreenStoryboard: 0

[Editor]
DistanceSpacing: 0.9
BeatDivisor: 4
GridSize: 32
TimelineZoom: 1.5

[Metadata]
Title:Ren Ren Ai Ai Cir Cir Cula Cula Tion Tion
TitleUnicode:恋恋愛愛サーサーキュレーキュレーションション
Artist:Sara
ArtistUnicode:皿
Creator:Backfire
Version:Aloda's Muzu Muzu Kashii Kashii
Source:化物語
Tags:breakcore 千石撫子 Sengoku Nadeko 花澤 香菜 Hanazawa Kana bakemonogatari renai circulation Aloda newyams99 JUDYDANNY
BeatmapID:1404083
BeatmapSetID:663337

[Difficulty]
HPDrainRate:5
CircleSize:2
OverallDifficulty:5
ApproachRate:7
SliderMultiplier:1.4
SliderTickRate:1

[Events]
//Background and Video events
0,0,"cutecutepicturepictureofofgrillgrill.jpg",0,0
//Break Periods
//Storyboard Layer 0 (Background)
//Storyboard Layer 1 (Fail)
//Storyboard Layer 2 (Pass)
//Storyboard Layer 3 (Foreground)
//Storyboard Sound Samples

[TimingPoints]
1394,272.727272727273,4,1,0,40,1,0
1394,-133.333333333333,4,1,0,40,0,0
10121,-125,4,1,0,70,0,0
62484,-100,4,1,0,80,0,1
79939,-125,4,1,0,70,0,0
96575,-125,4,1,0,55,0,0
96848,-125,4,1,0,40,0,0
97121,-125,4,1,0,25,0,0

[HitObjects]
256,192,1394,5,0,0:0:0:0:
256,192,1666,1,0,0:0:0:0:
256,192,1939,1,0,0:0:0:0:
256,192,2484,1,0,0:0:0:0:
256,192,2757,1,0,0:0:0:0:
256,192,3030,1,8,0:0:0:0:
256,192,3575,1,0,0:0:0:0:
256,192,3848,1,0,0:0:0:0:
256,192,4121,1,0,0:0:0:0:
256,192,4666,1,0,0:0:0:0:
256,192,4939,1,8,0:0:0:0:
256,192,5212,1,8,0:0:0:0:
256,192,5757,1,0,0:0:0:0:
256,192,6030,1,0,0:0:0:0:
256,192,6303,1,0,0:0:0:0:
256,192,6848,1,8,0:0:0:0:
256,192,7121,1,8,0:0:0:0:
256,192,7394,1,8,0:0:0:0:
256,192,7939,1,0,0:0:0:0:
256,192,8212,1,0,0:0:0:0:
256,192,8484,1,0,0:0:0:0:
256,192,9030,1,8,0:0:0:0:
256,192,9303,1,8,0:0:0:0:
256,192,10121,5,0,0:0:0:0:
256,192,10394,1,0,0:0:0:0:
256,192,10666,1,0,0:0:0:0:
256,192,10803,1,0,0:0:0:0:
256,192,10939,1,0,0:0:0:0:
256,192,11212,1,8,0:0:0:0:
256,192,11484,1,8,0:0:0:0:
256,192,11757,1,8,0:0:0:0:
256,192,11894,1,8,0:0:0:0:
256,192,12030,1,8,0:0:0:0:
256,192,12303,1,0,0:0:0:0:
256,192,12576,1,8,0:0:0:0:
256,192,12848,1,0,0:0:0:0:
256,192,12985,1,0,0:0:0:0:
256,192,13121,1,8,0:0:0:0:
256,192,13394,1,0,0:0:0:0:
256,192,13666,1,0,0:0:0:0:
256,192,13939,1,8,0:0:0:0:
288,192,14212,1,8,0:0:0:0:
256,192,14484,1,0,0:0:0:0:
256,192,14621,1,8,0:0:0:0:
256,192,14757,1,8,0:0:0:0:
256,192,14894,1,0,0:0:0:0:
256,192,15166,1,8,0:0:0:0:
256,192,15303,1,0,0:0:0:0:
256,192,15575,1,0,0:0:0:0:
256,192,15712,1,8,0:0:0:0:
256,192,15848,1,8,0:0:0:0:
256,192,15984,1,0,0:0:0:0:
256,192,16257,1,0,0:0:0:0:
256,192,16394,1,8,0:0:0:0:
256,192,16666,1,0,0:0:0:0:
256,192,16939,1,0,0:0:0:0:
256,192,17212,1,0,0:0:0:0:
256,192,17348,1,0,0:0:0:0:
256,192,17484,1,0,0:0:0:0:
256,192,17757,1,8,0:0:0:0:
256,192,18030,1,8,0:0:0:0:
256,192,18848,5,12,0:0:0:0:
256,192,19121,1,12,0:0:0:0:
256,192,19394,1,8,0:0:0:0:
256,192,19530,1,0,0:0:0:0:
256,192,19666,1,8,0:0:0:0:
256,192,19939,1,0,0:0:0:0:
256,192,20212,1,0,0:0:0:0:
256,192,20484,1,0,0:0:0:0:
256,192,20621,1,8,0:0:0:0:
256,192,20757,1,0,0:0:0:0:
256,192,21030,1,8,0:0:0:0:
256,192,21303,1,8,0:0:0:0:
256,192,21575,1,0,0:0:0:0:
256,192,21712,1,0,0:0:0:0:
256,192,21848,1,8,0:0:0:0:
256,192,22121,1,0,0:0:0:0:
256,192,22394,1,0,0:0:0:0:
256,192,22666,1,8,0:0:0:0:
320,128,22939,1,8,0:0:0:0:
256,192,23212,1,0,0:0:0:0:
256,192,23348,1,8,0:0:0:0:
256,192,23484,1,8,0:0:0:0:
256,192,23621,1,0,0:0:0:0:
256,192,23894,1,0,0:0:0:0:
256,192,24030,1,8,0:0:0:0:
256,192,24303,1,0,0:0:0:0:
256,192,24439,1,8,0:0:0:0:
256,192,24575,1,8,0:0:0:0:
256,192,24712,1,0,0:0:0:0:
256,192,24984,1,8,0:0:0:0:
256,192,25121,1,0,0:0:0:0:
256,192,25394,1,0,0:0:0:0:
256,192,25666,1,0,0:0:0:0:
256,192,25939,1,8,0:0:0:0:
256,192,26075,1,0,0:0:0:0:
256,192,26212,1,8,0:0:0:0:
256,192,26484,1,4,0:0:0:0:
256,192,26757,1,4,0:0:0:0:
256,192,27030,1,8,0:0:0:0:
256,192,27166,1,0,0:0:0:0:
256,192,27303,1,8,0:0:0:0:
256,192,27575,5,4,0:0:0:0:
256,192,27848,1,0,0:0:0:0:
256,192,27984,1,0,0:0:0:0:
256,192,28121,1,8,0:0:0:0:
256,192,28394,1,0,0:0:0:0:
256,192,28666,1,8,0:0:0:0:
256,192,28939,1,8,0:0:0:0:
256,192,29075,1,0,0:0:0:0:
256,192,29212,1,8,0:0:0:0:
256,192,29484,1,8,0:0:0:0:
256,192,29757,1,0,0:0:0:0:
256,192,30030,1,8,0:0:0:0:
256,192,30166,1,8,0:0:0:0:
256,192,30303,1,0,0:0:0:0:
256,192,30575,1,0,0:0:0:0:
256,192,30848,1,8,0:0:0:0:
256,192,30984,1,0,0:0:0:0:
256,192,31121,1,0,0:0:0:0:
256,192,31394,1,0,0:0:0:0:
256,192,31666,1,0,0:0:0:0:
256,192,31939,1,8,0:0:0:0:
256,192,32212,1,8,0:0:0:0:
256,192,32348,1,0,0:0:0:0:
256,192,32484,1,8,0:0:0:0:
256,192,32757,1,8,0:0:0:0:
256,192,33030,1,0,0:0:0:0:
256,192,33303,1,0,0:0:0:0:
256,192,33439,1,8,0:0:0:0:
256,192,33575,1,0,0:0:0:0:
256,192,33848,1,0,0:0:0:0:
256,192,34121,1,0,0:0:0:0:
256,192,34257,1,0,0:0:0:0:
256,192,34394,1,8,0:0:0:0:
256,192,34666,1,0,0:0:0:0:
256,192,34939,1,0,0:0:0:0:
256,192,35212,1,8,0:0:0:0:
256,192,35348,1,0,0:0:0:0:
256,192,35484,1,8,0:0:0:0:
256,192,35757,1,0,0:0:0:0:
256,192,36303,1,0,0:0:0:0:
256,192,36575,1,0,0:0:0:0:
256,192,36848,1,0,0:0:0:0:
256,192,36984,1,0,0:0:0:0:
256,192,37121,1,8,0:0:0:0:
256,192,37394,1,0,0:0:0:0:
256,192,37666,1,0,0:0:0:0:
256,192,37939,1,8,0:0:0:0:
256,192,38075,1,0,0:0:0:0:
256,192,38212,1,8,0:0:0:0:
256,192,38484,1,0,0:0:0:0:
256,192,38757,1,0,0:0:0:0:
256,192,38894,1,8,0:0:0:0:
256,192,39030,1,0,0:0:0:0:
256,192,39303,1,8,0:0:0:0:
256,192,39575,1,8,0:0:0:0:
256,192,39712,1,8,0:0:0:0:
256,192,39848,1,0,0:0:0:0:
256,192,40121,1,8,0:0:0:0:
256,192,40394,1,8,0:0:0:0:
256,192,40666,1,0,0:0:0:0:
256,192,40939,1,0,0:0:0:0:
256,192,41212,1,8,0:0:0:0:
256,192,41348,1,8,0:0:0:0:
256,192,41484,1,0,0:0:0:0:
256,192,41757,1,0,0:0:0:0:
256,192,42030,1,8,0:0:0:0:
256,192,42303,1,0,0:0:0:0:
256,192,42439,1,8,0:0:0:0:
256,192,42575,1,0,0:0:0:0:
256,192,42848,1,0,0:0:0:0:
256,192,43121,1,0,0:0:0:0:
256,192,43394,1,8,0:0:0:0:
256,192,43530,1,8,0:0:0:0:
256,192,43666,1,8,0:0:0:0:
256,192,43939,1,0,0:0:0:0:
256,192,44212,1,0,0:0:0:0:
256,192,44484,1,8,0:0:0:0:
256,192,44757,1,4,0:0:0:0:
256,192,45030,5,12,0:0:0:0:
256,192,45575,1,0,0:0:0:0:
256,192,45848,1,0,0:0:0:0:
256,192,46121,1,8,0:0:0:0:
32,192,46394,1,8,0:0:0:0:
256,192,46666,1,0,0:0:0:0:
256,192,47212,1,0,0:0:0:0:
256,192,47484,1,0,0:0:0:0:
256,192,47757,1,8,0:0:0:0:
32,192,48030,1,8,0:0:0:0:
256,192,48303,1,0,0:0:0:0:
256,192,48575,1,0,0:0:0:0:
256,192,48848,1,8,0:0:0:0:
256,192,49121,1,8,0:0:0:0:
256,192,49394,1,0,0:0:0:0:
256,192,49666,1,0,0:0:0:0:
256,192,49939,1,0,0:0:0:0:
256,192,50075,1,0,0:0:0:0:
256,192,50212,1,8,0:0:0:0:
256,192,50484,1,0,0:0:0:0:
256,192,50757,1,0,0:0:0:0:
256,192,51030,1,8,0:0:0:0:
256,192,51166,1,0,0:0:0:0:
256,192,51303,1,8,0:0:0:0:
256,192,51575,1,0,0:0:0:0:
256,192,51848,1,0,0:0:0:0:
256,192,52121,1,0,0:0:0:0:
256,192,52257,1,0,0:0:0:0:
256,192,52394,1,8,0:0:0:0:
256,192,52666,1,0,0:0:0:0:
256,192,52939,1,0,0:0:0:0:
256,192,53075,1,0,0:0:0:0:
256,192,53212,1,8,0:0:0:0:
256,192,53484,1,8,0:0:0:0:
256,192,53757,1,0,0:0:0:0:
256,192,54303,1,0,0:0:0:0:
256,192,54575,1,0,0:0:0:0:
256,192,54848,1,8,0:0:0:0:
32,192,55121,1,8,0:0:0:0:
256,192,55394,1,0,0:0:0:0:
256,192,55939,1,0,0:0:0:0:
256,192,56212,1,0,0:0:0:0:
256,192,56484,1,8,0:0:0:0:
32,192,56757,1,8,0:0:0:0:
256,192,57030,1,0,0:0:0:0:
256,192,57303,1,0,0:0:0:0:
256,192,57575,1,8,0:0:0:0:
256,192,57848,1,8,0:0:0:0:
256,192,58121,1,0,0:0:0:0:
256,192,58394,1,0,0:0:0:0:
256,192,58666,1,0,0:0:0:0:
256,192,58803,1,0,0:0:0:0:
256,192,58939,1,0,0:0:0:0:
256,192,59212,1,8,0:0:0:0:
256,192,59484,1,0,0:0:0:0:
256,192,59757,1,8,0:0:0:0:
256,192,59894,1,8,0:0:0:0:
256,192,60030,1,0,0:0:0:0:
256,192,60303,1,0,0:0:0:0:
256,192,60575,1,8,0:0:0:0:
256,192,60712,1,0,0:0:0:0:
256,192,60848,1,8,0:0:0:0:
256,192,61121,1,8,0:0:0:0:
256,192,61394,1,0,0:0:0:0:
256,192,61666,1,0,0:0:0:0:
256,192,61939,1,0,0:0:0:0:
256,192,62484,5,4,0:0:0:0:
256,192,62757,1,0,0:0:0:0:
256,192,62894,1,0,0:0:0:0:
256,192,63030,1,8,0:0:0:0:
256,192,63303,1,0,0:0:0:0:
256,192,63575,1,8,0:0:0:0:
256,192,63848,1,0,0:0:0:0:
256,192,64121,1,8,0:0:0:0:
256,192,64257,1,0,0:0:0:0:
256,192,64394,1,8,0:0:0:0:
320,128,64530,1,8,0:0:0:0:
256,192,64666,1,0,0:0:0:0:
256,192,64939,1,8,0:0:0:0:
256,192,65212,1,0,0:0:0:0:
256,192,65348,1,8,0:0:0:0:
256,192,65484,1,0,0:0:0:0:
256,192,65621,1,8,0:0:0:0:
0,192,65757,1,0,0:0:0:0:
256,192,66030,1,0,0:0:0:0:
256,192,66166,1,0,0:0:0:0:
256,192,66303,1,8,0:0:0:0:
288,160,66575,1,0,0:0:0:0:
256,192,66848,1,4,0:0:0:0:
256,192,67121,1,0,0:0:0:0:
256,192,67257,1,0,0:0:0:0:
256,192,67394,1,8,0:0:0:0:
256,192,67666,1,8,0:0:0:0:
256,192,67803,1,0,0:0:0:0:
256,192,67939,1,8,0:0:0:0:
256,192,68212,1,0,0:0:0:0:
256,192,68348,1,0,0:0:0:0:
256,192,68484,1,8,0:0:0:0:
256,192,68621,1,0,0:0:0:0:
256,192,68757,1,8,0:0:0:0:
256,192,69030,1,0,0:0:0:0:
256,192,69166,1,0,0:0:0:0:
256,192,69303,1,8,0:0:0:0:
256,192,69575,1,0,0:0:0:0:
384,160,69712,1,0,0:0:0:0:
256,192,69848,1,8,0:0:0:0:
256,192,69984,1,8,0:0:0:0:
0,192,70121,1,0,0:0:0:0:
256,192,70393,1,0,0:0:0:0:
256,192,70530,1,0,0:0:0:0:
256,192,70666,1,8,0:0:0:0:
256,192,70939,1,0,0:0:0:0:
256,192,71212,5,4,0:0:0:0:
256,192,71484,1,8,0:0:0:0:
256,192,71621,1,0,0:0:0:0:
256,192,71757,1,8,0:0:0:0:
256,192,72030,1,8,0:0:0:0:
256,192,72166,1,8,0:0:0:0:
256,192,72303,1,0,0:0:0:0:
256,192,72575,1,0,0:0:0:0:
256,192,72712,1,0,0:0:0:0:
256,192,72848,1,8,0:0:0:0:
256,192,73121,1,8,0:0:0:0:
256,192,73394,1,8,0:0:0:0:
256,192,73530,1,0,0:0:0:0:
256,192,73666,1,8,0:0:0:0:
256,192,73939,1,0,0:0:0:0:
256,192,74075,1,8,0:0:0:0:
256,192,74212,1,0,0:0:0:0:
256,192,74484,1,0,0:0:0:0:
256,192,74621,1,8,0:0:0:0:
256,192,74757,1,0,0:0:0:0:
256,192,74894,1,8,0:0:0:0:
0,192,75030,1,0,0:0:0:0:
256,192,75303,1,0,0:0:0:0:
320,160,75439,1,0,0:0:0:0:
256,192,75575,1,12,0:0:0:0:
256,192,75848,1,8,0:0:0:0:
256,192,75984,1,8,0:0:0:0:
256,192,76121,1,0,0:0:0:0:
256,192,76394,1,8,0:0:0:0:
256,192,76666,1,0,0:0:0:0:
256,192,76939,1,0,0:0:0:0:
256,192,77075,1,0,0:0:0:0:
256,192,77212,1,8,0:0:0:0:
256,192,77348,1,8,0:0:0:0:
256,192,77484,1,0,0:0:0:0:
256,192,77757,1,8,0:0:0:0:
256,192,77894,1,0,0:0:0:0:
256,192,78030,1,8,0:0:0:0:
256,192,78166,1,0,0:0:0:0:
256,192,78303,1,0,0:0:0:0:
256,192,78439,1,8,0:0:0:0:
256,192,78575,1,0,0:0:0:0:
256,192,78848,1,0,0:0:0:0:
256,192,78984,1,8,0:0:0:0:
256,192,79121,1,8,0:0:0:0:
256,192,79394,1,8,0:0:0:0:
256,192,79939,5,4,0:0:0:0:
256,192,80211,1,0,0:0:0:0:
256,192,80484,1,0,0:0:0:0:
256,192,80621,1,0,0:0:0:0:
256,192,80757,1,8,0:0:0:0:
256,192,81029,1,0,0:0:0:0:
256,192,81302,1,8,0:0:0:0:
256,192,81575,1,8,0:0:0:0:
256,192,81712,1,0,0:0:0:0:
256,192,81848,1,8,0:0:0:0:
256,192,82121,1,0,0:0:0:0:
256,192,82393,1,0,0:0:0:0:
256,192,82666,1,0,0:0:0:0:
256,192,82803,1,0,0:0:0:0:
256,192,82939,1,8,0:0:0:0:
256,192,83211,1,0,0:0:0:0:
256,192,83484,1,0,0:0:0:0:
256,192,83757,1,8,0:0:0:0:
320,128,84030,1,8,0:0:0:0:
256,192,84302,1,0,0:0:0:0:
256,192,84439,1,8,0:0:0:0:
256,192,84575,1,8,0:0:0:0:
256,192,84712,1,0,0:0:0:0:
256,192,84984,1,8,0:0:0:0:
256,192,85121,1,0,0:0:0:0:
256,192,85393,1,0,0:0:0:0:
256,192,85530,1,8,0:0:0:0:
256,192,85666,1,8,0:0:0:0:
256,192,85803,1,0,0:0:0:0:
256,192,86075,1,0,0:0:0:0:
256,192,86212,1,8,0:0:0:0:
256,192,86484,1,0,0:0:0:0:
256,192,86757,1,0,0:0:0:0:
256,192,87029,1,8,0:0:0:0:
256,192,87166,1,0,0:0:0:0:
256,192,87302,1,8,0:0:0:0:
256,192,87575,1,8,0:0:0:0:
256,192,87848,1,8,0:0:0:0:
256,192,88666,5,0,0:0:0:0:
256,192,88939,1,0,0:0:0:0:
256,192,89212,1,8,0:0:0:0:
256,192,89348,1,0,0:0:0:0:
256,192,89484,1,8,0:0:0:0:
256,192,89757,1,8,0:0:0:0:
256,192,90030,1,8,0:0:0:0:
256,192,90302,1,0,0:0:0:0:
256,192,90439,1,8,0:0:0:0:
256,192,90575,1,0,0:0:0:0:
256,192,90848,1,0,0:0:0:0:
256,192,91121,1,0,0:0:0:0:
256,192,91393,1,0,0:0:0:0:
256,192,91530,1,0,0:0:0:0:
256,192,91666,1,8,0:0:0:0:
256,192,91939,1,0,0:0:0:0:
256,192,92212,1,0,0:0:0:0:
256,192,92484,1,8,0:0:0:0:
256,192,92757,1,8,0:0:0:0:
256,192,93030,1,0,0:0:0:0:
256,192,93166,1,8,0:0:0:0:
256,192,93303,1,8,0:0:0:0:
256,192,93439,1,0,0:0:0:0:
256,192,93712,1,0,0:0:0:0:
256,192,93848,1,8,0:0:0:0:
256,192,94121,1,0,0:0:0:0:
256,192,94257,1,8,0:0:0:0:
256,192,94394,1,8,0:0:0:0:
256,192,94530,1,0,0:0:0:0:
256,192,94803,1,8,0:0:0:0:
256,192,94939,1,0,0:0:0:0:
256,192,95212,1,0,0:0:0:0:
256,192,95484,1,0,0:0:0:0:
256,192,95757,1,8,0:0:0:0:
256,192,95893,1,0,0:0:0:0:
256,192,96030,1,8,0:0:0:0:
256,192,96302,1,0,0:0:0:0:
256,192,96575,1,0,0:0:0:0:
256,192,96848,1,0,0:0:0:0:
256,192,97121,12,0,99575,0:0:0:0:
