osu file format v14

[General]
AudioFilename: audio.mp3
AudioLeadIn: 0
PreviewTime: 1394
Countdown: 0
SampleSet: Normal
StackLeniency: 0.7
Mode: 1
LetterboxInBreaks: 0
WidescreenStoryboard: 0

[Editor]
Bookmarks: 12575
DistanceSpacing: 0.8
BeatDivisor: 4
GridSize: 32
TimelineZoom: 4.099998

[Metadata]
Title:Ren Ren Ai Ai Cir Cir Cula Cula Tion Tion
TitleUnicode:恋恋愛愛サーサーキュレーキュレーションション
Artist:Sara
ArtistUnicode:皿
Creator:Backfire
Version:Tai Tai Ko Ko Calypse Calypse
Source:化物語
Tags:breakcore 千石撫子 Sengoku Nadeko 花澤 香菜 Hanazawa Kana bakemonogatari renai circulation Aloda newyams99 JUDYDANNY
BeatmapID:1404088
BeatmapSetID:663337

[Difficulty]
HPDrainRate:6
CircleSize:6.6
OverallDifficulty:6.5
ApproachRate:6.3
SliderMultiplier:1.4
SliderTickRate:1

[Events]
//Background and Video events
0,0,"cutecutepicturepictureofofgrillgrill.jpg",0,0
//Break Periods
//Storyboard Layer 0 (Background)
//Storyboard Layer 1 (Fail)
//Storyboard Layer 2 (Pass)
//Storyboard Layer 3 (Foreground)
//Storyboard Sound Samples

[TimingPoints]
1394,272.727272727273,4,1,0,100,1,0
62484,-100,4,1,0,100,0,1
79939,-100,4,1,0,100,0,0

[HitObjects]
320,128,575,5,0,0:0:0:0:
320,128,848,1,8,0:0:0:0:
320,128,984,1,0,0:0:0:0:
320,128,1053,1,8,0:0:0:0:
320,128,1121,1,8,0:0:0:0:
320,128,1257,1,0,0:0:0:0:
320,128,1325,1,0,0:0:0:0:
320,128,1394,1,8,0:0:0:0:
352,96,1530,1,0,0:0:0:0:
352,96,1598,1,0,0:0:0:0:
288,96,1666,1,8,0:0:0:0:
352,96,1803,1,0,0:0:0:0:
352,96,1871,1,0,0:0:0:0:
352,128,1939,1,8,0:0:0:0:
352,128,2007,1,8,0:0:0:0:
352,96,2075,1,0,0:0:0:0:
320,128,2212,1,8,0:0:0:0:
352,128,2280,1,8,0:0:0:0:
352,128,2348,1,0,0:0:0:0:
320,96,2484,1,8,0:0:0:0:
320,96,2621,1,0,0:0:0:0:
320,96,2689,1,0,0:0:0:0:
352,160,2757,1,8,0:0:0:0:
320,96,2894,1,0,0:0:0:0:
288,128,2962,1,0,0:0:0:0:
384,128,3030,1,8,0:0:0:0:
384,128,3098,1,8,0:0:0:0:
384,128,3166,1,0,0:0:0:0:
384,128,3303,1,8,0:0:0:0:
384,128,3371,1,8,0:0:0:0:
384,128,3439,1,0,0:0:0:0:
384,128,3575,1,8,0:0:0:0:
352,96,3712,1,0,0:0:0:0:
352,128,3780,1,0,0:0:0:0:
352,128,3848,1,8,0:0:0:0:
352,128,3984,1,0,0:0:0:0:
352,128,4053,1,0,0:0:0:0:
352,128,4121,1,8,0:0:0:0:
352,128,4189,1,8,0:0:0:0:
352,128,4257,1,0,0:0:0:0:
352,128,4394,1,8,0:0:0:0:
352,128,4462,1,8,0:0:0:0:
352,128,4530,1,0,0:0:0:0:
352,128,4666,1,8,0:0:0:0:
288,128,4803,1,0,0:0:0:0:
288,160,4871,1,0,0:0:0:0:
288,128,4939,1,8,0:0:0:0:
288,160,5075,1,8,0:0:0:0:
288,160,5144,1,0,0:0:0:0:
288,160,5280,1,0,0:0:0:0:
288,160,5348,1,0,0:0:0:0:
320,128,5416,1,8,0:0:0:0:
320,128,5484,1,0,0:0:0:0:
320,128,5621,1,0,0:0:0:0:
288,128,5689,1,8,0:0:0:0:
320,128,5757,1,0,0:0:0:0:
288,128,5894,1,0,0:0:0:0:
288,128,5962,1,0,0:0:0:0:
288,128,6030,1,8,0:0:0:0:
288,128,6166,1,0,0:0:0:0:
288,128,6303,1,8,0:0:0:0:
320,128,6371,1,8,0:0:0:0:
288,128,6439,1,0,0:0:0:0:
320,128,6575,1,8,0:0:0:0:
320,128,6644,1,8,0:0:0:0:
320,128,6712,1,0,0:0:0:0:
320,128,6848,1,0,0:0:0:0:
320,128,6984,1,8,0:0:0:0:
320,128,7053,1,0,0:0:0:0:
320,128,7121,1,8,0:0:0:0:
320,160,7257,1,8,0:0:0:0:
352,128,7394,1,8,0:0:0:0:
352,192,7462,1,8,0:0:0:0:
352,128,7530,1,0,0:0:0:0:
352,160,7666,1,8,0:0:0:0:
352,160,7734,1,8,0:0:0:0:
352,160,7803,1,0,0:0:0:0:
352,160,7939,1,8,0:0:0:0:
352,160,8075,1,0,0:0:0:0:
352,160,8144,1,0,0:0:0:0:
320,128,8212,1,8,0:0:0:0:
320,128,8348,1,0,0:0:0:0:
320,128,8416,1,0,0:0:0:0:
320,128,8484,1,8,0:0:0:0:
320,128,8553,1,8,0:0:0:0:
320,128,8621,1,0,0:0:0:0:
320,128,8757,1,8,0:0:0:0:
320,128,8825,1,8,0:0:0:0:
320,128,8894,1,0,0:0:0:0:
320,128,9030,1,8,0:0:0:0:
320,128,9303,1,8,0:0:0:0:
320,128,9575,1,12,0:0:0:0:
320,160,9848,1,12,0:0:0:0:
320,160,10121,1,4,0:0:0:0:
320,160,10325,1,8,0:0:0:0:
320,128,10394,1,4,0:0:0:0:
320,128,10598,1,0,0:0:0:0:
320,128,10666,1,8,0:0:0:0:
320,128,10734,1,0,0:0:0:0:
320,128,10803,1,0,0:0:0:0:
320,128,10939,1,8,0:0:0:0:
352,128,11007,1,0,0:0:0:0:
352,128,11075,1,0,0:0:0:0:
352,128,11212,1,4,0:0:0:0:
352,128,11348,1,0,0:0:0:0:
288,128,11416,1,0,0:0:0:0:
320,128,11484,1,8,0:0:0:0:
320,128,11621,1,0,0:0:0:0:
288,128,11757,1,8,0:0:0:0:
288,128,11894,1,0,0:0:0:0:
320,128,11962,1,8,0:0:0:0:
352,160,12030,1,8,0:0:0:0:
352,128,12166,1,0,0:0:0:0:
320,128,12303,1,12,0:0:0:0:
384,96,12439,1,0,0:0:0:0:
384,96,12507,1,8,0:0:0:0:
384,96,12575,1,0,0:0:0:0:
384,96,12644,1,8,0:0:0:0:
384,96,12712,1,0,0:0:0:0:
384,96,12848,1,8,0:0:0:0:
384,160,12916,1,8,0:0:0:0:
384,160,12984,1,0,0:0:0:0:
384,160,13121,1,8,0:0:0:0:
384,128,13189,1,8,0:0:0:0:
384,128,13257,1,0,0:0:0:0:
384,128,13394,1,4,0:0:0:0:
320,160,13530,1,0,0:0:0:0:
320,160,13598,1,0,0:0:0:0:
320,128,13666,1,8,0:0:0:0:
320,128,13803,1,0,0:0:0:0:
320,160,13939,1,8,0:0:0:0:
320,160,14007,1,8,0:0:0:0:
320,160,14075,1,0,0:0:0:0:
320,160,14144,1,0,0:0:0:0:
320,160,14212,1,8,0:0:0:0:
384,192,14348,1,0,0:0:0:0:
320,160,14484,1,12,0:0:0:0:
320,160,14621,1,0,0:0:0:0:
320,160,14689,1,0,0:0:0:0:
320,160,14757,1,8,0:0:0:0:
384,192,14894,1,0,0:0:0:0:
384,192,14962,1,0,0:0:0:0:
384,192,15030,1,8,0:0:0:0:
384,192,15166,1,0,0:0:0:0:
384,192,15303,1,8,0:0:0:0:
384,192,15371,1,8,0:0:0:0:
384,192,15439,1,0,0:0:0:0:
384,192,15575,1,12,0:0:0:0:
384,192,15712,1,0,0:0:0:0:
384,192,15780,1,0,0:0:0:0:
384,192,15848,1,8,0:0:0:0:
384,160,15984,1,0,0:0:0:0:
384,192,16053,1,0,0:0:0:0:
384,160,16121,1,8,0:0:0:0:
384,160,16257,1,0,0:0:0:0:
384,160,16394,1,8,0:0:0:0:
384,160,16530,1,0,0:0:0:0:
320,160,16666,1,12,0:0:0:0:
352,128,16803,1,0,0:0:0:0:
352,128,16871,1,8,0:0:0:0:
352,128,16939,1,0,0:0:0:0:
352,128,17075,1,8,0:0:0:0:
352,128,17144,1,0,0:0:0:0:
352,128,17212,1,8,0:0:0:0:
352,128,17348,1,0,0:0:0:0:
352,128,17484,1,8,0:0:0:0:
352,128,17621,1,0,0:0:0:0:
352,160,17757,1,8,0:0:0:0:
352,160,17825,1,0,0:0:0:0:
352,160,17894,1,8,0:0:0:0:
352,160,18030,1,8,0:0:0:0:
352,160,18098,1,0,0:0:0:0:
352,160,18166,1,8,0:0:0:0:
352,160,18303,1,12,0:0:0:0:
352,160,18575,1,12,0:0:0:0:
352,160,18848,1,4,0:0:0:0:
352,160,19053,1,8,0:0:0:0:
352,160,19121,1,4,0:0:0:0:
352,160,19325,1,0,0:0:0:0:
352,160,19394,1,8,0:0:0:0:
352,160,19462,1,8,0:0:0:0:
352,160,19530,1,0,0:0:0:0:
352,160,19666,1,8,0:0:0:0:
352,160,19734,1,8,0:0:0:0:
384,160,19803,1,0,0:0:0:0:
352,160,19939,1,4,0:0:0:0:
384,192,20075,1,0,0:0:0:0:
384,192,20144,1,0,0:0:0:0:
384,192,20212,1,8,0:0:0:0:
384,192,20348,1,0,0:0:0:0:
384,192,20484,1,8,0:0:0:0:
384,192,20553,1,8,0:0:0:0:
384,192,20621,1,0,0:0:0:0:
384,192,20689,1,0,0:0:0:0:
384,192,20757,1,0,0:0:0:0:
384,192,20894,1,8,0:0:0:0:
384,192,21030,1,4,0:0:0:0:
384,192,21166,1,0,0:0:0:0:
384,192,21234,1,0,0:0:0:0:
384,160,21303,1,8,0:0:0:0:
416,160,21439,1,0,0:0:0:0:
416,160,21575,1,8,0:0:0:0:
416,160,21644,1,8,0:0:0:0:
416,160,21712,1,0,0:0:0:0:
416,160,21780,1,0,0:0:0:0:
416,160,21848,1,8,0:0:0:0:
416,160,21916,1,8,0:0:0:0:
416,160,21984,1,0,0:0:0:0:
320,160,22121,1,4,0:0:0:0:
384,192,22257,1,0,0:0:0:0:
384,192,22325,1,0,0:0:0:0:
384,192,22394,1,8,0:0:0:0:
384,192,22530,1,0,0:0:0:0:
384,192,22666,1,8,0:0:0:0:
384,192,22734,1,0,0:0:0:0:
384,192,22803,1,8,0:0:0:0:
384,192,22871,1,8,0:0:0:0:
384,192,22939,1,0,0:0:0:0:
384,192,23075,1,0,0:0:0:0:
384,192,23212,1,4,0:0:0:0:
384,192,23348,1,0,0:0:0:0:
384,192,23416,1,0,0:0:0:0:
384,192,23484,1,8,0:0:0:0:
384,192,23621,1,0,0:0:0:0:
384,192,23689,1,8,0:0:0:0:
384,192,23757,1,8,0:0:0:0:
384,192,23894,1,0,0:0:0:0:
384,192,24030,1,8,0:0:0:0:
384,192,24166,1,0,0:0:0:0:
384,192,24303,1,12,0:0:0:0:
384,192,24439,1,0,0:0:0:0:
384,192,24507,1,0,0:0:0:0:
384,192,24575,1,8,0:0:0:0:
384,192,24712,1,0,0:0:0:0:
384,192,24780,1,0,0:0:0:0:
384,192,24848,1,8,0:0:0:0:
384,192,24916,1,0,0:0:0:0:
384,192,24984,1,8,0:0:0:0:
320,160,25121,1,8,0:0:0:0:
320,192,25257,1,0,0:0:0:0:
320,192,25394,1,12,0:0:0:0:
320,192,25530,1,0,0:0:0:0:
320,192,25666,1,8,0:0:0:0:
384,192,25734,1,0,0:0:0:0:
320,192,25803,1,8,0:0:0:0:
320,192,25939,1,8,0:0:0:0:
320,192,26075,1,0,0:0:0:0:
320,192,26212,1,8,0:0:0:0:
320,192,26348,1,8,0:0:0:0:
320,160,26484,1,0,0:0:0:0:
320,160,26621,1,0,0:0:0:0:
320,160,26757,1,8,0:0:0:0:
320,160,26825,1,8,0:0:0:0:
320,160,26894,1,0,0:0:0:0:
320,160,27030,1,8,0:0:0:0:
320,160,27166,1,0,0:0:0:0:
320,160,27234,1,0,0:0:0:0:
320,160,27303,1,8,0:0:0:0:
320,128,27439,1,8,0:0:0:0:
320,128,27575,1,4,0:0:0:0:
320,160,27712,1,0,0:0:0:0:
352,160,27848,1,8,0:0:0:0:
352,160,27984,1,0,0:0:0:0:
352,160,28053,1,8,0:0:0:0:
320,160,28121,1,0,0:0:0:0:
352,160,28189,1,8,0:0:0:0:
320,160,28257,1,8,0:0:0:0:
320,160,28325,1,0,0:0:0:0:
320,160,28394,1,8,0:0:0:0:
320,160,28462,1,0,0:0:0:0:
320,160,28530,1,8,0:0:0:0:
320,160,28666,1,0,0:0:0:0:
320,160,28803,1,0,0:0:0:0:
320,160,28871,1,8,0:0:0:0:
320,160,28939,1,8,0:0:0:0:
320,160,29075,1,0,0:0:0:0:
320,160,29144,1,0,0:0:0:0:
320,160,29212,1,8,0:0:0:0:
320,160,29280,1,0,0:0:0:0:
320,160,29348,1,8,0:0:0:0:
320,128,29416,1,8,0:0:0:0:
288,160,29484,1,0,0:0:0:0:
320,128,29621,1,0,0:0:0:0:
320,160,29757,1,8,0:0:0:0:
320,160,29894,1,0,0:0:0:0:
320,160,29962,1,0,0:0:0:0:
320,160,30030,1,8,0:0:0:0:
320,160,30166,1,8,0:0:0:0:
320,160,30234,1,8,0:0:0:0:
320,160,30303,1,0,0:0:0:0:
320,160,30439,1,8,0:0:0:0:
320,160,30575,1,0,0:0:0:0:
320,160,30644,1,0,0:0:0:0:
320,160,30712,1,8,0:0:0:0:
320,160,30780,1,0,0:0:0:0:
320,160,30848,1,8,0:0:0:0:
288,160,30984,1,8,0:0:0:0:
288,160,31053,1,8,0:0:0:0:
288,160,31121,1,0,0:0:0:0:
320,160,31257,1,0,0:0:0:0:
352,160,31325,1,0,0:0:0:0:
288,160,31394,1,8,0:0:0:0:
352,160,31530,1,0,0:0:0:0:
352,160,31666,1,8,0:0:0:0:
352,160,31734,1,0,0:0:0:0:
352,160,31803,1,8,0:0:0:0:
352,160,31871,1,8,0:0:0:0:
352,160,31939,1,0,0:0:0:0:
352,160,32075,1,0,0:0:0:0:
320,192,32212,1,8,0:0:0:0:
320,160,32348,1,0,0:0:0:0:
320,160,32416,1,0,0:0:0:0:
320,160,32484,1,8,0:0:0:0:
352,160,32553,1,0,0:0:0:0:
352,160,32621,1,8,0:0:0:0:
384,160,32689,1,8,0:0:0:0:
352,160,32757,1,0,0:0:0:0:
352,128,32894,1,8,0:0:0:0:
352,128,32962,1,8,0:0:0:0:
352,128,33030,1,0,0:0:0:0:
352,128,33166,1,0,0:0:0:0:
352,128,33303,1,8,0:0:0:0:
352,128,33439,1,0,0:0:0:0:
352,128,33507,1,8,0:0:0:0:
352,128,33575,1,0,0:0:0:0:
352,128,33644,1,0,0:0:0:0:
352,128,33712,1,8,0:0:0:0:
352,128,33780,1,0,0:0:0:0:
352,128,33848,1,8,0:0:0:0:
352,160,33984,1,0,0:0:0:0:
352,160,34053,1,8,0:0:0:0:
352,160,34121,1,0,0:0:0:0:
320,160,34257,1,0,0:0:0:0:
320,160,34394,1,8,0:0:0:0:
320,160,34462,1,0,0:0:0:0:
320,160,34530,1,0,0:0:0:0:
320,160,34598,1,0,0:0:0:0:
320,160,34666,1,8,0:0:0:0:
320,128,34803,1,0,0:0:0:0:
288,160,34871,1,0,0:0:0:0:
288,160,34939,1,8,0:0:0:0:
288,160,35075,1,0,0:0:0:0:
288,160,35144,1,8,0:0:0:0:
288,160,35212,1,8,0:0:0:0:
288,160,35280,1,0,0:0:0:0:
288,160,35348,1,0,0:0:0:0:
320,160,35416,1,8,0:0:0:0:
320,160,35484,1,0,0:0:0:0:
288,160,35553,1,8,0:0:0:0:
320,160,35621,1,8,0:0:0:0:
288,160,35689,1,0,0:0:0:0:
320,160,35757,1,8,0:0:0:0:
288,160,35894,1,0,0:0:0:0:
288,160,36030,1,8,0:0:0:0:
288,160,36166,1,0,0:0:0:0:
288,160,36303,1,4,0:0:0:0:
384,128,36439,1,0,0:0:0:0:
384,128,36507,1,0,0:0:0:0:
384,128,36575,1,8,0:0:0:0:
352,160,36712,1,8,0:0:0:0:
352,128,36780,1,8,0:0:0:0:
352,128,36848,1,0,0:0:0:0:
352,128,36984,1,0,0:0:0:0:
352,128,37121,1,8,0:0:0:0:
352,160,37257,1,0,0:0:0:0:
352,160,37394,1,8,0:0:0:0:
320,160,37462,1,8,0:0:0:0:
320,160,37530,1,0,0:0:0:0:
320,192,37666,1,8,0:0:0:0:
320,192,37734,1,8,0:0:0:0:
320,192,37803,1,0,0:0:0:0:
352,192,37871,1,0,0:0:0:0:
320,192,37939,1,0,0:0:0:0:
384,160,38007,1,8,0:0:0:0:
384,160,38075,1,0,0:0:0:0:
384,160,38212,1,8,0:0:0:0:
384,160,38348,1,0,0:0:0:0:
384,160,38416,1,8,0:0:0:0:
384,160,38484,1,0,0:0:0:0:
384,160,38621,1,0,0:0:0:0:
384,160,38757,1,8,0:0:0:0:
352,160,38894,1,0,0:0:0:0:
384,160,38962,1,8,0:0:0:0:
384,160,39030,1,8,0:0:0:0:
384,160,39166,1,0,0:0:0:0:
320,160,39303,1,8,0:0:0:0:
320,160,39371,1,0,0:0:0:0:
320,160,39439,1,8,0:0:0:0:
320,128,39507,1,8,0:0:0:0:
320,160,39575,1,0,0:0:0:0:
320,160,39644,1,0,0:0:0:0:
320,128,39712,1,8,0:0:0:0:
320,128,39780,1,0,0:0:0:0:
320,160,39848,1,0,0:0:0:0:
320,160,39916,1,8,0:0:0:0:
320,160,39984,1,8,0:0:0:0:
320,160,40053,1,0,0:0:0:0:
320,128,40121,1,8,0:0:0:0:
384,160,40257,1,0,0:0:0:0:
384,160,40325,1,0,0:0:0:0:
384,160,40394,1,12,0:0:0:0:
384,160,40666,1,8,0:0:0:0:
384,160,40734,1,8,0:0:0:0:
384,160,40803,1,0,0:0:0:0:
384,160,40871,1,0,0:0:0:0:
384,160,40939,1,8,0:0:0:0:
384,160,41007,1,8,0:0:0:0:
352,160,41075,1,0,0:0:0:0:
352,160,41144,1,0,0:0:0:0:
384,160,41212,1,8,0:0:0:0:
384,160,41280,1,0,0:0:0:0:
384,160,41348,1,8,0:0:0:0:
384,160,41484,1,8,0:0:0:0:
352,160,41553,1,0,0:0:0:0:
352,160,41621,1,8,0:0:0:0:
352,128,41757,1,0,0:0:0:0:
352,96,41825,1,8,0:0:0:0:
352,96,41894,1,8,0:0:0:0:
352,96,41962,1,0,0:0:0:0:
352,96,42030,1,8,0:0:0:0:
352,96,42098,1,0,0:0:0:0:
352,128,42166,1,8,0:0:0:0:
352,96,42234,1,8,0:0:0:0:
352,128,42303,1,0,0:0:0:0:
352,128,42371,1,8,0:0:0:0:
352,128,42439,1,0,0:0:0:0:
352,128,42575,1,0,0:0:0:0:
320,128,42644,1,8,0:0:0:0:
352,128,42712,1,0,0:0:0:0:
416,160,42848,1,0,0:0:0:0:
416,160,42916,1,8,0:0:0:0:
416,160,42984,1,0,0:0:0:0:
352,160,43053,1,8,0:0:0:0:
352,160,43121,1,8,0:0:0:0:
352,160,43189,1,0,0:0:0:0:
352,160,43257,1,8,0:0:0:0:
352,160,43325,1,0,0:0:0:0:
352,160,43394,1,8,0:0:0:0:
352,160,43462,1,8,0:0:0:0:
352,160,43530,1,0,0:0:0:0:
352,160,43666,1,8,0:0:0:0:
320,96,43734,1,8,0:0:0:0:
352,160,43803,1,0,0:0:0:0:
384,128,43939,1,0,0:0:0:0:
384,160,44007,1,8,0:0:0:0:
384,160,44075,1,0,0:0:0:0:
384,160,44144,1,8,0:0:0:0:
384,160,44212,1,8,0:0:0:0:
384,128,44280,1,8,0:0:0:0:
384,128,44348,1,0,0:0:0:0:
416,128,44416,1,8,0:0:0:0:
416,96,44484,1,8,0:0:0:0:
448,128,44553,1,8,0:0:0:0:
448,128,44621,1,0,0:0:0:0:
416,96,44757,1,12,0:0:0:0:
416,128,45030,1,4,0:0:0:0:
448,128,45303,1,0,0:0:0:0:
320,128,45439,1,0,0:0:0:0:
448,128,45575,1,8,0:0:0:0:
320,128,45644,1,8,0:0:0:0:
448,128,45712,1,0,0:0:0:0:
448,128,45848,1,0,0:0:0:0:
448,128,45916,1,0,0:0:0:0:
448,128,45984,1,8,0:0:0:0:
448,128,46121,1,8,0:0:0:0:
448,128,46257,1,0,0:0:0:0:
448,128,46394,1,8,0:0:0:0:
448,128,46462,1,8,0:0:0:0:
448,128,46530,1,0,0:0:0:0:
416,160,46666,1,0,0:0:0:0:
416,160,46939,1,8,0:0:0:0:
320,160,47075,1,0,0:0:0:0:
416,160,47212,1,0,0:0:0:0:
320,128,47280,1,0,0:0:0:0:
416,160,47348,1,8,0:0:0:0:
416,160,47484,1,8,0:0:0:0:
384,160,47553,1,8,0:0:0:0:
416,160,47621,1,0,0:0:0:0:
384,160,47757,1,0,0:0:0:0:
384,160,47825,1,0,0:0:0:0:
416,128,47894,1,8,0:0:0:0:
384,160,47962,1,0,0:0:0:0:
384,160,48030,1,8,0:0:0:0:
384,128,48098,1,8,0:0:0:0:
384,128,48166,1,0,0:0:0:0:
384,128,48303,1,0,0:0:0:0:
352,128,48439,1,8,0:0:0:0:
416,160,48575,1,0,0:0:0:0:
384,160,48712,1,8,0:0:0:0:
416,160,48848,1,8,0:0:0:0:
416,160,48916,1,0,0:0:0:0:
384,160,48984,1,8,0:0:0:0:
416,160,49053,1,8,0:0:0:0:
384,160,49121,1,0,0:0:0:0:
384,160,49189,1,8,0:0:0:0:
384,160,49257,1,0,0:0:0:0:
384,160,49325,1,0,0:0:0:0:
384,160,49394,1,8,0:0:0:0:
384,160,49462,1,8,0:0:0:0:
384,160,49598,1,0,0:0:0:0:
384,128,49666,1,8,0:0:0:0:
384,128,49734,1,8,0:0:0:0:
384,128,49871,1,0,0:0:0:0:
416,160,49939,1,8,0:0:0:0:
416,160,50007,1,8,0:0:0:0:
416,160,50075,1,0,0:0:0:0:
416,128,50212,1,8,0:0:0:0:
416,160,50280,1,8,0:0:0:0:
416,96,50348,1,0,0:0:0:0:
352,128,50484,1,0,0:0:0:0:
384,96,50553,1,8,0:0:0:0:
384,64,50689,1,8,0:0:0:0:
384,64,50757,1,0,0:0:0:0:
384,64,50825,1,8,0:0:0:0:
384,96,50962,1,0,0:0:0:0:
384,96,51030,1,8,0:0:0:0:
384,96,51098,1,0,0:0:0:0:
352,96,51166,1,8,0:0:0:0:
352,96,51303,1,0,0:0:0:0:
352,96,51371,1,8,0:0:0:0:
352,96,51439,1,8,0:0:0:0:
352,96,51575,1,0,0:0:0:0:
352,128,51644,1,8,0:0:0:0:
352,128,51780,1,0,0:0:0:0:
352,128,51848,1,8,0:0:0:0:
320,128,51916,1,8,0:0:0:0:
320,96,52053,1,0,0:0:0:0:
384,160,52121,1,8,0:0:0:0:
384,160,52189,1,8,0:0:0:0:
448,160,52257,1,0,0:0:0:0:
448,160,52394,1,8,0:0:0:0:
352,128,52462,1,8,0:0:0:0:
416,160,52530,1,0,0:0:0:0:
416,160,52666,1,0,0:0:0:0:
416,128,52803,1,8,0:0:0:0:
416,128,52939,1,0,0:0:0:0:
416,128,53007,1,0,0:0:0:0:
416,128,53075,1,0,0:0:0:0:
416,128,53212,1,12,0:0:0:0:
416,128,53348,1,0,0:0:0:0:
416,128,53484,1,12,0:0:0:0:
416,128,53757,1,4,0:0:0:0:
448,128,54030,1,8,0:0:0:0:
320,128,54166,1,0,0:0:0:0:
448,128,54303,1,8,0:0:0:0:
320,128,54371,1,8,0:0:0:0:
448,128,54439,1,0,0:0:0:0:
288,128,54507,1,0,0:0:0:0:
448,128,54575,1,8,0:0:0:0:
448,128,54644,1,8,0:0:0:0:
448,128,54712,1,0,0:0:0:0:
448,128,54848,1,8,0:0:0:0:
448,128,54984,1,0,0:0:0:0:
448,128,55121,1,8,0:0:0:0:
448,128,55189,1,8,0:0:0:0:
448,128,55257,1,0,0:0:0:0:
416,160,55394,1,8,0:0:0:0:
416,160,55666,1,8,0:0:0:0:
320,160,55803,1,0,0:0:0:0:
416,160,55939,1,8,0:0:0:0:
320,128,56007,1,8,0:0:0:0:
416,160,56075,1,0,0:0:0:0:
288,96,56144,1,0,0:0:0:0:
416,160,56212,1,8,0:0:0:0:
384,160,56280,1,0,0:0:0:0:
416,160,56348,1,8,0:0:0:0:
384,160,56484,1,0,0:0:0:0:
384,160,56553,1,8,0:0:0:0:
416,128,56621,1,0,0:0:0:0:
384,160,56757,1,8,0:0:0:0:
384,128,56825,1,0,0:0:0:0:
384,128,56894,1,8,0:0:0:0:
384,128,57030,1,0,0:0:0:0:
352,128,57166,1,8,0:0:0:0:
416,160,57303,1,0,0:0:0:0:
384,160,57439,1,8,0:0:0:0:
416,160,57575,1,8,0:0:0:0:
416,160,57644,1,8,0:0:0:0:
384,160,57712,1,0,0:0:0:0:
416,160,57780,1,0,0:0:0:0:
384,160,57848,1,8,0:0:0:0:
384,160,57916,1,0,0:0:0:0:
384,160,57984,1,8,0:0:0:0:
384,160,58053,1,0,0:0:0:0:
384,160,58121,1,0,0:0:0:0:
384,160,58189,1,8,0:0:0:0:
384,160,58325,1,0,0:0:0:0:
384,128,58394,1,0,0:0:0:0:
384,128,58462,1,8,0:0:0:0:
384,128,58598,1,8,0:0:0:0:
416,160,58666,1,0,0:0:0:0:
416,160,58734,1,0,0:0:0:0:
416,160,58803,1,8,0:0:0:0:
416,128,58939,1,8,0:0:0:0:
416,160,59007,1,8,0:0:0:0:
416,96,59075,1,0,0:0:0:0:
352,128,59212,1,0,0:0:0:0:
384,96,59280,1,8,0:0:0:0:
384,64,59416,1,0,0:0:0:0:
384,64,59484,1,8,0:0:0:0:
384,64,59553,1,0,0:0:0:0:
384,96,59689,1,8,0:0:0:0:
384,96,59757,1,0,0:0:0:0:
384,96,59825,1,8,0:0:0:0:
352,96,59894,1,0,0:0:0:0:
352,96,60030,1,0,0:0:0:0:
352,96,60098,1,8,0:0:0:0:
352,96,60166,1,8,0:0:0:0:
352,96,60303,1,0,0:0:0:0:
352,128,60371,1,8,0:0:0:0:
352,128,60507,1,0,0:0:0:0:
256,160,60575,1,0,0:0:0:0:
320,128,60644,1,8,0:0:0:0:
320,96,60780,1,8,0:0:0:0:
384,160,60848,1,0,0:0:0:0:
288,96,60916,1,0,0:0:0:0:
384,160,60984,1,8,0:0:0:0:
448,160,61121,1,0,0:0:0:0:
416,160,61189,1,0,0:0:0:0:
416,160,61257,1,8,0:0:0:0:
416,160,61394,5,0,0:0:0:0:
416,128,61530,1,0,0:0:0:0:
416,128,61666,1,8,0:0:0:0:
416,128,61734,1,8,0:0:0:0:
416,128,61803,1,0,0:0:0:0:
416,128,61939,1,8,0:0:0:0:
416,128,62075,1,0,0:0:0:0:
416,128,62212,1,4,0:0:0:0:
352,128,62484,5,8,0:0:0:0:
352,128,62553,1,8,0:0:0:0:
352,128,62621,1,0,0:0:0:0:
320,160,62689,1,0,0:0:0:0:
384,128,62757,1,8,0:0:0:0:
384,128,62825,1,8,0:0:0:0:
384,128,62894,1,0,0:0:0:0:
288,96,62962,1,0,0:0:0:0:
288,96,63030,1,8,0:0:0:0:
288,96,63098,1,8,0:0:0:0:
288,96,63166,1,0,0:0:0:0:
288,96,63234,1,8,0:0:0:0:
288,96,63303,1,8,0:0:0:0:
384,128,63371,1,0,0:0:0:0:
288,96,63439,1,8,0:0:0:0:
384,128,63575,1,0,0:0:0:0:
384,128,63644,1,0,0:0:0:0:
384,128,63712,1,8,0:0:0:0:
288,128,63780,1,0,0:0:0:0:
384,128,63848,1,8,0:0:0:0:
384,128,63916,1,8,0:0:0:0:
384,128,63984,1,0,0:0:0:0:
288,96,64053,1,0,0:0:0:0:
288,96,64121,1,8,0:0:0:0:
288,96,64189,1,8,0:0:0:0:
288,96,64257,1,0,0:0:0:0:
288,96,64325,1,8,0:0:0:0:
288,96,64394,1,8,0:0:0:0:
320,128,64462,1,0,0:0:0:0:
256,96,64530,1,8,0:0:0:0:
256,96,64666,1,0,0:0:0:0:
256,96,64734,1,0,0:0:0:0:
256,96,64803,1,0,0:0:0:0:
256,96,64871,1,0,0:0:0:0:
256,96,64939,1,8,0:0:0:0:
256,96,65075,1,0,0:0:0:0:
256,96,65212,1,0,0:0:0:0:
256,96,65348,1,8,0:0:0:0:
256,96,65416,1,0,0:0:0:0:
256,96,65484,1,8,0:0:0:0:
256,96,65553,1,8,0:0:0:0:
256,96,65621,1,0,0:0:0:0:
256,96,65689,1,0,0:0:0:0:
256,96,65757,1,8,0:0:0:0:
256,96,65825,1,8,0:0:0:0:
256,96,65894,1,0,0:0:0:0:
256,96,65962,1,8,0:0:0:0:
256,96,66030,1,8,0:0:0:0:
256,96,66098,1,0,0:0:0:0:
256,96,66166,1,8,0:0:0:0:
320,160,66234,1,0,0:0:0:0:
256,96,66303,1,8,0:0:0:0:
352,160,66439,1,8,0:0:0:0:
256,96,66507,1,0,0:0:0:0:
256,96,66575,1,8,0:0:0:0:
288,128,66644,1,8,0:0:0:0:
256,96,66712,1,0,0:0:0:0:
352,128,66848,1,8,0:0:0:0:
352,128,66916,1,8,0:0:0:0:
352,128,66984,1,0,0:0:0:0:
256,160,67053,1,0,0:0:0:0:
352,128,67121,1,8,0:0:0:0:
352,128,67189,1,8,0:0:0:0:
352,128,67257,1,0,0:0:0:0:
256,96,67325,1,0,0:0:0:0:
256,96,67394,1,8,0:0:0:0:
256,96,67462,1,0,0:0:0:0:
256,96,67530,1,8,0:0:0:0:
288,96,67598,1,8,0:0:0:0:
256,96,67666,1,8,0:0:0:0:
288,96,67734,1,0,0:0:0:0:
256,96,67803,1,8,0:0:0:0:
352,128,67939,1,0,0:0:0:0:
352,128,68007,1,0,0:0:0:0:
352,128,68075,1,8,0:0:0:0:
320,128,68144,1,0,0:0:0:0:
352,128,68212,1,8,0:0:0:0:
352,128,68280,1,8,0:0:0:0:
352,128,68348,1,0,0:0:0:0:
256,96,68416,1,0,0:0:0:0:
256,96,68484,1,8,0:0:0:0:
256,96,68553,1,0,0:0:0:0:
256,96,68621,1,8,0:0:0:0:
288,96,68689,1,8,0:0:0:0:
256,96,68757,1,8,0:0:0:0:
224,160,68825,1,0,0:0:0:0:
256,96,68894,1,8,0:0:0:0:
256,96,69030,1,0,0:0:0:0:
256,96,69166,1,0,0:0:0:0:
256,96,69303,1,0,0:0:0:0:
256,96,69371,1,0,0:0:0:0:
256,96,69439,1,0,0:0:0:0:
256,96,69575,1,8,0:0:0:0:
256,96,69712,1,0,0:0:0:0:
256,96,69848,1,8,0:0:0:0:
256,96,69984,1,0,0:0:0:0:
256,96,70121,1,8,0:0:0:0:
256,96,70189,1,0,0:0:0:0:
352,128,70257,1,8,0:0:0:0:
384,160,70303,1,8,0:0:0:0:
384,160,70348,1,8,0:0:0:0:
352,128,70394,1,0,0:0:0:0:
384,128,70462,1,0,0:0:0:0:
256,128,70530,1,8,0:0:0:0:
288,128,70598,1,0,0:0:0:0:
256,128,70666,1,8,0:0:0:0:
288,128,70734,1,8,0:0:0:0:
256,128,70803,1,0,0:0:0:0:
256,128,70939,1,8,0:0:0:0:
256,128,71075,1,0,0:0:0:0:
352,128,71212,1,8,0:0:0:0:
352,128,71280,1,8,0:0:0:0:
352,128,71348,1,0,0:0:0:0:
256,160,71416,1,0,0:0:0:0:
352,128,71484,1,8,0:0:0:0:
352,96,71553,1,8,0:0:0:0:
352,96,71621,1,0,0:0:0:0:
256,96,71689,1,0,0:0:0:0:
256,96,71757,1,8,0:0:0:0:
256,128,71825,1,8,0:0:0:0:
256,96,71894,1,0,0:0:0:0:
352,128,71962,1,8,0:0:0:0:
256,96,72030,1,8,0:0:0:0:
352,128,72098,1,0,0:0:0:0:
256,96,72166,1,8,0:0:0:0:
384,128,72303,1,0,0:0:0:0:
384,128,72371,1,0,0:0:0:0:
384,128,72439,1,8,0:0:0:0:
288,128,72507,1,0,0:0:0:0:
384,128,72575,1,8,0:0:0:0:
352,128,72644,1,8,0:0:0:0:
352,128,72712,1,0,0:0:0:0:
320,128,72780,1,0,0:0:0:0:
320,128,72848,1,8,0:0:0:0:
320,128,72916,1,8,0:0:0:0:
320,128,72984,1,0,0:0:0:0:
352,128,73053,1,8,0:0:0:0:
352,128,73121,1,8,0:0:0:0:
352,128,73189,1,0,0:0:0:0:
352,128,73257,1,8,0:0:0:0:
352,128,73394,1,0,0:0:0:0:
352,128,73530,1,8,0:0:0:0:
384,128,73598,1,8,0:0:0:0:
320,128,73666,1,0,0:0:0:0:
320,128,73803,1,8,0:0:0:0:
288,160,73871,1,0,0:0:0:0:
320,128,73939,1,8,0:0:0:0:
320,128,74007,1,8,0:0:0:0:
320,128,74075,1,0,0:0:0:0:
320,128,74144,1,8,0:0:0:0:
320,128,74212,1,0,0:0:0:0:
320,128,74280,1,0,0:0:0:0:
320,128,74348,1,8,0:0:0:0:
352,128,74484,1,0,0:0:0:0:
384,160,74553,1,0,0:0:0:0:
352,96,74621,1,8,0:0:0:0:
352,96,74689,1,0,0:0:0:0:
352,96,74757,1,8,0:0:0:0:
352,96,74825,1,8,0:0:0:0:
352,96,74894,1,0,0:0:0:0:
352,96,75030,1,8,0:0:0:0:
320,96,75166,1,0,0:0:0:0:
320,96,75303,1,8,0:0:0:0:
320,96,75439,1,8,0:0:0:0:
352,128,75575,1,8,0:0:0:0:
352,128,75644,1,8,0:0:0:0:
352,128,75712,1,0,0:0:0:0:
320,96,75780,1,0,0:0:0:0:
352,128,75848,1,8,0:0:0:0:
352,128,75916,1,0,0:0:0:0:
352,128,75984,1,8,0:0:0:0:
320,96,76053,1,8,0:0:0:0:
320,96,76121,1,0,0:0:0:0:
320,96,76257,1,0,0:0:0:0:
320,96,76394,1,8,0:0:0:0:
320,96,76462,1,8,0:0:0:0:
320,96,76530,1,0,0:0:0:0:
352,128,76666,1,0,0:0:0:0:
384,96,76803,1,0,0:0:0:0:
384,96,76871,1,0,0:0:0:0:
384,96,76939,1,0,0:0:0:0:
320,96,77075,1,0,0:0:0:0:
320,96,77212,1,8,0:0:0:0:
320,96,77348,1,8,0:0:0:0:
320,96,77484,1,0,0:0:0:0:
320,96,77553,1,0,0:0:0:0:
320,96,77621,1,8,0:0:0:0:
352,96,77689,1,8,0:0:0:0:
320,128,77757,1,0,0:0:0:0:
320,128,77894,1,0,0:0:0:0:
320,128,78030,1,0,0:0:0:0:
320,128,78166,1,0,0:0:0:0:
320,128,78234,1,0,0:0:0:0:
320,128,78303,1,8,0:0:0:0:
320,128,78439,1,0,0:0:0:0:
320,128,78575,1,0,0:0:0:0:
320,128,78644,1,8,0:0:0:0:
320,128,78712,1,0,0:0:0:0:
320,128,78780,1,0,0:0:0:0:
320,128,78848,1,8,0:0:0:0:
320,128,78984,1,0,0:0:0:0:
320,128,79053,1,0,0:0:0:0:
352,128,79121,1,8,0:0:0:0:
352,128,79189,1,0,0:0:0:0:
352,128,79257,1,0,0:0:0:0:
352,128,79394,1,8,0:0:0:0:
352,128,79530,1,8,0:0:0:0:
352,128,79598,1,8,0:0:0:0:
352,128,79666,1,0,0:0:0:0:
352,128,79939,1,4,0:0:0:0:
320,160,80075,1,0,0:0:0:0:
320,160,80144,1,0,0:0:0:0:
320,160,80212,1,8,0:0:0:0:
320,160,80348,1,0,0:0:0:0:
320,160,80416,1,0,0:0:0:0:
320,160,80484,1,8,0:0:0:0:
320,160,80553,1,8,0:0:0:0:
320,160,80621,1,0,0:0:0:0:
320,160,80757,1,8,0:0:0:0:
352,160,80825,1,8,0:0:0:0:
320,160,80894,1,0,0:0:0:0:
320,160,80962,1,0,0:0:0:0:
352,160,81030,1,8,0:0:0:0:
320,160,81098,1,0,0:0:0:0:
352,160,81166,1,8,0:0:0:0:
320,128,81303,1,8,0:0:0:0:
320,160,81371,1,0,0:0:0:0:
320,160,81439,1,8,0:0:0:0:
320,160,81507,1,8,0:0:0:0:
320,160,81575,1,0,0:0:0:0:
320,160,81712,1,8,0:0:0:0:
320,160,81848,1,8,0:0:0:0:
320,160,81916,1,8,0:0:0:0:
320,160,81984,1,0,0:0:0:0:
320,160,82121,1,8,0:0:0:0:
320,160,82257,1,0,0:0:0:0:
320,160,82325,1,0,0:0:0:0:
320,160,82394,1,8,0:0:0:0:
320,160,82462,1,0,0:0:0:0:
320,160,82530,1,8,0:0:0:0:
320,160,82598,1,8,0:0:0:0:
320,160,82666,1,0,0:0:0:0:
320,160,82803,1,0,0:0:0:0:
320,160,82871,1,0,0:0:0:0:
320,160,82939,1,8,0:0:0:0:
320,160,83075,1,0,0:0:0:0:
320,160,83212,1,8,0:0:0:0:
320,160,83348,1,0,0:0:0:0:
320,160,83416,1,0,0:0:0:0:
320,160,83484,1,8,0:0:0:0:
320,160,83621,1,0,0:0:0:0:
320,160,83757,1,8,0:0:0:0:
320,160,83894,1,0,0:0:0:0:
320,160,83962,1,8,0:0:0:0:
320,160,84030,1,8,0:0:0:0:
320,160,84166,1,0,0:0:0:0:
320,160,84234,1,8,0:0:0:0:
320,160,84303,1,8,0:0:0:0:
320,160,84439,1,0,0:0:0:0:
320,160,84507,1,0,0:0:0:0:
320,160,84575,1,8,0:0:0:0:
320,160,84644,1,0,0:0:0:0:
320,160,84712,1,8,0:0:0:0:
320,160,84848,1,8,0:0:0:0:
320,160,84916,1,0,0:0:0:0:
320,160,84984,1,0,0:0:0:0:
320,160,85121,1,8,0:0:0:0:
320,160,85189,1,0,0:0:0:0:
320,160,85257,1,0,0:0:0:0:
352,192,85394,1,8,0:0:0:0:
320,192,85530,1,0,0:0:0:0:
320,160,85598,1,8,0:0:0:0:
320,160,85666,1,0,0:0:0:0:
320,192,85734,1,0,0:0:0:0:
320,160,85803,1,8,0:0:0:0:
352,160,85939,1,8,0:0:0:0:
320,160,86007,1,8,0:0:0:0:
352,160,86075,1,0,0:0:0:0:
352,160,86212,1,8,0:0:0:0:
352,160,86280,1,0,0:0:0:0:
352,160,86348,1,8,0:0:0:0:
352,160,86416,1,8,0:0:0:0:
352,192,86484,1,0,0:0:0:0:
352,192,86621,1,0,0:0:0:0:
384,160,86757,1,8,0:0:0:0:
384,160,86825,1,0,0:0:0:0:
384,160,86894,1,0,0:0:0:0:
384,160,86962,1,8,0:0:0:0:
352,160,87030,1,0,0:0:0:0:
352,160,87166,1,8,0:0:0:0:
352,160,87303,1,0,0:0:0:0:
352,160,87371,1,0,0:0:0:0:
352,160,87439,1,8,0:0:0:0:
352,160,87575,1,0,0:0:0:0:
352,160,87712,1,8,0:0:0:0:
352,160,87848,1,0,0:0:0:0:
352,160,87916,1,0,0:0:0:0:
352,160,87984,1,0,0:0:0:0:
352,160,88121,1,12,0:0:0:0:
352,160,88257,1,0,0:0:0:0:
352,160,88394,1,12,0:0:0:0:
352,128,88666,1,4,0:0:0:0:
320,160,88803,1,0,0:0:0:0:
320,160,88871,1,0,0:0:0:0:
320,160,88939,1,8,0:0:0:0:
320,160,89075,1,0,0:0:0:0:
320,160,89144,1,0,0:0:0:0:
320,160,89212,1,8,0:0:0:0:
320,160,89280,1,8,0:0:0:0:
320,160,89348,1,0,0:0:0:0:
320,160,89484,1,8,0:0:0:0:
352,160,89553,1,0,0:0:0:0:
320,160,89621,1,8,0:0:0:0:
320,160,89689,1,8,0:0:0:0:
352,160,89757,1,0,0:0:0:0:
320,160,89825,1,0,0:0:0:0:
352,160,89894,1,8,0:0:0:0:
320,128,90030,1,8,0:0:0:0:
320,160,90098,1,8,0:0:0:0:
320,160,90166,1,0,0:0:0:0:
320,160,90234,1,0,0:0:0:0:
320,160,90303,1,8,0:0:0:0:
320,160,90439,1,0,0:0:0:0:
320,160,90575,1,8,0:0:0:0:
320,160,90644,1,8,0:0:0:0:
320,160,90712,1,0,0:0:0:0:
320,160,90848,1,8,0:0:0:0:
320,160,90984,1,0,0:0:0:0:
320,160,91053,1,0,0:0:0:0:
320,160,91121,1,8,0:0:0:0:
320,160,91189,1,8,0:0:0:0:
320,160,91257,1,0,0:0:0:0:
320,160,91325,1,0,0:0:0:0:
320,160,91394,1,8,0:0:0:0:
320,160,91530,1,0,0:0:0:0:
320,160,91598,1,8,0:0:0:0:
320,160,91666,1,0,0:0:0:0:
320,160,91803,1,8,0:0:0:0:
320,160,91939,1,0,0:0:0:0:
320,160,92075,1,0,0:0:0:0:
320,160,92144,1,0,0:0:0:0:
320,160,92212,1,8,0:0:0:0:
320,160,92348,1,0,0:0:0:0:
320,160,92484,1,8,0:0:0:0:
320,160,92621,1,0,0:0:0:0:
320,160,92689,1,8,0:0:0:0:
320,160,92757,1,8,0:0:0:0:
320,160,92894,1,0,0:0:0:0:
320,160,92962,1,8,0:0:0:0:
320,160,93030,1,8,0:0:0:0:
320,160,93166,1,0,0:0:0:0:
320,160,93234,1,0,0:0:0:0:
320,160,93303,1,8,0:0:0:0:
320,160,93371,1,0,0:0:0:0:
320,160,93439,1,8,0:0:0:0:
320,160,93575,1,8,0:0:0:0:
320,160,93644,1,8,0:0:0:0:
320,160,93712,1,0,0:0:0:0:
320,160,93848,1,8,0:0:0:0:
320,160,93916,1,8,0:0:0:0:
320,160,93984,1,0,0:0:0:0:
352,192,94121,1,8,0:0:0:0:
320,192,94257,1,0,0:0:0:0:
320,160,94325,1,8,0:0:0:0:
320,160,94394,1,0,0:0:0:0:
320,192,94462,1,0,0:0:0:0:
320,160,94530,1,8,0:0:0:0:
352,160,94666,1,8,0:0:0:0:
320,160,94734,1,8,0:0:0:0:
352,160,94803,1,0,0:0:0:0:
352,160,94939,1,8,0:0:0:0:
352,160,95007,1,0,0:0:0:0:
352,160,95075,1,8,0:0:0:0:
352,160,95144,1,8,0:0:0:0:
352,192,95212,1,0,0:0:0:0:
352,192,95348,1,0,0:0:0:0:
320,96,95416,1,0,0:0:0:0:
384,160,95484,1,8,0:0:0:0:
384,160,95621,1,0,0:0:0:0:
352,160,95757,1,8,0:0:0:0:
352,160,95894,1,8,0:0:0:0:
352,128,95962,1,8,0:0:0:0:
352,128,96030,1,0,0:0:0:0:
352,160,96166,1,0,0:0:0:0:
352,128,96234,1,0,0:0:0:0:
352,160,96303,1,8,0:0:0:0:
352,160,96439,1,0,0:0:0:0:
352,128,96507,1,0,0:0:0:0:
352,160,96575,1,8,0:0:0:0:
352,160,96644,1,8,0:0:0:0:
352,160,96712,1,0,0:0:0:0:
352,160,96848,1,8,0:0:0:0:
352,160,96984,1,8,0:0:0:0:
256,192,97121,12,0,97530,0:0:0:0:
256,192,97666,12,0,98075,0:0:0:0:
256,192,98212,12,0,98621,0:0:0:0:
256,192,98757,12,0,99575,0:0:0:0:
