osu file format v14

[General]
AudioFilename: 01 X.U. (From _Seraph of the End_).mp3
AudioLeadIn: 0
PreviewTime: 54224
Countdown: 0
SampleSet: Soft
StackLeniency: 0.7
Mode: 0
LetterboxInBreaks: 1
WidescreenStoryboard: 1

[Editor]
Bookmarks: 8161,25877,48318,53515
DistanceSpacing: 1
BeatDivisor: 4
GridSize: 4
TimelineZoom: 1

[Metadata]
Title:X.U. (From "Seraph of the End")
TitleUnicode:X.U. (From "Seraph of the End")
Artist:Sapphire
ArtistUnicode:Sapphire
Creator:Living Flower
Version:Normal
Source:終わりのセラフ
Tags:XU Owari no Seraph of the End English Cover Anime Opening OP 澤野 弘之 Sawano Hiroyuki Benjamin mpi Gemie
BeatmapID:1539263
BeatmapSetID:530407

[Difficulty]
HPDrainRate:2
CircleSize:4
OverallDifficulty:5
ApproachRate:7
SliderMultiplier:2
SliderTickRate:1

[Events]
//Background and Video events
0,0,"Asuramaru Background.jpg",0,0
//Break Periods
2,14502,17182
2,21589,23560
2,40486,47418
//Storyboard Layer 0 (Background)
//Storyboard Layer 1 (Fail)
//Storyboard Layer 2 (Pass)
//Storyboard Layer 3 (Foreground)
//Storyboard Sound Samples

[TimingPoints]
602,472.44094488189,4,1,0,100,1,0
602,-200,4,2,0,50,0,0
55405,-200,4,2,0,50,0,1
85641,-200,4,2,0,5,0,0

[HitObjects]
80,84,10050,5,0,0:0:0:0:
83,179,10523,2,0,P|101:225|139:256,1,100
273,295,11468,1,0,0:0:0:0:
391,221,11940,6,0,P|355:186|308:173,1,100
179,229,12885,2,0,P|131:215|96:181,1,100
71,42,13830,2,0,P|119:56|154:90,1,100
415,78,18082,5,0,0:0:0:0:
380,213,18554,2,0,P|361:259|323:290,1,100
255,167,19499,2,0,P|207:180|172:214,1,100
177,284,20208,1,0,0:0:0:0:
210,345,20444,2,0,P|257:357|305:345,1,100
365,307,21153,2,0,P|381:288|386:264,1,50
377,210,24460,6,0,P|326:264|256:288,1,150
186,285,25405,2,0,P|161:280|142:265,1,50
98,211,25877,2,0,P|89:187|93:163,2,50
144,263,26586,1,0,0:0:0:0:
211,281,26822,6,0,P|234:274|258:280,1,50
321,312,27294,1,0,0:0:0:0:
382,345,27531,2,0,P|405:351|429:345,1,50
387,211,28239,6,0,P|363:204|339:210,1,50
277,244,28712,2,0,P|224:257|172:244,1,100
128,201,29420,6,0,P|145:183|169:176,1,50
236,156,29893,2,0,P|256:142|273:124,2,50
217,225,30602,5,0,0:0:0:0:
270,269,30838,2,0,P|290:283|315:284,1,50
383,272,31310,2,0,P|436:259|488:272,1,100
459,335,32019,5,0,0:0:0:0:
389,341,32255,2,0,P|335:331|293:298,1,100
246,258,32964,6,0,P|225:243|200:242,1,50
86,322,33672,1,0,0:0:0:0:
66,256,33908,1,0,0:0:0:0:
70,186,34144,1,0,0:0:0:0:
94,120,34380,1,0,0:0:0:0:
135,63,34617,6,0,P|157:52|181:46,1,50
239,87,35090,2,0,P|279:115|328:122,1,100
398,125,35798,1,0,0:0:0:0:
373,190,36035,1,0,0:0:0:0:
343,253,36271,1,0,0:0:0:0:
309,314,36507,2,0,P|273:355|224:375,1,100
93,366,37452,5,0,0:0:0:0:
101,297,37688,1,0,0:0:0:0:
135,236,37924,1,0,0:0:0:0:
186,188,38161,1,0,0:0:0:0:
250,160,38397,5,0,0:0:0:0:
319,156,38633,1,0,0:0:0:0:
388,159,38869,2,0,P|432:180|463:219,1,100
452,358,39814,2,0,P|407:336|376:297,1,100
256,192,48318,12,0,53515,0:0:0:0:
74,43,55405,6,0,P|77:67|88:90,1,50
126,148,55877,1,0,0:0:0:0:
174,198,56113,2,0,P|199:240|210:289,1,100
222,358,56822,1,0,0:0:0:0:
281,321,57058,2,0,P|299:304|308:281,1,50
315,211,57531,5,0,0:0:0:0:
309,141,57767,2,0,P|300:117|281:100,1,50
216,75,58239,2,0,P|166:78|124:104,1,100
85,162,58948,2,0,P|72:210|84:258,1,100
162,231,59656,6,0,L|155:291,1,50
226,279,60129,2,0,L|219:339,1,50
292,321,60602,2,0,L|299:261,1,50
352,360,61074,5,0,0:0:0:0:
410,322,61310,1,0,0:0:0:0:
468,284,61546,1,0,0:0:0:0:
467,143,62019,2,0,P|447:127|416:120,1,50
354,115,62491,1,0,0:0:0:0:
284,115,62727,1,0,0:0:0:0:
213,116,62964,6,0,P|163:121|117:140,1,100
67,188,63672,1,0,0:0:0:0:
111,242,63909,2,0,P|149:273|195:292,1,100
265,292,64617,2,0,L|315:292,1,50
384,286,65090,6,0,P|408:284|432:277,2,50
315,292,65798,1,0,0:0:0:0:
248,270,66035,1,0,0:0:0:0:
188,233,66271,2,0,P|171:214|146:134,1,100
153,75,66979,5,0,0:0:0:0:
208,32,67216,1,0,0:0:0:0:
268,69,67452,2,0,P|284:87|309:167,1,100
311,227,68161,1,0,0:0:0:0:
225,337,68633,5,0,0:0:0:0:
156,345,68869,1,0,0:0:0:0:
93,315,69105,1,0,0:0:0:0:
60,253,69342,1,0,0:0:0:0:
69,183,69578,2,0,P|77:159|91:139,1,50
130,80,70050,2,0,P|140:57|145:32,1,50
211,54,70523,6,0,P|250:84|277:126,1,100
281,196,71231,2,0,P|311:235|353:262,1,100
412,300,71940,1,0,0:0:0:0:
349,330,72176,2,0,P|299:336|251:325,1,100
187,296,72885,5,0,0:0:0:0:
133,250,73121,1,0,0:0:0:0:
74,122,73594,1,0,0:0:0:0:
135,89,73830,2,0,P|159:82|183:85,1,50
249,110,74302,6,0,P|288:140|315:182,1,100
344,245,75011,1,0,0:0:0:0:
417,363,75483,1,0,0:0:0:0:
454,303,75720,1,0,0:0:0:0:
482,238,75956,2,0,P|488:188|477:140,1,100
434,85,76664,6,0,P|412:72|388:68,1,50
317,66,77137,2,0,P|267:72|223:95,1,100
121,191,78082,6,0,P|170:197|218:186,1,100
283,159,78790,2,0,P|332:152|380:163,1,100
439,202,79499,1,0,0:0:0:0:
392,254,79735,2,0,P|342:260|294:249,1,100
231,218,80444,5,0,0:0:0:0:
184,165,80680,1,0,0:0:0:0:
271,55,81153,1,0,0:0:0:0:
336,78,81389,2,0,P|379:101|412:138,2,100
271,55,82570,5,0,0:0:0:0:
139,102,83042,1,0,0:0:0:0:
97,129,83278,1,0,0:0:0:0:
68,170,83514,1,0,0:0:0:0:
191,239,83987,1,0,0:0:0:0:
225,274,84223,1,0,0:0:0:0:
269,297,84460,2,0,P|318:305|367:296,1,100
412,276,85168,1,0,0:0:0:0:
256,192,85641,12,0,87531,0:0:0:0:
