osu file format v14

[General]
AudioFilename: audio.mp3
AudioLeadIn: 0
PreviewTime: 31690
Countdown: 0
SampleSet: Normal
StackLeniency: 0.7
Mode: 2
LetterboxInBreaks: 0
WidescreenStoryboard: 0

[Editor]
Bookmarks: 107523
DistanceSpacing: 1.2
BeatDivisor: 4
GridSize: 8
TimelineZoom: 2

[Metadata]
Title:Let Go Control
TitleUnicode:Let Go Control
Artist:Saosin
ArtistUnicode:Saosin
Creator:Nelly
Version:Cup
Source:
Tags:posthardcore metal punk crowley xetopia
BeatmapID:1699795
BeatmapSetID:775649

[Difficulty]
HPDrainRate:3
CircleSize:2.5
OverallDifficulty:6
ApproachRate:6
SliderMultiplier:1.1
SliderTickRate:1

[Events]
//Background and Video events
0,0,"bg.jpg",0,0
//Break Periods
//Storyboard Layer 0 (Background)
//Storyboard Layer 1 (Fail)
//Storyboard Layer 2 (Pass)
//Storyboard Layer 3 (Foreground)
//Storyboard Sound Samples

[TimingPoints]
357,333.333333333333,4,1,1,60,1,0
11023,-100,4,1,1,45,0,0
29690,-100,4,1,1,60,0,0
32356,-100,4,1,1,70,0,1
37690,-100,4,1,1,65,0,1
38023,-100,4,1,1,70,0,1
43023,-100,4,1,1,65,0,0
53690,-100,4,1,1,55,0,0
72356,-100,4,1,1,60,0,0
75690,333.333333333333,4,1,1,70,1,1
81023,-100,4,1,1,65,0,1
81356,-100,4,1,1,70,0,1
86356,-100,4,1,1,65,0,0
97023,-100,4,1,1,45,0,0
97356,-100,4,1,1,5,0,0

[Colours]
Combo1 : 249,219,223
Combo2 : 240,196,166
Combo3 : 88,61,61
Combo4 : 255,128,128

[HitObjects]
128,176,357,6,0,L|120:64,1,110,4|8,0:0|0:0,0:0:0:0:
248,24,1023,2,0,L|360:32,1,110,0|8,0:0|0:0,0:0:0:0:
468,150,1690,2,0,L|356:158,1,110,0|8,0:0|0:0,0:0:0:0:
286,244,2190,2,0,L|396:252,1,110
454,254,2690,1,8,0:0:0:0:
282,366,3023,6,0,L|290:254,1,110,0|8,0:0|0:0,0:0:0:0:
162,214,3690,2,0,L|154:102,1,110,0|8,0:0|0:0,0:0:0:0:
282,22,4356,2,0,L|394:35,1,110,0|8,0:0|0:0,0:0:0:0:
462,124,4856,2,0,L|350:137,1,110
287,145,5356,1,8,0:0:0:0:
136,32,5690,6,0,L|24:40,1,110,0|8,0:0|0:0,0:0:0:0:
160,152,6356,2,0,L|272:160,1,110,0|8,0:0|0:0,0:0:0:0:
136,384,7023,2,0,L|128:272,1,110,0|8,0:0|0:0,0:0:0:0:
256,160,7690,1,0,0:0:0:0:
128,40,8023,1,8,0:0:0:0:
256,16,8356,6,0,L|368:24,1,110,0|8,0:0|0:0,0:0:0:0:
232,128,9023,2,0,L|224:240,1,110,0|8,0:0|0:0,0:0:0:0:
352,344,9690,5,8,0:0:0:0:
452,308,10023,1,8,0:0:0:0:
495,210,10356,1,8,0:0:0:0:
453,112,10689,1,8,0:0:0:0:
274,73,11023,6,0,L|214:167,1,110,4|8,0:0|0:0,0:0:0:0:
376,192,11690,2,0,L|384:304,1,110,0|8,0:0|0:0,0:0:0:0:
248,336,12356,2,0,L|133:326,1,110,0|8,0:0|0:0,0:0:0:0:
74,217,12856,2,0,L|183:226,1,110
270,237,13356,1,8,0:0:0:0:
380,334,13690,6,0,L|387:224,1,110,0|8,0:0|0:0,0:0:0:0:
256,227,14356,2,0,L|246:116,1,110,0|8,0:0|0:0,0:0:0:0:
367,120,15023,2,0,L|257:112,1,110,0|8,0:0|0:0,0:0:0:0:
202,116,15523,2,0,L|210:225,1,110
288,235,16023,1,8,0:0:0:0:
442,248,16356,6,0,L|226:288,1,220,4|0,0:0|0:0,0:0:0:0:
119,215,17356,1,8,0:0:0:0:
40,62,17690,2,0,L|256:102,1,220
360,172,18690,1,8,0:0:0:0:
455,275,19023,6,0,L|343:267,1,110,0|8,0:0|0:0,0:0:0:0:
223,130,19690,2,0,L|226:241,1,110,0|8,0:0|0:0,0:0:0:0:
349,257,20356,2,0,L|459:264,2,110,0|8|0,0:0|0:0|0:0,0:0:0:0:
232,183,21356,1,0,0:0:0:0:
117,104,21690,6,0,P|85:128|125:184,1,110,4|8,0:0|0:0,0:0:0:0:
242,191,22356,2,0,L|354:183,1,110,0|8,0:0|0:0,0:0:0:0:
481,298,23023,2,0,L|364:288,1,110,0|8,0:0|0:0,0:0:0:0:
309,186,23523,2,0,L|426:195,1,110
490,206,24023,1,8,0:0:0:0:
309,186,24356,6,0,L|200:193,1,110,0|8,0:0|0:0,0:0:0:0:
79,333,25023,2,0,L|91:224,1,110,0|8,0:0|0:0,3:0:0:0:
232,309,25690,2,0,L|341:301,1,110,0|8,0:0|0:0,0:0:0:0:
408,232,26190,2,0,L|299:224,1,110
233,228,26690,1,8,0:0:0:0:
66,250,27023,6,0,P|34:154|125:107,1,220,4|8,0:0|0:0,0:0:0:0:
257,118,28023,1,0,0:0:0:0:
397,137,28356,2,0,L|274:119,1,110
147,117,29023,1,8,0:0:0:0:
131,245,29356,1,0,0:0:0:0:
283,271,29690,6,0,L|484:178,2,220,2|2|2,3:0|3:0|3:0,0:0:0:0:
120,320,31690,1,8,0:0:0:0:
56,328,31856,1,0,0:0:0:0:
120,320,32023,1,8,0:0:0:0:
284,307,32356,6,0,L|396:315,1,110,4|8,0:0|0:0,0:0:0:0:
232,200,33023,2,0,L|224:88,1,110,0|8,0:0|0:0,0:0:0:0:
352,64,33690,5,0,0:0:0:0:
224,48,34023,1,8,0:0:0:0:
352,64,34356,2,0,L|464:56,1,110,0|8,0:0|0:0,0:0:0:0:
328,184,35023,6,0,L|320:296,1,110,0|8,0:0|0:0,0:0:0:0:
448,336,35690,2,0,L|336:344,1,110,0|8,0:0|0:0,0:0:0:0:
208,344,36356,6,0,L|96:336,1,110,0|8,0:0|0:0,0:0:0:0:
232,232,37023,2,0,L|256:120,1,110,0|8,0:0|0:0,0:0:0:0:
128,64,37690,6,0,L|16:72,2,110,4|8|0,0:0|0:0|0:0,0:0:0:0:
264,64,38690,1,8,0:0:0:0:
136,176,39023,6,0,L|260:186,1,110,0|8,0:0|0:0,0:0:0:0:
374,192,39690,1,0,0:0:0:0:
246,184,40023,1,8,0:0:0:0:
374,192,40356,6,0,L|382:80,1,110,0|8,0:0|0:0,0:0:0:0:
270,56,41023,2,0,L|158:64,1,110,0|8,0:0|0:0,0:0:0:0:
292,174,41690,6,0,L|299:287,1,110,8|8,0:0|0:0,0:0:0:0:
151,157,42356,1,8,0:0:0:0:
86,189,42522,1,4,0:2:0:0:
58,253,42689,1,4,0:2:0:0:
86,317,42856,1,8,0:0:0:0:
184,357,43023,6,0,P|237:348|335:224,1,220,4|8,0:0|0:0,0:0:0:0:
215,75,44023,1,0,0:0:0:0:
58,144,44356,2,0,L|274:184,1,220,0|8,0:0|0:0,0:0:0:0:
408,304,45356,1,0,0:0:0:0:
288,216,45690,6,0,P|216:192|264:88,1,220,0|8,0:0|0:0,0:0:0:0:
380,71,46690,1,0,0:0:0:0:
488,72,47023,2,0,L|272:112,1,220,0|8,0:0|0:0,0:0:0:0:
144,160,48023,1,0,0:0:0:0:
272,224,48356,6,0,L|280:336,1,110,0|0,0:0|0:0,0:0:0:0:
152,344,49023,2,0,L|159:234,1,110,8|0,0:0|0:0,0:0:0:0:
288,208,49690,6,0,P|347:130|263:80,1,220,0|8,0:0|0:0,0:0:0:0:
144,128,50690,1,0,0:0:0:0:
272,160,51023,6,0,L|488:200,1,220,0|8,0:0|0:0,0:0:0:0:
375,309,52023,1,0,0:0:0:0:
240,288,52356,2,0,L|24:328,1,220,0|8,0:0|0:0,0:0:0:0:
176,357,53356,1,8,0:0:0:0:
19,322,53690,6,0,L|14:210,1,110,4|8,0:0|0:0,0:0:0:0:
152,168,54357,2,0,L|261:160,1,110,0|8,0:0|0:0,0:0:0:0:
392,160,55023,6,0,L|501:167,2,110,0|8|0,0:0|0:0|0:0,0:0:0:0:
256,168,56023,1,8,0:0:0:0:
392,160,56357,6,0,L|400:272,1,110,0|8,0:0|0:0,0:0:0:0:
264,272,57023,1,0,0:0:0:0:
392,280,57356,1,8,0:0:0:0:
264,272,57690,6,0,L|152:280,1,110,0|8,0:0|0:0,0:0:0:0:
86,185,58190,2,0,L|198:177,1,110
273,169,58690,1,8,0:0:0:0:
398,1,59023,6,0,P|462:17|446:145,1,220,4|0,0:0|0:0,0:0:0:0:
313,169,60023,1,8,0:0:0:0:
190,185,60356,2,0,P|131:222|182:340,1,220
314,347,61356,1,8,0:0:0:0:
179,339,61690,6,0,L|171:227,1,110,0|8,0:0|0:0,0:0:0:0:
301,208,62357,2,0,L|308:98,1,110,0|8,0:0|0:0,0:0:0:0:
177,79,63023,5,0,0:0:0:0:
289,71,63356,1,8,0:0:0:0:
401,63,63690,1,0,0:0:0:0:
273,191,64023,1,0,0:0:0:0:
405,198,64357,6,0,L|412:307,1,110,4|8,0:0|0:0,0:0:0:0:
284,336,65023,2,0,L|172:328,1,110,0|8,0:0|0:0,0:0:0:0:
44,300,65690,2,0,L|37:191,1,110,0|8,0:0|0:0,0:0:0:0:
103,189,66190,2,0,L|213:197,1,110
277,186,66690,1,8,0:0:0:0:
408,197,67023,6,0,L|415:306,1,110,0|8,0:0|0:0,0:0:0:0:
288,317,67690,2,0,L|179:310,1,110,0|8,0:0|0:0,0:0:0:0:
46,302,68357,2,0,L|155:294,1,110,0|8,0:0|0:0,0:0:0:0:
222,210,68856,2,0,L|112:203,1,110
25,213,69356,1,8,0:0:0:0:
159,48,69690,6,0,L|255:104,1,110,4|8,0:0|0:0,0:0:0:0:
383,182,70356,2,0,L|376:292,1,110,0|8,0:0|0:0,0:0:0:0:
246,327,71023,2,0,L|103:246,2,165,0|0|8,0:0|0:0|0:0,0:0:0:0:
367,189,72356,6,0,P|405:282|317:332,1,220,2|2,3:0|3:0,0:0:0:0:
139,133,73690,2,0,L|355:85,1,220,2|8,3:0|0:0,0:0:0:0:
195,71,74690,5,8,0:0:0:0:
179,151,74856,1,8,0:0:0:0:
331,215,75190,1,8,0:0:0:0:
341,268,75356,1,8,0:0:0:0:
175,273,75690,6,0,L|63:265,1,110,4|8,0:0|0:0,0:0:0:0:
218,279,76356,2,0,L|227:169,1,110,0|8,0:0|0:0,0:0:0:0:
112,208,77023,5,0,0:0:0:0:
224,216,77356,1,8,0:0:0:0:
336,224,77690,2,0,L|344:112,1,110,0|8,0:0|0:0,0:0:0:0:
208,24,78356,6,0,L|320:16,1,110,0|8,0:0|0:0,0:0:0:0:
448,40,79023,2,0,L|456:152,1,110,0|8,0:0|0:0,0:0:0:0:
320,160,79690,5,0,0:0:0:0:
448,176,80023,1,8,0:0:0:0:
320,160,80356,2,0,L|208:168,1,110,0|8,0:0|0:0,0:0:0:0:
352,368,81023,6,0,L|361:258,1,110,4|8,0:0|0:0,0:0:0:0:
232,56,81690,2,0,L|123:48,1,110,0|8,0:0|0:0,0:0:0:0:
256,168,82356,6,0,L|264:280,1,110,0|8,0:0|0:0,0:0:0:0:
136,320,83023,1,0,0:0:0:0:
264,312,83356,1,8,0:0:0:0:
136,320,83690,6,0,L|128:208,1,110,0|8,0:0|0:0,0:0:0:0:
256,112,84356,2,0,L|368:120,1,110,0|8,0:0|0:0,0:0:0:0:
232,240,85023,5,8,0:0:0:0:
360,232,85356,1,8,0:0:0:0:
232,240,85690,1,8,0:0:0:0:
168,248,85856,1,4,0:2:0:0:
232,240,86023,1,4,0:2:0:0:
300,235,86190,1,8,0:0:0:0:
398,224,86356,6,0,P|456:207|442:73,1,220,4|8,0:0|0:0,0:0:0:0:
323,83,87356,1,0,0:0:0:0:
232,80,87689,2,0,L|16:120,1,220,0|8,0:0|0:0,0:0:0:0:
136,168,88689,1,0,0:0:0:0:
264,192,89023,6,0,P|324:269|240:319,1,220,0|8,0:0|0:0,0:0:0:0:
118,263,90023,1,0,0:0:0:0:
16,128,90356,2,0,L|232:88,1,220,0|8,0:0|0:0,0:0:0:0:
368,96,91356,1,0,0:0:0:0:
232,216,91689,6,0,L|224:328,1,110,0|0,0:0|0:0,0:0:0:0:
360,336,92356,2,0,L|367:226,1,110,8|0,0:0|0:0,0:0:0:0:
216,208,93023,6,0,P|157:130|241:80,1,220,0|8,0:0|0:0,0:0:0:0:
368,96,94023,1,0,0:0:0:0:
496,136,94356,6,0,L|280:176,1,220,0|8,0:0|0:0,0:0:0:0:
140,203,95356,1,0,0:0:0:0:
24,328,95689,2,0,L|240:288,1,220,0|8,0:0|0:0,0:0:0:0:
376,296,96689,1,8,0:0:0:0:
201,240,97023,5,4,0:0:0:0:
256,192,97356,12,0,105690,0:0:0:0:
