osu file format v14

[General]
AudioFilename: audio.mp3
AudioLeadIn: 0
PreviewTime: 279460
Countdown: 0
SampleSet: Soft
StackLeniency: 0.7
Mode: 3
LetterboxInBreaks: 0
SpecialStyle: 0
WidescreenStoryboard: 0

[Editor]
DistanceSpacing: 0.5
BeatDivisor: 8
GridSize: 32
TimelineZoom: 1.5

[Metadata]
Title:Gargoyle
TitleUnicode:Gargoyle
Artist:Sanxion7
ArtistUnicode:Sanxion7
Creator:mijkolsmith
Version:LN
Source:Pump It Up Fiesta EX
Tags:
BeatmapID:2027825
BeatmapSetID:969208

[Difficulty]
HPDrainRate:8
CircleSize:4
OverallDifficulty:8
ApproachRate:5
SliderMultiplier:1.4
SliderTickRate:1

[Events]
//Background and Video events
0,0,"gargoyle.png",0,0
//Break Periods
//Storyboard Layer 0 (Background)
//Storyboard Layer 1 (Fail)
//Storyboard Layer 2 (Pass)
//Storyboard Layer 3 (Foreground)
//Storyboard Sound Samples

[TimingPoints]
1060,400,4,2,0,20,1,0
60260,-333.333333333333,4,2,0,20,0,0
77460,-312.5,4,2,0,20,0,0
77660,-294.117647058824,4,2,0,20,0,0
77860,-277.777777777778,4,2,0,20,0,0
78060,-263.157894736842,4,2,0,20,0,0
78260,-250,4,2,0,20,0,0
78460,-238.095238095238,4,2,0,20,0,0
78660,-227.272727272727,4,2,0,20,0,0
78860,-217.391304347826,4,2,0,20,0,0
79060,-208.333333333333,4,2,0,20,0,0
79260,-200,4,2,0,20,0,0
79460,-192.307692307692,4,2,0,20,0,0
79660,-185.185185185185,4,2,0,20,0,0
79860,-178.571428571429,4,2,0,20,0,0
80060,-172.413793103448,4,2,0,20,0,0
80260,-166.666666666667,4,2,0,20,0,0
80460,-161.290322580645,4,2,0,20,0,0
80660,-156.25,4,2,0,20,0,0
80860,-151.515151515152,4,2,0,20,0,0
81060,-147.058823529412,4,2,0,20,0,0
81260,-142.857142857143,4,2,0,20,0,0
81460,-138.888888888889,4,2,0,20,0,0
81660,-135.135135135135,4,2,0,20,0,0
81860,-131.578947368421,4,2,0,20,0,0
82060,-128.205128205128,4,2,0,20,0,0
82260,-125,4,2,0,20,0,0
82460,-121.951219512195,4,2,0,20,0,0
82660,-119.047619047619,4,2,0,20,0,0
82860,-116.279069767442,4,2,0,20,0,0
83060,-113.636363636364,4,2,0,20,0,0
83260,-111.111111111111,4,2,0,20,0,0
83460,-108.695652173913,4,2,0,20,0,0
83660,-106.382978723404,4,2,0,20,0,0
83860,-104.166666666667,4,2,0,20,0,0
84060,-102.040816326531,4,2,0,20,0,0
84260,-100,4,2,0,20,0,0
85860,-666.666666666667,4,2,0,20,0,0
95860,-500,4,2,0,20,0,0
96060,-400,4,2,0,20,0,0
96260,-333.333333333333,4,2,0,20,0,0
96460,-285.714285714286,4,2,0,20,0,0
96660,-250,4,2,0,20,0,0
96860,-222.222222222222,4,2,0,20,0,0
97060,-200,4,2,0,20,0,0
98660,-666.666666666667,4,2,0,20,0,0
106660,-500,4,2,0,20,0,0
106860,-400,4,2,0,20,0,0
107060,-333.333333333333,4,2,0,20,0,0
107260,-285.714285714286,4,2,0,20,0,0
107460,-250,4,2,0,20,0,0
107660,-222.222222222222,4,2,0,20,0,0
107860,-200,4,2,0,20,0,0
108060,-181.818181818182,4,2,0,20,0,0
108260,-166.666666666667,4,2,0,20,0,0
108460,-153.846153846154,4,2,0,20,0,0
108660,-142.857142857143,4,2,0,20,0,0
108860,-133.333333333333,4,2,0,20,0,0
109060,-125,4,2,0,20,0,0
109260,-117.647058823529,4,2,0,20,0,0
109460,-111.111111111111,4,2,0,20,0,0
109660,-105.263157894737,4,2,0,20,0,0
109860,-100,4,2,0,20,0,0

[HitObjects]
64,192,1060,5,0,0:0:0:0:
448,192,1160,1,0,0:0:0:0:
192,192,1260,1,0,0:0:0:0:
192,192,1360,1,0,0:0:0:0:
64,192,1460,1,0,0:0:0:0:
448,192,1560,1,0,0:0:0:0:
320,192,1660,1,0,0:0:0:0:
320,192,1760,1,0,0:0:0:0:
64,192,1860,1,0,0:0:0:0:
448,192,1960,1,0,0:0:0:0:
192,192,2060,1,0,0:0:0:0:
192,192,2160,1,0,0:0:0:0:
64,192,2260,1,0,0:0:0:0:
448,192,2360,1,0,0:0:0:0:
320,192,2460,1,0,0:0:0:0:
320,192,2560,1,0,0:0:0:0:
64,192,2660,1,0,0:0:0:0:
448,192,2760,1,0,0:0:0:0:
192,192,2860,1,0,0:0:0:0:
192,192,2960,1,0,0:0:0:0:
64,192,3060,1,0,0:0:0:0:
448,192,3160,1,0,0:0:0:0:
320,192,3260,1,0,0:0:0:0:
320,192,3360,1,0,0:0:0:0:
64,192,3460,1,0,0:0:0:0:
448,192,3560,1,0,0:0:0:0:
192,192,3660,1,0,0:0:0:0:
192,192,3760,1,0,0:0:0:0:
64,192,3860,1,0,0:0:0:0:
448,192,3960,1,0,0:0:0:0:
320,192,4060,1,0,0:0:0:0:
320,192,4160,1,0,0:0:0:0:
64,192,4260,1,0,0:0:0:0:
448,192,4360,1,0,0:0:0:0:
192,192,4460,1,0,0:0:0:0:
192,192,4560,1,0,0:0:0:0:
64,192,4660,1,0,0:0:0:0:
448,192,4760,1,0,0:0:0:0:
320,192,4860,1,0,0:0:0:0:
320,192,4960,1,0,0:0:0:0:
64,192,5060,1,0,0:0:0:0:
448,192,5160,1,0,0:0:0:0:
192,192,5260,1,0,0:0:0:0:
192,192,5360,1,0,0:0:0:0:
64,192,5460,1,0,0:0:0:0:
448,192,5560,1,0,0:0:0:0:
192,192,5660,1,0,0:0:0:0:
448,192,5760,1,0,0:0:0:0:
64,192,5960,1,0,0:0:0:0:
320,192,6060,1,0,0:0:0:0:
64,192,6160,1,0,0:0:0:0:
448,192,6360,1,0,0:0:0:0:
64,192,6460,1,0,0:0:0:0:
192,192,6510,1,0,0:0:0:0:
320,192,6560,1,0,0:0:0:0:
448,192,6610,1,0,0:0:0:0:
192,192,6660,1,0,0:0:0:0:
64,192,6660,1,0,0:0:0:0:
448,192,6860,1,0,0:0:0:0:
64,192,6860,1,0,0:0:0:0:
192,192,6960,1,0,0:0:0:0:
320,192,6960,1,0,0:0:0:0:
320,192,7160,1,0,0:0:0:0:
448,192,7160,1,0,0:0:0:0:
192,192,7260,1,0,0:0:0:0:
64,192,7260,1,0,0:0:0:0:
64,192,7460,1,0,0:0:0:0:
448,192,7460,1,0,0:0:0:0:
320,192,7460,1,0,0:0:0:0:
192,192,7560,1,0,0:0:0:0:
320,192,7660,1,0,0:0:0:0:
448,192,7760,1,0,0:0:0:0:
192,192,7860,1,0,0:0:0:0:
64,192,7860,1,0,0:0:0:0:
320,192,7960,1,0,0:0:0:0:
448,192,8060,1,0,0:0:0:0:
64,192,8060,1,0,0:0:0:0:
192,192,8160,1,0,0:0:0:0:
320,192,8260,1,0,0:0:0:0:
448,192,8260,1,0,0:0:0:0:
192,192,8360,1,0,0:0:0:0:
64,192,8360,1,0,0:0:0:0:
320,192,8460,1,0,0:0:0:0:
192,192,8560,1,0,0:0:0:0:
64,192,8560,1,0,0:0:0:0:
320,192,8660,1,0,0:0:0:0:
448,192,8660,1,0,0:0:0:0:
192,192,8760,1,0,0:0:0:0:
64,192,8860,1,0,0:0:0:0:
448,192,8960,1,0,0:0:0:0:
320,192,9010,1,0,0:0:0:0:
192,192,9060,1,0,0:0:0:0:
64,192,9060,1,0,0:0:0:0:
448,192,9160,1,0,0:0:0:0:
320,192,9260,1,0,0:0:0:0:
64,192,9360,1,0,0:0:0:0:
192,192,9460,1,0,0:0:0:0:
448,192,9460,1,0,0:0:0:0:
320,192,9560,1,0,0:0:0:0:
192,192,9660,1,0,0:0:0:0:
64,192,9660,1,0,0:0:0:0:
448,192,9760,1,0,0:0:0:0:
320,192,9860,1,0,0:0:0:0:
64,192,9860,1,0,0:0:0:0:
192,192,9960,1,0,0:0:0:0:
448,192,9960,1,0,0:0:0:0:
64,192,10060,1,0,0:0:0:0:
448,192,10160,1,0,0:0:0:0:
192,192,10160,1,0,0:0:0:0:
64,192,10260,1,0,0:0:0:0:
320,192,10260,1,0,0:0:0:0:
192,192,10360,1,0,0:0:0:0:
448,192,10460,1,0,0:0:0:0:
192,192,10560,1,0,0:0:0:0:
320,192,10610,1,0,0:0:0:0:
64,192,10660,1,0,0:0:0:0:
448,192,10660,1,0,0:0:0:0:
192,192,10760,1,0,0:0:0:0:
320,192,10860,1,0,0:0:0:0:
64,192,10960,1,0,0:0:0:0:
192,192,11060,1,0,0:0:0:0:
448,192,11060,1,0,0:0:0:0:
320,192,11160,1,0,0:0:0:0:
64,192,11260,1,0,0:0:0:0:
448,192,11260,1,0,0:0:0:0:
192,192,11360,1,0,0:0:0:0:
320,192,11460,1,0,0:0:0:0:
64,192,11460,1,0,0:0:0:0:
448,192,11560,1,0,0:0:0:0:
192,192,11560,1,0,0:0:0:0:
320,192,11660,1,0,0:0:0:0:
192,192,11760,1,0,0:0:0:0:
64,192,11760,1,0,0:0:0:0:
320,192,11860,1,0,0:0:0:0:
448,192,11860,1,0,0:0:0:0:
192,192,11960,1,0,0:0:0:0:
64,192,12060,1,0,0:0:0:0:
448,192,12160,1,0,0:0:0:0:
192,192,12210,1,0,0:0:0:0:
320,192,12260,1,0,0:0:0:0:
64,192,12260,1,0,0:0:0:0:
192,192,12360,1,0,0:0:0:0:
448,192,12460,1,0,0:0:0:0:
320,192,12560,1,0,0:0:0:0:
192,192,12660,1,0,0:0:0:0:
64,192,12660,1,0,0:0:0:0:
320,192,12760,1,0,0:0:0:0:
448,192,12860,1,0,0:0:0:0:
192,192,12860,1,0,0:0:0:0:
64,192,12960,1,0,0:0:0:0:
192,192,13060,1,0,0:0:0:0:
320,192,13060,1,0,0:0:0:0:
448,192,13160,1,0,0:0:0:0:
64,192,13160,1,0,0:0:0:0:
320,192,13260,1,0,0:0:0:0:
192,192,13360,1,0,0:0:0:0:
64,192,13360,1,0,0:0:0:0:
320,192,13460,1,0,0:0:0:0:
448,192,13460,128,0,13660:0:0:0:0:
192,192,13560,1,0,0:0:0:0:
64,192,13660,128,0,13860:0:0:0:0:
320,192,13760,1,0,0:0:0:0:
192,192,13810,1,0,0:0:0:0:
448,192,13860,1,0,0:0:0:0:
320,192,13860,1,0,0:0:0:0:
192,192,13960,1,0,0:0:0:0:
64,192,14060,1,0,0:0:0:0:
448,192,14160,1,0,0:0:0:0:
320,192,14260,1,0,0:0:0:0:
192,192,14260,1,0,0:0:0:0:
64,192,14360,1,0,0:0:0:0:
448,192,14460,1,0,0:0:0:0:
320,192,14460,1,0,0:0:0:0:
192,192,14560,1,0,0:0:0:0:
64,192,14660,1,0,0:0:0:0:
448,192,14660,1,0,0:0:0:0:
320,192,14760,1,0,0:0:0:0:
192,192,14760,1,0,0:0:0:0:
448,192,14860,1,0,0:0:0:0:
320,192,14960,1,0,0:0:0:0:
64,192,14960,1,0,0:0:0:0:
192,192,15060,1,0,0:0:0:0:
448,192,15060,1,0,0:0:0:0:
64,192,15160,1,0,0:0:0:0:
320,192,15260,1,0,0:0:0:0:
192,192,15360,1,0,0:0:0:0:
64,192,15410,1,0,0:0:0:0:
320,192,15460,1,0,0:0:0:0:
448,192,15460,1,0,0:0:0:0:
192,192,15560,1,0,0:0:0:0:
448,192,15660,1,0,0:0:0:0:
64,192,15760,1,0,0:0:0:0:
320,192,15860,1,0,0:0:0:0:
192,192,15860,1,0,0:0:0:0:
448,192,15960,1,0,0:0:0:0:
320,192,16060,1,0,0:0:0:0:
64,192,16060,1,0,0:0:0:0:
192,192,16160,1,0,0:0:0:0:
320,192,16260,1,0,0:0:0:0:
448,192,16260,1,0,0:0:0:0:
192,192,16360,1,0,0:0:0:0:
64,192,16360,1,0,0:0:0:0:
448,192,16460,1,0,0:0:0:0:
320,192,16560,1,0,0:0:0:0:
192,192,16560,1,0,0:0:0:0:
448,192,16660,1,0,0:0:0:0:
64,192,16660,1,0,0:0:0:0:
192,192,16760,1,0,0:0:0:0:
320,192,16860,1,0,0:0:0:0:
64,192,16960,1,0,0:0:0:0:
448,192,17010,1,0,0:0:0:0:
192,192,17060,1,0,0:0:0:0:
320,192,17060,1,0,0:0:0:0:
64,192,17160,1,0,0:0:0:0:
448,192,17260,1,0,0:0:0:0:
320,192,17360,1,0,0:0:0:0:
192,192,17460,1,0,0:0:0:0:
64,192,17460,1,0,0:0:0:0:
320,192,17560,1,0,0:0:0:0:
448,192,17660,1,0,0:0:0:0:
64,192,17660,1,0,0:0:0:0:
192,192,17760,1,0,0:0:0:0:
320,192,17860,1,0,0:0:0:0:
448,192,17860,1,0,0:0:0:0:
64,192,17960,1,0,0:0:0:0:
192,192,17960,1,0,0:0:0:0:
320,192,18060,1,0,0:0:0:0:
448,192,18160,1,0,0:0:0:0:
64,192,18160,1,0,0:0:0:0:
320,192,18260,1,0,0:0:0:0:
192,192,18260,1,0,0:0:0:0:
64,192,18360,1,0,0:0:0:0:
448,192,18460,1,0,0:0:0:0:
192,192,18560,1,0,0:0:0:0:
320,192,18610,1,0,0:0:0:0:
448,192,18660,1,0,0:0:0:0:
64,192,18660,1,0,0:0:0:0:
192,192,18760,1,0,0:0:0:0:
320,192,18860,1,0,0:0:0:0:
448,192,18960,1,0,0:0:0:0:
192,192,19060,1,0,0:0:0:0:
64,192,19060,1,0,0:0:0:0:
320,192,19160,1,0,0:0:0:0:
448,192,19260,1,0,0:0:0:0:
192,192,19260,1,0,0:0:0:0:
64,192,19360,1,0,0:0:0:0:
320,192,19460,1,0,0:0:0:0:
192,192,19460,1,0,0:0:0:0:
448,192,19560,1,0,0:0:0:0:
64,192,19560,1,0,0:0:0:0:
192,192,19660,1,0,0:0:0:0:
320,192,19760,1,0,0:0:0:0:
448,192,19760,1,0,0:0:0:0:
192,192,19860,128,0,20060:0:0:0:0:
64,192,19860,1,0,0:0:0:0:
448,192,19960,1,0,0:0:0:0:
320,192,20060,128,0,20260:0:0:0:0:
64,192,20160,1,0,0:0:0:0:
448,192,20210,1,0,0:0:0:0:
64,192,20260,1,0,0:0:0:0:
192,192,20260,1,0,0:0:0:0:
320,192,20360,1,0,0:0:0:0:
448,192,20460,1,0,0:0:0:0:
192,192,20560,1,0,0:0:0:0:
64,192,20660,1,0,0:0:0:0:
320,192,20660,1,0,0:0:0:0:
448,192,20760,1,0,0:0:0:0:
320,192,20860,1,0,0:0:0:0:
192,192,20860,1,0,0:0:0:0:
64,192,20960,1,0,0:0:0:0:
192,192,21060,1,0,0:0:0:0:
448,192,21060,1,0,0:0:0:0:
320,192,21160,1,0,0:0:0:0:
64,192,21160,1,0,0:0:0:0:
192,192,21260,1,0,0:0:0:0:
448,192,21360,1,0,0:0:0:0:
64,192,21360,1,0,0:0:0:0:
192,192,21460,1,0,0:0:0:0:
320,192,21460,1,0,0:0:0:0:
448,192,21560,1,0,0:0:0:0:
192,192,21660,1,0,0:0:0:0:
320,192,21760,1,0,0:0:0:0:
64,192,21810,1,0,0:0:0:0:
448,192,21860,1,0,0:0:0:0:
192,192,21860,1,0,0:0:0:0:
320,192,21960,1,0,0:0:0:0:
64,192,22060,1,0,0:0:0:0:
192,192,22160,1,0,0:0:0:0:
320,192,22260,1,0,0:0:0:0:
448,192,22260,1,0,0:0:0:0:
192,192,22360,1,0,0:0:0:0:
64,192,22460,1,0,0:0:0:0:
448,192,22460,1,0,0:0:0:0:
320,192,22560,1,0,0:0:0:0:
192,192,22660,1,0,0:0:0:0:
64,192,22660,1,0,0:0:0:0:
320,192,22760,1,0,0:0:0:0:
448,192,22760,1,0,0:0:0:0:
192,192,22860,1,0,0:0:0:0:
320,192,22960,1,0,0:0:0:0:
64,192,22960,1,0,0:0:0:0:
192,192,23060,1,0,0:0:0:0:
448,192,23060,1,0,0:0:0:0:
64,192,23160,1,0,0:0:0:0:
320,192,23260,1,0,0:0:0:0:
192,192,23360,1,0,0:0:0:0:
448,192,23410,1,0,0:0:0:0:
64,192,23460,1,0,0:0:0:0:
320,192,23460,1,0,0:0:0:0:
192,192,23560,1,0,0:0:0:0:
448,192,23660,1,0,0:0:0:0:
64,192,23760,1,0,0:0:0:0:
192,192,23860,1,0,0:0:0:0:
320,192,23860,1,0,0:0:0:0:
448,192,23960,1,0,0:0:0:0:
320,192,24060,1,0,0:0:0:0:
64,192,24060,1,0,0:0:0:0:
192,192,24160,1,0,0:0:0:0:
320,192,24260,1,0,0:0:0:0:
448,192,24260,1,0,0:0:0:0:
192,192,24360,1,0,0:0:0:0:
64,192,24360,1,0,0:0:0:0:
448,192,24460,1,0,0:0:0:0:
320,192,24560,1,0,0:0:0:0:
64,192,24560,1,0,0:0:0:0:
192,192,24660,1,0,0:0:0:0:
448,192,24660,1,0,0:0:0:0:
64,192,24760,1,0,0:0:0:0:
192,192,24860,1,0,0:0:0:0:
320,192,24960,1,0,0:0:0:0:
448,192,25010,1,0,0:0:0:0:
64,192,25060,1,0,0:0:0:0:
192,192,25060,1,0,0:0:0:0:
320,192,25160,1,0,0:0:0:0:
448,192,25260,1,0,0:0:0:0:
64,192,25360,1,0,0:0:0:0:
192,192,25460,1,0,0:0:0:0:
448,192,25460,1,0,0:0:0:0:
320,192,25560,1,0,0:0:0:0:
64,192,25660,1,0,0:0:0:0:
192,192,25660,1,0,0:0:0:0:
448,192,25760,1,0,0:0:0:0:
320,192,25860,1,0,0:0:0:0:
64,192,25860,1,0,0:0:0:0:
192,192,25960,1,0,0:0:0:0:
448,192,25960,1,0,0:0:0:0:
64,192,26060,1,0,0:0:0:0:
192,192,26160,1,0,0:0:0:0:
448,192,26160,1,0,0:0:0:0:
64,192,26260,1,0,0:0:0:0:
320,192,26260,128,0,26460:0:0:0:0:
448,192,26360,1,0,0:0:0:0:
192,192,26460,128,0,26660:0:0:0:0:
448,192,26560,1,0,0:0:0:0:
320,192,26610,1,0,0:0:0:0:
448,192,26660,1,0,0:0:0:0:
64,192,26660,1,0,0:0:0:0:
192,192,26760,1,0,0:0:0:0:
320,192,26860,1,0,0:0:0:0:
448,192,26960,1,0,0:0:0:0:
192,192,27060,1,0,0:0:0:0:
64,192,27060,1,0,0:0:0:0:
320,192,27160,1,0,0:0:0:0:
448,192,27260,1,0,0:0:0:0:
192,192,27260,1,0,0:0:0:0:
64,192,27360,1,0,0:0:0:0:
192,192,27460,1,0,0:0:0:0:
320,192,27460,1,0,0:0:0:0:
64,192,27560,1,0,0:0:0:0:
448,192,27560,1,0,0:0:0:0:
320,192,27660,1,0,0:0:0:0:
192,192,27760,1,0,0:0:0:0:
64,192,27760,1,0,0:0:0:0:
320,192,27860,1,0,0:0:0:0:
448,192,27860,1,0,0:0:0:0:
192,192,27960,1,0,0:0:0:0:
64,192,28060,1,0,0:0:0:0:
320,192,28160,1,0,0:0:0:0:
192,192,28210,1,0,0:0:0:0:
448,192,28260,1,0,0:0:0:0:
64,192,28260,1,0,0:0:0:0:
320,192,28360,1,0,0:0:0:0:
192,192,28460,1,0,0:0:0:0:
448,192,28560,1,0,0:0:0:0:
320,192,28660,1,0,0:0:0:0:
64,192,28660,1,0,0:0:0:0:
192,192,28760,1,0,0:0:0:0:
320,192,28860,1,0,0:0:0:0:
448,192,28860,1,0,0:0:0:0:
64,192,28960,1,0,0:0:0:0:
192,192,29060,1,0,0:0:0:0:
448,192,29060,1,0,0:0:0:0:
320,192,29160,1,0,0:0:0:0:
64,192,29160,1,0,0:0:0:0:
448,192,29260,1,0,0:0:0:0:
320,192,29360,1,0,0:0:0:0:
192,192,29360,1,0,0:0:0:0:
64,192,29460,1,0,0:0:0:0:
448,192,29460,1,0,0:0:0:0:
192,192,29560,1,0,0:0:0:0:
320,192,29660,1,0,0:0:0:0:
64,192,29760,1,0,0:0:0:0:
192,192,29810,1,0,0:0:0:0:
320,192,29860,1,0,0:0:0:0:
448,192,29860,1,0,0:0:0:0:
64,192,29960,1,0,0:0:0:0:
192,192,30060,1,0,0:0:0:0:
320,192,30160,1,0,0:0:0:0:
448,192,30260,1,0,0:0:0:0:
64,192,30260,1,0,0:0:0:0:
192,192,30360,1,0,0:0:0:0:
320,192,30460,1,0,0:0:0:0:
448,192,30460,1,0,0:0:0:0:
192,192,30560,1,0,0:0:0:0:
64,192,30660,1,0,0:0:0:0:
448,192,30660,1,0,0:0:0:0:
320,192,30760,1,0,0:0:0:0:
192,192,30760,1,0,0:0:0:0:
64,192,30860,1,0,0:0:0:0:
320,192,30960,1,0,0:0:0:0:
448,192,30960,1,0,0:0:0:0:
192,192,31060,1,0,0:0:0:0:
64,192,31060,1,0,0:0:0:0:
448,192,31160,1,0,0:0:0:0:
320,192,31260,1,0,0:0:0:0:
64,192,31360,1,0,0:0:0:0:
192,192,31460,1,0,0:0:0:0:
448,192,31460,1,0,0:0:0:0:
320,192,31560,1,0,0:0:0:0:
448,192,31660,1,0,0:0:0:0:
192,192,31760,1,0,0:0:0:0:
320,192,31860,1,0,0:0:0:0:
64,192,31860,1,0,0:0:0:0:
448,192,31960,1,0,0:0:0:0:
64,192,32060,1,0,0:0:0:0:
192,192,32110,1,0,0:0:0:0:
320,192,32160,1,0,0:0:0:0:
448,192,32210,1,0,0:0:0:0:
192,192,32260,1,0,0:0:0:0:
64,192,32260,1,0,0:0:0:0:
64,192,32460,1,0,0:0:0:0:
448,192,32460,1,0,0:0:0:0:
320,192,32560,1,0,0:0:0:0:
192,192,32560,1,0,0:0:0:0:
64,192,32660,1,0,0:0:0:0:
448,192,32660,1,0,0:0:0:0:
320,192,32760,1,0,0:0:0:0:
192,192,32760,1,0,0:0:0:0:
64,192,32860,1,0,0:0:0:0:
448,192,32860,1,0,0:0:0:0:
448,192,33060,1,0,0:0:0:0:
64,192,33060,1,0,0:0:0:0:
192,192,33060,1,0,0:0:0:0:
320,192,33160,1,0,0:0:0:0:
192,192,33260,1,0,0:0:0:0:
64,192,33260,1,0,0:0:0:0:
320,192,33360,1,0,0:0:0:0:
448,192,33360,1,0,0:0:0:0:
64,192,33460,1,0,0:0:0:0:
192,192,33560,1,0,0:0:0:0:
448,192,33660,1,0,0:0:0:0:
64,192,33660,1,0,0:0:0:0:
320,192,33760,1,0,0:0:0:0:
64,192,33860,1,0,0:0:0:0:
192,192,33860,1,0,0:0:0:0:
320,192,33960,1,0,0:0:0:0:
448,192,33960,1,0,0:0:0:0:
192,192,34060,1,0,0:0:0:0:
64,192,34060,1,0,0:0:0:0:
320,192,34160,1,0,0:0:0:0:
448,192,34160,1,0,0:0:0:0:
64,192,34260,1,0,0:0:0:0:
192,192,34360,1,0,0:0:0:0:
320,192,34360,1,0,0:0:0:0:
64,192,34460,1,0,0:0:0:0:
448,192,34460,1,0,0:0:0:0:
320,192,34560,1,0,0:0:0:0:
192,192,34560,1,0,0:0:0:0:
448,192,34660,1,0,0:0:0:0:
320,192,34760,1,0,0:0:0:0:
192,192,34860,1,0,0:0:0:0:
64,192,34860,1,0,0:0:0:0:
320,192,34960,1,0,0:0:0:0:
448,192,34960,1,0,0:0:0:0:
192,192,35060,1,0,0:0:0:0:
64,192,35160,1,0,0:0:0:0:
320,192,35260,1,0,0:0:0:0:
448,192,35260,1,0,0:0:0:0:
192,192,35360,1,0,0:0:0:0:
64,192,35460,1,0,0:0:0:0:
320,192,35460,1,0,0:0:0:0:
448,192,35560,1,0,0:0:0:0:
320,192,35660,1,0,0:0:0:0:
64,192,35660,1,0,0:0:0:0:
448,192,35760,1,0,0:0:0:0:
192,192,35760,1,0,0:0:0:0:
64,192,35860,1,0,0:0:0:0:
320,192,35960,1,0,0:0:0:0:
448,192,35960,1,0,0:0:0:0:
192,192,36060,1,0,0:0:0:0:
64,192,36060,1,0,0:0:0:0:
320,192,36160,1,0,0:0:0:0:
448,192,36160,1,0,0:0:0:0:
64,192,36260,1,0,0:0:0:0:
192,192,36360,1,0,0:0:0:0:
320,192,36460,1,0,0:0:0:0:
448,192,36460,1,0,0:0:0:0:
192,192,36560,1,0,0:0:0:0:
64,192,36560,1,0,0:0:0:0:
320,192,36660,1,0,0:0:0:0:
64,192,36760,1,0,0:0:0:0:
192,192,36860,1,0,0:0:0:0:
448,192,36860,1,0,0:0:0:0:
320,192,36960,1,0,0:0:0:0:
192,192,37060,1,0,0:0:0:0:
64,192,37060,1,0,0:0:0:0:
448,192,37160,1,0,0:0:0:0:
320,192,37260,1,0,0:0:0:0:
192,192,37260,1,0,0:0:0:0:
64,192,37360,1,0,0:0:0:0:
448,192,37360,1,0,0:0:0:0:
192,192,37460,1,0,0:0:0:0:
320,192,37560,1,0,0:0:0:0:
448,192,37560,1,0,0:0:0:0:
192,192,37660,1,0,0:0:0:0:
64,192,37660,1,0,0:0:0:0:
320,192,37760,1,0,0:0:0:0:
448,192,37760,1,0,0:0:0:0:
64,192,37860,1,0,0:0:0:0:
192,192,37960,1,0,0:0:0:0:
320,192,38060,1,0,0:0:0:0:
64,192,38060,1,0,0:0:0:0:
192,192,38160,1,0,0:0:0:0:
448,192,38160,1,0,0:0:0:0:
320,192,38260,1,0,0:0:0:0:
64,192,38360,1,0,0:0:0:0:
192,192,38360,1,0,0:0:0:0:
320,192,38460,1,0,0:0:0:0:
448,192,38460,1,0,0:0:0:0:
192,192,38560,1,0,0:0:0:0:
64,192,38560,1,0,0:0:0:0:
320,192,38660,1,0,0:0:0:0:
448,192,38660,1,0,0:0:0:0:
192,192,38760,1,0,0:0:0:0:
64,192,38860,1,0,0:0:0:0:
448,192,38860,1,0,0:0:0:0:
320,192,38960,1,0,0:0:0:0:
192,192,38960,1,0,0:0:0:0:
448,192,39060,128,0,39260:0:0:0:0:
64,192,39060,1,0,0:0:0:0:
192,192,39160,1,0,0:0:0:0:
320,192,39260,1,0,0:0:0:0:
64,192,39260,1,0,0:0:0:0:
448,192,39360,1,0,0:0:0:0:
192,192,39360,1,0,0:0:0:0:
320,192,39460,1,0,0:0:0:0:
64,192,39460,1,0,0:0:0:0:
448,192,39560,1,0,0:0:0:0:
192,192,39660,1,0,0:0:0:0:
64,192,39660,1,0,0:0:0:0:
320,192,39760,1,0,0:0:0:0:
448,192,39760,1,0,0:0:0:0:
64,192,39860,1,0,0:0:0:0:
192,192,39960,1,0,0:0:0:0:
448,192,40060,1,0,0:0:0:0:
320,192,40060,1,0,0:0:0:0:
192,192,40160,1,0,0:0:0:0:
448,192,40260,1,0,0:0:0:0:
64,192,40260,1,0,0:0:0:0:
320,192,40360,1,0,0:0:0:0:
192,192,40360,1,0,0:0:0:0:
64,192,40460,1,0,0:0:0:0:
448,192,40460,1,0,0:0:0:0:
320,192,40560,1,0,0:0:0:0:
192,192,40560,1,0,0:0:0:0:
448,192,40660,1,0,0:0:0:0:
192,192,40760,1,0,0:0:0:0:
64,192,40760,1,0,0:0:0:0:
320,192,40860,1,0,0:0:0:0:
448,192,40860,1,0,0:0:0:0:
192,192,40960,1,0,0:0:0:0:
64,192,40960,1,0,0:0:0:0:
448,192,41060,1,0,0:0:0:0:
320,192,41160,1,0,0:0:0:0:
64,192,41260,1,0,0:0:0:0:
448,192,41260,1,0,0:0:0:0:
320,192,41360,1,0,0:0:0:0:
192,192,41360,1,0,0:0:0:0:
64,192,41460,1,0,0:0:0:0:
320,192,41560,1,0,0:0:0:0:
448,192,41660,1,0,0:0:0:0:
192,192,41660,1,0,0:0:0:0:
64,192,41760,1,0,0:0:0:0:
320,192,41860,1,0,0:0:0:0:
192,192,41860,1,0,0:0:0:0:
448,192,41960,1,0,0:0:0:0:
320,192,42060,1,0,0:0:0:0:
64,192,42060,1,0,0:0:0:0:
192,192,42160,1,0,0:0:0:0:
448,192,42160,1,0,0:0:0:0:
320,192,42260,1,0,0:0:0:0:
192,192,42360,1,0,0:0:0:0:
64,192,42360,1,0,0:0:0:0:
320,192,42460,1,0,0:0:0:0:
448,192,42460,1,0,0:0:0:0:
192,192,42560,1,0,0:0:0:0:
64,192,42560,1,0,0:0:0:0:
448,192,42660,1,0,0:0:0:0:
320,192,42760,1,0,0:0:0:0:
192,192,42860,1,0,0:0:0:0:
64,192,42860,1,0,0:0:0:0:
320,192,42960,1,0,0:0:0:0:
448,192,42960,1,0,0:0:0:0:
192,192,43060,1,0,0:0:0:0:
448,192,43160,1,0,0:0:0:0:
192,192,43260,1,0,0:0:0:0:
64,192,43260,1,0,0:0:0:0:
320,192,43360,1,0,0:0:0:0:
448,192,43460,1,0,0:0:0:0:
64,192,43460,1,0,0:0:0:0:
192,192,43560,1,0,0:0:0:0:
320,192,43660,1,0,0:0:0:0:
448,192,43660,1,0,0:0:0:0:
192,192,43760,1,0,0:0:0:0:
64,192,43760,1,0,0:0:0:0:
320,192,43860,1,0,0:0:0:0:
448,192,43960,1,0,0:0:0:0:
192,192,43960,1,0,0:0:0:0:
320,192,44060,1,0,0:0:0:0:
64,192,44060,1,0,0:0:0:0:
192,192,44160,1,0,0:0:0:0:
448,192,44160,1,0,0:0:0:0:
64,192,44260,1,0,0:0:0:0:
320,192,44360,1,0,0:0:0:0:
192,192,44460,1,0,0:0:0:0:
448,192,44460,1,0,0:0:0:0:
320,192,44560,1,0,0:0:0:0:
64,192,44560,1,0,0:0:0:0:
192,192,44660,1,0,0:0:0:0:
320,192,44760,1,0,0:0:0:0:
448,192,44860,1,0,0:0:0:0:
64,192,44860,1,0,0:0:0:0:
192,192,44960,1,0,0:0:0:0:
320,192,45060,1,0,0:0:0:0:
448,192,45060,1,0,0:0:0:0:
64,192,45160,1,0,0:0:0:0:
320,192,45260,1,0,0:0:0:0:
192,192,45260,1,0,0:0:0:0:
64,192,45360,1,0,0:0:0:0:
448,192,45360,1,0,0:0:0:0:
320,192,45460,1,0,0:0:0:0:
192,192,45460,128,0,45660:0:0:0:0:
64,192,45560,1,0,0:0:0:0:
320,192,45660,1,0,0:0:0:0:
448,192,45660,1,0,0:0:0:0:
64,192,45760,1,0,0:0:0:0:
192,192,45760,1,0,0:0:0:0:
320,192,45860,1,0,0:0:0:0:
448,192,45860,1,0,0:0:0:0:
192,192,45960,1,0,0:0:0:0:
64,192,46060,1,0,0:0:0:0:
448,192,46060,1,0,0:0:0:0:
320,192,46160,1,0,0:0:0:0:
192,192,46160,1,0,0:0:0:0:
448,192,46260,1,0,0:0:0:0:
64,192,46360,1,0,0:0:0:0:
192,192,46460,1,0,0:0:0:0:
320,192,46460,1,0,0:0:0:0:
448,192,46560,1,0,0:0:0:0:
192,192,46660,1,0,0:0:0:0:
64,192,46660,1,0,0:0:0:0:
320,192,46760,1,0,0:0:0:0:
448,192,46760,1,0,0:0:0:0:
192,192,46860,1,0,0:0:0:0:
64,192,46860,1,0,0:0:0:0:
320,192,46960,1,0,0:0:0:0:
448,192,46960,1,0,0:0:0:0:
192,192,47060,1,0,0:0:0:0:
448,192,47160,1,0,0:0:0:0:
64,192,47160,1,0,0:0:0:0:
320,192,47260,1,0,0:0:0:0:
192,192,47260,1,0,0:0:0:0:
64,192,47360,1,0,0:0:0:0:
448,192,47360,1,0,0:0:0:0:
320,192,47460,1,0,0:0:0:0:
192,192,47560,1,0,0:0:0:0:
64,192,47660,1,0,0:0:0:0:
320,192,47660,1,0,0:0:0:0:
448,192,47760,1,0,0:0:0:0:
192,192,47760,1,0,0:0:0:0:
320,192,47860,1,0,0:0:0:0:
64,192,47960,1,0,0:0:0:0:
192,192,48060,1,0,0:0:0:0:
448,192,48060,1,0,0:0:0:0:
320,192,48160,1,0,0:0:0:0:
192,192,48260,1,0,0:0:0:0:
64,192,48260,1,0,0:0:0:0:
448,192,48360,1,0,0:0:0:0:
320,192,48460,1,0,0:0:0:0:
192,192,48460,1,0,0:0:0:0:
64,192,48560,1,0,0:0:0:0:
448,192,48560,1,0,0:0:0:0:
320,192,48660,1,0,0:0:0:0:
192,192,48760,1,0,0:0:0:0:
64,192,48760,1,0,0:0:0:0:
320,192,48860,1,0,0:0:0:0:
448,192,48860,1,0,0:0:0:0:
192,192,48960,1,0,0:0:0:0:
64,192,48960,1,0,0:0:0:0:
320,192,49060,1,0,0:0:0:0:
448,192,49160,1,0,0:0:0:0:
64,192,49260,1,0,0:0:0:0:
192,192,49260,1,0,0:0:0:0:
320,192,49360,1,0,0:0:0:0:
448,192,49360,1,0,0:0:0:0:
192,192,49460,1,0,0:0:0:0:
64,192,49560,1,0,0:0:0:0:
448,192,49660,1,0,0:0:0:0:
192,192,49660,1,0,0:0:0:0:
320,192,49760,1,0,0:0:0:0:
192,192,49860,1,0,0:0:0:0:
64,192,49860,1,0,0:0:0:0:
320,192,49960,1,0,0:0:0:0:
448,192,50060,1,0,0:0:0:0:
192,192,50060,1,0,0:0:0:0:
64,192,50160,1,0,0:0:0:0:
320,192,50160,1,0,0:0:0:0:
448,192,50260,1,0,0:0:0:0:
192,192,50360,1,0,0:0:0:0:
320,192,50360,1,0,0:0:0:0:
64,192,50460,1,0,0:0:0:0:
448,192,50460,1,0,0:0:0:0:
320,192,50560,1,0,0:0:0:0:
192,192,50560,1,0,0:0:0:0:
64,192,50660,1,0,0:0:0:0:
448,192,50760,1,0,0:0:0:0:
320,192,50860,1,0,0:0:0:0:
192,192,50860,1,0,0:0:0:0:
64,192,50960,1,0,0:0:0:0:
448,192,50960,1,0,0:0:0:0:
192,192,51060,1,0,0:0:0:0:
320,192,51160,1,0,0:0:0:0:
448,192,51260,1,0,0:0:0:0:
64,192,51260,1,0,0:0:0:0:
192,192,51360,1,0,0:0:0:0:
320,192,51460,1,0,0:0:0:0:
448,192,51460,1,0,0:0:0:0:
64,192,51560,1,0,0:0:0:0:
320,192,51660,1,0,0:0:0:0:
448,192,51660,1,0,0:0:0:0:
192,192,51760,1,0,0:0:0:0:
64,192,51760,1,0,0:0:0:0:
448,192,51860,1,0,0:0:0:0:
320,192,51860,128,0,52060:0:0:0:0:
192,192,51960,1,0,0:0:0:0:
64,192,52060,1,0,0:0:0:0:
448,192,52060,1,0,0:0:0:0:
320,192,52160,1,0,0:0:0:0:
192,192,52160,1,0,0:0:0:0:
64,192,52260,1,0,0:0:0:0:
448,192,52260,1,0,0:0:0:0:
192,192,52360,1,0,0:0:0:0:
320,192,52460,1,0,0:0:0:0:
448,192,52460,1,0,0:0:0:0:
192,192,52560,1,0,0:0:0:0:
64,192,52560,1,0,0:0:0:0:
320,192,52660,1,0,0:0:0:0:
448,192,52760,1,0,0:0:0:0:
192,192,52860,1,0,0:0:0:0:
320,192,52860,1,0,0:0:0:0:
64,192,52960,1,0,0:0:0:0:
320,192,53060,1,0,0:0:0:0:
448,192,53060,1,0,0:0:0:0:
192,192,53160,1,0,0:0:0:0:
64,192,53160,1,0,0:0:0:0:
448,192,53260,1,0,0:0:0:0:
320,192,53260,1,0,0:0:0:0:
192,192,53360,1,0,0:0:0:0:
64,192,53360,1,0,0:0:0:0:
448,192,53460,1,0,0:0:0:0:
320,192,53560,1,0,0:0:0:0:
192,192,53560,1,0,0:0:0:0:
64,192,53660,1,0,0:0:0:0:
448,192,53660,1,0,0:0:0:0:
320,192,53760,1,0,0:0:0:0:
192,192,53760,1,0,0:0:0:0:
64,192,53860,1,0,0:0:0:0:
320,192,53960,1,0,0:0:0:0:
192,192,54060,1,0,0:0:0:0:
448,192,54060,1,0,0:0:0:0:
320,192,54160,1,0,0:0:0:0:
64,192,54160,1,0,0:0:0:0:
192,192,54260,1,0,0:0:0:0:
320,192,54360,1,0,0:0:0:0:
448,192,54460,1,0,0:0:0:0:
64,192,54460,1,0,0:0:0:0:
192,192,54560,1,0,0:0:0:0:
320,192,54660,1,0,0:0:0:0:
448,192,54660,1,0,0:0:0:0:
64,192,54760,1,0,0:0:0:0:
192,192,54860,1,0,0:0:0:0:
320,192,54860,1,0,0:0:0:0:
448,192,54960,1,0,0:0:0:0:
64,192,54960,1,0,0:0:0:0:
320,192,55060,1,0,0:0:0:0:
192,192,55160,1,0,0:0:0:0:
64,192,55160,1,0,0:0:0:0:
320,192,55260,1,0,0:0:0:0:
448,192,55260,1,0,0:0:0:0:
192,192,55360,1,0,0:0:0:0:
64,192,55360,1,0,0:0:0:0:
448,192,55460,1,0,0:0:0:0:
320,192,55560,1,0,0:0:0:0:
64,192,55660,1,0,0:0:0:0:
192,192,55660,1,0,0:0:0:0:
320,192,55760,1,0,0:0:0:0:
448,192,55760,1,0,0:0:0:0:
192,192,55860,1,0,0:0:0:0:
448,192,55960,1,0,0:0:0:0:
320,192,56060,1,0,0:0:0:0:
64,192,56060,1,0,0:0:0:0:
192,192,56160,1,0,0:0:0:0:
320,192,56260,1,0,0:0:0:0:
448,192,56260,1,0,0:0:0:0:
64,192,56360,1,0,0:0:0:0:
320,192,56460,1,0,0:0:0:0:
448,192,56460,1,0,0:0:0:0:
192,192,56560,1,0,0:0:0:0:
64,192,56560,1,0,0:0:0:0:
448,192,56660,1,0,0:0:0:0:
320,192,56760,1,0,0:0:0:0:
192,192,56760,1,0,0:0:0:0:
64,192,56860,1,0,0:0:0:0:
448,192,56860,1,0,0:0:0:0:
320,192,56960,1,0,0:0:0:0:
192,192,56960,1,0,0:0:0:0:
64,192,57060,1,0,0:0:0:0:
448,192,57060,1,0,0:0:0:0:
320,192,57160,1,0,0:0:0:0:
192,192,57260,1,0,0:0:0:0:
64,192,57260,1,0,0:0:0:0:
320,192,57360,1,0,0:0:0:0:
448,192,57360,1,0,0:0:0:0:
192,192,57460,1,0,0:0:0:0:
64,192,57560,1,0,0:0:0:0:
448,192,57660,1,0,0:0:0:0:
320,192,57660,1,0,0:0:0:0:
192,192,57760,1,0,0:0:0:0:
64,192,57860,1,0,0:0:0:0:
448,192,57860,1,0,0:0:0:0:
320,192,57960,1,0,0:0:0:0:
192,192,58060,1,0,0:0:0:0:
64,192,58060,1,0,0:0:0:0:
320,192,58160,1,0,0:0:0:0:
448,192,58160,1,0,0:0:0:0:
64,192,58260,128,0,58460:0:0:0:0:
192,192,58260,1,0,0:0:0:0:
320,192,58360,1,0,0:0:0:0:
448,192,58460,1,0,0:0:0:0:
192,192,58460,1,0,0:0:0:0:
64,192,58560,1,0,0:0:0:0:
320,192,58560,1,0,0:0:0:0:
192,192,58660,1,0,0:0:0:0:
448,192,58660,1,0,0:0:0:0:
64,192,58660,1,0,0:0:0:0:
448,192,59260,1,0,0:0:0:0:
320,192,59310,1,0,0:0:0:0:
192,192,59360,1,0,0:0:0:0:
64,192,59410,1,0,0:0:0:0:
320,192,59460,1,0,0:0:0:0:
448,192,59460,1,0,0:0:0:0:
192,192,59660,1,0,0:0:0:0:
320,192,59660,1,0,0:0:0:0:
448,192,59760,1,0,0:0:0:0:
64,192,59760,1,0,0:0:0:0:
320,192,59960,1,0,0:0:0:0:
448,192,59960,1,0,0:0:0:0:
192,192,60060,1,0,0:0:0:0:
64,192,60060,1,0,0:0:0:0:
448,192,60260,1,0,0:0:0:0:
320,192,60260,1,0,0:0:0:0:
64,192,60260,1,0,0:0:0:0:
192,192,60460,1,0,0:0:0:0:
320,192,60660,1,0,0:0:0:0:
64,192,60860,1,0,0:0:0:0:
192,192,61060,1,0,0:0:0:0:
320,192,61260,1,0,0:0:0:0:
64,192,61460,1,0,0:0:0:0:
192,192,61660,1,0,0:0:0:0:
448,192,61860,1,0,0:0:0:0:
64,192,62060,1,0,0:0:0:0:
320,192,62260,1,0,0:0:0:0:
448,192,62460,1,0,0:0:0:0:
64,192,62660,1,0,0:0:0:0:
320,192,62860,1,0,0:0:0:0:
448,192,63060,1,0,0:0:0:0:
320,192,63260,1,0,0:0:0:0:
64,192,63460,1,0,0:0:0:0:
192,192,63660,1,0,0:0:0:0:
320,192,63860,1,0,0:0:0:0:
64,192,64060,1,0,0:0:0:0:
192,192,64260,1,0,0:0:0:0:
320,192,64460,1,0,0:0:0:0:
64,192,64660,1,0,0:0:0:0:
192,192,64860,1,0,0:0:0:0:
448,192,65060,1,0,0:0:0:0:
64,192,65260,1,0,0:0:0:0:
320,192,65460,1,0,0:0:0:0:
448,192,65660,1,0,0:0:0:0:
64,192,65860,1,0,0:0:0:0:
320,192,66060,1,0,0:0:0:0:
448,192,66260,1,0,0:0:0:0:
320,192,66460,1,0,0:0:0:0:
64,192,66660,1,0,0:0:0:0:
192,192,66860,1,0,0:0:0:0:
448,192,67060,1,0,0:0:0:0:
64,192,67260,1,0,0:0:0:0:
192,192,67460,1,0,0:0:0:0:
448,192,67660,1,0,0:0:0:0:
64,192,67860,1,0,0:0:0:0:
192,192,68060,1,0,0:0:0:0:
64,192,68260,1,0,0:0:0:0:
192,192,68460,1,0,0:0:0:0:
320,192,68660,1,0,0:0:0:0:
64,192,68860,1,0,0:0:0:0:
192,192,69060,1,0,0:0:0:0:
448,192,69260,1,0,0:0:0:0:
64,192,69460,1,0,0:0:0:0:
320,192,69660,1,0,0:0:0:0:
64,192,69860,1,0,0:0:0:0:
192,192,70060,1,0,0:0:0:0:
320,192,70260,1,0,0:0:0:0:
64,192,70460,1,0,0:0:0:0:
192,192,70660,1,0,0:0:0:0:
320,192,70860,1,0,0:0:0:0:
64,192,71060,1,0,0:0:0:0:
192,192,71260,1,0,0:0:0:0:
448,192,71460,1,0,0:0:0:0:
64,192,71660,1,0,0:0:0:0:
192,192,71860,1,0,0:0:0:0:
320,192,72060,1,0,0:0:0:0:
448,192,72260,1,0,0:0:0:0:
320,192,72460,1,0,0:0:0:0:
64,192,72660,1,0,0:0:0:0:
192,192,72860,1,0,0:0:0:0:
320,192,73060,1,0,0:0:0:0:
448,192,73060,1,0,0:0:0:0:
64,192,73060,128,0,73260:0:0:0:0:
192,192,73260,128,0,73460:0:0:0:0:
320,192,73460,128,0,73660:0:0:0:0:
64,192,73660,128,0,73860:0:0:0:0:
192,192,73860,128,0,74060:0:0:0:0:
320,192,74060,128,0,74260:0:0:0:0:
64,192,74260,128,0,74460:0:0:0:0:
192,192,74460,128,0,74660:0:0:0:0:
448,192,74660,128,0,74860:0:0:0:0:
64,192,74860,128,0,75060:0:0:0:0:
320,192,75060,128,0,75260:0:0:0:0:
448,192,75260,128,0,75460:0:0:0:0:
64,192,75460,128,0,75660:0:0:0:0:
320,192,75660,128,0,75860:0:0:0:0:
448,192,75860,128,0,76060:0:0:0:0:
320,192,76060,128,0,76260:0:0:0:0:
64,192,76260,128,0,76460:0:0:0:0:
192,192,76460,128,0,76660:0:0:0:0:
320,192,76660,128,0,76860:0:0:0:0:
64,192,76860,128,0,77060:0:0:0:0:
192,192,77060,128,0,77260:0:0:0:0:
320,192,77260,128,0,77460:0:0:0:0:
64,192,77460,128,0,77660:0:0:0:0:
192,192,77660,128,0,77860:0:0:0:0:
448,192,77860,128,0,78060:0:0:0:0:
64,192,78060,128,0,78260:0:0:0:0:
320,192,78260,128,0,78460:0:0:0:0:
448,192,78460,128,0,78660:0:0:0:0:
64,192,78660,128,0,78860:0:0:0:0:
320,192,78860,128,0,79060:0:0:0:0:
448,192,79060,128,0,79260:0:0:0:0:
320,192,79260,128,0,79460:0:0:0:0:
64,192,79460,128,0,79660:0:0:0:0:
192,192,79660,128,0,79860:0:0:0:0:
448,192,79860,128,0,80060:0:0:0:0:
64,192,80060,128,0,80260:0:0:0:0:
192,192,80260,128,0,80460:0:0:0:0:
448,192,80460,128,0,80660:0:0:0:0:
64,192,80660,128,0,80860:0:0:0:0:
192,192,80860,128,0,81060:0:0:0:0:
64,192,81060,128,0,81260:0:0:0:0:
192,192,81260,128,0,81460:0:0:0:0:
320,192,81460,128,0,81660:0:0:0:0:
64,192,81660,128,0,81860:0:0:0:0:
192,192,81860,128,0,82060:0:0:0:0:
448,192,82060,128,0,82260:0:0:0:0:
64,192,82260,128,0,82460:0:0:0:0:
320,192,82460,128,0,82660:0:0:0:0:
64,192,82660,128,0,82860:0:0:0:0:
192,192,82860,128,0,83060:0:0:0:0:
320,192,83060,128,0,83260:0:0:0:0:
64,192,83260,128,0,83460:0:0:0:0:
192,192,83460,128,0,83660:0:0:0:0:
320,192,83660,128,0,83860:0:0:0:0:
64,192,83860,128,0,84060:0:0:0:0:
192,192,84060,128,0,84260:0:0:0:0:
448,192,84260,128,0,84460:0:0:0:0:
64,192,84460,128,0,84660:0:0:0:0:
192,192,84660,128,0,84860:0:0:0:0:
448,192,84860,1,0,0:0:0:0:
320,192,84910,1,0,0:0:0:0:
192,192,84960,1,0,0:0:0:0:
64,192,85010,1,0,0:0:0:0:
448,192,85060,128,0,85260:0:0:0:0:
320,192,85060,1,0,0:0:0:0:
320,192,85260,128,0,85460:0:0:0:0:
64,192,85260,1,0,0:0:0:0:
192,192,85360,1,0,0:0:0:0:
448,192,85360,1,0,0:0:0:0:
64,192,85460,1,0,0:0:0:0:
448,192,85560,1,0,0:0:0:0:
320,192,85560,1,0,0:0:0:0:
192,192,85660,128,0,85860:0:0:0:0:
64,192,85660,1,0,0:0:0:0:
320,192,85860,1,0,0:0:0:0:
448,192,85860,1,0,0:0:0:0:
64,192,85860,128,0,86060:0:0:0:0:
192,192,86060,128,0,86260:0:0:0:0:
320,192,86260,128,0,86460:0:0:0:0:
64,192,86460,128,0,86660:0:0:0:0:
192,192,86660,128,0,86860:0:0:0:0:
320,192,86860,128,0,87060:0:0:0:0:
64,192,87060,128,0,87260:0:0:0:0:
192,192,87260,128,0,87460:0:0:0:0:
448,192,87460,128,0,87660:0:0:0:0:
64,192,87660,128,0,87860:0:0:0:0:
320,192,87860,128,0,88060:0:0:0:0:
448,192,88060,128,0,88260:0:0:0:0:
64,192,88260,128,0,88460:0:0:0:0:
320,192,88460,128,0,88660:0:0:0:0:
448,192,88660,128,0,88860:0:0:0:0:
320,192,88860,128,0,89060:0:0:0:0:
64,192,89060,128,0,89260:0:0:0:0:
192,192,89260,128,0,89460:0:0:0:0:
320,192,89460,128,0,89660:0:0:0:0:
64,192,89660,128,0,89860:0:0:0:0:
192,192,89860,128,0,90060:0:0:0:0:
320,192,90060,128,0,90260:0:0:0:0:
64,192,90260,128,0,90460:0:0:0:0:
192,192,90460,128,0,90660:0:0:0:0:
448,192,90660,128,0,90860:0:0:0:0:
64,192,90860,128,0,91060:0:0:0:0:
320,192,91060,128,0,91260:0:0:0:0:
448,192,91260,128,0,91460:0:0:0:0:
64,192,91460,128,0,91660:0:0:0:0:
320,192,91660,128,0,91860:0:0:0:0:
448,192,91860,128,0,92060:0:0:0:0:
320,192,92060,128,0,92260:0:0:0:0:
64,192,92260,128,0,92460:0:0:0:0:
192,192,92460,128,0,92660:0:0:0:0:
448,192,92660,128,0,92860:0:0:0:0:
64,192,92860,128,0,93060:0:0:0:0:
192,192,93060,128,0,93260:0:0:0:0:
448,192,93260,128,0,93460:0:0:0:0:
64,192,93460,128,0,93660:0:0:0:0:
192,192,93660,128,0,93860:0:0:0:0:
64,192,93860,128,0,94060:0:0:0:0:
192,192,94060,128,0,94260:0:0:0:0:
320,192,94260,128,0,94460:0:0:0:0:
64,192,94460,128,0,94660:0:0:0:0:
192,192,94660,128,0,94860:0:0:0:0:
448,192,94860,128,0,95060:0:0:0:0:
64,192,95060,128,0,95260:0:0:0:0:
320,192,95260,128,0,95460:0:0:0:0:
64,192,95460,128,0,95660:0:0:0:0:
192,192,95660,128,0,95860:0:0:0:0:
320,192,95860,128,0,96060:0:0:0:0:
64,192,96060,128,0,96260:0:0:0:0:
192,192,96260,128,0,96460:0:0:0:0:
320,192,96460,128,0,96660:0:0:0:0:
64,192,96660,128,0,96860:0:0:0:0:
320,192,96860,128,0,97060:0:0:0:0:
448,192,97060,128,0,97260:0:0:0:0:
64,192,97260,128,0,97460:0:0:0:0:
192,192,97460,128,0,97660:0:0:0:0:
320,192,97660,128,0,97860:0:0:0:0:
448,192,97860,128,0,98060:0:0:0:0:
320,192,98060,128,0,98260:0:0:0:0:
64,192,98260,128,0,98460:0:0:0:0:
448,192,98260,1,0,0:0:0:0:
192,192,98460,128,0,98660:0:0:0:0:
320,192,98660,1,0,0:0:0:0:
448,192,98660,1,0,0:0:0:0:
64,192,98660,128,0,98860:0:0:0:0:
192,192,98860,128,0,99060:0:0:0:0:
320,192,99060,128,0,99260:0:0:0:0:
64,192,99260,128,0,99460:0:0:0:0:
192,192,99460,128,0,99660:0:0:0:0:
320,192,99660,128,0,99860:0:0:0:0:
64,192,99860,128,0,100060:0:0:0:0:
192,192,100060,128,0,100260:0:0:0:0:
448,192,100260,128,0,100460:0:0:0:0:
64,192,100460,128,0,100660:0:0:0:0:
320,192,100660,128,0,100860:0:0:0:0:
448,192,100860,128,0,101060:0:0:0:0:
64,192,101060,128,0,101260:0:0:0:0:
320,192,101260,128,0,101460:0:0:0:0:
448,192,101460,128,0,101660:0:0:0:0:
320,192,101660,128,0,101860:0:0:0:0:
64,192,101860,128,0,102060:0:0:0:0:
192,192,102060,128,0,102260:0:0:0:0:
320,192,102260,128,0,102460:0:0:0:0:
64,192,102460,128,0,102660:0:0:0:0:
192,192,102660,128,0,102860:0:0:0:0:
320,192,102860,128,0,103060:0:0:0:0:
64,192,103060,128,0,103260:0:0:0:0:
192,192,103260,128,0,103460:0:0:0:0:
448,192,103460,128,0,103660:0:0:0:0:
64,192,103660,128,0,103860:0:0:0:0:
320,192,103860,128,0,104060:0:0:0:0:
448,192,104060,128,0,104260:0:0:0:0:
64,192,104260,128,0,104460:0:0:0:0:
320,192,104460,128,0,104660:0:0:0:0:
448,192,104660,128,0,104860:0:0:0:0:
320,192,104860,128,0,105060:0:0:0:0:
64,192,105060,128,0,105260:0:0:0:0:
192,192,105260,128,0,105460:0:0:0:0:
448,192,105460,128,0,105660:0:0:0:0:
64,192,105660,128,0,105860:0:0:0:0:
192,192,105860,128,0,106060:0:0:0:0:
448,192,106060,128,0,106260:0:0:0:0:
64,192,106260,128,0,106460:0:0:0:0:
192,192,106460,128,0,106660:0:0:0:0:
64,192,106660,128,0,106860:0:0:0:0:
192,192,106860,128,0,107060:0:0:0:0:
320,192,107060,128,0,107260:0:0:0:0:
64,192,107260,128,0,107460:0:0:0:0:
192,192,107460,128,0,107660:0:0:0:0:
448,192,107660,128,0,107860:0:0:0:0:
64,192,107860,128,0,108060:0:0:0:0:
320,192,108060,128,0,108260:0:0:0:0:
64,192,108260,128,0,108460:0:0:0:0:
192,192,108460,128,0,108660:0:0:0:0:
320,192,108660,128,0,108860:0:0:0:0:
64,192,108860,128,0,109060:0:0:0:0:
192,192,109060,128,0,109260:0:0:0:0:
320,192,109260,128,0,109460:0:0:0:0:
64,192,109460,128,0,109660:0:0:0:0:
192,192,109660,128,0,109860:0:0:0:0:
448,192,109860,128,0,110060:0:0:0:0:
64,192,110060,128,0,110260:0:0:0:0:
192,192,110260,128,0,110460:0:0:0:0:
448,192,110460,1,0,0:0:0:0:
320,192,110510,1,0,0:0:0:0:
192,192,110560,1,0,0:0:0:0:
64,192,110610,1,0,0:0:0:0:
320,192,110660,1,0,0:0:0:0:
448,192,110660,128,0,110860:0:0:0:0:
320,192,110860,128,0,111060:0:0:0:0:
64,192,110860,1,0,0:0:0:0:
448,192,110960,1,0,0:0:0:0:
192,192,110960,1,0,0:0:0:0:
64,192,111060,1,0,0:0:0:0:
320,192,111160,1,0,0:0:0:0:
448,192,111160,1,0,0:0:0:0:
192,192,111260,128,0,111460:0:0:0:0:
64,192,111260,1,0,0:0:0:0:
448,192,111460,1,0,0:0:0:0:
64,192,111460,128,0,111660:0:0:0:0:
320,192,111460,128,0,111560:0:0:0:0:
448,192,111560,128,0,111660:0:0:0:0:
192,192,111660,128,0,111860:0:0:0:0:
448,192,111760,128,0,111860:0:0:0:0:
320,192,111860,128,0,112060:0:0:0:0:
64,192,111860,128,0,111960:0:0:0:0:
192,192,111960,128,0,112060:0:0:0:0:
64,192,112060,128,0,112260:0:0:0:0:
320,192,112160,128,0,112260:0:0:0:0:
192,192,112260,128,0,112460:0:0:0:0:
448,192,112260,128,0,112360:0:0:0:0:
64,192,112360,128,0,112460:0:0:0:0:
320,192,112460,128,0,112660:0:0:0:0:
192,192,112560,128,0,112660:0:0:0:0:
64,192,112660,128,0,112860:0:0:0:0:
448,192,112660,128,0,112760:0:0:0:0:
320,192,112760,128,0,112860:0:0:0:0:
192,192,112860,128,0,113060:0:0:0:0:
320,192,112960,128,0,113060:0:0:0:0:
448,192,113060,128,0,113260:0:0:0:0:
64,192,113060,128,0,113160:0:0:0:0:
320,192,113160,128,0,113260:0:0:0:0:
64,192,113260,128,0,113460:0:0:0:0:
192,192,113360,128,0,113460:0:0:0:0:
320,192,113460,128,0,113660:0:0:0:0:
448,192,113460,128,0,113560:0:0:0:0:
64,192,113560,128,0,113660:0:0:0:0:
448,192,113660,128,0,113860:0:0:0:0:
192,192,113760,128,0,113860:0:0:0:0:
64,192,113860,128,0,114060:0:0:0:0:
320,192,113860,128,0,113960:0:0:0:0:
192,192,113960,128,0,114060:0:0:0:0:
320,192,114060,128,0,114260:0:0:0:0:
64,192,114160,128,0,114260:0:0:0:0:
448,192,114260,128,0,114460:0:0:0:0:
192,192,114260,128,0,114360:0:0:0:0:
64,192,114360,128,0,114460:0:0:0:0:
192,192,114460,128,0,114560:0:0:0:0:
320,192,114460,128,0,114660:0:0:0:0:
448,192,114560,128,0,114660:0:0:0:0:
64,192,114660,128,0,114860:0:0:0:0:
192,192,114660,128,0,114760:0:0:0:0:
320,192,114760,128,0,114860:0:0:0:0:
192,192,114860,128,0,115060:0:0:0:0:
448,192,114960,128,0,115060:0:0:0:0:
320,192,115060,128,0,115260:0:0:0:0:
64,192,115060,128,0,115160:0:0:0:0:
192,192,115160,128,0,115260:0:0:0:0:
64,192,115260,128,0,115460:0:0:0:0:
320,192,115360,128,0,115460:0:0:0:0:
192,192,115460,128,0,115660:0:0:0:0:
448,192,115460,128,0,115560:0:0:0:0:
64,192,115560,128,0,115660:0:0:0:0:
320,192,115660,128,0,115860:0:0:0:0:
448,192,115760,128,0,115860:0:0:0:0:
64,192,115860,128,0,116060:0:0:0:0:
192,192,115860,128,0,115960:0:0:0:0:
320,192,115960,128,0,116060:0:0:0:0:
192,192,116060,128,0,116260:0:0:0:0:
64,192,116160,128,0,116260:0:0:0:0:
448,192,116260,128,0,116460:0:0:0:0:
320,192,116260,128,0,116360:0:0:0:0:
192,192,116360,128,0,116460:0:0:0:0:
64,192,116460,128,0,116660:0:0:0:0:
448,192,116560,128,0,116660:0:0:0:0:
320,192,116660,128,0,116860:0:0:0:0:
192,192,116660,128,0,116760:0:0:0:0:
64,192,116760,128,0,116860:0:0:0:0:
448,192,116860,128,0,117060:0:0:0:0:
192,192,116960,128,0,117060:0:0:0:0:
64,192,117060,128,0,117260:0:0:0:0:
320,192,117060,128,0,117160:0:0:0:0:
192,192,117160,128,0,117260:0:0:0:0:
320,192,117260,128,0,117460:0:0:0:0:
64,192,117360,128,0,117460:0:0:0:0:
448,192,117460,128,0,117660:0:0:0:0:
192,192,117460,128,0,117560:0:0:0:0:
64,192,117560,128,0,117660:0:0:0:0:
320,192,117660,128,0,117860:0:0:0:0:
192,192,117660,128,0,117760:0:0:0:0:
448,192,117760,128,0,117860:0:0:0:0:
64,192,117860,128,0,118060:0:0:0:0:
192,192,117860,128,0,117960:0:0:0:0:
320,192,117960,128,0,118060:0:0:0:0:
192,192,118060,128,0,118260:0:0:0:0:
320,192,118160,128,0,118260:0:0:0:0:
448,192,118260,128,0,118460:0:0:0:0:
64,192,118260,128,0,118360:0:0:0:0:
192,192,118360,128,0,118460:0:0:0:0:
64,192,118460,128,0,118660:0:0:0:0:
320,192,118560,128,0,118660:0:0:0:0:
192,192,118660,128,0,118860:0:0:0:0:
448,192,118660,128,0,118760:0:0:0:0:
64,192,118760,128,0,118860:0:0:0:0:
448,192,118860,128,0,119060:0:0:0:0:
192,192,118960,128,0,119060:0:0:0:0:
64,192,119060,128,0,119260:0:0:0:0:
320,192,119060,128,0,119160:0:0:0:0:
448,192,119160,128,0,119260:0:0:0:0:
192,192,119260,128,0,119460:0:0:0:0:
320,192,119360,128,0,119460:0:0:0:0:
64,192,119460,128,0,119660:0:0:0:0:
448,192,119460,128,0,119560:0:0:0:0:
320,192,119560,128,0,119660:0:0:0:0:
192,192,119660,128,0,119860:0:0:0:0:
448,192,119760,128,0,119860:0:0:0:0:
320,192,119860,128,0,120060:0:0:0:0:
64,192,119860,128,0,119960:0:0:0:0:
192,192,119960,128,0,120060:0:0:0:0:
64,192,120060,128,0,120260:0:0:0:0:
320,192,120160,128,0,120260:0:0:0:0:
192,192,120260,128,0,120460:0:0:0:0:
448,192,120260,128,0,120360:0:0:0:0:
320,192,120360,128,0,120460:0:0:0:0:
448,192,120460,128,0,120660:0:0:0:0:
192,192,120560,128,0,120660:0:0:0:0:
64,192,120660,128,0,120860:0:0:0:0:
320,192,120660,128,0,120760:0:0:0:0:
448,192,120760,128,0,120860:0:0:0:0:
320,192,120860,128,0,121060:0:0:0:0:
192,192,120860,128,0,120960:0:0:0:0:
448,192,120960,128,0,121060:0:0:0:0:
64,192,121060,128,0,121260:0:0:0:0:
192,192,121060,128,0,121160:0:0:0:0:
320,192,121160,128,0,121260:0:0:0:0:
192,192,121260,128,0,121460:0:0:0:0:
448,192,121360,128,0,121460:0:0:0:0:
320,192,121460,128,0,121660:0:0:0:0:
64,192,121460,128,0,121560:0:0:0:0:
448,192,121560,128,0,121660:0:0:0:0:
64,192,121660,128,0,121860:0:0:0:0:
320,192,121760,128,0,121860:0:0:0:0:
192,192,121860,128,0,122060:0:0:0:0:
448,192,121860,128,0,121960:0:0:0:0:
64,192,121960,128,0,122060:0:0:0:0:
320,192,122060,128,0,122260:0:0:0:0:
192,192,122160,128,0,122260:0:0:0:0:
64,192,122260,128,0,122460:0:0:0:0:
448,192,122260,128,0,122360:0:0:0:0:
192,192,122360,128,0,122460:0:0:0:0:
320,192,122460,128,0,122660:0:0:0:0:
64,192,122560,128,0,122660:0:0:0:0:
448,192,122660,128,0,122860:0:0:0:0:
192,192,122660,128,0,122760:0:0:0:0:
320,192,122760,128,0,122860:0:0:0:0:
64,192,122860,128,0,123060:0:0:0:0:
320,192,122960,128,0,123060:0:0:0:0:
192,192,123060,128,0,123260:0:0:0:0:
448,192,123060,128,0,123160:0:0:0:0:
64,192,123160,128,0,123260:0:0:0:0:
320,192,123260,128,0,123460:0:0:0:0:
192,192,123360,128,0,123460:0:0:0:0:
448,192,123460,128,0,123660:0:0:0:0:
64,192,123460,128,0,123560:0:0:0:0:
192,192,123560,128,0,123660:0:0:0:0:
320,192,123660,128,0,123860:0:0:0:0:
448,192,123760,128,0,123860:0:0:0:0:
64,192,123860,128,0,124060:0:0:0:0:
192,192,123860,128,0,123960:0:0:0:0:
448,192,123960,128,0,124060:0:0:0:0:
192,192,124060,128,0,124160:0:0:0:0:
320,192,124060,128,0,124160:0:0:0:0:
64,192,124160,128,0,124260:0:0:0:0:
448,192,124260,128,0,124460:0:0:0:0:
320,192,124260,128,0,124360:0:0:0:0:
192,192,124260,128,0,124360:0:0:0:0:
64,192,124360,128,0,124460:0:0:0:0:
320,192,124460,128,0,124660:0:0:0:0:
64,192,124560,128,0,124660:0:0:0:0:
192,192,124660,128,0,124860:0:0:0:0:
448,192,124660,128,0,124760:0:0:0:0:
320,192,124760,128,0,124860:0:0:0:0:
448,192,124860,128,0,125060:0:0:0:0:
192,192,124960,128,0,125060:0:0:0:0:
320,192,125060,128,0,125260:0:0:0:0:
64,192,125060,128,0,125160:0:0:0:0:
448,192,125160,128,0,125260:0:0:0:0:
192,192,125260,128,0,125460:0:0:0:0:
320,192,125360,128,0,125460:0:0:0:0:
448,192,125460,128,0,125660:0:0:0:0:
64,192,125460,128,0,125560:0:0:0:0:
192,192,125560,128,0,125660:0:0:0:0:
320,192,125660,128,0,125860:0:0:0:0:
192,192,125760,128,0,125860:0:0:0:0:
64,192,125860,128,0,126060:0:0:0:0:
448,192,125860,128,0,125960:0:0:0:0:
320,192,125960,128,0,126060:0:0:0:0:
448,192,126060,128,0,126260:0:0:0:0:
64,192,126160,128,0,126260:0:0:0:0:
192,192,126260,128,0,126460:0:0:0:0:
320,192,126260,128,0,126360:0:0:0:0:
448,192,126360,128,0,126460:0:0:0:0:
64,192,126460,128,0,126660:0:0:0:0:
192,192,126560,128,0,126660:0:0:0:0:
448,192,126660,128,0,126860:0:0:0:0:
320,192,126660,128,0,126760:0:0:0:0:
64,192,126760,128,0,126860:0:0:0:0:
192,192,126860,128,0,127060:0:0:0:0:
320,192,126960,128,0,127060:0:0:0:0:
64,192,127060,128,0,127260:0:0:0:0:
448,192,127060,128,0,127160:0:0:0:0:
320,192,127160,128,0,127260:0:0:0:0:
192,192,127260,128,0,127460:0:0:0:0:
448,192,127260,128,0,127360:0:0:0:0:
64,192,127360,128,0,127460:0:0:0:0:
448,192,127460,128,0,127660:0:0:0:0:
320,192,127460,128,0,127560:0:0:0:0:
192,192,127560,128,0,127660:0:0:0:0:
320,192,127660,128,0,127860:0:0:0:0:
64,192,127760,128,0,127860:0:0:0:0:
192,192,127860,128,0,128060:0:0:0:0:
448,192,127860,128,0,127960:0:0:0:0:
320,192,127960,128,0,128060:0:0:0:0:
448,192,128060,128,0,128260:0:0:0:0:
192,192,128160,128,0,128260:0:0:0:0:
320,192,128260,128,0,128460:0:0:0:0:
64,192,128260,128,0,128360:0:0:0:0:
448,192,128360,128,0,128460:0:0:0:0:
192,192,128460,128,0,128660:0:0:0:0:
320,192,128560,128,0,128660:0:0:0:0:
448,192,128660,128,0,128860:0:0:0:0:
64,192,128660,128,0,128760:0:0:0:0:
192,192,128760,128,0,128860:0:0:0:0:
320,192,128860,128,0,129060:0:0:0:0:
192,192,128960,128,0,129060:0:0:0:0:
64,192,129060,128,0,129260:0:0:0:0:
448,192,129060,128,0,129160:0:0:0:0:
320,192,129160,128,0,129260:0:0:0:0:
448,192,129260,128,0,129460:0:0:0:0:
64,192,129360,128,0,129460:0:0:0:0:
192,192,129460,128,0,129660:0:0:0:0:
320,192,129460,128,0,129560:0:0:0:0:
448,192,129560,128,0,129660:0:0:0:0:
64,192,129660,128,0,129860:0:0:0:0:
320,192,129760,128,0,129860:0:0:0:0:
448,192,129860,128,0,130060:0:0:0:0:
192,192,129860,128,0,129960:0:0:0:0:
320,192,129960,128,0,130060:0:0:0:0:
192,192,130060,128,0,130260:0:0:0:0:
320,192,130160,128,0,130260:0:0:0:0:
64,192,130260,128,0,130460:0:0:0:0:
448,192,130260,128,0,130360:0:0:0:0:
320,192,130360,128,0,130460:0:0:0:0:
192,192,130460,128,0,130660:0:0:0:0:
448,192,130460,128,0,130560:0:0:0:0:
64,192,130560,128,0,130660:0:0:0:0:
448,192,130660,128,0,130860:0:0:0:0:
320,192,130660,128,0,130760:0:0:0:0:
192,192,130760,128,0,130860:0:0:0:0:
320,192,130860,128,0,131060:0:0:0:0:
192,192,130960,128,0,131060:0:0:0:0:
64,192,131060,128,0,131260:0:0:0:0:
448,192,131060,128,0,131160:0:0:0:0:
320,192,131160,128,0,131260:0:0:0:0:
448,192,131260,128,0,131460:0:0:0:0:
192,192,131360,128,0,131460:0:0:0:0:
320,192,131460,128,0,131660:0:0:0:0:
64,192,131460,128,0,131560:0:0:0:0:
448,192,131560,128,0,131660:0:0:0:0:
64,192,131660,128,0,131860:0:0:0:0:
192,192,131760,128,0,131860:0:0:0:0:
448,192,131860,128,0,132060:0:0:0:0:
320,192,131860,128,0,131960:0:0:0:0:
64,192,131960,128,0,132060:0:0:0:0:
320,192,132060,128,0,132260:0:0:0:0:
192,192,132160,128,0,132260:0:0:0:0:
448,192,132260,128,0,132460:0:0:0:0:
64,192,132260,128,0,132360:0:0:0:0:
192,192,132360,128,0,132460:0:0:0:0:
320,192,132460,128,0,132660:0:0:0:0:
64,192,132560,128,0,132660:0:0:0:0:
192,192,132660,128,0,132860:0:0:0:0:
448,192,132660,128,0,132760:0:0:0:0:
320,192,132760,128,0,132860:0:0:0:0:
448,192,132860,128,0,133060:0:0:0:0:
192,192,132960,128,0,133060:0:0:0:0:
320,192,133060,128,0,133260:0:0:0:0:
64,192,133060,128,0,133160:0:0:0:0:
192,192,133160,128,0,133260:0:0:0:0:
64,192,133260,128,0,133460:0:0:0:0:
320,192,133360,128,0,133460:0:0:0:0:
448,192,133460,128,0,133660:0:0:0:0:
192,192,133460,128,0,133560:0:0:0:0:
64,192,133560,128,0,133660:0:0:0:0:
192,192,133660,128,0,133860:0:0:0:0:
320,192,133660,128,0,133760:0:0:0:0:
64,192,133760,128,0,133860:0:0:0:0:
448,192,133860,128,0,134060:0:0:0:0:
320,192,133860,128,0,133960:0:0:0:0:
192,192,133960,128,0,134060:0:0:0:0:
320,192,134060,128,0,134260:0:0:0:0:
64,192,134160,128,0,134260:0:0:0:0:
192,192,134260,128,0,134460:0:0:0:0:
448,192,134260,128,0,134360:0:0:0:0:
320,192,134360,128,0,134460:0:0:0:0:
448,192,134460,128,0,134660:0:0:0:0:
64,192,134560,128,0,134660:0:0:0:0:
320,192,134660,128,0,134860:0:0:0:0:
192,192,134660,128,0,134760:0:0:0:0:
64,192,134760,128,0,134860:0:0:0:0:
192,192,134860,128,0,135060:0:0:0:0:
320,192,134960,128,0,135060:0:0:0:0:
448,192,135060,128,0,135260:0:0:0:0:
64,192,135060,128,0,135160:0:0:0:0:
320,192,135160,128,0,135260:0:0:0:0:
192,192,135260,128,0,135460:0:0:0:0:
320,192,135360,128,0,135460:0:0:0:0:
64,192,135460,128,0,135660:0:0:0:0:
448,192,135460,1,0,0:0:0:0:
192,192,135560,1,0,0:0:0:0:
448,192,135660,128,0,135860:0:0:0:0:
320,192,135660,1,0,0:0:0:0:
192,192,135760,1,0,0:0:0:0:
320,192,135860,128,0,136060:0:0:0:0:
64,192,135860,1,0,0:0:0:0:
448,192,135960,1,0,0:0:0:0:
64,192,136060,1,0,0:0:0:0:
192,192,136110,1,0,0:0:0:0:
320,192,136160,1,0,0:0:0:0:
448,192,136210,1,0,0:0:0:0:
64,192,136260,128,0,136460:0:0:0:0:
192,192,136260,1,0,0:0:0:0:
320,192,136360,1,0,0:0:0:0:
192,192,136460,128,0,136660:0:0:0:0:
448,192,136460,1,0,0:0:0:0:
320,192,136560,1,0,0:0:0:0:
448,192,136660,128,0,136860:0:0:0:0:
64,192,136660,1,0,0:0:0:0:
192,192,136760,1,0,0:0:0:0:
320,192,136860,128,0,137060:0:0:0:0:
64,192,136860,1,0,0:0:0:0:
448,192,136960,1,0,0:0:0:0:
64,192,137060,128,0,137260:0:0:0:0:
192,192,137060,128,0,137160:0:0:0:0:
448,192,137160,128,0,137260:0:0:0:0:
192,192,137260,128,0,137460:0:0:0:0:
64,192,137360,128,0,137460:0:0:0:0:
320,192,137460,128,0,137660:0:0:0:0:
448,192,137460,128,0,137560:0:0:0:0:
192,192,137560,128,0,137660:0:0:0:0:
64,192,137660,128,0,137860:0:0:0:0:
320,192,137760,128,0,137860:0:0:0:0:
192,192,137860,128,0,138060:0:0:0:0:
448,192,137860,128,0,137960:0:0:0:0:
64,192,137960,128,0,138060:0:0:0:0:
320,192,138060,128,0,138260:0:0:0:0:
192,192,138160,128,0,138260:0:0:0:0:
64,192,138260,128,0,138460:0:0:0:0:
448,192,138260,128,0,138360:0:0:0:0:
320,192,138360,128,0,138460:0:0:0:0:
192,192,138460,128,0,138660:0:0:0:0:
320,192,138560,128,0,138660:0:0:0:0:
448,192,138660,128,0,138860:0:0:0:0:
64,192,138660,128,0,138760:0:0:0:0:
192,192,138760,128,0,138860:0:0:0:0:
64,192,138860,128,0,139060:0:0:0:0:
448,192,138960,128,0,139060:0:0:0:0:
320,192,139060,128,0,139260:0:0:0:0:
192,192,139060,128,0,139160:0:0:0:0:
64,192,139160,128,0,139260:0:0:0:0:
448,192,139260,128,0,139460:0:0:0:0:
192,192,139360,128,0,139460:0:0:0:0:
64,192,139460,128,0,139660:0:0:0:0:
320,192,139460,128,0,139560:0:0:0:0:
192,192,139560,128,0,139660:0:0:0:0:
320,192,139660,128,0,139860:0:0:0:0:
192,192,139760,128,0,139860:0:0:0:0:
448,192,139860,128,0,140060:0:0:0:0:
64,192,139860,128,0,139960:0:0:0:0:
192,192,139960,128,0,140060:0:0:0:0:
320,192,140060,128,0,140260:0:0:0:0:
64,192,140060,128,0,140160:0:0:0:0:
448,192,140160,128,0,140260:0:0:0:0:
64,192,140260,128,0,140460:0:0:0:0:
192,192,140260,128,0,140360:0:0:0:0:
320,192,140360,128,0,140460:0:0:0:0:
192,192,140460,128,0,140660:0:0:0:0:
448,192,140560,128,0,140660:0:0:0:0:
320,192,140660,128,0,140860:0:0:0:0:
64,192,140660,128,0,140760:0:0:0:0:
192,192,140760,128,0,140860:0:0:0:0:
64,192,140860,128,0,141060:0:0:0:0:
320,192,140960,128,0,141060:0:0:0:0:
192,192,141060,128,0,141260:0:0:0:0:
448,192,141060,128,0,141160:0:0:0:0:
64,192,141160,128,0,141260:0:0:0:0:
320,192,141260,128,0,141460:0:0:0:0:
192,192,141360,128,0,141460:0:0:0:0:
64,192,141460,128,0,141660:0:0:0:0:
448,192,141460,128,0,141560:0:0:0:0:
320,192,141560,128,0,141660:0:0:0:0:
192,192,141660,128,0,141860:0:0:0:0:
320,192,141760,128,0,141860:0:0:0:0:
448,192,141860,128,0,142060:0:0:0:0:
64,192,141860,128,0,141960:0:0:0:0:
192,192,141960,128,0,142060:0:0:0:0:
64,192,142060,128,0,142260:0:0:0:0:
192,192,142160,128,0,142260:0:0:0:0:
320,192,142260,128,0,142460:0:0:0:0:
448,192,142260,128,0,142360:0:0:0:0:
64,192,142360,128,0,142460:0:0:0:0:
448,192,142460,128,0,142660:0:0:0:0:
192,192,142560,128,0,142660:0:0:0:0:
64,192,142660,128,0,142860:0:0:0:0:
320,192,142660,128,0,142760:0:0:0:0:
192,192,142760,128,0,142860:0:0:0:0:
320,192,142860,128,0,143060:0:0:0:0:
64,192,142960,128,0,143060:0:0:0:0:
448,192,143060,128,0,143260:0:0:0:0:
192,192,143060,128,0,143160:0:0:0:0:
64,192,143160,128,0,143260:0:0:0:0:
320,192,143260,128,0,143460:0:0:0:0:
192,192,143260,128,0,143360:0:0:0:0:
448,192,143360,128,0,143460:0:0:0:0:
64,192,143460,128,0,143660:0:0:0:0:
192,192,143460,128,0,143560:0:0:0:0:
320,192,143560,128,0,143660:0:0:0:0:
192,192,143660,128,0,143860:0:0:0:0:
320,192,143760,128,0,143860:0:0:0:0:
448,192,143860,128,0,144060:0:0:0:0:
64,192,143860,128,0,143960:0:0:0:0:
192,192,143960,128,0,144060:0:0:0:0:
64,192,144060,128,0,144260:0:0:0:0:
320,192,144160,128,0,144260:0:0:0:0:
192,192,144260,128,0,144460:0:0:0:0:
448,192,144260,128,0,144360:0:0:0:0:
64,192,144360,128,0,144460:0:0:0:0:
448,192,144460,128,0,144660:0:0:0:0:
192,192,144560,128,0,144660:0:0:0:0:
64,192,144660,128,0,144860:0:0:0:0:
320,192,144660,128,0,144760:0:0:0:0:
448,192,144760,128,0,144860:0:0:0:0:
192,192,144860,128,0,145060:0:0:0:0:
320,192,144960,128,0,145060:0:0:0:0:
64,192,145060,128,0,145260:0:0:0:0:
448,192,145060,128,0,145160:0:0:0:0:
320,192,145160,128,0,145260:0:0:0:0:
192,192,145260,128,0,145460:0:0:0:0:
448,192,145360,128,0,145460:0:0:0:0:
320,192,145460,128,0,145660:0:0:0:0:
64,192,145460,128,0,145560:0:0:0:0:
192,192,145560,128,0,145660:0:0:0:0:
64,192,145660,128,0,145860:0:0:0:0:
320,192,145760,128,0,145860:0:0:0:0:
192,192,145860,128,0,146060:0:0:0:0:
448,192,145860,128,0,145960:0:0:0:0:
64,192,145960,128,0,146060:0:0:0:0:
448,192,146060,128,0,146260:0:0:0:0:
192,192,146160,128,0,146260:0:0:0:0:
64,192,146260,128,0,146460:0:0:0:0:
320,192,146260,128,0,146360:0:0:0:0:
448,192,146360,128,0,146460:0:0:0:0:
320,192,146460,128,0,146660:0:0:0:0:
192,192,146460,128,0,146560:0:0:0:0:
448,192,146560,128,0,146660:0:0:0:0:
64,192,146660,128,0,146860:0:0:0:0:
192,192,146660,128,0,146760:0:0:0:0:
320,192,146760,128,0,146860:0:0:0:0:
192,192,146860,128,0,147060:0:0:0:0:
448,192,146960,128,0,147060:0:0:0:0:
320,192,147060,128,0,147260:0:0:0:0:
64,192,147060,128,0,147160:0:0:0:0:
192,192,147160,128,0,147260:0:0:0:0:
64,192,147260,128,0,147460:0:0:0:0:
320,192,147360,128,0,147460:0:0:0:0:
192,192,147460,128,0,147660:0:0:0:0:
448,192,147460,128,0,147560:0:0:0:0:
64,192,147560,128,0,147660:0:0:0:0:
320,192,147660,128,0,147860:0:0:0:0:
192,192,147760,128,0,147860:0:0:0:0:
64,192,147860,128,0,148060:0:0:0:0:
448,192,147860,128,0,147960:0:0:0:0:
320,192,147960,128,0,148060:0:0:0:0:
192,192,148060,128,0,148260:0:0:0:0:
320,192,148160,128,0,148260:0:0:0:0:
448,192,148260,128,0,148460:0:0:0:0:
64,192,148260,128,0,148360:0:0:0:0:
192,192,148360,128,0,148460:0:0:0:0:
64,192,148460,128,0,148660:0:0:0:0:
320,192,148560,128,0,148660:0:0:0:0:
192,192,148660,128,0,148860:0:0:0:0:
448,192,148660,128,0,148760:0:0:0:0:
64,192,148760,128,0,148860:0:0:0:0:
320,192,148860,128,0,149060:0:0:0:0:
192,192,148960,128,0,149060:0:0:0:0:
448,192,149060,128,0,149260:0:0:0:0:
64,192,149060,128,0,149160:0:0:0:0:
192,192,149160,128,0,149260:0:0:0:0:
320,192,149260,128,0,149460:0:0:0:0:
448,192,149360,128,0,149460:0:0:0:0:
64,192,149460,128,0,149660:0:0:0:0:
192,192,149460,128,0,149560:0:0:0:0:
320,192,149560,128,0,149660:0:0:0:0:
448,192,149660,128,0,149760:0:0:0:0:
192,192,149660,128,0,149760:0:0:0:0:
64,192,149760,128,0,149860:0:0:0:0:
320,192,149860,128,0,149960:0:0:0:0:
192,192,149860,128,0,149960:0:0:0:0:
448,192,149860,128,0,150060:0:0:0:0:
64,192,149960,128,0,150060:0:0:0:0:
320,192,150060,128,0,150260:0:0:0:0:
448,192,150160,128,0,150260:0:0:0:0:
192,192,150260,128,0,150460:0:0:0:0:
64,192,150260,128,0,150360:0:0:0:0:
320,192,150360,128,0,150460:0:0:0:0:
448,192,150460,128,0,150660:0:0:0:0:
64,192,150560,128,0,150660:0:0:0:0:
320,192,150660,128,0,150860:0:0:0:0:
192,192,150660,128,0,150760:0:0:0:0:
448,192,150760,128,0,150860:0:0:0:0:
192,192,150860,128,0,151060:0:0:0:0:
320,192,150960,128,0,151060:0:0:0:0:
448,192,151060,128,0,151260:0:0:0:0:
64,192,151060,128,0,151160:0:0:0:0:
192,192,151160,128,0,151260:0:0:0:0:
320,192,151260,128,0,151460:0:0:0:0:
192,192,151360,128,0,151460:0:0:0:0:
64,192,151460,128,0,151660:0:0:0:0:
448,192,151460,128,0,151560:0:0:0:0:
320,192,151560,128,0,151660:0:0:0:0:
448,192,151660,128,0,151860:0:0:0:0:
320,192,151760,128,0,151860:0:0:0:0:
192,192,151860,128,0,152060:0:0:0:0:
64,192,151860,128,0,151960:0:0:0:0:
448,192,151960,128,0,152060:0:0:0:0:
64,192,152060,128,0,152260:0:0:0:0:
320,192,152160,128,0,152260:0:0:0:0:
448,192,152260,128,0,152460:0:0:0:0:
192,192,152260,128,0,152360:0:0:0:0:
64,192,152360,128,0,152460:0:0:0:0:
192,192,152460,128,0,152660:0:0:0:0:
320,192,152560,128,0,152660:0:0:0:0:
64,192,152660,128,0,152860:0:0:0:0:
448,192,152660,128,0,152760:0:0:0:0:
320,192,152760,128,0,152860:0:0:0:0:
192,192,152860,128,0,153060:0:0:0:0:
448,192,152860,128,0,152960:0:0:0:0:
64,192,152960,128,0,153060:0:0:0:0:
448,192,153060,128,0,153260:0:0:0:0:
320,192,153060,128,0,153160:0:0:0:0:
192,192,153160,128,0,153260:0:0:0:0:
320,192,153260,128,0,153460:0:0:0:0:
64,192,153360,128,0,153460:0:0:0:0:
192,192,153460,128,0,153660:0:0:0:0:
448,192,153460,128,0,153560:0:0:0:0:
320,192,153560,128,0,153660:0:0:0:0:
448,192,153660,128,0,153860:0:0:0:0:
192,192,153760,128,0,153860:0:0:0:0:
320,192,153860,128,0,154060:0:0:0:0:
64,192,153860,128,0,153960:0:0:0:0:
448,192,153960,128,0,154060:0:0:0:0:
192,192,154060,128,0,154260:0:0:0:0:
320,192,154160,128,0,154260:0:0:0:0:
448,192,154260,128,0,154460:0:0:0:0:
64,192,154260,128,0,154360:0:0:0:0:
192,192,154360,128,0,154460:0:0:0:0:
320,192,154460,128,0,154660:0:0:0:0:
448,192,154560,128,0,154660:0:0:0:0:
64,192,154660,128,0,154860:0:0:0:0:
192,192,154660,128,0,154760:0:0:0:0:
320,192,154760,128,0,154860:0:0:0:0:
448,192,154860,128,0,155060:0:0:0:0:
64,192,154960,128,0,155060:0:0:0:0:
192,192,155060,128,0,155260:0:0:0:0:
320,192,155060,128,0,155160:0:0:0:0:
448,192,155160,128,0,155260:0:0:0:0:
64,192,155260,128,0,155460:0:0:0:0:
320,192,155360,128,0,155460:0:0:0:0:
448,192,155460,128,0,155660:0:0:0:0:
192,192,155460,128,0,155560:0:0:0:0:
64,192,155560,128,0,155660:0:0:0:0:
192,192,155660,128,0,155860:0:0:0:0:
448,192,155760,128,0,155860:0:0:0:0:
64,192,155860,128,0,156060:0:0:0:0:
320,192,155860,128,0,155960:0:0:0:0:
448,192,155960,128,0,156060:0:0:0:0:
192,192,156060,128,0,156260:0:0:0:0:
320,192,156060,128,0,156160:0:0:0:0:
64,192,156160,128,0,156260:0:0:0:0:
448,192,156260,128,0,156460:0:0:0:0:
320,192,156260,128,0,156360:0:0:0:0:
192,192,156360,128,0,156460:0:0:0:0:
320,192,156460,128,0,156660:0:0:0:0:
192,192,156560,128,0,156660:0:0:0:0:
64,192,156660,128,0,156860:0:0:0:0:
448,192,156660,128,0,156760:0:0:0:0:
320,192,156760,128,0,156860:0:0:0:0:
448,192,156860,128,0,157060:0:0:0:0:
192,192,156960,128,0,157060:0:0:0:0:
320,192,157060,128,0,157260:0:0:0:0:
64,192,157060,128,0,157160:0:0:0:0:
192,192,157160,128,0,157260:0:0:0:0:
64,192,157260,128,0,157460:0:0:0:0:
320,192,157360,128,0,157460:0:0:0:0:
448,192,157460,128,0,157660:0:0:0:0:
192,192,157460,128,0,157560:0:0:0:0:
64,192,157560,128,0,157660:0:0:0:0:
320,192,157660,128,0,157860:0:0:0:0:
192,192,157760,128,0,157860:0:0:0:0:
448,192,157860,128,0,158060:0:0:0:0:
64,192,157860,128,0,157960:0:0:0:0:
192,192,157960,128,0,158060:0:0:0:0:
320,192,158060,128,0,158260:0:0:0:0:
448,192,158160,128,0,158260:0:0:0:0:
192,192,158260,128,0,158460:0:0:0:0:
64,192,158260,128,0,158360:0:0:0:0:
320,192,158360,128,0,158460:0:0:0:0:
448,192,158460,128,0,158660:0:0:0:0:
192,192,158560,128,0,158660:0:0:0:0:
320,192,158660,128,0,158860:0:0:0:0:
64,192,158660,128,0,158760:0:0:0:0:
448,192,158760,128,0,158860:0:0:0:0:
64,192,158860,128,0,159060:0:0:0:0:
192,192,158960,128,0,159060:0:0:0:0:
448,192,159060,128,0,159260:0:0:0:0:
320,192,159060,128,0,159160:0:0:0:0:
64,192,159160,128,0,159260:0:0:0:0:
192,192,159260,128,0,159460:0:0:0:0:
320,192,159260,128,0,159360:0:0:0:0:
64,192,159360,128,0,159460:0:0:0:0:
448,192,159460,128,0,159660:0:0:0:0:
320,192,159460,128,0,159560:0:0:0:0:
192,192,159560,128,0,159660:0:0:0:0:
320,192,159660,128,0,159860:0:0:0:0:
64,192,159760,128,0,159860:0:0:0:0:
192,192,159860,128,0,160060:0:0:0:0:
448,192,159860,128,0,159960:0:0:0:0:
320,192,159960,128,0,160060:0:0:0:0:
448,192,160060,128,0,160260:0:0:0:0:
192,192,160160,128,0,160260:0:0:0:0:
320,192,160260,128,0,160460:0:0:0:0:
64,192,160260,128,0,160360:0:0:0:0:
448,192,160360,128,0,160460:0:0:0:0:
192,192,160460,128,0,160660:0:0:0:0:
320,192,160560,128,0,160660:0:0:0:0:
448,192,160660,128,0,160860:0:0:0:0:
64,192,160660,128,0,160760:0:0:0:0:
192,192,160760,128,0,160860:0:0:0:0:
320,192,160860,128,0,160960:0:0:0:0:
192,192,160960,128,0,161060:0:0:0:0:
64,192,161060,128,0,161260:0:0:0:0:
448,192,161060,128,0,161160:0:0:0:0:
320,192,161060,128,0,161160:0:0:0:0:
192,192,161160,128,0,161260:0:0:0:0:
448,192,161260,128,0,161460:0:0:0:0:
192,192,161360,128,0,161460:0:0:0:0:
320,192,161460,128,0,161660:0:0:0:0:
64,192,161460,128,0,161560:0:0:0:0:
448,192,161560,128,0,161660:0:0:0:0:
64,192,161660,1,0,0:0:0:0:
192,192,161710,1,0,0:0:0:0:
320,192,161760,1,0,0:0:0:0:
448,192,161810,1,0,0:0:0:0:
192,192,161860,1,0,0:0:0:0:
64,192,161860,128,0,162060:0:0:0:0:
448,192,162060,1,0,0:0:0:0:
320,192,162060,1,0,0:0:0:0:
64,192,162160,1,0,0:0:0:0:
192,192,162160,1,0,0:0:0:0:
448,192,162260,1,0,0:0:0:0:
320,192,162260,1,0,0:0:0:0:
192,192,162360,1,0,0:0:0:0:
64,192,162360,1,0,0:0:0:0:
320,192,162460,128,0,162660:0:0:0:0:
448,192,162460,128,0,162560:0:0:0:0:
64,192,162660,1,0,0:0:0:0:
192,192,162660,1,0,0:0:0:0:
448,192,162660,1,0,0:0:0:0:
192,192,163860,1,0,0:0:0:0:
64,192,163860,1,0,0:0:0:0:
320,192,163960,1,0,0:0:0:0:
448,192,163960,1,0,0:0:0:0:
192,192,164060,1,0,0:0:0:0:
64,192,164060,1,0,0:0:0:0:
320,192,164160,1,0,0:0:0:0:
448,192,164160,1,0,0:0:0:0:
448,192,164260,1,0,0:0:0:0:
64,192,164260,1,0,0:0:0:0:
192,192,164260,1,0,0:0:0:0:
320,192,164360,1,0,0:0:0:0:
192,192,164460,1,0,0:0:0:0:
64,192,164460,1,0,0:0:0:0:
320,192,164560,1,0,0:0:0:0:
448,192,164560,1,0,0:0:0:0:
64,192,164660,1,0,0:0:0:0:
192,192,164760,1,0,0:0:0:0:
448,192,164860,1,0,0:0:0:0:
64,192,164860,1,0,0:0:0:0:
320,192,164960,1,0,0:0:0:0:
64,192,165060,1,0,0:0:0:0:
192,192,165060,1,0,0:0:0:0:
320,192,165160,1,0,0:0:0:0:
448,192,165160,1,0,0:0:0:0:
192,192,165260,1,0,0:0:0:0:
64,192,165260,1,0,0:0:0:0:
320,192,165360,1,0,0:0:0:0:
448,192,165360,1,0,0:0:0:0:
64,192,165460,1,0,0:0:0:0:
192,192,165560,1,0,0:0:0:0:
448,192,165560,1,0,0:0:0:0:
64,192,165660,1,0,0:0:0:0:
320,192,165660,1,0,0:0:0:0:
448,192,165760,1,0,0:0:0:0:
192,192,165760,1,0,0:0:0:0:
320,192,165860,1,0,0:0:0:0:
192,192,165960,1,0,0:0:0:0:
448,192,166060,1,0,0:0:0:0:
64,192,166060,1,0,0:0:0:0:
320,192,166160,1,0,0:0:0:0:
192,192,166160,1,0,0:0:0:0:
448,192,166260,1,0,0:0:0:0:
64,192,166360,1,0,0:0:0:0:
192,192,166460,1,0,0:0:0:0:
448,192,166460,1,0,0:0:0:0:
320,192,166560,1,0,0:0:0:0:
64,192,166660,1,0,0:0:0:0:
192,192,166660,1,0,0:0:0:0:
448,192,166760,1,0,0:0:0:0:
320,192,166860,1,0,0:0:0:0:
64,192,166860,1,0,0:0:0:0:
448,192,166960,1,0,0:0:0:0:
192,192,166960,1,0,0:0:0:0:
64,192,167060,1,0,0:0:0:0:
320,192,167160,1,0,0:0:0:0:
448,192,167160,1,0,0:0:0:0:
192,192,167260,1,0,0:0:0:0:
64,192,167260,1,0,0:0:0:0:
320,192,167360,1,0,0:0:0:0:
448,192,167360,1,0,0:0:0:0:
192,192,167460,1,0,0:0:0:0:
320,192,167560,1,0,0:0:0:0:
64,192,167660,1,0,0:0:0:0:
448,192,167660,1,0,0:0:0:0:
192,192,167760,1,0,0:0:0:0:
320,192,167760,1,0,0:0:0:0:
448,192,167860,1,0,0:0:0:0:
320,192,167960,1,0,0:0:0:0:
192,192,168060,1,0,0:0:0:0:
64,192,168060,1,0,0:0:0:0:
320,192,168160,1,0,0:0:0:0:
448,192,168260,1,0,0:0:0:0:
64,192,168260,1,0,0:0:0:0:
192,192,168360,1,0,0:0:0:0:
320,192,168460,1,0,0:0:0:0:
448,192,168460,1,0,0:0:0:0:
64,192,168560,1,0,0:0:0:0:
192,192,168560,1,0,0:0:0:0:
320,192,168660,1,0,0:0:0:0:
64,192,168760,1,0,0:0:0:0:
448,192,168760,1,0,0:0:0:0:
192,192,168860,1,0,0:0:0:0:
320,192,168860,1,0,0:0:0:0:
64,192,168960,1,0,0:0:0:0:
448,192,168960,1,0,0:0:0:0:
320,192,169060,1,0,0:0:0:0:
192,192,169160,1,0,0:0:0:0:
320,192,169260,1,0,0:0:0:0:
64,192,169260,1,0,0:0:0:0:
192,192,169360,1,0,0:0:0:0:
448,192,169360,1,0,0:0:0:0:
320,192,169460,1,0,0:0:0:0:
64,192,169560,1,0,0:0:0:0:
320,192,169660,1,0,0:0:0:0:
448,192,169660,1,0,0:0:0:0:
192,192,169760,1,0,0:0:0:0:
64,192,169860,1,0,0:0:0:0:
320,192,169860,1,0,0:0:0:0:
192,192,169960,1,0,0:0:0:0:
64,192,170060,1,0,0:0:0:0:
448,192,170060,1,0,0:0:0:0:
192,192,170160,1,0,0:0:0:0:
320,192,170160,1,0,0:0:0:0:
448,192,170260,128,0,170460:0:0:0:0:
64,192,170260,1,0,0:0:0:0:
192,192,170360,1,0,0:0:0:0:
64,192,170460,1,0,0:0:0:0:
320,192,170460,1,0,0:0:0:0:
192,192,170560,1,0,0:0:0:0:
448,192,170560,1,0,0:0:0:0:
64,192,170660,1,0,0:0:0:0:
320,192,170660,1,0,0:0:0:0:
448,192,170760,1,0,0:0:0:0:
320,192,170860,1,0,0:0:0:0:
192,192,170860,1,0,0:0:0:0:
64,192,170960,1,0,0:0:0:0:
448,192,170960,1,0,0:0:0:0:
320,192,171060,1,0,0:0:0:0:
192,192,171160,1,0,0:0:0:0:
448,192,171260,1,0,0:0:0:0:
64,192,171260,1,0,0:0:0:0:
192,192,171360,1,0,0:0:0:0:
448,192,171460,1,0,0:0:0:0:
320,192,171460,1,0,0:0:0:0:
192,192,171560,1,0,0:0:0:0:
64,192,171560,1,0,0:0:0:0:
320,192,171660,1,0,0:0:0:0:
448,192,171660,1,0,0:0:0:0:
64,192,171760,1,0,0:0:0:0:
192,192,171760,1,0,0:0:0:0:
448,192,171860,1,0,0:0:0:0:
320,192,171960,1,0,0:0:0:0:
64,192,171960,1,0,0:0:0:0:
192,192,172060,1,0,0:0:0:0:
448,192,172060,1,0,0:0:0:0:
320,192,172160,1,0,0:0:0:0:
64,192,172160,1,0,0:0:0:0:
192,192,172260,1,0,0:0:0:0:
320,192,172360,1,0,0:0:0:0:
64,192,172460,1,0,0:0:0:0:
448,192,172460,1,0,0:0:0:0:
320,192,172560,1,0,0:0:0:0:
192,192,172560,1,0,0:0:0:0:
64,192,172660,1,0,0:0:0:0:
448,192,172760,1,0,0:0:0:0:
320,192,172860,1,0,0:0:0:0:
192,192,172860,1,0,0:0:0:0:
64,192,172960,1,0,0:0:0:0:
448,192,173060,1,0,0:0:0:0:
192,192,173060,1,0,0:0:0:0:
320,192,173160,1,0,0:0:0:0:
192,192,173260,1,0,0:0:0:0:
64,192,173260,1,0,0:0:0:0:
320,192,173360,1,0,0:0:0:0:
448,192,173360,1,0,0:0:0:0:
192,192,173460,1,0,0:0:0:0:
320,192,173560,1,0,0:0:0:0:
64,192,173560,1,0,0:0:0:0:
192,192,173660,1,0,0:0:0:0:
448,192,173660,1,0,0:0:0:0:
320,192,173760,1,0,0:0:0:0:
64,192,173760,1,0,0:0:0:0:
192,192,173860,1,0,0:0:0:0:
448,192,173960,1,0,0:0:0:0:
320,192,174060,1,0,0:0:0:0:
192,192,174060,1,0,0:0:0:0:
64,192,174160,1,0,0:0:0:0:
448,192,174160,1,0,0:0:0:0:
320,192,174260,1,0,0:0:0:0:
192,192,174360,1,0,0:0:0:0:
448,192,174460,1,0,0:0:0:0:
64,192,174460,1,0,0:0:0:0:
320,192,174560,1,0,0:0:0:0:
192,192,174660,1,0,0:0:0:0:
64,192,174660,1,0,0:0:0:0:
320,192,174760,1,0,0:0:0:0:
192,192,174860,1,0,0:0:0:0:
448,192,174860,1,0,0:0:0:0:
320,192,174960,1,0,0:0:0:0:
64,192,174960,1,0,0:0:0:0:
192,192,175060,1,0,0:0:0:0:
448,192,175160,1,0,0:0:0:0:
320,192,175160,1,0,0:0:0:0:
192,192,175260,1,0,0:0:0:0:
64,192,175260,1,0,0:0:0:0:
320,192,175360,1,0,0:0:0:0:
448,192,175360,1,0,0:0:0:0:
192,192,175460,1,0,0:0:0:0:
64,192,175560,1,0,0:0:0:0:
320,192,175660,1,0,0:0:0:0:
448,192,175660,1,0,0:0:0:0:
192,192,175760,1,0,0:0:0:0:
64,192,175760,1,0,0:0:0:0:
448,192,175860,1,0,0:0:0:0:
192,192,175960,1,0,0:0:0:0:
320,192,176060,1,0,0:0:0:0:
64,192,176060,1,0,0:0:0:0:
192,192,176160,1,0,0:0:0:0:
64,192,176260,1,0,0:0:0:0:
448,192,176260,1,0,0:0:0:0:
320,192,176360,1,0,0:0:0:0:
64,192,176460,1,0,0:0:0:0:
192,192,176460,1,0,0:0:0:0:
320,192,176560,1,0,0:0:0:0:
448,192,176560,1,0,0:0:0:0:
64,192,176660,1,0,0:0:0:0:
192,192,176660,128,0,176860:0:0:0:0:
320,192,176760,1,0,0:0:0:0:
64,192,176860,1,0,0:0:0:0:
448,192,176860,1,0,0:0:0:0:
320,192,176960,1,0,0:0:0:0:
192,192,176960,1,0,0:0:0:0:
64,192,177060,1,0,0:0:0:0:
448,192,177060,1,0,0:0:0:0:
192,192,177160,1,0,0:0:0:0:
320,192,177260,1,0,0:0:0:0:
448,192,177260,1,0,0:0:0:0:
64,192,177360,1,0,0:0:0:0:
192,192,177360,1,0,0:0:0:0:
448,192,177460,1,0,0:0:0:0:
320,192,177560,1,0,0:0:0:0:
192,192,177660,1,0,0:0:0:0:
64,192,177660,1,0,0:0:0:0:
320,192,177760,1,0,0:0:0:0:
448,192,177860,1,0,0:0:0:0:
64,192,177860,1,0,0:0:0:0:
320,192,177960,1,0,0:0:0:0:
192,192,177960,1,0,0:0:0:0:
448,192,178060,1,0,0:0:0:0:
64,192,178060,1,0,0:0:0:0:
320,192,178160,1,0,0:0:0:0:
192,192,178160,1,0,0:0:0:0:
64,192,178260,1,0,0:0:0:0:
448,192,178360,1,0,0:0:0:0:
192,192,178360,1,0,0:0:0:0:
320,192,178460,1,0,0:0:0:0:
64,192,178460,1,0,0:0:0:0:
192,192,178560,1,0,0:0:0:0:
448,192,178560,1,0,0:0:0:0:
320,192,178660,1,0,0:0:0:0:
448,192,178760,1,0,0:0:0:0:
64,192,178860,1,0,0:0:0:0:
192,192,178860,1,0,0:0:0:0:
448,192,178960,1,0,0:0:0:0:
320,192,178960,1,0,0:0:0:0:
192,192,179060,1,0,0:0:0:0:
64,192,179160,1,0,0:0:0:0:
320,192,179260,1,0,0:0:0:0:
448,192,179260,1,0,0:0:0:0:
192,192,179360,1,0,0:0:0:0:
320,192,179460,1,0,0:0:0:0:
64,192,179460,1,0,0:0:0:0:
448,192,179560,1,0,0:0:0:0:
320,192,179660,1,0,0:0:0:0:
192,192,179660,1,0,0:0:0:0:
64,192,179760,1,0,0:0:0:0:
448,192,179760,1,0,0:0:0:0:
192,192,179860,1,0,0:0:0:0:
320,192,179960,1,0,0:0:0:0:
448,192,179960,1,0,0:0:0:0:
192,192,180060,1,0,0:0:0:0:
64,192,180060,1,0,0:0:0:0:
320,192,180160,1,0,0:0:0:0:
448,192,180160,1,0,0:0:0:0:
64,192,180260,1,0,0:0:0:0:
448,192,180360,1,0,0:0:0:0:
64,192,180460,1,0,0:0:0:0:
320,192,180460,1,0,0:0:0:0:
192,192,180560,1,0,0:0:0:0:
448,192,180560,1,0,0:0:0:0:
320,192,180660,1,0,0:0:0:0:
192,192,180760,1,0,0:0:0:0:
448,192,180860,1,0,0:0:0:0:
64,192,180860,1,0,0:0:0:0:
320,192,180960,1,0,0:0:0:0:
192,192,181060,1,0,0:0:0:0:
64,192,181060,1,0,0:0:0:0:
320,192,181160,1,0,0:0:0:0:
448,192,181260,1,0,0:0:0:0:
64,192,181260,1,0,0:0:0:0:
192,192,181360,1,0,0:0:0:0:
320,192,181360,1,0,0:0:0:0:
64,192,181460,1,0,0:0:0:0:
448,192,181560,1,0,0:0:0:0:
320,192,181560,1,0,0:0:0:0:
64,192,181660,1,0,0:0:0:0:
192,192,181660,1,0,0:0:0:0:
320,192,181760,1,0,0:0:0:0:
448,192,181760,1,0,0:0:0:0:
64,192,181860,1,0,0:0:0:0:
192,192,181960,1,0,0:0:0:0:
320,192,182060,1,0,0:0:0:0:
448,192,182060,1,0,0:0:0:0:
64,192,182160,1,0,0:0:0:0:
192,192,182160,1,0,0:0:0:0:
320,192,182260,1,0,0:0:0:0:
192,192,182360,1,0,0:0:0:0:
448,192,182460,1,0,0:0:0:0:
64,192,182460,1,0,0:0:0:0:
192,192,182560,1,0,0:0:0:0:
64,192,182660,1,0,0:0:0:0:
320,192,182660,1,0,0:0:0:0:
448,192,182760,1,0,0:0:0:0:
320,192,182860,1,0,0:0:0:0:
192,192,182860,1,0,0:0:0:0:
448,192,182960,1,0,0:0:0:0:
64,192,182960,1,0,0:0:0:0:
192,192,183060,1,0,0:0:0:0:
320,192,183060,128,0,183260:0:0:0:0:
64,192,183160,1,0,0:0:0:0:
192,192,183260,1,0,0:0:0:0:
448,192,183260,1,0,0:0:0:0:
320,192,183360,1,0,0:0:0:0:
64,192,183360,1,0,0:0:0:0:
192,192,183460,1,0,0:0:0:0:
448,192,183460,1,0,0:0:0:0:
64,192,183560,1,0,0:0:0:0:
320,192,183660,1,0,0:0:0:0:
448,192,183660,1,0,0:0:0:0:
192,192,183760,1,0,0:0:0:0:
64,192,183760,1,0,0:0:0:0:
320,192,183860,1,0,0:0:0:0:
448,192,183960,1,0,0:0:0:0:
192,192,184060,1,0,0:0:0:0:
320,192,184060,1,0,0:0:0:0:
64,192,184160,1,0,0:0:0:0:
320,192,184260,1,0,0:0:0:0:
448,192,184260,1,0,0:0:0:0:
192,192,184360,1,0,0:0:0:0:
64,192,184360,1,0,0:0:0:0:
448,192,184460,1,0,0:0:0:0:
320,192,184460,1,0,0:0:0:0:
192,192,184560,1,0,0:0:0:0:
64,192,184560,1,0,0:0:0:0:
448,192,184660,1,0,0:0:0:0:
320,192,184760,1,0,0:0:0:0:
64,192,184760,1,0,0:0:0:0:
192,192,184860,1,0,0:0:0:0:
448,192,184860,1,0,0:0:0:0:
320,192,184960,1,0,0:0:0:0:
64,192,184960,1,0,0:0:0:0:
192,192,185060,1,0,0:0:0:0:
320,192,185160,1,0,0:0:0:0:
64,192,185260,1,0,0:0:0:0:
448,192,185260,1,0,0:0:0:0:
320,192,185360,1,0,0:0:0:0:
192,192,185360,1,0,0:0:0:0:
64,192,185460,1,0,0:0:0:0:
448,192,185560,1,0,0:0:0:0:
320,192,185660,1,0,0:0:0:0:
64,192,185660,1,0,0:0:0:0:
192,192,185760,1,0,0:0:0:0:
320,192,185860,1,0,0:0:0:0:
448,192,185860,1,0,0:0:0:0:
64,192,185960,1,0,0:0:0:0:
192,192,186060,1,0,0:0:0:0:
448,192,186060,1,0,0:0:0:0:
320,192,186160,1,0,0:0:0:0:
64,192,186160,1,0,0:0:0:0:
448,192,186260,1,0,0:0:0:0:
320,192,186360,1,0,0:0:0:0:
64,192,186360,1,0,0:0:0:0:
192,192,186460,1,0,0:0:0:0:
448,192,186460,1,0,0:0:0:0:
320,192,186560,1,0,0:0:0:0:
64,192,186560,1,0,0:0:0:0:
192,192,186660,1,0,0:0:0:0:
320,192,186760,1,0,0:0:0:0:
64,192,186860,1,0,0:0:0:0:
192,192,186860,1,0,0:0:0:0:
320,192,186960,1,0,0:0:0:0:
448,192,186960,1,0,0:0:0:0:
192,192,187060,1,0,0:0:0:0:
448,192,187160,1,0,0:0:0:0:
320,192,187260,1,0,0:0:0:0:
64,192,187260,1,0,0:0:0:0:
192,192,187360,1,0,0:0:0:0:
320,192,187460,1,0,0:0:0:0:
448,192,187460,1,0,0:0:0:0:
64,192,187560,1,0,0:0:0:0:
192,192,187660,1,0,0:0:0:0:
320,192,187660,1,0,0:0:0:0:
448,192,187760,1,0,0:0:0:0:
64,192,187760,1,0,0:0:0:0:
320,192,187860,1,0,0:0:0:0:
64,192,187960,1,0,0:0:0:0:
192,192,187960,1,0,0:0:0:0:
320,192,188060,1,0,0:0:0:0:
448,192,188060,1,0,0:0:0:0:
64,192,188160,1,0,0:0:0:0:
192,192,188160,1,0,0:0:0:0:
320,192,188260,1,0,0:0:0:0:
448,192,188260,1,0,0:0:0:0:
192,192,188360,1,0,0:0:0:0:
448,192,188460,1,0,0:0:0:0:
64,192,188460,1,0,0:0:0:0:
320,192,188560,1,0,0:0:0:0:
192,192,188560,1,0,0:0:0:0:
448,192,188660,1,0,0:0:0:0:
64,192,188660,1,0,0:0:0:0:
192,192,188760,1,0,0:0:0:0:
448,192,188860,1,0,0:0:0:0:
320,192,188860,1,0,0:0:0:0:
192,192,188960,1,0,0:0:0:0:
64,192,189060,1,0,0:0:0:0:
448,192,189060,1,0,0:0:0:0:
320,192,189160,1,0,0:0:0:0:
192,192,189260,1,0,0:0:0:0:
64,192,189260,1,0,0:0:0:0:
320,192,189360,1,0,0:0:0:0:
448,192,189360,1,0,0:0:0:0:
64,192,189460,128,0,189660:0:0:0:0:
192,192,189460,1,0,0:0:0:0:
320,192,189560,1,0,0:0:0:0:
448,192,189660,1,0,0:0:0:0:
192,192,189660,1,0,0:0:0:0:
64,192,189760,1,0,0:0:0:0:
320,192,189760,1,0,0:0:0:0:
192,192,189860,1,0,0:0:0:0:
448,192,189860,1,0,0:0:0:0:
64,192,189860,1,0,0:0:0:0:
