osu file format v14

[General]
AudioFilename: audio.mp3
AudioLeadIn: 0
PreviewTime: 279460
Countdown: 0
SampleSet: Soft
StackLeniency: 0.7
Mode: 3
LetterboxInBreaks: 0
SpecialStyle: 0
WidescreenStoryboard: 1

[Editor]
DistanceSpacing: 0.5
BeatDivisor: 8
GridSize: 32
TimelineZoom: 1.5

[Metadata]
Title:Gargoyle
TitleUnicode:Gargoyle
Artist:Sanxion7
ArtistUnicode:Sanxion7
Creator:mijkolsmith
Version:Jack
Source:Pump It Up Fiesta EX
Tags:
BeatmapID:2027824
BeatmapSetID:969208

[Difficulty]
HPDrainRate:8
CircleSize:4
OverallDifficulty:8
ApproachRate:5
SliderMultiplier:1.4
SliderTickRate:1

[Events]
//Background and Video events
0,0,"gargoyle.png",0,0
//Break Periods
//Storyboard Layer 0 (Background)
//Storyboard Layer 1 (Fail)
//Storyboard Layer 2 (Pass)
//Storyboard Layer 3 (Foreground)
//Storyboard Sound Samples

[TimingPoints]
1060,400,4,2,0,20,1,0
60260,-333.333333333333,4,2,0,20,0,0
77460,-312.5,4,2,0,20,0,0
77660,-294.117647058824,4,2,0,20,0,0
77860,-277.777777777778,4,2,0,20,0,0
78060,-263.157894736842,4,2,0,20,0,0
78260,-250,4,2,0,20,0,0
78460,-238.095238095238,4,2,0,20,0,0
78660,-227.272727272727,4,2,0,20,0,0
78860,-217.391304347826,4,2,0,20,0,0
79060,-208.333333333333,4,2,0,20,0,0
79260,-200,4,2,0,20,0,0
79460,-192.307692307692,4,2,0,20,0,0
79660,-185.185185185185,4,2,0,20,0,0
79860,-178.571428571429,4,2,0,20,0,0
80060,-172.413793103448,4,2,0,20,0,0
80260,-166.666666666667,4,2,0,20,0,0
80460,-161.290322580645,4,2,0,20,0,0
80660,-156.25,4,2,0,20,0,0
80860,-151.515151515152,4,2,0,20,0,0
81060,-147.058823529412,4,2,0,20,0,0
81260,-142.857142857143,4,2,0,20,0,0
81460,-138.888888888889,4,2,0,20,0,0
81660,-135.135135135135,4,2,0,20,0,0
81860,-131.578947368421,4,2,0,20,0,0
82060,-128.205128205128,4,2,0,20,0,0
82260,-125,4,2,0,20,0,0
82460,-121.951219512195,4,2,0,20,0,0
82660,-119.047619047619,4,2,0,20,0,0
82860,-116.279069767442,4,2,0,20,0,0
83060,-113.636363636364,4,2,0,20,0,0
83260,-111.111111111111,4,2,0,20,0,0
83460,-108.695652173913,4,2,0,20,0,0
83660,-106.382978723404,4,2,0,20,0,0
83860,-104.166666666667,4,2,0,20,0,0
84060,-102.040816326531,4,2,0,20,0,0
84260,-100,4,2,0,20,0,0
85860,-666.666666666667,4,2,0,20,0,0
95860,-500,4,2,0,20,0,0
96060,-400,4,2,0,20,0,0
96260,-333.333333333333,4,2,0,20,0,0
96460,-285.714285714286,4,2,0,20,0,0
96660,-250,4,2,0,20,0,0
96860,-222.222222222222,4,2,0,20,0,0
97060,-200,4,2,0,20,0,0
98660,-666.666666666667,4,2,0,20,0,0
106660,-500,4,2,0,20,0,0
106860,-400,4,2,0,20,0,0
107060,-333.333333333333,4,2,0,20,0,0
107260,-285.714285714286,4,2,0,20,0,0
107460,-250,4,2,0,20,0,0
107660,-222.222222222222,4,2,0,20,0,0
107860,-200,4,2,0,20,0,0
108060,-181.818181818182,4,2,0,20,0,0
108260,-166.666666666667,4,2,0,20,0,0
108460,-153.846153846154,4,2,0,20,0,0
108660,-142.857142857143,4,2,0,20,0,0
108860,-133.333333333333,4,2,0,20,0,0
109060,-125,4,2,0,20,0,0
109260,-117.647058823529,4,2,0,20,0,0
109460,-111.111111111111,4,2,0,20,0,0
109660,-105.263157894737,4,2,0,20,0,0
109860,-100,4,2,0,20,0,0
111460,-100,4,2,0,20,0,1
162660,-100,4,2,0,20,0,0
189860,-133.333333333333,4,2,0,20,0,0
211060,-131.578947368421,4,2,0,20,0,0
211260,-129.87012987013,4,2,0,20,0,0
211460,-128.205128205128,4,2,0,20,0,0
211660,-126.582278481013,4,2,0,20,0,0
211860,-125,4,2,0,20,0,0
212060,-121.951219512195,4,2,0,20,0,0
212260,-119.047619047619,4,2,0,20,0,0
212460,-116.279069767442,4,2,0,20,0,0
212660,-113.636363636364,4,2,0,20,0,0
212860,-111.111111111111,4,2,0,20,0,0
213060,-108.695652173913,4,2,0,20,0,0
213260,-106.382978723404,4,2,0,20,0,0
213460,-104.166666666667,4,2,0,20,0,0
213660,-102.040816326531,4,2,0,20,0,0
213860,-100,4,2,0,20,0,0
241060,-100,4,2,0,20,0,1
266660,-100,4,2,0,20,0,0
279460,-100,4,2,0,20,0,1
330660,-100,4,2,0,20,0,0

[HitObjects]
64,192,1060,5,0,0:0:0:0:
448,192,1160,1,0,0:0:0:0:
192,192,1260,1,0,0:0:0:0:
192,192,1360,1,0,0:0:0:0:
448,192,1460,1,0,0:0:0:0:
64,192,1560,1,0,0:0:0:0:
320,192,1660,1,0,0:0:0:0:
320,192,1760,1,0,0:0:0:0:
64,192,1860,1,0,0:0:0:0:
448,192,1960,1,0,0:0:0:0:
192,192,2060,1,0,0:0:0:0:
192,192,2160,1,0,0:0:0:0:
448,192,2260,1,0,0:0:0:0:
64,192,2360,1,0,0:0:0:0:
320,192,2460,1,0,0:0:0:0:
320,192,2560,1,0,0:0:0:0:
64,192,2660,1,0,0:0:0:0:
448,192,2760,1,0,0:0:0:0:
192,192,2860,1,0,0:0:0:0:
192,192,2960,1,0,0:0:0:0:
448,192,3060,1,0,0:0:0:0:
64,192,3160,1,0,0:0:0:0:
320,192,3260,1,0,0:0:0:0:
320,192,3360,1,0,0:0:0:0:
64,192,3460,1,0,0:0:0:0:
448,192,3560,1,0,0:0:0:0:
192,192,3660,1,0,0:0:0:0:
192,192,3760,1,0,0:0:0:0:
448,192,3860,1,0,0:0:0:0:
64,192,3960,1,0,0:0:0:0:
320,192,4060,1,0,0:0:0:0:
320,192,4160,1,0,0:0:0:0:
64,192,4260,1,0,0:0:0:0:
448,192,4360,1,0,0:0:0:0:
192,192,4460,1,0,0:0:0:0:
192,192,4560,1,0,0:0:0:0:
448,192,4660,1,0,0:0:0:0:
64,192,4760,1,0,0:0:0:0:
320,192,4860,1,0,0:0:0:0:
320,192,4960,1,0,0:0:0:0:
64,192,5060,1,0,0:0:0:0:
448,192,5160,1,0,0:0:0:0:
192,192,5260,1,0,0:0:0:0:
192,192,5360,1,0,0:0:0:0:
448,192,5460,1,0,0:0:0:0:
64,192,5560,1,0,0:0:0:0:
320,192,5660,1,0,0:0:0:0:
320,192,5760,1,0,0:0:0:0:
448,192,5960,1,0,0:0:0:0:
192,192,6060,1,0,0:0:0:0:
192,192,6160,1,0,0:0:0:0:
64,192,6360,1,0,0:0:0:0:
448,192,6460,1,0,0:0:0:0:
320,192,6460,1,0,0:0:0:0:
192,192,6510,1,0,0:0:0:0:
64,192,6510,1,0,0:0:0:0:
320,192,6560,1,0,0:0:0:0:
448,192,6560,1,0,0:0:0:0:
64,192,6610,1,0,0:0:0:0:
192,192,6610,1,0,0:0:0:0:
320,192,6660,1,0,0:0:0:0:
448,192,6660,1,0,0:0:0:0:
64,192,6860,1,0,0:0:0:0:
192,192,6860,1,0,0:0:0:0:
192,192,6960,1,0,0:0:0:0:
64,192,6960,1,0,0:0:0:0:
320,192,7160,1,0,0:0:0:0:
448,192,7160,1,0,0:0:0:0:
320,192,7260,1,0,0:0:0:0:
448,192,7260,1,0,0:0:0:0:
448,192,7460,1,0,0:0:0:0:
64,192,7460,1,0,0:0:0:0:
192,192,7460,1,0,0:0:0:0:
320,192,7460,1,0,0:0:0:0:
320,192,7560,1,0,0:0:0:0:
192,192,7660,1,0,0:0:0:0:
448,192,7760,1,0,0:0:0:0:
192,192,7860,1,0,0:0:0:0:
64,192,7860,1,0,0:0:0:0:
320,192,7960,1,0,0:0:0:0:
448,192,8060,1,0,0:0:0:0:
64,192,8060,1,0,0:0:0:0:
64,192,8160,1,0,0:0:0:0:
320,192,8260,1,0,0:0:0:0:
448,192,8260,1,0,0:0:0:0:
192,192,8360,1,0,0:0:0:0:
64,192,8360,1,0,0:0:0:0:
320,192,8460,1,0,0:0:0:0:
192,192,8560,1,0,0:0:0:0:
64,192,8560,1,0,0:0:0:0:
320,192,8660,1,0,0:0:0:0:
448,192,8660,1,0,0:0:0:0:
192,192,8760,1,0,0:0:0:0:
64,192,8860,1,0,0:0:0:0:
448,192,8960,1,0,0:0:0:0:
320,192,9010,1,0,0:0:0:0:
192,192,9060,1,0,0:0:0:0:
64,192,9060,1,0,0:0:0:0:
448,192,9160,1,0,0:0:0:0:
320,192,9260,1,0,0:0:0:0:
64,192,9360,1,0,0:0:0:0:
192,192,9460,1,0,0:0:0:0:
448,192,9460,1,0,0:0:0:0:
320,192,9560,1,0,0:0:0:0:
192,192,9660,1,0,0:0:0:0:
64,192,9660,1,0,0:0:0:0:
192,192,9760,1,0,0:0:0:0:
320,192,9860,1,0,0:0:0:0:
64,192,9860,1,0,0:0:0:0:
192,192,9960,1,0,0:0:0:0:
448,192,9960,1,0,0:0:0:0:
64,192,10060,1,0,0:0:0:0:
448,192,10160,1,0,0:0:0:0:
192,192,10160,1,0,0:0:0:0:
64,192,10260,1,0,0:0:0:0:
320,192,10260,1,0,0:0:0:0:
192,192,10360,1,0,0:0:0:0:
448,192,10460,1,0,0:0:0:0:
192,192,10560,1,0,0:0:0:0:
320,192,10610,1,0,0:0:0:0:
64,192,10660,1,0,0:0:0:0:
448,192,10660,1,0,0:0:0:0:
192,192,10760,1,0,0:0:0:0:
320,192,10860,1,0,0:0:0:0:
64,192,10960,1,0,0:0:0:0:
192,192,11060,1,0,0:0:0:0:
448,192,11060,1,0,0:0:0:0:
320,192,11160,1,0,0:0:0:0:
64,192,11260,1,0,0:0:0:0:
448,192,11260,1,0,0:0:0:0:
448,192,11360,1,0,0:0:0:0:
320,192,11460,1,0,0:0:0:0:
64,192,11460,1,0,0:0:0:0:
448,192,11560,1,0,0:0:0:0:
192,192,11560,1,0,0:0:0:0:
320,192,11660,1,0,0:0:0:0:
192,192,11760,1,0,0:0:0:0:
64,192,11760,1,0,0:0:0:0:
320,192,11860,1,0,0:0:0:0:
448,192,11860,1,0,0:0:0:0:
192,192,11960,1,0,0:0:0:0:
64,192,12060,1,0,0:0:0:0:
448,192,12160,1,0,0:0:0:0:
192,192,12210,1,0,0:0:0:0:
320,192,12260,1,0,0:0:0:0:
64,192,12260,1,0,0:0:0:0:
192,192,12360,1,0,0:0:0:0:
448,192,12460,1,0,0:0:0:0:
320,192,12560,1,0,0:0:0:0:
448,192,12660,1,0,0:0:0:0:
64,192,12660,1,0,0:0:0:0:
192,192,12760,1,0,0:0:0:0:
448,192,12860,1,0,0:0:0:0:
320,192,12860,1,0,0:0:0:0:
320,192,12960,1,0,0:0:0:0:
192,192,13060,1,0,0:0:0:0:
64,192,13060,1,0,0:0:0:0:
448,192,13160,1,0,0:0:0:0:
320,192,13160,1,0,0:0:0:0:
192,192,13260,1,0,0:0:0:0:
320,192,13360,1,0,0:0:0:0:
64,192,13360,1,0,0:0:0:0:
192,192,13460,1,0,0:0:0:0:
448,192,13460,128,0,13660:0:0:0:0:
320,192,13560,1,0,0:0:0:0:
64,192,13660,128,0,13860:0:0:0:0:
320,192,13760,1,0,0:0:0:0:
192,192,13810,1,0,0:0:0:0:
448,192,13860,1,0,0:0:0:0:
320,192,13860,1,0,0:0:0:0:
192,192,13960,1,0,0:0:0:0:
64,192,14060,1,0,0:0:0:0:
448,192,14160,1,0,0:0:0:0:
320,192,14260,1,0,0:0:0:0:
192,192,14260,1,0,0:0:0:0:
64,192,14360,1,0,0:0:0:0:
448,192,14460,1,0,0:0:0:0:
320,192,14460,1,0,0:0:0:0:
320,192,14560,1,0,0:0:0:0:
64,192,14660,1,0,0:0:0:0:
448,192,14660,1,0,0:0:0:0:
320,192,14760,1,0,0:0:0:0:
192,192,14760,1,0,0:0:0:0:
448,192,14860,1,0,0:0:0:0:
320,192,14960,1,0,0:0:0:0:
64,192,14960,1,0,0:0:0:0:
192,192,15060,1,0,0:0:0:0:
448,192,15060,1,0,0:0:0:0:
64,192,15160,1,0,0:0:0:0:
320,192,15260,1,0,0:0:0:0:
192,192,15360,1,0,0:0:0:0:
64,192,15410,1,0,0:0:0:0:
320,192,15460,1,0,0:0:0:0:
448,192,15460,1,0,0:0:0:0:
192,192,15560,1,0,0:0:0:0:
448,192,15660,1,0,0:0:0:0:
64,192,15760,1,0,0:0:0:0:
320,192,15860,1,0,0:0:0:0:
192,192,15860,1,0,0:0:0:0:
448,192,15960,1,0,0:0:0:0:
320,192,16060,1,0,0:0:0:0:
64,192,16060,1,0,0:0:0:0:
64,192,16160,1,0,0:0:0:0:
320,192,16260,1,0,0:0:0:0:
448,192,16260,1,0,0:0:0:0:
192,192,16360,1,0,0:0:0:0:
64,192,16360,1,0,0:0:0:0:
448,192,16460,1,0,0:0:0:0:
320,192,16560,1,0,0:0:0:0:
192,192,16560,1,0,0:0:0:0:
448,192,16660,1,0,0:0:0:0:
64,192,16660,1,0,0:0:0:0:
192,192,16760,1,0,0:0:0:0:
320,192,16860,1,0,0:0:0:0:
64,192,16960,1,0,0:0:0:0:
448,192,17010,1,0,0:0:0:0:
192,192,17060,1,0,0:0:0:0:
320,192,17060,1,0,0:0:0:0:
64,192,17160,1,0,0:0:0:0:
448,192,17260,1,0,0:0:0:0:
320,192,17360,1,0,0:0:0:0:
192,192,17460,1,0,0:0:0:0:
64,192,17460,1,0,0:0:0:0:
320,192,17560,1,0,0:0:0:0:
448,192,17660,1,0,0:0:0:0:
64,192,17660,1,0,0:0:0:0:
448,192,17760,1,0,0:0:0:0:
320,192,17860,1,0,0:0:0:0:
192,192,17860,1,0,0:0:0:0:
64,192,17960,1,0,0:0:0:0:
448,192,17960,1,0,0:0:0:0:
320,192,18060,1,0,0:0:0:0:
448,192,18160,1,0,0:0:0:0:
64,192,18160,1,0,0:0:0:0:
320,192,18260,1,0,0:0:0:0:
192,192,18260,1,0,0:0:0:0:
64,192,18360,1,0,0:0:0:0:
448,192,18460,1,0,0:0:0:0:
192,192,18560,1,0,0:0:0:0:
320,192,18610,1,0,0:0:0:0:
448,192,18660,1,0,0:0:0:0:
64,192,18660,1,0,0:0:0:0:
192,192,18760,1,0,0:0:0:0:
320,192,18860,1,0,0:0:0:0:
448,192,18960,1,0,0:0:0:0:
192,192,19060,1,0,0:0:0:0:
64,192,19060,1,0,0:0:0:0:
448,192,19160,1,0,0:0:0:0:
320,192,19260,1,0,0:0:0:0:
64,192,19260,1,0,0:0:0:0:
320,192,19360,1,0,0:0:0:0:
64,192,19460,1,0,0:0:0:0:
192,192,19460,1,0,0:0:0:0:
448,192,19560,1,0,0:0:0:0:
320,192,19560,1,0,0:0:0:0:
192,192,19660,1,0,0:0:0:0:
320,192,19760,1,0,0:0:0:0:
448,192,19760,1,0,0:0:0:0:
192,192,19860,128,0,20060:0:0:0:0:
64,192,19860,1,0,0:0:0:0:
448,192,19960,1,0,0:0:0:0:
320,192,20060,128,0,20260:0:0:0:0:
64,192,20160,1,0,0:0:0:0:
448,192,20210,1,0,0:0:0:0:
64,192,20260,1,0,0:0:0:0:
192,192,20260,1,0,0:0:0:0:
320,192,20360,1,0,0:0:0:0:
448,192,20460,1,0,0:0:0:0:
192,192,20560,1,0,0:0:0:0:
64,192,20660,1,0,0:0:0:0:
320,192,20660,1,0,0:0:0:0:
448,192,20760,1,0,0:0:0:0:
320,192,20860,1,0,0:0:0:0:
192,192,20860,1,0,0:0:0:0:
192,192,20960,1,0,0:0:0:0:
64,192,21060,1,0,0:0:0:0:
448,192,21060,1,0,0:0:0:0:
320,192,21160,1,0,0:0:0:0:
192,192,21160,1,0,0:0:0:0:
64,192,21260,1,0,0:0:0:0:
448,192,21360,1,0,0:0:0:0:
320,192,21360,1,0,0:0:0:0:
64,192,21460,1,0,0:0:0:0:
192,192,21460,1,0,0:0:0:0:
448,192,21560,1,0,0:0:0:0:
192,192,21660,1,0,0:0:0:0:
320,192,21760,1,0,0:0:0:0:
64,192,21810,1,0,0:0:0:0:
448,192,21860,1,0,0:0:0:0:
192,192,21860,1,0,0:0:0:0:
320,192,21960,1,0,0:0:0:0:
64,192,22060,1,0,0:0:0:0:
192,192,22160,1,0,0:0:0:0:
320,192,22260,1,0,0:0:0:0:
448,192,22260,1,0,0:0:0:0:
192,192,22360,1,0,0:0:0:0:
64,192,22460,1,0,0:0:0:0:
448,192,22460,1,0,0:0:0:0:
64,192,22560,1,0,0:0:0:0:
320,192,22660,1,0,0:0:0:0:
448,192,22660,1,0,0:0:0:0:
192,192,22760,1,0,0:0:0:0:
64,192,22760,1,0,0:0:0:0:
320,192,22860,1,0,0:0:0:0:
192,192,22960,1,0,0:0:0:0:
448,192,22960,1,0,0:0:0:0:
320,192,23060,1,0,0:0:0:0:
64,192,23060,1,0,0:0:0:0:
192,192,23160,1,0,0:0:0:0:
320,192,23260,1,0,0:0:0:0:
192,192,23360,1,0,0:0:0:0:
448,192,23410,1,0,0:0:0:0:
64,192,23460,1,0,0:0:0:0:
320,192,23460,1,0,0:0:0:0:
192,192,23560,1,0,0:0:0:0:
448,192,23660,1,0,0:0:0:0:
64,192,23760,1,0,0:0:0:0:
192,192,23860,1,0,0:0:0:0:
320,192,23860,1,0,0:0:0:0:
448,192,23960,1,0,0:0:0:0:
320,192,24060,1,0,0:0:0:0:
64,192,24060,1,0,0:0:0:0:
320,192,24160,1,0,0:0:0:0:
192,192,24260,1,0,0:0:0:0:
448,192,24260,1,0,0:0:0:0:
320,192,24360,1,0,0:0:0:0:
64,192,24360,1,0,0:0:0:0:
448,192,24460,1,0,0:0:0:0:
320,192,24560,1,0,0:0:0:0:
64,192,24560,1,0,0:0:0:0:
192,192,24660,1,0,0:0:0:0:
448,192,24660,1,0,0:0:0:0:
64,192,24760,1,0,0:0:0:0:
192,192,24860,1,0,0:0:0:0:
320,192,24960,1,0,0:0:0:0:
448,192,25010,1,0,0:0:0:0:
64,192,25060,1,0,0:0:0:0:
192,192,25060,1,0,0:0:0:0:
320,192,25160,1,0,0:0:0:0:
448,192,25260,1,0,0:0:0:0:
64,192,25360,1,0,0:0:0:0:
192,192,25460,1,0,0:0:0:0:
448,192,25460,1,0,0:0:0:0:
320,192,25560,1,0,0:0:0:0:
64,192,25660,1,0,0:0:0:0:
192,192,25660,1,0,0:0:0:0:
64,192,25760,1,0,0:0:0:0:
320,192,25860,1,0,0:0:0:0:
192,192,25860,1,0,0:0:0:0:
64,192,25960,1,0,0:0:0:0:
448,192,25960,1,0,0:0:0:0:
320,192,26060,1,0,0:0:0:0:
192,192,26160,1,0,0:0:0:0:
448,192,26160,1,0,0:0:0:0:
64,192,26260,1,0,0:0:0:0:
320,192,26260,128,0,26460:0:0:0:0:
448,192,26360,1,0,0:0:0:0:
192,192,26460,128,0,26660:0:0:0:0:
448,192,26560,1,0,0:0:0:0:
320,192,26610,1,0,0:0:0:0:
448,192,26660,1,0,0:0:0:0:
64,192,26660,1,0,0:0:0:0:
192,192,26760,1,0,0:0:0:0:
320,192,26860,1,0,0:0:0:0:
448,192,26960,1,0,0:0:0:0:
192,192,27060,1,0,0:0:0:0:
64,192,27060,1,0,0:0:0:0:
320,192,27160,1,0,0:0:0:0:
448,192,27260,1,0,0:0:0:0:
192,192,27260,1,0,0:0:0:0:
448,192,27360,1,0,0:0:0:0:
192,192,27460,1,0,0:0:0:0:
320,192,27460,1,0,0:0:0:0:
64,192,27560,1,0,0:0:0:0:
448,192,27560,1,0,0:0:0:0:
320,192,27660,1,0,0:0:0:0:
192,192,27760,1,0,0:0:0:0:
64,192,27760,1,0,0:0:0:0:
320,192,27860,1,0,0:0:0:0:
448,192,27860,1,0,0:0:0:0:
192,192,27960,1,0,0:0:0:0:
64,192,28060,1,0,0:0:0:0:
320,192,28160,1,0,0:0:0:0:
192,192,28210,1,0,0:0:0:0:
448,192,28260,1,0,0:0:0:0:
64,192,28260,1,0,0:0:0:0:
320,192,28360,1,0,0:0:0:0:
192,192,28460,1,0,0:0:0:0:
448,192,28560,1,0,0:0:0:0:
320,192,28660,1,0,0:0:0:0:
64,192,28660,1,0,0:0:0:0:
192,192,28760,1,0,0:0:0:0:
320,192,28860,1,0,0:0:0:0:
448,192,28860,1,0,0:0:0:0:
320,192,28960,1,0,0:0:0:0:
192,192,29060,1,0,0:0:0:0:
448,192,29060,1,0,0:0:0:0:
320,192,29160,1,0,0:0:0:0:
64,192,29160,1,0,0:0:0:0:
448,192,29260,1,0,0:0:0:0:
320,192,29360,1,0,0:0:0:0:
192,192,29360,1,0,0:0:0:0:
64,192,29460,1,0,0:0:0:0:
448,192,29460,1,0,0:0:0:0:
192,192,29560,1,0,0:0:0:0:
320,192,29660,1,0,0:0:0:0:
64,192,29760,1,0,0:0:0:0:
192,192,29810,1,0,0:0:0:0:
320,192,29860,1,0,0:0:0:0:
448,192,29860,1,0,0:0:0:0:
64,192,29960,1,0,0:0:0:0:
192,192,30060,1,0,0:0:0:0:
320,192,30160,1,0,0:0:0:0:
448,192,30260,1,0,0:0:0:0:
64,192,30260,1,0,0:0:0:0:
320,192,30360,1,0,0:0:0:0:
192,192,30460,1,0,0:0:0:0:
448,192,30460,1,0,0:0:0:0:
192,192,30560,1,0,0:0:0:0:
64,192,30660,1,0,0:0:0:0:
448,192,30660,1,0,0:0:0:0:
320,192,30760,1,0,0:0:0:0:
192,192,30760,1,0,0:0:0:0:
64,192,30860,1,0,0:0:0:0:
320,192,30960,1,0,0:0:0:0:
448,192,30960,1,0,0:0:0:0:
192,192,31060,1,0,0:0:0:0:
64,192,31060,1,0,0:0:0:0:
448,192,31160,1,0,0:0:0:0:
320,192,31260,1,0,0:0:0:0:
64,192,31360,1,0,0:0:0:0:
192,192,31460,1,0,0:0:0:0:
448,192,31460,1,0,0:0:0:0:
320,192,31560,1,0,0:0:0:0:
448,192,31660,1,0,0:0:0:0:
192,192,31760,1,0,0:0:0:0:
320,192,31860,1,0,0:0:0:0:
64,192,31860,1,0,0:0:0:0:
448,192,31960,1,0,0:0:0:0:
64,192,32060,1,0,0:0:0:0:
192,192,32060,1,0,0:0:0:0:
320,192,32110,1,0,0:0:0:0:
448,192,32110,1,0,0:0:0:0:
192,192,32160,1,0,0:0:0:0:
64,192,32160,1,0,0:0:0:0:
320,192,32210,1,0,0:0:0:0:
448,192,32210,1,0,0:0:0:0:
192,192,32260,1,0,0:0:0:0:
64,192,32260,1,0,0:0:0:0:
64,192,32460,1,0,0:0:0:0:
192,192,32460,1,0,0:0:0:0:
192,192,32560,1,0,0:0:0:0:
64,192,32560,1,0,0:0:0:0:
448,192,32660,1,0,0:0:0:0:
320,192,32660,1,0,0:0:0:0:
320,192,32760,1,0,0:0:0:0:
448,192,32760,1,0,0:0:0:0:
64,192,32860,1,0,0:0:0:0:
192,192,32860,1,0,0:0:0:0:
448,192,33060,1,0,0:0:0:0:
64,192,33060,1,0,0:0:0:0:
192,192,33060,1,0,0:0:0:0:
320,192,33160,1,0,0:0:0:0:
64,192,33260,1,0,0:0:0:0:
448,192,33260,1,0,0:0:0:0:
320,192,33360,1,0,0:0:0:0:
448,192,33360,1,0,0:0:0:0:
64,192,33460,1,0,0:0:0:0:
192,192,33460,1,0,0:0:0:0:
320,192,33560,1,0,0:0:0:0:
448,192,33660,1,0,0:0:0:0:
64,192,33660,1,0,0:0:0:0:
448,192,33760,1,0,0:0:0:0:
64,192,33860,1,0,0:0:0:0:
192,192,33860,1,0,0:0:0:0:
192,192,33960,1,0,0:0:0:0:
64,192,33960,1,0,0:0:0:0:
448,192,34060,1,0,0:0:0:0:
320,192,34060,1,0,0:0:0:0:
320,192,34160,1,0,0:0:0:0:
448,192,34160,1,0,0:0:0:0:
192,192,34260,1,0,0:0:0:0:
64,192,34260,1,0,0:0:0:0:
320,192,34360,1,0,0:0:0:0:
448,192,34360,1,0,0:0:0:0:
64,192,34460,1,0,0:0:0:0:
320,192,34460,1,0,0:0:0:0:
192,192,34560,1,0,0:0:0:0:
64,192,34560,1,0,0:0:0:0:
448,192,34660,1,0,0:0:0:0:
320,192,34660,1,0,0:0:0:0:
192,192,34760,1,0,0:0:0:0:
64,192,34860,1,0,0:0:0:0:
320,192,34860,1,0,0:0:0:0:
448,192,34960,1,0,0:0:0:0:
64,192,34960,1,0,0:0:0:0:
320,192,35060,1,0,0:0:0:0:
192,192,35060,1,0,0:0:0:0:
64,192,35160,1,0,0:0:0:0:
448,192,35260,1,0,0:0:0:0:
192,192,35260,1,0,0:0:0:0:
192,192,35360,1,0,0:0:0:0:
320,192,35460,1,0,0:0:0:0:
448,192,35460,1,0,0:0:0:0:
64,192,35560,1,0,0:0:0:0:
192,192,35660,1,0,0:0:0:0:
448,192,35660,1,0,0:0:0:0:
448,192,35760,1,0,0:0:0:0:
64,192,35760,1,0,0:0:0:0:
192,192,35860,1,0,0:0:0:0:
320,192,35860,1,0,0:0:0:0:
448,192,35960,1,0,0:0:0:0:
64,192,35960,1,0,0:0:0:0:
192,192,36060,1,0,0:0:0:0:
448,192,36060,1,0,0:0:0:0:
192,192,36160,1,0,0:0:0:0:
320,192,36160,1,0,0:0:0:0:
64,192,36260,1,0,0:0:0:0:
448,192,36260,1,0,0:0:0:0:
192,192,36360,1,0,0:0:0:0:
320,192,36460,1,0,0:0:0:0:
448,192,36460,1,0,0:0:0:0:
448,192,36560,1,0,0:0:0:0:
192,192,36560,1,0,0:0:0:0:
320,192,36660,1,0,0:0:0:0:
64,192,36660,1,0,0:0:0:0:
192,192,36760,1,0,0:0:0:0:
448,192,36860,1,0,0:0:0:0:
64,192,36860,1,0,0:0:0:0:
64,192,36960,1,0,0:0:0:0:
192,192,37060,1,0,0:0:0:0:
320,192,37060,1,0,0:0:0:0:
448,192,37160,1,0,0:0:0:0:
320,192,37260,1,0,0:0:0:0:
192,192,37260,1,0,0:0:0:0:
448,192,37360,1,0,0:0:0:0:
192,192,37360,1,0,0:0:0:0:
320,192,37460,1,0,0:0:0:0:
64,192,37460,1,0,0:0:0:0:
448,192,37560,1,0,0:0:0:0:
192,192,37560,1,0,0:0:0:0:
64,192,37660,1,0,0:0:0:0:
448,192,37660,1,0,0:0:0:0:
64,192,37760,1,0,0:0:0:0:
192,192,37760,1,0,0:0:0:0:
320,192,37860,1,0,0:0:0:0:
448,192,37860,1,0,0:0:0:0:
192,192,37960,1,0,0:0:0:0:
320,192,38060,1,0,0:0:0:0:
64,192,38060,1,0,0:0:0:0:
192,192,38160,1,0,0:0:0:0:
320,192,38160,1,0,0:0:0:0:
448,192,38260,1,0,0:0:0:0:
64,192,38260,1,0,0:0:0:0:
192,192,38360,1,0,0:0:0:0:
320,192,38360,1,0,0:0:0:0:
320,192,38460,1,0,0:0:0:0:
448,192,38460,1,0,0:0:0:0:
64,192,38560,1,0,0:0:0:0:
448,192,38560,1,0,0:0:0:0:
320,192,38660,1,0,0:0:0:0:
64,192,38660,1,0,0:0:0:0:
192,192,38760,1,0,0:0:0:0:
64,192,38860,1,0,0:0:0:0:
320,192,38860,1,0,0:0:0:0:
192,192,38960,1,0,0:0:0:0:
320,192,38960,1,0,0:0:0:0:
448,192,39060,128,0,39260:0:0:0:0:
64,192,39060,1,0,0:0:0:0:
192,192,39160,1,0,0:0:0:0:
320,192,39260,1,0,0:0:0:0:
64,192,39260,1,0,0:0:0:0:
64,192,39360,1,0,0:0:0:0:
448,192,39360,1,0,0:0:0:0:
192,192,39460,1,0,0:0:0:0:
448,192,39460,1,0,0:0:0:0:
320,192,39560,1,0,0:0:0:0:
192,192,39660,1,0,0:0:0:0:
64,192,39660,1,0,0:0:0:0:
448,192,39760,1,0,0:0:0:0:
192,192,39760,1,0,0:0:0:0:
64,192,39860,1,0,0:0:0:0:
320,192,39860,1,0,0:0:0:0:
192,192,39960,1,0,0:0:0:0:
448,192,40060,1,0,0:0:0:0:
320,192,40060,1,0,0:0:0:0:
320,192,40160,1,0,0:0:0:0:
64,192,40260,1,0,0:0:0:0:
448,192,40260,1,0,0:0:0:0:
64,192,40360,1,0,0:0:0:0:
448,192,40360,1,0,0:0:0:0:
320,192,40460,1,0,0:0:0:0:
192,192,40460,1,0,0:0:0:0:
320,192,40560,1,0,0:0:0:0:
192,192,40560,1,0,0:0:0:0:
448,192,40660,1,0,0:0:0:0:
64,192,40660,1,0,0:0:0:0:
192,192,40760,1,0,0:0:0:0:
320,192,40760,1,0,0:0:0:0:
448,192,40860,1,0,0:0:0:0:
192,192,40860,1,0,0:0:0:0:
64,192,40960,1,0,0:0:0:0:
448,192,40960,1,0,0:0:0:0:
192,192,41060,1,0,0:0:0:0:
320,192,41060,1,0,0:0:0:0:
448,192,41160,1,0,0:0:0:0:
64,192,41260,1,0,0:0:0:0:
192,192,41260,1,0,0:0:0:0:
320,192,41360,1,0,0:0:0:0:
192,192,41360,1,0,0:0:0:0:
64,192,41460,1,0,0:0:0:0:
448,192,41460,1,0,0:0:0:0:
320,192,41560,1,0,0:0:0:0:
448,192,41660,1,0,0:0:0:0:
192,192,41660,1,0,0:0:0:0:
448,192,41760,1,0,0:0:0:0:
320,192,41860,1,0,0:0:0:0:
192,192,41860,1,0,0:0:0:0:
64,192,41960,1,0,0:0:0:0:
320,192,42060,1,0,0:0:0:0:
192,192,42060,1,0,0:0:0:0:
448,192,42160,1,0,0:0:0:0:
320,192,42160,1,0,0:0:0:0:
192,192,42260,1,0,0:0:0:0:
64,192,42260,1,0,0:0:0:0:
448,192,42360,1,0,0:0:0:0:
320,192,42360,1,0,0:0:0:0:
448,192,42460,1,0,0:0:0:0:
64,192,42460,1,0,0:0:0:0:
192,192,42560,1,0,0:0:0:0:
64,192,42560,1,0,0:0:0:0:
448,192,42660,1,0,0:0:0:0:
320,192,42660,1,0,0:0:0:0:
192,192,42760,1,0,0:0:0:0:
64,192,42860,1,0,0:0:0:0:
320,192,42860,1,0,0:0:0:0:
320,192,42960,1,0,0:0:0:0:
448,192,42960,1,0,0:0:0:0:
192,192,43060,1,0,0:0:0:0:
64,192,43060,1,0,0:0:0:0:
448,192,43160,1,0,0:0:0:0:
64,192,43260,1,0,0:0:0:0:
320,192,43260,1,0,0:0:0:0:
64,192,43360,1,0,0:0:0:0:
448,192,43460,1,0,0:0:0:0:
192,192,43460,1,0,0:0:0:0:
64,192,43560,1,0,0:0:0:0:
448,192,43660,1,0,0:0:0:0:
320,192,43660,1,0,0:0:0:0:
64,192,43760,1,0,0:0:0:0:
448,192,43760,1,0,0:0:0:0:
192,192,43860,1,0,0:0:0:0:
320,192,43860,1,0,0:0:0:0:
448,192,43960,1,0,0:0:0:0:
64,192,43960,1,0,0:0:0:0:
320,192,44060,1,0,0:0:0:0:
64,192,44060,1,0,0:0:0:0:
448,192,44160,1,0,0:0:0:0:
320,192,44160,1,0,0:0:0:0:
64,192,44260,1,0,0:0:0:0:
192,192,44260,1,0,0:0:0:0:
320,192,44360,1,0,0:0:0:0:
448,192,44460,1,0,0:0:0:0:
192,192,44460,1,0,0:0:0:0:
64,192,44560,1,0,0:0:0:0:
448,192,44560,1,0,0:0:0:0:
192,192,44660,1,0,0:0:0:0:
320,192,44660,1,0,0:0:0:0:
448,192,44760,1,0,0:0:0:0:
64,192,44860,1,0,0:0:0:0:
320,192,44860,1,0,0:0:0:0:
64,192,44960,1,0,0:0:0:0:
320,192,45060,1,0,0:0:0:0:
448,192,45060,1,0,0:0:0:0:
64,192,45160,1,0,0:0:0:0:
320,192,45260,1,0,0:0:0:0:
192,192,45260,1,0,0:0:0:0:
64,192,45360,1,0,0:0:0:0:
320,192,45360,1,0,0:0:0:0:
192,192,45460,128,0,45660:0:0:0:0:
448,192,45460,1,0,0:0:0:0:
64,192,45560,1,0,0:0:0:0:
320,192,45660,1,0,0:0:0:0:
448,192,45660,1,0,0:0:0:0:
64,192,45760,1,0,0:0:0:0:
320,192,45760,1,0,0:0:0:0:
448,192,45860,1,0,0:0:0:0:
64,192,45860,1,0,0:0:0:0:
192,192,45960,1,0,0:0:0:0:
64,192,46060,1,0,0:0:0:0:
448,192,46060,1,0,0:0:0:0:
192,192,46160,1,0,0:0:0:0:
448,192,46160,1,0,0:0:0:0:
320,192,46260,1,0,0:0:0:0:
64,192,46260,1,0,0:0:0:0:
192,192,46360,1,0,0:0:0:0:
64,192,46460,1,0,0:0:0:0:
448,192,46460,1,0,0:0:0:0:
448,192,46560,1,0,0:0:0:0:
64,192,46660,1,0,0:0:0:0:
320,192,46660,1,0,0:0:0:0:
320,192,46760,1,0,0:0:0:0:
64,192,46760,1,0,0:0:0:0:
192,192,46860,1,0,0:0:0:0:
448,192,46860,1,0,0:0:0:0:
448,192,46960,1,0,0:0:0:0:
192,192,46960,1,0,0:0:0:0:
64,192,47060,1,0,0:0:0:0:
448,192,47160,1,0,0:0:0:0:
192,192,47160,1,0,0:0:0:0:
320,192,47260,1,0,0:0:0:0:
192,192,47260,1,0,0:0:0:0:
320,192,47360,1,0,0:0:0:0:
64,192,47360,1,0,0:0:0:0:
448,192,47460,1,0,0:0:0:0:
192,192,47460,1,0,0:0:0:0:
320,192,47560,1,0,0:0:0:0:
64,192,47660,1,0,0:0:0:0:
192,192,47660,1,0,0:0:0:0:
448,192,47760,1,0,0:0:0:0:
192,192,47760,1,0,0:0:0:0:
320,192,47860,1,0,0:0:0:0:
64,192,47860,1,0,0:0:0:0:
192,192,47960,1,0,0:0:0:0:
448,192,48060,1,0,0:0:0:0:
64,192,48060,1,0,0:0:0:0:
448,192,48160,1,0,0:0:0:0:
192,192,48260,1,0,0:0:0:0:
64,192,48260,1,0,0:0:0:0:
448,192,48360,1,0,0:0:0:0:
320,192,48460,1,0,0:0:0:0:
192,192,48460,1,0,0:0:0:0:
192,192,48560,1,0,0:0:0:0:
448,192,48560,1,0,0:0:0:0:
320,192,48660,1,0,0:0:0:0:
64,192,48660,1,0,0:0:0:0:
192,192,48760,1,0,0:0:0:0:
448,192,48760,1,0,0:0:0:0:
320,192,48860,1,0,0:0:0:0:
448,192,48860,1,0,0:0:0:0:
64,192,48960,1,0,0:0:0:0:
320,192,48960,1,0,0:0:0:0:
192,192,49060,1,0,0:0:0:0:
448,192,49060,1,0,0:0:0:0:
320,192,49160,1,0,0:0:0:0:
64,192,49260,1,0,0:0:0:0:
192,192,49260,1,0,0:0:0:0:
448,192,49360,1,0,0:0:0:0:
64,192,49360,1,0,0:0:0:0:
192,192,49460,1,0,0:0:0:0:
320,192,49460,1,0,0:0:0:0:
64,192,49560,1,0,0:0:0:0:
448,192,49660,1,0,0:0:0:0:
192,192,49660,1,0,0:0:0:0:
448,192,49760,1,0,0:0:0:0:
192,192,49860,1,0,0:0:0:0:
64,192,49860,1,0,0:0:0:0:
320,192,49960,1,0,0:0:0:0:
448,192,50060,1,0,0:0:0:0:
64,192,50060,1,0,0:0:0:0:
64,192,50160,1,0,0:0:0:0:
320,192,50160,1,0,0:0:0:0:
448,192,50260,1,0,0:0:0:0:
192,192,50260,1,0,0:0:0:0:
320,192,50360,1,0,0:0:0:0:
64,192,50360,1,0,0:0:0:0:
448,192,50460,1,0,0:0:0:0:
64,192,50460,1,0,0:0:0:0:
320,192,50560,1,0,0:0:0:0:
448,192,50560,1,0,0:0:0:0:
64,192,50660,1,0,0:0:0:0:
192,192,50660,1,0,0:0:0:0:
448,192,50760,1,0,0:0:0:0:
320,192,50860,1,0,0:0:0:0:
192,192,50860,1,0,0:0:0:0:
64,192,50960,1,0,0:0:0:0:
320,192,50960,1,0,0:0:0:0:
192,192,51060,1,0,0:0:0:0:
448,192,51060,1,0,0:0:0:0:
320,192,51160,1,0,0:0:0:0:
448,192,51260,1,0,0:0:0:0:
64,192,51260,1,0,0:0:0:0:
64,192,51360,1,0,0:0:0:0:
320,192,51460,1,0,0:0:0:0:
448,192,51460,1,0,0:0:0:0:
64,192,51560,1,0,0:0:0:0:
448,192,51660,1,0,0:0:0:0:
192,192,51660,1,0,0:0:0:0:
192,192,51760,1,0,0:0:0:0:
64,192,51760,1,0,0:0:0:0:
448,192,51860,1,0,0:0:0:0:
320,192,51860,128,0,52060:0:0:0:0:
192,192,51960,1,0,0:0:0:0:
64,192,52060,1,0,0:0:0:0:
448,192,52060,1,0,0:0:0:0:
320,192,52160,1,0,0:0:0:0:
64,192,52160,1,0,0:0:0:0:
448,192,52260,1,0,0:0:0:0:
320,192,52260,1,0,0:0:0:0:
64,192,52360,1,0,0:0:0:0:
448,192,52460,1,0,0:0:0:0:
192,192,52460,1,0,0:0:0:0:
192,192,52560,1,0,0:0:0:0:
64,192,52560,1,0,0:0:0:0:
320,192,52660,1,0,0:0:0:0:
448,192,52660,1,0,0:0:0:0:
64,192,52760,1,0,0:0:0:0:
192,192,52860,1,0,0:0:0:0:
320,192,52860,1,0,0:0:0:0:
192,192,52960,1,0,0:0:0:0:
320,192,53060,1,0,0:0:0:0:
448,192,53060,1,0,0:0:0:0:
320,192,53160,1,0,0:0:0:0:
448,192,53160,1,0,0:0:0:0:
64,192,53260,1,0,0:0:0:0:
192,192,53260,1,0,0:0:0:0:
192,192,53360,1,0,0:0:0:0:
64,192,53360,1,0,0:0:0:0:
448,192,53460,1,0,0:0:0:0:
320,192,53460,1,0,0:0:0:0:
192,192,53560,1,0,0:0:0:0:
64,192,53560,1,0,0:0:0:0:
64,192,53660,1,0,0:0:0:0:
320,192,53660,1,0,0:0:0:0:
192,192,53760,1,0,0:0:0:0:
320,192,53760,1,0,0:0:0:0:
64,192,53860,1,0,0:0:0:0:
448,192,53860,1,0,0:0:0:0:
320,192,53960,1,0,0:0:0:0:
448,192,54060,1,0,0:0:0:0:
192,192,54060,1,0,0:0:0:0:
64,192,54160,1,0,0:0:0:0:
448,192,54160,1,0,0:0:0:0:
192,192,54260,1,0,0:0:0:0:
320,192,54260,1,0,0:0:0:0:
64,192,54360,1,0,0:0:0:0:
448,192,54460,1,0,0:0:0:0:
320,192,54460,1,0,0:0:0:0:
320,192,54560,1,0,0:0:0:0:
192,192,54660,1,0,0:0:0:0:
64,192,54660,1,0,0:0:0:0:
448,192,54760,1,0,0:0:0:0:
192,192,54860,1,0,0:0:0:0:
320,192,54860,1,0,0:0:0:0:
448,192,54960,1,0,0:0:0:0:
192,192,54960,1,0,0:0:0:0:
320,192,55060,1,0,0:0:0:0:
64,192,55060,1,0,0:0:0:0:
192,192,55160,1,0,0:0:0:0:
448,192,55160,1,0,0:0:0:0:
448,192,55260,1,0,0:0:0:0:
64,192,55260,1,0,0:0:0:0:
64,192,55360,1,0,0:0:0:0:
320,192,55360,1,0,0:0:0:0:
448,192,55460,1,0,0:0:0:0:
192,192,55460,1,0,0:0:0:0:
320,192,55560,1,0,0:0:0:0:
64,192,55660,1,0,0:0:0:0:
192,192,55660,1,0,0:0:0:0:
448,192,55760,1,0,0:0:0:0:
192,192,55760,1,0,0:0:0:0:
320,192,55860,1,0,0:0:0:0:
64,192,55860,1,0,0:0:0:0:
448,192,55960,1,0,0:0:0:0:
320,192,56060,1,0,0:0:0:0:
64,192,56060,1,0,0:0:0:0:
320,192,56160,1,0,0:0:0:0:
448,192,56260,1,0,0:0:0:0:
192,192,56260,1,0,0:0:0:0:
64,192,56360,1,0,0:0:0:0:
448,192,56460,1,0,0:0:0:0:
192,192,56460,1,0,0:0:0:0:
192,192,56560,1,0,0:0:0:0:
64,192,56560,1,0,0:0:0:0:
448,192,56660,1,0,0:0:0:0:
320,192,56660,1,0,0:0:0:0:
192,192,56760,1,0,0:0:0:0:
64,192,56760,1,0,0:0:0:0:
448,192,56860,1,0,0:0:0:0:
192,192,56860,1,0,0:0:0:0:
320,192,56960,1,0,0:0:0:0:
448,192,56960,1,0,0:0:0:0:
64,192,57060,1,0,0:0:0:0:
192,192,57060,1,0,0:0:0:0:
320,192,57160,1,0,0:0:0:0:
192,192,57260,1,0,0:0:0:0:
64,192,57260,1,0,0:0:0:0:
448,192,57360,1,0,0:0:0:0:
64,192,57360,1,0,0:0:0:0:
192,192,57460,1,0,0:0:0:0:
320,192,57460,1,0,0:0:0:0:
64,192,57560,1,0,0:0:0:0:
448,192,57660,1,0,0:0:0:0:
320,192,57660,1,0,0:0:0:0:
320,192,57760,1,0,0:0:0:0:
64,192,57860,1,0,0:0:0:0:
192,192,57860,1,0,0:0:0:0:
320,192,57960,1,0,0:0:0:0:
64,192,58060,1,0,0:0:0:0:
448,192,58060,1,0,0:0:0:0:
320,192,58160,1,0,0:0:0:0:
448,192,58160,1,0,0:0:0:0:
64,192,58260,128,0,58460:0:0:0:0:
192,192,58260,1,0,0:0:0:0:
320,192,58360,1,0,0:0:0:0:
448,192,58460,1,0,0:0:0:0:
192,192,58460,1,0,0:0:0:0:
64,192,58560,1,0,0:0:0:0:
192,192,58560,1,0,0:0:0:0:
448,192,58660,1,0,0:0:0:0:
64,192,58660,1,0,0:0:0:0:
320,192,58660,1,0,0:0:0:0:
64,192,59260,1,0,0:0:0:0:
192,192,59260,1,0,0:0:0:0:
320,192,59310,1,0,0:0:0:0:
448,192,59310,1,0,0:0:0:0:
192,192,59360,1,0,0:0:0:0:
64,192,59360,1,0,0:0:0:0:
448,192,59410,1,0,0:0:0:0:
320,192,59410,1,0,0:0:0:0:
192,192,59460,1,0,0:0:0:0:
64,192,59460,1,0,0:0:0:0:
320,192,59660,1,0,0:0:0:0:
448,192,59660,1,0,0:0:0:0:
320,192,59760,1,0,0:0:0:0:
448,192,59760,1,0,0:0:0:0:
192,192,59960,1,0,0:0:0:0:
64,192,59960,1,0,0:0:0:0:
192,192,60060,1,0,0:0:0:0:
64,192,60060,1,0,0:0:0:0:
64,192,60260,1,0,0:0:0:0:
448,192,60260,1,0,0:0:0:0:
320,192,60260,1,0,0:0:0:0:
192,192,60460,1,0,0:0:0:0:
320,192,60660,1,0,0:0:0:0:
64,192,60860,1,0,0:0:0:0:
192,192,61060,1,0,0:0:0:0:
320,192,61260,1,0,0:0:0:0:
64,192,61460,1,0,0:0:0:0:
192,192,61660,1,0,0:0:0:0:
448,192,61860,1,0,0:0:0:0:
64,192,62060,1,0,0:0:0:0:
320,192,62260,1,0,0:0:0:0:
448,192,62460,1,0,0:0:0:0:
64,192,62660,1,0,0:0:0:0:
320,192,62860,1,0,0:0:0:0:
448,192,63060,1,0,0:0:0:0:
320,192,63260,1,0,0:0:0:0:
64,192,63460,1,0,0:0:0:0:
192,192,63660,1,0,0:0:0:0:
320,192,63860,1,0,0:0:0:0:
64,192,64060,1,0,0:0:0:0:
192,192,64260,1,0,0:0:0:0:
320,192,64460,1,0,0:0:0:0:
64,192,64660,1,0,0:0:0:0:
192,192,64860,1,0,0:0:0:0:
448,192,65060,1,0,0:0:0:0:
64,192,65260,1,0,0:0:0:0:
320,192,65460,1,0,0:0:0:0:
448,192,65660,1,0,0:0:0:0:
64,192,65860,1,0,0:0:0:0:
320,192,66060,1,0,0:0:0:0:
448,192,66260,1,0,0:0:0:0:
320,192,66460,1,0,0:0:0:0:
64,192,66660,1,0,0:0:0:0:
192,192,66860,1,0,0:0:0:0:
448,192,67060,1,0,0:0:0:0:
64,192,67260,1,0,0:0:0:0:
192,192,67460,1,0,0:0:0:0:
448,192,67660,1,0,0:0:0:0:
64,192,67860,1,0,0:0:0:0:
192,192,68060,1,0,0:0:0:0:
64,192,68260,1,0,0:0:0:0:
192,192,68460,1,0,0:0:0:0:
320,192,68660,1,0,0:0:0:0:
64,192,68860,1,0,0:0:0:0:
192,192,69060,1,0,0:0:0:0:
448,192,69260,1,0,0:0:0:0:
64,192,69460,1,0,0:0:0:0:
320,192,69660,1,0,0:0:0:0:
64,192,69860,1,0,0:0:0:0:
192,192,70060,1,0,0:0:0:0:
320,192,70260,1,0,0:0:0:0:
64,192,70460,1,0,0:0:0:0:
192,192,70660,1,0,0:0:0:0:
320,192,70860,1,0,0:0:0:0:
64,192,71060,1,0,0:0:0:0:
192,192,71260,1,0,0:0:0:0:
448,192,71460,1,0,0:0:0:0:
64,192,71660,1,0,0:0:0:0:
192,192,71860,1,0,0:0:0:0:
320,192,72060,1,0,0:0:0:0:
448,192,72260,1,0,0:0:0:0:
320,192,72460,1,0,0:0:0:0:
64,192,72660,1,0,0:0:0:0:
192,192,72860,1,0,0:0:0:0:
320,192,73060,1,0,0:0:0:0:
448,192,73060,1,0,0:0:0:0:
64,192,73060,128,0,73260:0:0:0:0:
192,192,73260,128,0,73460:0:0:0:0:
320,192,73460,128,0,73660:0:0:0:0:
64,192,73660,128,0,73860:0:0:0:0:
192,192,73860,128,0,74060:0:0:0:0:
320,192,74060,128,0,74260:0:0:0:0:
64,192,74260,128,0,74460:0:0:0:0:
192,192,74460,128,0,74660:0:0:0:0:
448,192,74660,128,0,74860:0:0:0:0:
64,192,74860,128,0,75060:0:0:0:0:
320,192,75060,128,0,75260:0:0:0:0:
448,192,75260,128,0,75460:0:0:0:0:
64,192,75460,128,0,75660:0:0:0:0:
320,192,75660,128,0,75860:0:0:0:0:
448,192,75860,128,0,76060:0:0:0:0:
320,192,76060,128,0,76260:0:0:0:0:
64,192,76260,128,0,76460:0:0:0:0:
192,192,76460,128,0,76660:0:0:0:0:
320,192,76660,128,0,76860:0:0:0:0:
64,192,76860,128,0,77060:0:0:0:0:
192,192,77060,128,0,77260:0:0:0:0:
320,192,77260,128,0,77460:0:0:0:0:
64,192,77460,128,0,77660:0:0:0:0:
192,192,77660,128,0,77860:0:0:0:0:
448,192,77860,128,0,78060:0:0:0:0:
64,192,78060,128,0,78260:0:0:0:0:
320,192,78260,128,0,78460:0:0:0:0:
448,192,78460,128,0,78660:0:0:0:0:
64,192,78660,128,0,78860:0:0:0:0:
320,192,78860,128,0,79060:0:0:0:0:
448,192,79060,128,0,79260:0:0:0:0:
320,192,79260,128,0,79460:0:0:0:0:
64,192,79460,128,0,79660:0:0:0:0:
192,192,79660,128,0,79860:0:0:0:0:
448,192,79860,128,0,80060:0:0:0:0:
64,192,80060,128,0,80260:0:0:0:0:
192,192,80260,128,0,80460:0:0:0:0:
448,192,80460,128,0,80660:0:0:0:0:
64,192,80660,128,0,80860:0:0:0:0:
192,192,80860,128,0,81060:0:0:0:0:
64,192,81060,128,0,81260:0:0:0:0:
192,192,81260,128,0,81460:0:0:0:0:
320,192,81460,128,0,81660:0:0:0:0:
64,192,81660,128,0,81860:0:0:0:0:
192,192,81860,128,0,82060:0:0:0:0:
448,192,82060,128,0,82260:0:0:0:0:
64,192,82260,128,0,82460:0:0:0:0:
320,192,82460,128,0,82660:0:0:0:0:
64,192,82660,128,0,82860:0:0:0:0:
192,192,82860,128,0,83060:0:0:0:0:
320,192,83060,128,0,83260:0:0:0:0:
64,192,83260,128,0,83460:0:0:0:0:
192,192,83460,128,0,83660:0:0:0:0:
320,192,83660,128,0,83860:0:0:0:0:
64,192,83860,128,0,84060:0:0:0:0:
192,192,84060,128,0,84260:0:0:0:0:
448,192,84260,128,0,84460:0:0:0:0:
64,192,84460,128,0,84660:0:0:0:0:
192,192,84660,128,0,84860:0:0:0:0:
448,192,84860,1,0,0:0:0:0:
320,192,84860,1,0,0:0:0:0:
192,192,84910,1,0,0:0:0:0:
64,192,84910,1,0,0:0:0:0:
448,192,84960,1,0,0:0:0:0:
320,192,84960,1,0,0:0:0:0:
64,192,85010,1,0,0:0:0:0:
192,192,85010,1,0,0:0:0:0:
448,192,85060,128,0,85260:0:0:0:0:
320,192,85060,1,0,0:0:0:0:
320,192,85260,128,0,85460:0:0:0:0:
64,192,85260,1,0,0:0:0:0:
192,192,85260,1,0,0:0:0:0:
64,192,85360,1,0,0:0:0:0:
192,192,85360,1,0,0:0:0:0:
192,192,85560,1,0,0:0:0:0:
64,192,85560,1,0,0:0:0:0:
192,192,85660,128,0,85860:0:0:0:0:
64,192,85660,1,0,0:0:0:0:
320,192,85860,1,0,0:0:0:0:
448,192,85860,1,0,0:0:0:0:
64,192,85860,128,0,86060:0:0:0:0:
192,192,86060,128,0,86260:0:0:0:0:
320,192,86260,128,0,86460:0:0:0:0:
64,192,86460,128,0,86660:0:0:0:0:
192,192,86660,128,0,86860:0:0:0:0:
320,192,86860,128,0,87060:0:0:0:0:
64,192,87060,128,0,87260:0:0:0:0:
192,192,87260,128,0,87460:0:0:0:0:
448,192,87460,128,0,87660:0:0:0:0:
64,192,87660,128,0,87860:0:0:0:0:
320,192,87860,128,0,88060:0:0:0:0:
448,192,88060,128,0,88260:0:0:0:0:
64,192,88260,128,0,88460:0:0:0:0:
320,192,88460,128,0,88660:0:0:0:0:
448,192,88660,128,0,88860:0:0:0:0:
320,192,88860,128,0,89060:0:0:0:0:
64,192,89060,128,0,89260:0:0:0:0:
192,192,89260,128,0,89460:0:0:0:0:
320,192,89460,128,0,89660:0:0:0:0:
64,192,89660,128,0,89860:0:0:0:0:
192,192,89860,128,0,90060:0:0:0:0:
320,192,90060,128,0,90260:0:0:0:0:
64,192,90260,128,0,90460:0:0:0:0:
192,192,90460,128,0,90660:0:0:0:0:
448,192,90660,128,0,90860:0:0:0:0:
64,192,90860,128,0,91060:0:0:0:0:
320,192,91060,128,0,91260:0:0:0:0:
448,192,91260,128,0,91460:0:0:0:0:
64,192,91460,128,0,91660:0:0:0:0:
320,192,91660,128,0,91860:0:0:0:0:
448,192,91860,128,0,92060:0:0:0:0:
320,192,92060,128,0,92260:0:0:0:0:
64,192,92260,128,0,92460:0:0:0:0:
192,192,92460,128,0,92660:0:0:0:0:
448,192,92660,128,0,92860:0:0:0:0:
64,192,92860,128,0,93060:0:0:0:0:
192,192,93060,128,0,93260:0:0:0:0:
448,192,93260,128,0,93460:0:0:0:0:
64,192,93460,128,0,93660:0:0:0:0:
192,192,93660,128,0,93860:0:0:0:0:
64,192,93860,128,0,94060:0:0:0:0:
192,192,94060,128,0,94260:0:0:0:0:
320,192,94260,128,0,94460:0:0:0:0:
64,192,94460,128,0,94660:0:0:0:0:
192,192,94660,128,0,94860:0:0:0:0:
448,192,94860,128,0,95060:0:0:0:0:
64,192,95060,128,0,95260:0:0:0:0:
320,192,95260,128,0,95460:0:0:0:0:
64,192,95460,128,0,95660:0:0:0:0:
192,192,95660,128,0,95860:0:0:0:0:
320,192,95860,128,0,96060:0:0:0:0:
64,192,96060,128,0,96260:0:0:0:0:
192,192,96260,128,0,96460:0:0:0:0:
320,192,96460,128,0,96660:0:0:0:0:
64,192,96660,128,0,96860:0:0:0:0:
320,192,96860,128,0,97060:0:0:0:0:
448,192,97060,128,0,97260:0:0:0:0:
64,192,97260,128,0,97460:0:0:0:0:
192,192,97460,128,0,97660:0:0:0:0:
320,192,97660,128,0,97860:0:0:0:0:
448,192,97860,128,0,98060:0:0:0:0:
320,192,98060,128,0,98260:0:0:0:0:
64,192,98260,128,0,98460:0:0:0:0:
448,192,98260,1,0,0:0:0:0:
192,192,98460,128,0,98660:0:0:0:0:
320,192,98660,1,0,0:0:0:0:
448,192,98660,1,0,0:0:0:0:
64,192,98660,128,0,98860:0:0:0:0:
192,192,98860,128,0,99060:0:0:0:0:
320,192,99060,128,0,99260:0:0:0:0:
64,192,99260,128,0,99460:0:0:0:0:
192,192,99460,128,0,99660:0:0:0:0:
320,192,99660,128,0,99860:0:0:0:0:
64,192,99860,128,0,100060:0:0:0:0:
192,192,100060,128,0,100260:0:0:0:0:
448,192,100260,128,0,100460:0:0:0:0:
64,192,100460,128,0,100660:0:0:0:0:
320,192,100660,128,0,100860:0:0:0:0:
448,192,100860,128,0,101060:0:0:0:0:
64,192,101060,128,0,101260:0:0:0:0:
320,192,101260,128,0,101460:0:0:0:0:
448,192,101460,128,0,101660:0:0:0:0:
320,192,101660,128,0,101860:0:0:0:0:
64,192,101860,128,0,102060:0:0:0:0:
192,192,102060,128,0,102260:0:0:0:0:
320,192,102260,128,0,102460:0:0:0:0:
64,192,102460,128,0,102660:0:0:0:0:
192,192,102660,128,0,102860:0:0:0:0:
320,192,102860,128,0,103060:0:0:0:0:
64,192,103060,128,0,103260:0:0:0:0:
192,192,103260,128,0,103460:0:0:0:0:
448,192,103460,128,0,103660:0:0:0:0:
64,192,103660,128,0,103860:0:0:0:0:
320,192,103860,128,0,104060:0:0:0:0:
448,192,104060,128,0,104260:0:0:0:0:
64,192,104260,128,0,104460:0:0:0:0:
320,192,104460,128,0,104660:0:0:0:0:
448,192,104660,128,0,104860:0:0:0:0:
320,192,104860,128,0,105060:0:0:0:0:
64,192,105060,128,0,105260:0:0:0:0:
192,192,105260,128,0,105460:0:0:0:0:
448,192,105460,128,0,105660:0:0:0:0:
64,192,105660,128,0,105860:0:0:0:0:
192,192,105860,128,0,106060:0:0:0:0:
448,192,106060,128,0,106260:0:0:0:0:
64,192,106260,128,0,106460:0:0:0:0:
192,192,106460,128,0,106660:0:0:0:0:
64,192,106660,128,0,106860:0:0:0:0:
192,192,106860,128,0,107060:0:0:0:0:
320,192,107060,128,0,107260:0:0:0:0:
64,192,107260,128,0,107460:0:0:0:0:
192,192,107460,128,0,107660:0:0:0:0:
448,192,107660,128,0,107860:0:0:0:0:
64,192,107860,128,0,108060:0:0:0:0:
320,192,108060,128,0,108260:0:0:0:0:
64,192,108260,128,0,108460:0:0:0:0:
192,192,108460,128,0,108660:0:0:0:0:
320,192,108660,128,0,108860:0:0:0:0:
64,192,108860,128,0,109060:0:0:0:0:
192,192,109060,128,0,109260:0:0:0:0:
320,192,109260,128,0,109460:0:0:0:0:
64,192,109460,128,0,109660:0:0:0:0:
192,192,109660,128,0,109860:0:0:0:0:
448,192,109860,128,0,110060:0:0:0:0:
64,192,110060,128,0,110260:0:0:0:0:
192,192,110260,128,0,110460:0:0:0:0:
448,192,110460,1,0,0:0:0:0:
320,192,110460,1,0,0:0:0:0:
192,192,110510,1,0,0:0:0:0:
64,192,110510,1,0,0:0:0:0:
320,192,110560,1,0,0:0:0:0:
448,192,110560,1,0,0:0:0:0:
192,192,110610,1,0,0:0:0:0:
64,192,110610,1,0,0:0:0:0:
320,192,110660,1,0,0:0:0:0:
448,192,110660,128,0,110860:0:0:0:0:
320,192,110860,128,0,111060:0:0:0:0:
64,192,110860,1,0,0:0:0:0:
192,192,110860,1,0,0:0:0:0:
64,192,110960,1,0,0:0:0:0:
192,192,110960,1,0,0:0:0:0:
320,192,111160,1,0,0:0:0:0:
448,192,111160,1,0,0:0:0:0:
320,192,111260,1,0,0:0:0:0:
448,192,111260,1,0,0:0:0:0:
64,192,111260,1,0,0:0:0:0:
448,192,111460,1,0,0:0:0:0:
320,192,111460,1,0,0:0:0:0:
64,192,111460,1,0,0:0:0:0:
192,192,111460,1,0,0:0:0:0:
192,192,111560,1,0,0:0:0:0:
64,192,111560,1,0,0:0:0:0:
320,192,111660,1,0,0:0:0:0:
448,192,111660,1,0,0:0:0:0:
64,192,111760,1,0,0:0:0:0:
448,192,111760,1,0,0:0:0:0:
192,192,111860,1,0,0:0:0:0:
64,192,111860,1,0,0:0:0:0:
448,192,111860,1,0,0:0:0:0:
320,192,111960,1,0,0:0:0:0:
448,192,111960,1,0,0:0:0:0:
192,192,112060,1,0,0:0:0:0:
64,192,112060,1,0,0:0:0:0:
320,192,112160,1,0,0:0:0:0:
192,192,112160,1,0,0:0:0:0:
64,192,112260,1,0,0:0:0:0:
320,192,112260,1,0,0:0:0:0:
448,192,112260,1,0,0:0:0:0:
64,192,112360,1,0,0:0:0:0:
192,192,112360,1,0,0:0:0:0:
320,192,112460,1,0,0:0:0:0:
448,192,112460,1,0,0:0:0:0:
320,192,112560,1,0,0:0:0:0:
64,192,112560,1,0,0:0:0:0:
192,192,112660,1,0,0:0:0:0:
448,192,112660,1,0,0:0:0:0:
320,192,112660,1,0,0:0:0:0:
320,192,112760,1,0,0:0:0:0:
448,192,112760,1,0,0:0:0:0:
64,192,112860,1,0,0:0:0:0:
320,192,112860,1,0,0:0:0:0:
448,192,112960,1,0,0:0:0:0:
64,192,112960,1,0,0:0:0:0:
192,192,113060,1,0,0:0:0:0:
320,192,113060,1,0,0:0:0:0:
448,192,113060,1,0,0:0:0:0:
320,192,113160,1,0,0:0:0:0:
64,192,113160,1,0,0:0:0:0:
64,192,113260,1,0,0:0:0:0:
448,192,113260,1,0,0:0:0:0:
320,192,113360,1,0,0:0:0:0:
192,192,113360,1,0,0:0:0:0:
320,192,113460,1,0,0:0:0:0:
448,192,113460,1,0,0:0:0:0:
64,192,113460,1,0,0:0:0:0:
64,192,113560,1,0,0:0:0:0:
192,192,113560,1,0,0:0:0:0:
320,192,113660,1,0,0:0:0:0:
448,192,113660,1,0,0:0:0:0:
320,192,113760,1,0,0:0:0:0:
64,192,113760,1,0,0:0:0:0:
64,192,113860,1,0,0:0:0:0:
192,192,113860,1,0,0:0:0:0:
448,192,113860,1,0,0:0:0:0:
320,192,113960,1,0,0:0:0:0:
192,192,113960,1,0,0:0:0:0:
64,192,114060,1,0,0:0:0:0:
448,192,114060,1,0,0:0:0:0:
192,192,114160,1,0,0:0:0:0:
448,192,114160,1,0,0:0:0:0:
192,192,114260,1,0,0:0:0:0:
320,192,114260,1,0,0:0:0:0:
64,192,114260,1,0,0:0:0:0:
448,192,114360,1,0,0:0:0:0:
192,192,114360,1,0,0:0:0:0:
448,192,114460,1,0,0:0:0:0:
64,192,114460,1,0,0:0:0:0:
320,192,114460,1,0,0:0:0:0:
192,192,114560,1,0,0:0:0:0:
64,192,114560,1,0,0:0:0:0:
192,192,114660,1,0,0:0:0:0:
320,192,114660,1,0,0:0:0:0:
448,192,114660,1,0,0:0:0:0:
320,192,114760,1,0,0:0:0:0:
64,192,114760,1,0,0:0:0:0:
192,192,114860,1,0,0:0:0:0:
320,192,114860,1,0,0:0:0:0:
448,192,114960,1,0,0:0:0:0:
192,192,114960,1,0,0:0:0:0:
320,192,115060,1,0,0:0:0:0:
64,192,115060,1,0,0:0:0:0:
448,192,115060,1,0,0:0:0:0:
192,192,115160,1,0,0:0:0:0:
320,192,115160,1,0,0:0:0:0:
448,192,115260,1,0,0:0:0:0:
64,192,115260,1,0,0:0:0:0:
320,192,115360,1,0,0:0:0:0:
448,192,115360,1,0,0:0:0:0:
320,192,115460,1,0,0:0:0:0:
192,192,115460,1,0,0:0:0:0:
64,192,115460,1,0,0:0:0:0:
192,192,115560,1,0,0:0:0:0:
448,192,115560,1,0,0:0:0:0:
448,192,115660,1,0,0:0:0:0:
64,192,115660,1,0,0:0:0:0:
192,192,115760,1,0,0:0:0:0:
64,192,115760,1,0,0:0:0:0:
192,192,115860,1,0,0:0:0:0:
320,192,115860,1,0,0:0:0:0:
448,192,115860,1,0,0:0:0:0:
320,192,115960,1,0,0:0:0:0:
64,192,115960,1,0,0:0:0:0:
192,192,116060,1,0,0:0:0:0:
448,192,116060,1,0,0:0:0:0:
320,192,116160,1,0,0:0:0:0:
448,192,116160,1,0,0:0:0:0:
448,192,116260,1,0,0:0:0:0:
64,192,116260,1,0,0:0:0:0:
192,192,116260,1,0,0:0:0:0:
320,192,116360,1,0,0:0:0:0:
64,192,116360,1,0,0:0:0:0:
192,192,116460,1,0,0:0:0:0:
448,192,116460,1,0,0:0:0:0:
448,192,116560,1,0,0:0:0:0:
64,192,116560,1,0,0:0:0:0:
192,192,116660,1,0,0:0:0:0:
64,192,116660,1,0,0:0:0:0:
320,192,116660,1,0,0:0:0:0:
192,192,116760,1,0,0:0:0:0:
448,192,116760,1,0,0:0:0:0:
64,192,116860,1,0,0:0:0:0:
448,192,116860,1,0,0:0:0:0:
192,192,116960,1,0,0:0:0:0:
64,192,116960,1,0,0:0:0:0:
192,192,117060,1,0,0:0:0:0:
320,192,117060,1,0,0:0:0:0:
448,192,117060,1,0,0:0:0:0:
64,192,117160,1,0,0:0:0:0:
320,192,117160,1,0,0:0:0:0:
192,192,117260,1,0,0:0:0:0:
448,192,117260,1,0,0:0:0:0:
192,192,117360,1,0,0:0:0:0:
320,192,117360,1,0,0:0:0:0:
64,192,117460,1,0,0:0:0:0:
448,192,117460,1,0,0:0:0:0:
320,192,117460,1,0,0:0:0:0:
192,192,117560,1,0,0:0:0:0:
448,192,117560,1,0,0:0:0:0:
64,192,117660,1,0,0:0:0:0:
320,192,117660,1,0,0:0:0:0:
192,192,117660,1,0,0:0:0:0:
64,192,117760,1,0,0:0:0:0:
448,192,117760,1,0,0:0:0:0:
192,192,117860,1,0,0:0:0:0:
320,192,117860,1,0,0:0:0:0:
448,192,117860,1,0,0:0:0:0:
320,192,117960,1,0,0:0:0:0:
64,192,117960,1,0,0:0:0:0:
192,192,118060,1,0,0:0:0:0:
448,192,118060,1,0,0:0:0:0:
320,192,118160,1,0,0:0:0:0:
448,192,118160,1,0,0:0:0:0:
64,192,118260,1,0,0:0:0:0:
192,192,118260,1,0,0:0:0:0:
320,192,118260,1,0,0:0:0:0:
448,192,118360,1,0,0:0:0:0:
64,192,118360,1,0,0:0:0:0:
192,192,118460,1,0,0:0:0:0:
448,192,118460,1,0,0:0:0:0:
64,192,118560,1,0,0:0:0:0:
320,192,118560,1,0,0:0:0:0:
192,192,118660,1,0,0:0:0:0:
64,192,118660,1,0,0:0:0:0:
448,192,118660,1,0,0:0:0:0:
320,192,118760,1,0,0:0:0:0:
192,192,118760,1,0,0:0:0:0:
448,192,118860,1,0,0:0:0:0:
320,192,118860,1,0,0:0:0:0:
192,192,118960,1,0,0:0:0:0:
64,192,118960,1,0,0:0:0:0:
64,192,119060,1,0,0:0:0:0:
320,192,119060,1,0,0:0:0:0:
448,192,119060,1,0,0:0:0:0:
448,192,119160,1,0,0:0:0:0:
192,192,119160,1,0,0:0:0:0:
192,192,119260,1,0,0:0:0:0:
64,192,119260,1,0,0:0:0:0:
448,192,119360,1,0,0:0:0:0:
320,192,119360,1,0,0:0:0:0:
320,192,119460,1,0,0:0:0:0:
192,192,119460,1,0,0:0:0:0:
64,192,119460,1,0,0:0:0:0:
448,192,119560,1,0,0:0:0:0:
64,192,119560,1,0,0:0:0:0:
320,192,119660,1,0,0:0:0:0:
192,192,119660,1,0,0:0:0:0:
448,192,119760,1,0,0:0:0:0:
320,192,119760,1,0,0:0:0:0:
448,192,119860,1,0,0:0:0:0:
192,192,119860,1,0,0:0:0:0:
64,192,119860,1,0,0:0:0:0:
320,192,119960,1,0,0:0:0:0:
64,192,119960,1,0,0:0:0:0:
64,192,120060,1,0,0:0:0:0:
192,192,120060,1,0,0:0:0:0:
320,192,120160,1,0,0:0:0:0:
448,192,120160,1,0,0:0:0:0:
64,192,120260,1,0,0:0:0:0:
192,192,120260,1,0,0:0:0:0:
448,192,120260,1,0,0:0:0:0:
320,192,120360,1,0,0:0:0:0:
192,192,120360,1,0,0:0:0:0:
448,192,120460,1,0,0:0:0:0:
64,192,120460,1,0,0:0:0:0:
320,192,120560,1,0,0:0:0:0:
64,192,120560,1,0,0:0:0:0:
320,192,120660,1,0,0:0:0:0:
448,192,120660,1,0,0:0:0:0:
192,192,120660,1,0,0:0:0:0:
64,192,120760,1,0,0:0:0:0:
320,192,120760,1,0,0:0:0:0:
192,192,120860,1,0,0:0:0:0:
64,192,120860,1,0,0:0:0:0:
448,192,120860,1,0,0:0:0:0:
448,192,120960,1,0,0:0:0:0:
192,192,120960,1,0,0:0:0:0:
320,192,121060,1,0,0:0:0:0:
448,192,121060,1,0,0:0:0:0:
64,192,121060,1,0,0:0:0:0:
192,192,121160,1,0,0:0:0:0:
64,192,121160,1,0,0:0:0:0:
320,192,121260,1,0,0:0:0:0:
448,192,121260,1,0,0:0:0:0:
448,192,121360,1,0,0:0:0:0:
192,192,121360,1,0,0:0:0:0:
320,192,121460,1,0,0:0:0:0:
448,192,121460,1,0,0:0:0:0:
64,192,121460,1,0,0:0:0:0:
192,192,121560,1,0,0:0:0:0:
320,192,121560,1,0,0:0:0:0:
448,192,121660,1,0,0:0:0:0:
320,192,121660,1,0,0:0:0:0:
192,192,121760,1,0,0:0:0:0:
64,192,121760,1,0,0:0:0:0:
64,192,121860,1,0,0:0:0:0:
320,192,121860,1,0,0:0:0:0:
448,192,121860,1,0,0:0:0:0:
64,192,121960,1,0,0:0:0:0:
192,192,121960,1,0,0:0:0:0:
320,192,122060,1,0,0:0:0:0:
192,192,122060,1,0,0:0:0:0:
448,192,122160,1,0,0:0:0:0:
320,192,122160,1,0,0:0:0:0:
448,192,122260,1,0,0:0:0:0:
192,192,122260,1,0,0:0:0:0:
64,192,122260,1,0,0:0:0:0:
320,192,122360,1,0,0:0:0:0:
64,192,122360,1,0,0:0:0:0:
448,192,122460,1,0,0:0:0:0:
320,192,122460,1,0,0:0:0:0:
192,192,122560,1,0,0:0:0:0:
64,192,122560,1,0,0:0:0:0:
192,192,122660,1,0,0:0:0:0:
320,192,122660,1,0,0:0:0:0:
448,192,122660,1,0,0:0:0:0:
448,192,122760,1,0,0:0:0:0:
64,192,122760,1,0,0:0:0:0:
192,192,122860,1,0,0:0:0:0:
64,192,122860,1,0,0:0:0:0:
320,192,122960,1,0,0:0:0:0:
448,192,122960,1,0,0:0:0:0:
192,192,123060,1,0,0:0:0:0:
64,192,123060,1,0,0:0:0:0:
448,192,123060,1,0,0:0:0:0:
320,192,123160,1,0,0:0:0:0:
192,192,123160,1,0,0:0:0:0:
448,192,123260,1,0,0:0:0:0:
64,192,123260,1,0,0:0:0:0:
192,192,123360,1,0,0:0:0:0:
64,192,123360,1,0,0:0:0:0:
192,192,123460,1,0,0:0:0:0:
320,192,123460,1,0,0:0:0:0:
448,192,123460,1,0,0:0:0:0:
192,192,123560,1,0,0:0:0:0:
64,192,123560,1,0,0:0:0:0:
320,192,123660,1,0,0:0:0:0:
448,192,123660,1,0,0:0:0:0:
448,192,123760,1,0,0:0:0:0:
64,192,123760,1,0,0:0:0:0:
64,192,123860,1,0,0:0:0:0:
192,192,123860,1,0,0:0:0:0:
320,192,123860,1,0,0:0:0:0:
448,192,123960,1,0,0:0:0:0:
192,192,123960,1,0,0:0:0:0:
320,192,124060,1,0,0:0:0:0:
192,192,124060,1,0,0:0:0:0:
64,192,124060,1,0,0:0:0:0:
64,192,124160,1,0,0:0:0:0:
448,192,124160,1,0,0:0:0:0:
320,192,124260,1,0,0:0:0:0:
192,192,124260,1,0,0:0:0:0:
448,192,124260,1,0,0:0:0:0:
64,192,124260,1,0,0:0:0:0:
192,192,124360,1,0,0:0:0:0:
320,192,124360,1,0,0:0:0:0:
448,192,124460,1,0,0:0:0:0:
64,192,124460,1,0,0:0:0:0:
192,192,124560,1,0,0:0:0:0:
64,192,124560,1,0,0:0:0:0:
320,192,124660,1,0,0:0:0:0:
448,192,124660,1,0,0:0:0:0:
192,192,124660,1,0,0:0:0:0:
64,192,124760,1,0,0:0:0:0:
320,192,124760,1,0,0:0:0:0:
192,192,124860,1,0,0:0:0:0:
448,192,124860,1,0,0:0:0:0:
320,192,124960,1,0,0:0:0:0:
192,192,124960,1,0,0:0:0:0:
64,192,125060,1,0,0:0:0:0:
320,192,125060,1,0,0:0:0:0:
448,192,125060,1,0,0:0:0:0:
448,192,125160,1,0,0:0:0:0:
192,192,125160,1,0,0:0:0:0:
192,192,125260,1,0,0:0:0:0:
64,192,125260,1,0,0:0:0:0:
320,192,125360,1,0,0:0:0:0:
448,192,125360,1,0,0:0:0:0:
192,192,125460,1,0,0:0:0:0:
64,192,125460,1,0,0:0:0:0:
448,192,125460,1,0,0:0:0:0:
64,192,125560,1,0,0:0:0:0:
320,192,125560,1,0,0:0:0:0:
448,192,125660,1,0,0:0:0:0:
192,192,125660,1,0,0:0:0:0:
192,192,125760,1,0,0:0:0:0:
320,192,125760,1,0,0:0:0:0:
448,192,125860,1,0,0:0:0:0:
320,192,125860,1,0,0:0:0:0:
64,192,125860,1,0,0:0:0:0:
192,192,125960,1,0,0:0:0:0:
64,192,125960,1,0,0:0:0:0:
320,192,126060,1,0,0:0:0:0:
448,192,126060,1,0,0:0:0:0:
320,192,126160,1,0,0:0:0:0:
64,192,126160,1,0,0:0:0:0:
192,192,126260,1,0,0:0:0:0:
64,192,126260,1,0,0:0:0:0:
320,192,126260,1,0,0:0:0:0:
448,192,126360,1,0,0:0:0:0:
192,192,126360,1,0,0:0:0:0:
320,192,126460,1,0,0:0:0:0:
448,192,126460,1,0,0:0:0:0:
192,192,126560,1,0,0:0:0:0:
64,192,126560,1,0,0:0:0:0:
192,192,126660,1,0,0:0:0:0:
320,192,126660,1,0,0:0:0:0:
448,192,126660,1,0,0:0:0:0:
64,192,126760,1,0,0:0:0:0:
448,192,126760,1,0,0:0:0:0:
192,192,126860,1,0,0:0:0:0:
64,192,126860,1,0,0:0:0:0:
448,192,126960,1,0,0:0:0:0:
320,192,126960,1,0,0:0:0:0:
448,192,127060,1,0,0:0:0:0:
192,192,127060,1,0,0:0:0:0:
64,192,127060,1,0,0:0:0:0:
320,192,127160,1,0,0:0:0:0:
64,192,127160,1,0,0:0:0:0:
192,192,127260,1,0,0:0:0:0:
320,192,127260,1,0,0:0:0:0:
448,192,127260,1,0,0:0:0:0:
448,192,127360,1,0,0:0:0:0:
64,192,127360,1,0,0:0:0:0:
192,192,127460,1,0,0:0:0:0:
448,192,127460,1,0,0:0:0:0:
320,192,127460,1,0,0:0:0:0:
64,192,127560,1,0,0:0:0:0:
192,192,127560,1,0,0:0:0:0:
320,192,127660,1,0,0:0:0:0:
448,192,127660,1,0,0:0:0:0:
448,192,127760,1,0,0:0:0:0:
192,192,127760,1,0,0:0:0:0:
64,192,127860,1,0,0:0:0:0:
192,192,127860,1,0,0:0:0:0:
320,192,127860,1,0,0:0:0:0:
320,192,127960,1,0,0:0:0:0:
448,192,127960,1,0,0:0:0:0:
192,192,128060,1,0,0:0:0:0:
64,192,128060,1,0,0:0:0:0:
64,192,128160,1,0,0:0:0:0:
448,192,128160,1,0,0:0:0:0:
320,192,128260,1,0,0:0:0:0:
448,192,128260,1,0,0:0:0:0:
192,192,128260,1,0,0:0:0:0:
448,192,128360,1,0,0:0:0:0:
64,192,128360,1,0,0:0:0:0:
320,192,128460,1,0,0:0:0:0:
192,192,128460,1,0,0:0:0:0:
320,192,128560,1,0,0:0:0:0:
448,192,128560,1,0,0:0:0:0:
448,192,128660,1,0,0:0:0:0:
192,192,128660,1,0,0:0:0:0:
64,192,128660,1,0,0:0:0:0:
64,192,128760,1,0,0:0:0:0:
320,192,128760,1,0,0:0:0:0:
192,192,128860,1,0,0:0:0:0:
320,192,128860,1,0,0:0:0:0:
448,192,128960,1,0,0:0:0:0:
192,192,128960,1,0,0:0:0:0:
320,192,129060,1,0,0:0:0:0:
448,192,129060,1,0,0:0:0:0:
64,192,129060,1,0,0:0:0:0:
192,192,129160,1,0,0:0:0:0:
64,192,129160,1,0,0:0:0:0:
320,192,129260,1,0,0:0:0:0:
448,192,129260,1,0,0:0:0:0:
320,192,129360,1,0,0:0:0:0:
192,192,129360,1,0,0:0:0:0:
64,192,129460,1,0,0:0:0:0:
192,192,129460,1,0,0:0:0:0:
448,192,129460,1,0,0:0:0:0:
320,192,129560,1,0,0:0:0:0:
448,192,129560,1,0,0:0:0:0:
320,192,129660,1,0,0:0:0:0:
64,192,129660,1,0,0:0:0:0:
192,192,129760,1,0,0:0:0:0:
64,192,129760,1,0,0:0:0:0:
192,192,129860,1,0,0:0:0:0:
320,192,129860,1,0,0:0:0:0:
448,192,129860,1,0,0:0:0:0:
320,192,129960,1,0,0:0:0:0:
64,192,129960,1,0,0:0:0:0:
448,192,130060,1,0,0:0:0:0:
192,192,130060,1,0,0:0:0:0:
448,192,130160,1,0,0:0:0:0:
64,192,130160,1,0,0:0:0:0:
320,192,130260,1,0,0:0:0:0:
64,192,130260,1,0,0:0:0:0:
192,192,130260,1,0,0:0:0:0:
192,192,130360,1,0,0:0:0:0:
448,192,130360,1,0,0:0:0:0:
320,192,130460,1,0,0:0:0:0:
192,192,130460,1,0,0:0:0:0:
64,192,130460,1,0,0:0:0:0:
320,192,130560,1,0,0:0:0:0:
448,192,130560,1,0,0:0:0:0:
64,192,130660,1,0,0:0:0:0:
192,192,130660,1,0,0:0:0:0:
448,192,130660,1,0,0:0:0:0:
320,192,130760,1,0,0:0:0:0:
64,192,130760,1,0,0:0:0:0:
192,192,130860,1,0,0:0:0:0:
448,192,130860,1,0,0:0:0:0:
320,192,130960,1,0,0:0:0:0:
192,192,130960,1,0,0:0:0:0:
64,192,131060,1,0,0:0:0:0:
448,192,131060,1,0,0:0:0:0:
320,192,131060,1,0,0:0:0:0:
192,192,131160,1,0,0:0:0:0:
64,192,131160,1,0,0:0:0:0:
320,192,131260,1,0,0:0:0:0:
448,192,131260,1,0,0:0:0:0:
192,192,131360,1,0,0:0:0:0:
320,192,131360,1,0,0:0:0:0:
320,192,131460,1,0,0:0:0:0:
448,192,131460,1,0,0:0:0:0:
64,192,131460,1,0,0:0:0:0:
192,192,131560,1,0,0:0:0:0:
448,192,131560,1,0,0:0:0:0:
320,192,131660,1,0,0:0:0:0:
64,192,131660,1,0,0:0:0:0:
192,192,131760,1,0,0:0:0:0:
64,192,131760,1,0,0:0:0:0:
320,192,131860,1,0,0:0:0:0:
448,192,131860,1,0,0:0:0:0:
192,192,131860,1,0,0:0:0:0:
64,192,131960,1,0,0:0:0:0:
320,192,131960,1,0,0:0:0:0:
448,192,132060,1,0,0:0:0:0:
192,192,132060,1,0,0:0:0:0:
192,192,132160,1,0,0:0:0:0:
64,192,132160,1,0,0:0:0:0:
64,192,132260,1,0,0:0:0:0:
320,192,132260,1,0,0:0:0:0:
448,192,132260,1,0,0:0:0:0:
320,192,132360,1,0,0:0:0:0:
192,192,132360,1,0,0:0:0:0:
448,192,132460,1,0,0:0:0:0:
192,192,132460,1,0,0:0:0:0:
64,192,132560,1,0,0:0:0:0:
448,192,132560,1,0,0:0:0:0:
320,192,132660,1,0,0:0:0:0:
192,192,132660,1,0,0:0:0:0:
64,192,132660,1,0,0:0:0:0:
320,192,132760,1,0,0:0:0:0:
448,192,132760,1,0,0:0:0:0:
192,192,132860,1,0,0:0:0:0:
64,192,132860,1,0,0:0:0:0:
448,192,132960,1,0,0:0:0:0:
192,192,132960,1,0,0:0:0:0:
64,192,133060,1,0,0:0:0:0:
320,192,133060,1,0,0:0:0:0:
448,192,133060,1,0,0:0:0:0:
192,192,133160,1,0,0:0:0:0:
64,192,133160,1,0,0:0:0:0:
448,192,133260,1,0,0:0:0:0:
192,192,133260,1,0,0:0:0:0:
320,192,133360,1,0,0:0:0:0:
448,192,133360,1,0,0:0:0:0:
192,192,133460,1,0,0:0:0:0:
64,192,133460,1,0,0:0:0:0:
320,192,133460,1,0,0:0:0:0:
448,192,133560,1,0,0:0:0:0:
64,192,133560,1,0,0:0:0:0:
192,192,133660,1,0,0:0:0:0:
320,192,133660,1,0,0:0:0:0:
448,192,133660,1,0,0:0:0:0:
64,192,133760,1,0,0:0:0:0:
320,192,133760,1,0,0:0:0:0:
192,192,133860,1,0,0:0:0:0:
64,192,133860,1,0,0:0:0:0:
448,192,133860,1,0,0:0:0:0:
320,192,133960,1,0,0:0:0:0:
192,192,133960,1,0,0:0:0:0:
64,192,134060,1,0,0:0:0:0:
448,192,134060,1,0,0:0:0:0:
448,192,134160,1,0,0:0:0:0:
192,192,134160,1,0,0:0:0:0:
64,192,134260,1,0,0:0:0:0:
320,192,134260,1,0,0:0:0:0:
192,192,134260,1,0,0:0:0:0:
448,192,134360,1,0,0:0:0:0:
320,192,134360,1,0,0:0:0:0:
448,192,134460,1,0,0:0:0:0:
64,192,134460,1,0,0:0:0:0:
192,192,134560,1,0,0:0:0:0:
320,192,134560,1,0,0:0:0:0:
448,192,134660,1,0,0:0:0:0:
320,192,134660,1,0,0:0:0:0:
64,192,134660,1,0,0:0:0:0:
192,192,134760,1,0,0:0:0:0:
64,192,134760,1,0,0:0:0:0:
320,192,134860,1,0,0:0:0:0:
448,192,134860,1,0,0:0:0:0:
192,192,134960,1,0,0:0:0:0:
448,192,134960,1,0,0:0:0:0:
320,192,135060,1,0,0:0:0:0:
64,192,135060,1,0,0:0:0:0:
192,192,135060,1,0,0:0:0:0:
320,192,135160,1,0,0:0:0:0:
448,192,135160,1,0,0:0:0:0:
192,192,135260,1,0,0:0:0:0:
64,192,135260,1,0,0:0:0:0:
448,192,135360,1,0,0:0:0:0:
192,192,135360,1,0,0:0:0:0:
448,192,135460,1,0,0:0:0:0:
320,192,135460,1,0,0:0:0:0:
64,192,135460,1,0,0:0:0:0:
320,192,135560,1,0,0:0:0:0:
448,192,135560,1,0,0:0:0:0:
192,192,135660,1,0,0:0:0:0:
64,192,135660,1,0,0:0:0:0:
320,192,135760,1,0,0:0:0:0:
448,192,135760,1,0,0:0:0:0:
192,192,135860,1,0,0:0:0:0:
64,192,135860,1,0,0:0:0:0:
448,192,135860,1,0,0:0:0:0:
192,192,135960,1,0,0:0:0:0:
64,192,135960,1,0,0:0:0:0:
320,192,136060,1,0,0:0:0:0:
448,192,136060,1,0,0:0:0:0:
192,192,136110,1,0,0:0:0:0:
64,192,136110,1,0,0:0:0:0:
320,192,136160,1,0,0:0:0:0:
448,192,136160,1,0,0:0:0:0:
192,192,136210,1,0,0:0:0:0:
64,192,136210,1,0,0:0:0:0:
320,192,136260,1,0,0:0:0:0:
448,192,136260,1,0,0:0:0:0:
192,192,136360,1,0,0:0:0:0:
64,192,136360,1,0,0:0:0:0:
448,192,136460,1,0,0:0:0:0:
320,192,136460,1,0,0:0:0:0:
192,192,136560,1,0,0:0:0:0:
64,192,136560,1,0,0:0:0:0:
320,192,136660,1,0,0:0:0:0:
448,192,136660,1,0,0:0:0:0:
192,192,136760,1,0,0:0:0:0:
64,192,136760,1,0,0:0:0:0:
320,192,136860,1,0,0:0:0:0:
448,192,136860,1,0,0:0:0:0:
64,192,136860,1,0,0:0:0:0:
192,192,136910,1,0,0:0:0:0:
320,192,136960,1,0,0:0:0:0:
448,192,136960,1,0,0:0:0:0:
192,192,137010,1,0,0:0:0:0:
64,192,137060,1,0,0:0:0:0:
320,192,137060,1,0,0:0:0:0:
448,192,137060,1,0,0:0:0:0:
64,192,137160,1,0,0:0:0:0:
192,192,137160,1,0,0:0:0:0:
320,192,137260,1,0,0:0:0:0:
448,192,137260,1,0,0:0:0:0:
320,192,137360,1,0,0:0:0:0:
64,192,137360,1,0,0:0:0:0:
448,192,137460,1,0,0:0:0:0:
64,192,137460,1,0,0:0:0:0:
192,192,137460,1,0,0:0:0:0:
320,192,137560,1,0,0:0:0:0:
192,192,137560,1,0,0:0:0:0:
64,192,137660,1,0,0:0:0:0:
320,192,137660,1,0,0:0:0:0:
448,192,137760,1,0,0:0:0:0:
64,192,137760,1,0,0:0:0:0:
320,192,137860,1,0,0:0:0:0:
192,192,137860,1,0,0:0:0:0:
448,192,137860,1,0,0:0:0:0:
192,192,137960,1,0,0:0:0:0:
64,192,137960,1,0,0:0:0:0:
320,192,138060,1,0,0:0:0:0:
448,192,138060,1,0,0:0:0:0:
320,192,138160,1,0,0:0:0:0:
64,192,138160,1,0,0:0:0:0:
64,192,138260,1,0,0:0:0:0:
192,192,138260,1,0,0:0:0:0:
448,192,138260,1,0,0:0:0:0:
320,192,138360,1,0,0:0:0:0:
192,192,138360,1,0,0:0:0:0:
64,192,138460,1,0,0:0:0:0:
448,192,138460,1,0,0:0:0:0:
320,192,138560,1,0,0:0:0:0:
448,192,138560,1,0,0:0:0:0:
192,192,138660,1,0,0:0:0:0:
64,192,138660,1,0,0:0:0:0:
320,192,138660,1,0,0:0:0:0:
192,192,138760,1,0,0:0:0:0:
448,192,138760,1,0,0:0:0:0:
320,192,138860,1,0,0:0:0:0:
64,192,138860,1,0,0:0:0:0:
192,192,138960,1,0,0:0:0:0:
320,192,138960,1,0,0:0:0:0:
448,192,139060,1,0,0:0:0:0:
64,192,139060,1,0,0:0:0:0:
192,192,139060,1,0,0:0:0:0:
320,192,139160,1,0,0:0:0:0:
448,192,139160,1,0,0:0:0:0:
320,192,139260,1,0,0:0:0:0:
64,192,139260,1,0,0:0:0:0:
192,192,139360,1,0,0:0:0:0:
64,192,139360,1,0,0:0:0:0:
192,192,139460,1,0,0:0:0:0:
320,192,139460,1,0,0:0:0:0:
448,192,139460,1,0,0:0:0:0:
320,192,139560,1,0,0:0:0:0:
64,192,139560,1,0,0:0:0:0:
192,192,139660,1,0,0:0:0:0:
448,192,139660,1,0,0:0:0:0:
320,192,139760,1,0,0:0:0:0:
448,192,139760,1,0,0:0:0:0:
320,192,139860,1,0,0:0:0:0:
192,192,139860,1,0,0:0:0:0:
64,192,139860,1,0,0:0:0:0:
448,192,139960,1,0,0:0:0:0:
192,192,139960,1,0,0:0:0:0:
64,192,140060,1,0,0:0:0:0:
448,192,140060,1,0,0:0:0:0:
320,192,140060,1,0,0:0:0:0:
64,192,140160,1,0,0:0:0:0:
192,192,140160,1,0,0:0:0:0:
192,192,140260,1,0,0:0:0:0:
320,192,140260,1,0,0:0:0:0:
448,192,140260,1,0,0:0:0:0:
64,192,140360,1,0,0:0:0:0:
320,192,140360,1,0,0:0:0:0:
448,192,140460,1,0,0:0:0:0:
64,192,140460,1,0,0:0:0:0:
320,192,140560,1,0,0:0:0:0:
448,192,140560,1,0,0:0:0:0:
320,192,140660,1,0,0:0:0:0:
192,192,140660,1,0,0:0:0:0:
64,192,140660,1,0,0:0:0:0:
192,192,140760,1,0,0:0:0:0:
448,192,140760,1,0,0:0:0:0:
320,192,140860,1,0,0:0:0:0:
448,192,140860,1,0,0:0:0:0:
64,192,140960,1,0,0:0:0:0:
320,192,140960,1,0,0:0:0:0:
192,192,141060,1,0,0:0:0:0:
448,192,141060,1,0,0:0:0:0:
320,192,141060,1,0,0:0:0:0:
64,192,141160,1,0,0:0:0:0:
192,192,141160,1,0,0:0:0:0:
320,192,141260,1,0,0:0:0:0:
448,192,141260,1,0,0:0:0:0:
320,192,141360,1,0,0:0:0:0:
64,192,141360,1,0,0:0:0:0:
64,192,141460,1,0,0:0:0:0:
192,192,141460,1,0,0:0:0:0:
448,192,141460,1,0,0:0:0:0:
320,192,141560,1,0,0:0:0:0:
448,192,141560,1,0,0:0:0:0:
192,192,141660,1,0,0:0:0:0:
320,192,141660,1,0,0:0:0:0:
64,192,141760,1,0,0:0:0:0:
448,192,141760,1,0,0:0:0:0:
192,192,141860,1,0,0:0:0:0:
64,192,141860,1,0,0:0:0:0:
320,192,141860,1,0,0:0:0:0:
192,192,141960,1,0,0:0:0:0:
448,192,141960,1,0,0:0:0:0:
448,192,142060,1,0,0:0:0:0:
320,192,142060,1,0,0:0:0:0:
192,192,142160,1,0,0:0:0:0:
64,192,142160,1,0,0:0:0:0:
448,192,142260,1,0,0:0:0:0:
64,192,142260,1,0,0:0:0:0:
320,192,142260,1,0,0:0:0:0:
448,192,142360,1,0,0:0:0:0:
192,192,142360,1,0,0:0:0:0:
320,192,142460,1,0,0:0:0:0:
64,192,142460,1,0,0:0:0:0:
192,192,142560,1,0,0:0:0:0:
320,192,142560,1,0,0:0:0:0:
448,192,142660,1,0,0:0:0:0:
64,192,142660,1,0,0:0:0:0:
192,192,142660,1,0,0:0:0:0:
320,192,142760,1,0,0:0:0:0:
448,192,142760,1,0,0:0:0:0:
192,192,142860,1,0,0:0:0:0:
64,192,142860,1,0,0:0:0:0:
448,192,142960,1,0,0:0:0:0:
192,192,142960,1,0,0:0:0:0:
64,192,143060,1,0,0:0:0:0:
320,192,143060,1,0,0:0:0:0:
448,192,143060,1,0,0:0:0:0:
192,192,143160,1,0,0:0:0:0:
320,192,143160,1,0,0:0:0:0:
64,192,143260,1,0,0:0:0:0:
192,192,143260,1,0,0:0:0:0:
448,192,143260,1,0,0:0:0:0:
64,192,143360,1,0,0:0:0:0:
320,192,143360,1,0,0:0:0:0:
192,192,143460,1,0,0:0:0:0:
320,192,143460,1,0,0:0:0:0:
448,192,143460,1,0,0:0:0:0:
64,192,143560,1,0,0:0:0:0:
448,192,143560,1,0,0:0:0:0:
320,192,143660,1,0,0:0:0:0:
64,192,143660,1,0,0:0:0:0:
320,192,143760,1,0,0:0:0:0:
192,192,143760,1,0,0:0:0:0:
448,192,143860,1,0,0:0:0:0:
320,192,143860,1,0,0:0:0:0:
64,192,143860,1,0,0:0:0:0:
192,192,143960,1,0,0:0:0:0:
64,192,143960,1,0,0:0:0:0:
192,192,144060,1,0,0:0:0:0:
448,192,144060,1,0,0:0:0:0:
320,192,144160,1,0,0:0:0:0:
448,192,144160,1,0,0:0:0:0:
320,192,144260,1,0,0:0:0:0:
192,192,144260,1,0,0:0:0:0:
64,192,144260,1,0,0:0:0:0:
448,192,144360,1,0,0:0:0:0:
192,192,144360,1,0,0:0:0:0:
64,192,144460,1,0,0:0:0:0:
320,192,144460,1,0,0:0:0:0:
448,192,144560,1,0,0:0:0:0:
192,192,144560,1,0,0:0:0:0:
320,192,144660,1,0,0:0:0:0:
448,192,144660,1,0,0:0:0:0:
64,192,144660,1,0,0:0:0:0:
320,192,144760,1,0,0:0:0:0:
192,192,144760,1,0,0:0:0:0:
64,192,144860,1,0,0:0:0:0:
320,192,144860,1,0,0:0:0:0:
448,192,144960,1,0,0:0:0:0:
192,192,144960,1,0,0:0:0:0:
320,192,145060,1,0,0:0:0:0:
448,192,145060,1,0,0:0:0:0:
64,192,145060,1,0,0:0:0:0:
192,192,145160,1,0,0:0:0:0:
64,192,145160,1,0,0:0:0:0:
320,192,145260,1,0,0:0:0:0:
192,192,145260,1,0,0:0:0:0:
448,192,145360,1,0,0:0:0:0:
320,192,145360,1,0,0:0:0:0:
448,192,145460,1,0,0:0:0:0:
192,192,145460,1,0,0:0:0:0:
64,192,145460,1,0,0:0:0:0:
320,192,145560,1,0,0:0:0:0:
192,192,145560,1,0,0:0:0:0:
64,192,145660,1,0,0:0:0:0:
192,192,145660,1,0,0:0:0:0:
320,192,145760,1,0,0:0:0:0:
448,192,145760,1,0,0:0:0:0:
320,192,145860,1,0,0:0:0:0:
192,192,145860,1,0,0:0:0:0:
64,192,145860,1,0,0:0:0:0:
448,192,145960,1,0,0:0:0:0:
192,192,145960,1,0,0:0:0:0:
320,192,146060,1,0,0:0:0:0:
64,192,146060,1,0,0:0:0:0:
192,192,146160,1,0,0:0:0:0:
320,192,146160,1,0,0:0:0:0:
448,192,146260,1,0,0:0:0:0:
64,192,146260,1,0,0:0:0:0:
192,192,146260,1,0,0:0:0:0:
320,192,146360,1,0,0:0:0:0:
448,192,146360,1,0,0:0:0:0:
192,192,146460,1,0,0:0:0:0:
64,192,146460,1,0,0:0:0:0:
320,192,146460,1,0,0:0:0:0:
448,192,146560,1,0,0:0:0:0:
192,192,146560,1,0,0:0:0:0:
64,192,146660,1,0,0:0:0:0:
320,192,146660,1,0,0:0:0:0:
448,192,146660,1,0,0:0:0:0:
64,192,146760,1,0,0:0:0:0:
192,192,146760,1,0,0:0:0:0:
448,192,146860,1,0,0:0:0:0:
192,192,146860,1,0,0:0:0:0:
320,192,146960,1,0,0:0:0:0:
448,192,146960,1,0,0:0:0:0:
192,192,147060,1,0,0:0:0:0:
64,192,147060,1,0,0:0:0:0:
320,192,147060,1,0,0:0:0:0:
448,192,147160,1,0,0:0:0:0:
192,192,147160,1,0,0:0:0:0:
64,192,147260,1,0,0:0:0:0:
448,192,147260,1,0,0:0:0:0:
320,192,147360,1,0,0:0:0:0:
192,192,147360,1,0,0:0:0:0:
192,192,147460,1,0,0:0:0:0:
64,192,147460,1,0,0:0:0:0:
448,192,147460,1,0,0:0:0:0:
192,192,147560,1,0,0:0:0:0:
320,192,147560,1,0,0:0:0:0:
64,192,147660,1,0,0:0:0:0:
320,192,147660,1,0,0:0:0:0:
192,192,147760,1,0,0:0:0:0:
448,192,147760,1,0,0:0:0:0:
448,192,147860,1,0,0:0:0:0:
320,192,147860,1,0,0:0:0:0:
64,192,147860,1,0,0:0:0:0:
64,192,147960,1,0,0:0:0:0:
192,192,147960,1,0,0:0:0:0:
448,192,148060,1,0,0:0:0:0:
320,192,148060,1,0,0:0:0:0:
320,192,148160,1,0,0:0:0:0:
64,192,148160,1,0,0:0:0:0:
192,192,148260,1,0,0:0:0:0:
448,192,148260,1,0,0:0:0:0:
64,192,148260,1,0,0:0:0:0:
192,192,148360,1,0,0:0:0:0:
320,192,148360,1,0,0:0:0:0:
448,192,148460,1,0,0:0:0:0:
320,192,148460,1,0,0:0:0:0:
64,192,148560,1,0,0:0:0:0:
192,192,148560,1,0,0:0:0:0:
192,192,148660,1,0,0:0:0:0:
320,192,148660,1,0,0:0:0:0:
448,192,148660,1,0,0:0:0:0:
64,192,148760,1,0,0:0:0:0:
448,192,148760,1,0,0:0:0:0:
320,192,148860,1,0,0:0:0:0:
64,192,148860,1,0,0:0:0:0:
192,192,148960,1,0,0:0:0:0:
448,192,148960,1,0,0:0:0:0:
320,192,149060,1,0,0:0:0:0:
192,192,149060,1,0,0:0:0:0:
64,192,149060,1,0,0:0:0:0:
192,192,149160,1,0,0:0:0:0:
448,192,149160,1,0,0:0:0:0:
320,192,149260,1,0,0:0:0:0:
448,192,149260,1,0,0:0:0:0:
192,192,149360,1,0,0:0:0:0:
64,192,149360,1,0,0:0:0:0:
64,192,149460,1,0,0:0:0:0:
320,192,149460,1,0,0:0:0:0:
448,192,149460,1,0,0:0:0:0:
192,192,149560,1,0,0:0:0:0:
448,192,149560,1,0,0:0:0:0:
320,192,149660,1,0,0:0:0:0:
64,192,149660,1,0,0:0:0:0:
192,192,149660,1,0,0:0:0:0:
64,192,149760,1,0,0:0:0:0:
448,192,149760,1,0,0:0:0:0:
320,192,149860,1,0,0:0:0:0:
448,192,149860,1,0,0:0:0:0:
192,192,149860,1,0,0:0:0:0:
64,192,149860,1,0,0:0:0:0:
192,192,149960,1,0,0:0:0:0:
320,192,149960,1,0,0:0:0:0:
64,192,150060,1,0,0:0:0:0:
448,192,150060,1,0,0:0:0:0:
448,192,150160,1,0,0:0:0:0:
320,192,150160,1,0,0:0:0:0:
192,192,150260,1,0,0:0:0:0:
64,192,150260,1,0,0:0:0:0:
320,192,150260,1,0,0:0:0:0:
448,192,150360,1,0,0:0:0:0:
64,192,150360,1,0,0:0:0:0:
448,192,150460,1,0,0:0:0:0:
192,192,150460,1,0,0:0:0:0:
192,192,150560,1,0,0:0:0:0:
64,192,150560,1,0,0:0:0:0:
320,192,150660,1,0,0:0:0:0:
448,192,150660,1,0,0:0:0:0:
64,192,150660,1,0,0:0:0:0:
448,192,150760,1,0,0:0:0:0:
192,192,150760,1,0,0:0:0:0:
320,192,150860,1,0,0:0:0:0:
64,192,150860,1,0,0:0:0:0:
192,192,150960,1,0,0:0:0:0:
320,192,150960,1,0,0:0:0:0:
448,192,151060,1,0,0:0:0:0:
192,192,151060,1,0,0:0:0:0:
64,192,151060,1,0,0:0:0:0:
64,192,151160,1,0,0:0:0:0:
320,192,151160,1,0,0:0:0:0:
192,192,151260,1,0,0:0:0:0:
448,192,151260,1,0,0:0:0:0:
448,192,151360,1,0,0:0:0:0:
64,192,151360,1,0,0:0:0:0:
64,192,151460,1,0,0:0:0:0:
320,192,151460,1,0,0:0:0:0:
192,192,151460,1,0,0:0:0:0:
320,192,151560,1,0,0:0:0:0:
448,192,151560,1,0,0:0:0:0:
192,192,151660,1,0,0:0:0:0:
64,192,151660,1,0,0:0:0:0:
448,192,151760,1,0,0:0:0:0:
64,192,151760,1,0,0:0:0:0:
448,192,151860,1,0,0:0:0:0:
320,192,151860,1,0,0:0:0:0:
192,192,151860,1,0,0:0:0:0:
320,192,151960,1,0,0:0:0:0:
64,192,151960,1,0,0:0:0:0:
192,192,152060,1,0,0:0:0:0:
320,192,152060,1,0,0:0:0:0:
448,192,152160,1,0,0:0:0:0:
192,192,152160,1,0,0:0:0:0:
320,192,152260,1,0,0:0:0:0:
192,192,152260,1,0,0:0:0:0:
64,192,152260,1,0,0:0:0:0:
448,192,152360,1,0,0:0:0:0:
64,192,152360,1,0,0:0:0:0:
320,192,152460,1,0,0:0:0:0:
192,192,152460,1,0,0:0:0:0:
320,192,152560,1,0,0:0:0:0:
64,192,152560,1,0,0:0:0:0:
64,192,152660,1,0,0:0:0:0:
192,192,152660,1,0,0:0:0:0:
448,192,152660,1,0,0:0:0:0:
320,192,152760,1,0,0:0:0:0:
448,192,152760,1,0,0:0:0:0:
192,192,152860,1,0,0:0:0:0:
64,192,152860,1,0,0:0:0:0:
320,192,152860,1,0,0:0:0:0:
64,192,152960,1,0,0:0:0:0:
448,192,152960,1,0,0:0:0:0:
320,192,153060,1,0,0:0:0:0:
448,192,153060,1,0,0:0:0:0:
192,192,153060,1,0,0:0:0:0:
320,192,153160,1,0,0:0:0:0:
64,192,153160,1,0,0:0:0:0:
192,192,153260,1,0,0:0:0:0:
64,192,153260,1,0,0:0:0:0:
192,192,153360,1,0,0:0:0:0:
448,192,153360,1,0,0:0:0:0:
64,192,153460,1,0,0:0:0:0:
320,192,153460,1,0,0:0:0:0:
448,192,153460,1,0,0:0:0:0:
192,192,153560,1,0,0:0:0:0:
320,192,153560,1,0,0:0:0:0:
448,192,153660,1,0,0:0:0:0:
64,192,153660,1,0,0:0:0:0:
192,192,153760,1,0,0:0:0:0:
64,192,153760,1,0,0:0:0:0:
192,192,153860,1,0,0:0:0:0:
320,192,153860,1,0,0:0:0:0:
448,192,153860,1,0,0:0:0:0:
320,192,153960,1,0,0:0:0:0:
64,192,153960,1,0,0:0:0:0:
192,192,154060,1,0,0:0:0:0:
320,192,154060,1,0,0:0:0:0:
192,192,154160,1,0,0:0:0:0:
448,192,154160,1,0,0:0:0:0:
320,192,154260,1,0,0:0:0:0:
448,192,154260,1,0,0:0:0:0:
64,192,154260,1,0,0:0:0:0:
192,192,154360,1,0,0:0:0:0:
64,192,154360,1,0,0:0:0:0:
192,192,154460,1,0,0:0:0:0:
448,192,154460,1,0,0:0:0:0:
320,192,154560,1,0,0:0:0:0:
64,192,154560,1,0,0:0:0:0:
192,192,154660,1,0,0:0:0:0:
320,192,154660,1,0,0:0:0:0:
448,192,154660,1,0,0:0:0:0:
448,192,154760,1,0,0:0:0:0:
64,192,154760,1,0,0:0:0:0:
320,192,154860,1,0,0:0:0:0:
64,192,154860,1,0,0:0:0:0:
192,192,154960,1,0,0:0:0:0:
320,192,154960,1,0,0:0:0:0:
192,192,155060,1,0,0:0:0:0:
448,192,155060,1,0,0:0:0:0:
64,192,155060,1,0,0:0:0:0:
320,192,155160,1,0,0:0:0:0:
448,192,155160,1,0,0:0:0:0:
64,192,155260,1,0,0:0:0:0:
192,192,155260,1,0,0:0:0:0:
448,192,155360,1,0,0:0:0:0:
192,192,155360,1,0,0:0:0:0:
448,192,155460,1,0,0:0:0:0:
320,192,155460,1,0,0:0:0:0:
64,192,155460,1,0,0:0:0:0:
192,192,155560,1,0,0:0:0:0:
64,192,155560,1,0,0:0:0:0:
320,192,155660,1,0,0:0:0:0:
448,192,155660,1,0,0:0:0:0:
64,192,155760,1,0,0:0:0:0:
448,192,155760,1,0,0:0:0:0:
320,192,155860,1,0,0:0:0:0:
192,192,155860,1,0,0:0:0:0:
64,192,155860,1,0,0:0:0:0:
448,192,155960,1,0,0:0:0:0:
320,192,155960,1,0,0:0:0:0:
192,192,156060,1,0,0:0:0:0:
64,192,156060,1,0,0:0:0:0:
448,192,156060,1,0,0:0:0:0:
192,192,156160,1,0,0:0:0:0:
320,192,156160,1,0,0:0:0:0:
448,192,156260,1,0,0:0:0:0:
320,192,156260,1,0,0:0:0:0:
64,192,156260,1,0,0:0:0:0:
192,192,156360,1,0,0:0:0:0:
64,192,156360,1,0,0:0:0:0:
448,192,156460,1,0,0:0:0:0:
192,192,156460,1,0,0:0:0:0:
320,192,156560,1,0,0:0:0:0:
64,192,156560,1,0,0:0:0:0:
192,192,156660,1,0,0:0:0:0:
448,192,156660,1,0,0:0:0:0:
320,192,156660,1,0,0:0:0:0:
64,192,156760,1,0,0:0:0:0:
192,192,156760,1,0,0:0:0:0:
320,192,156860,1,0,0:0:0:0:
448,192,156860,1,0,0:0:0:0:
192,192,156960,1,0,0:0:0:0:
448,192,156960,1,0,0:0:0:0:
64,192,157060,1,0,0:0:0:0:
320,192,157060,1,0,0:0:0:0:
192,192,157060,1,0,0:0:0:0:
448,192,157160,1,0,0:0:0:0:
64,192,157160,1,0,0:0:0:0:
320,192,157260,1,0,0:0:0:0:
192,192,157260,1,0,0:0:0:0:
320,192,157360,1,0,0:0:0:0:
64,192,157360,1,0,0:0:0:0:
64,192,157460,1,0,0:0:0:0:
192,192,157460,1,0,0:0:0:0:
448,192,157460,1,0,0:0:0:0:
320,192,157560,1,0,0:0:0:0:
192,192,157560,1,0,0:0:0:0:
320,192,157660,1,0,0:0:0:0:
448,192,157660,1,0,0:0:0:0:
448,192,157760,1,0,0:0:0:0:
64,192,157760,1,0,0:0:0:0:
64,192,157860,1,0,0:0:0:0:
192,192,157860,1,0,0:0:0:0:
320,192,157860,1,0,0:0:0:0:
448,192,157960,1,0,0:0:0:0:
192,192,157960,1,0,0:0:0:0:
320,192,158060,1,0,0:0:0:0:
64,192,158060,1,0,0:0:0:0:
64,192,158160,1,0,0:0:0:0:
192,192,158160,1,0,0:0:0:0:
192,192,158260,1,0,0:0:0:0:
448,192,158260,1,0,0:0:0:0:
320,192,158260,1,0,0:0:0:0:
448,192,158360,1,0,0:0:0:0:
64,192,158360,1,0,0:0:0:0:
320,192,158460,1,0,0:0:0:0:
448,192,158460,1,0,0:0:0:0:
320,192,158560,1,0,0:0:0:0:
192,192,158560,1,0,0:0:0:0:
64,192,158660,1,0,0:0:0:0:
192,192,158660,1,0,0:0:0:0:
448,192,158660,1,0,0:0:0:0:
320,192,158760,1,0,0:0:0:0:
64,192,158760,1,0,0:0:0:0:
192,192,158860,1,0,0:0:0:0:
448,192,158860,1,0,0:0:0:0:
320,192,158960,1,0,0:0:0:0:
192,192,158960,1,0,0:0:0:0:
64,192,159060,1,0,0:0:0:0:
320,192,159060,1,0,0:0:0:0:
448,192,159060,1,0,0:0:0:0:
64,192,159160,1,0,0:0:0:0:
192,192,159160,1,0,0:0:0:0:
320,192,159260,1,0,0:0:0:0:
448,192,159260,1,0,0:0:0:0:
192,192,159260,1,0,0:0:0:0:
64,192,159360,1,0,0:0:0:0:
448,192,159360,1,0,0:0:0:0:
320,192,159460,1,0,0:0:0:0:
192,192,159460,1,0,0:0:0:0:
64,192,159460,1,0,0:0:0:0:
448,192,159560,1,0,0:0:0:0:
320,192,159560,1,0,0:0:0:0:
64,192,159660,1,0,0:0:0:0:
448,192,159660,1,0,0:0:0:0:
192,192,159760,1,0,0:0:0:0:
64,192,159760,1,0,0:0:0:0:
192,192,159860,1,0,0:0:0:0:
320,192,159860,1,0,0:0:0:0:
448,192,159860,1,0,0:0:0:0:
320,192,159960,1,0,0:0:0:0:
64,192,159960,1,0,0:0:0:0:
192,192,160060,1,0,0:0:0:0:
320,192,160060,1,0,0:0:0:0:
448,192,160160,1,0,0:0:0:0:
192,192,160160,1,0,0:0:0:0:
320,192,160260,1,0,0:0:0:0:
448,192,160260,1,0,0:0:0:0:
64,192,160260,1,0,0:0:0:0:
320,192,160360,1,0,0:0:0:0:
192,192,160360,1,0,0:0:0:0:
64,192,160460,1,0,0:0:0:0:
192,192,160460,1,0,0:0:0:0:
320,192,160560,1,0,0:0:0:0:
448,192,160560,1,0,0:0:0:0:
448,192,160660,1,0,0:0:0:0:
192,192,160660,1,0,0:0:0:0:
64,192,160660,1,0,0:0:0:0:
192,192,160760,1,0,0:0:0:0:
320,192,160760,1,0,0:0:0:0:
64,192,160860,1,0,0:0:0:0:
448,192,160860,1,0,0:0:0:0:
320,192,160960,1,0,0:0:0:0:
64,192,160960,1,0,0:0:0:0:
320,192,161060,1,0,0:0:0:0:
448,192,161060,1,0,0:0:0:0:
192,192,161060,1,0,0:0:0:0:
320,192,161160,1,0,0:0:0:0:
64,192,161160,1,0,0:0:0:0:
192,192,161260,1,0,0:0:0:0:
448,192,161260,1,0,0:0:0:0:
64,192,161360,1,0,0:0:0:0:
448,192,161360,1,0,0:0:0:0:
192,192,161460,1,0,0:0:0:0:
320,192,161460,1,0,0:0:0:0:
64,192,161460,1,0,0:0:0:0:
448,192,161560,1,0,0:0:0:0:
320,192,161560,1,0,0:0:0:0:
64,192,161660,1,0,0:0:0:0:
192,192,161660,1,0,0:0:0:0:
448,192,161710,1,0,0:0:0:0:
320,192,161710,1,0,0:0:0:0:
192,192,161760,1,0,0:0:0:0:
64,192,161760,1,0,0:0:0:0:
448,192,161810,1,0,0:0:0:0:
320,192,161810,1,0,0:0:0:0:
192,192,161860,1,0,0:0:0:0:
64,192,161860,1,0,0:0:0:0:
448,192,162060,1,0,0:0:0:0:
320,192,162060,1,0,0:0:0:0:
320,192,162160,1,0,0:0:0:0:
448,192,162160,1,0,0:0:0:0:
192,192,162260,1,0,0:0:0:0:
64,192,162260,1,0,0:0:0:0:
192,192,162360,1,0,0:0:0:0:
64,192,162360,1,0,0:0:0:0:
320,192,162460,1,0,0:0:0:0:
448,192,162460,1,0,0:0:0:0:
64,192,162660,1,0,0:0:0:0:
192,192,162660,1,0,0:0:0:0:
448,192,162660,1,0,0:0:0:0:
320,192,162660,1,0,0:0:0:0:
192,192,163860,1,0,0:0:0:0:
64,192,163860,1,0,0:0:0:0:
320,192,163960,1,0,0:0:0:0:
448,192,163960,1,0,0:0:0:0:
192,192,164060,1,0,0:0:0:0:
64,192,164060,1,0,0:0:0:0:
320,192,164160,1,0,0:0:0:0:
448,192,164160,1,0,0:0:0:0:
448,192,164260,1,0,0:0:0:0:
64,192,164260,1,0,0:0:0:0:
192,192,164260,1,0,0:0:0:0:
320,192,164360,1,0,0:0:0:0:
192,192,164460,1,0,0:0:0:0:
64,192,164460,1,0,0:0:0:0:
448,192,164560,1,0,0:0:0:0:
192,192,164560,1,0,0:0:0:0:
64,192,164660,1,0,0:0:0:0:
320,192,164660,1,0,0:0:0:0:
192,192,164760,1,0,0:0:0:0:
448,192,164860,1,0,0:0:0:0:
64,192,164860,1,0,0:0:0:0:
64,192,164960,1,0,0:0:0:0:
192,192,165060,1,0,0:0:0:0:
448,192,165060,1,0,0:0:0:0:
448,192,165160,1,0,0:0:0:0:
192,192,165160,1,0,0:0:0:0:
64,192,165260,1,0,0:0:0:0:
320,192,165260,1,0,0:0:0:0:
320,192,165360,1,0,0:0:0:0:
64,192,165360,1,0,0:0:0:0:
192,192,165460,1,0,0:0:0:0:
448,192,165460,1,0,0:0:0:0:
320,192,165560,1,0,0:0:0:0:
64,192,165560,1,0,0:0:0:0:
320,192,165660,1,0,0:0:0:0:
192,192,165660,1,0,0:0:0:0:
448,192,165760,1,0,0:0:0:0:
192,192,165760,1,0,0:0:0:0:
320,192,165860,1,0,0:0:0:0:
64,192,165860,1,0,0:0:0:0:
192,192,165960,1,0,0:0:0:0:
448,192,166060,1,0,0:0:0:0:
64,192,166060,1,0,0:0:0:0:
192,192,166160,1,0,0:0:0:0:
448,192,166160,1,0,0:0:0:0:
320,192,166260,1,0,0:0:0:0:
64,192,166260,1,0,0:0:0:0:
192,192,166360,1,0,0:0:0:0:
448,192,166460,1,0,0:0:0:0:
64,192,166460,1,0,0:0:0:0:
448,192,166560,1,0,0:0:0:0:
64,192,166660,1,0,0:0:0:0:
192,192,166660,1,0,0:0:0:0:
448,192,166760,1,0,0:0:0:0:
64,192,166860,1,0,0:0:0:0:
320,192,166860,1,0,0:0:0:0:
192,192,166960,1,0,0:0:0:0:
320,192,166960,1,0,0:0:0:0:
64,192,167060,1,0,0:0:0:0:
448,192,167060,1,0,0:0:0:0:
320,192,167160,1,0,0:0:0:0:
192,192,167160,1,0,0:0:0:0:
64,192,167260,1,0,0:0:0:0:
320,192,167260,1,0,0:0:0:0:
448,192,167360,1,0,0:0:0:0:
64,192,167360,1,0,0:0:0:0:
192,192,167460,1,0,0:0:0:0:
320,192,167460,1,0,0:0:0:0:
448,192,167560,1,0,0:0:0:0:
64,192,167660,1,0,0:0:0:0:
192,192,167660,1,0,0:0:0:0:
192,192,167760,1,0,0:0:0:0:
320,192,167760,1,0,0:0:0:0:
448,192,167860,1,0,0:0:0:0:
64,192,167860,1,0,0:0:0:0:
320,192,167960,1,0,0:0:0:0:
64,192,168060,1,0,0:0:0:0:
192,192,168060,1,0,0:0:0:0:
192,192,168160,1,0,0:0:0:0:
448,192,168260,1,0,0:0:0:0:
64,192,168260,1,0,0:0:0:0:
192,192,168360,1,0,0:0:0:0:
320,192,168460,1,0,0:0:0:0:
448,192,168460,1,0,0:0:0:0:
64,192,168560,1,0,0:0:0:0:
448,192,168560,1,0,0:0:0:0:
320,192,168660,1,0,0:0:0:0:
192,192,168660,1,0,0:0:0:0:
64,192,168760,1,0,0:0:0:0:
448,192,168760,1,0,0:0:0:0:
320,192,168860,1,0,0:0:0:0:
64,192,168860,1,0,0:0:0:0:
192,192,168960,1,0,0:0:0:0:
320,192,168960,1,0,0:0:0:0:
64,192,169060,1,0,0:0:0:0:
448,192,169060,1,0,0:0:0:0:
320,192,169160,1,0,0:0:0:0:
64,192,169260,1,0,0:0:0:0:
192,192,169260,1,0,0:0:0:0:
448,192,169360,1,0,0:0:0:0:
64,192,169360,1,0,0:0:0:0:
320,192,169460,1,0,0:0:0:0:
192,192,169460,1,0,0:0:0:0:
64,192,169560,1,0,0:0:0:0:
320,192,169660,1,0,0:0:0:0:
448,192,169660,1,0,0:0:0:0:
320,192,169760,1,0,0:0:0:0:
448,192,169860,1,0,0:0:0:0:
64,192,169860,1,0,0:0:0:0:
192,192,169960,1,0,0:0:0:0:
64,192,170060,1,0,0:0:0:0:
320,192,170060,1,0,0:0:0:0:
320,192,170160,1,0,0:0:0:0:
192,192,170160,1,0,0:0:0:0:
448,192,170260,128,0,170460:0:0:0:0:
64,192,170260,1,0,0:0:0:0:
192,192,170360,1,0,0:0:0:0:
64,192,170460,1,0,0:0:0:0:
320,192,170460,1,0,0:0:0:0:
320,192,170560,1,0,0:0:0:0:
192,192,170560,1,0,0:0:0:0:
448,192,170660,1,0,0:0:0:0:
192,192,170660,1,0,0:0:0:0:
64,192,170760,1,0,0:0:0:0:
320,192,170860,1,0,0:0:0:0:
192,192,170860,1,0,0:0:0:0:
448,192,170960,1,0,0:0:0:0:
192,192,170960,1,0,0:0:0:0:
320,192,171060,1,0,0:0:0:0:
64,192,171060,1,0,0:0:0:0:
192,192,171160,1,0,0:0:0:0:
448,192,171260,1,0,0:0:0:0:
64,192,171260,1,0,0:0:0:0:
448,192,171360,1,0,0:0:0:0:
320,192,171460,1,0,0:0:0:0:
192,192,171460,1,0,0:0:0:0:
320,192,171560,1,0,0:0:0:0:
192,192,171560,1,0,0:0:0:0:
448,192,171660,1,0,0:0:0:0:
64,192,171660,1,0,0:0:0:0:
64,192,171760,1,0,0:0:0:0:
448,192,171760,1,0,0:0:0:0:
320,192,171860,1,0,0:0:0:0:
192,192,171860,1,0,0:0:0:0:
64,192,171960,1,0,0:0:0:0:
448,192,171960,1,0,0:0:0:0:
320,192,172060,1,0,0:0:0:0:
64,192,172060,1,0,0:0:0:0:
320,192,172160,1,0,0:0:0:0:
448,192,172160,1,0,0:0:0:0:
64,192,172260,1,0,0:0:0:0:
192,192,172260,1,0,0:0:0:0:
320,192,172360,1,0,0:0:0:0:
64,192,172460,1,0,0:0:0:0:
448,192,172460,1,0,0:0:0:0:
320,192,172560,1,0,0:0:0:0:
64,192,172560,1,0,0:0:0:0:
192,192,172660,1,0,0:0:0:0:
448,192,172660,1,0,0:0:0:0:
64,192,172760,1,0,0:0:0:0:
320,192,172860,1,0,0:0:0:0:
192,192,172860,1,0,0:0:0:0:
320,192,172960,1,0,0:0:0:0:
448,192,173060,1,0,0:0:0:0:
192,192,173060,1,0,0:0:0:0:
320,192,173160,1,0,0:0:0:0:
192,192,173260,1,0,0:0:0:0:
64,192,173260,1,0,0:0:0:0:
448,192,173360,1,0,0:0:0:0:
64,192,173360,1,0,0:0:0:0:
192,192,173460,1,0,0:0:0:0:
320,192,173460,1,0,0:0:0:0:
64,192,173560,1,0,0:0:0:0:
448,192,173560,1,0,0:0:0:0:
192,192,173660,1,0,0:0:0:0:
448,192,173660,1,0,0:0:0:0:
64,192,173760,1,0,0:0:0:0:
192,192,173760,1,0,0:0:0:0:
320,192,173860,1,0,0:0:0:0:
448,192,173860,1,0,0:0:0:0:
64,192,173960,1,0,0:0:0:0:
320,192,174060,1,0,0:0:0:0:
192,192,174060,1,0,0:0:0:0:
64,192,174160,1,0,0:0:0:0:
192,192,174160,1,0,0:0:0:0:
448,192,174260,1,0,0:0:0:0:
320,192,174260,1,0,0:0:0:0:
64,192,174360,1,0,0:0:0:0:
448,192,174460,1,0,0:0:0:0:
192,192,174460,1,0,0:0:0:0:
192,192,174560,1,0,0:0:0:0:
64,192,174660,1,0,0:0:0:0:
448,192,174660,1,0,0:0:0:0:
320,192,174760,1,0,0:0:0:0:
192,192,174860,1,0,0:0:0:0:
448,192,174860,1,0,0:0:0:0:
64,192,174960,1,0,0:0:0:0:
448,192,174960,1,0,0:0:0:0:
192,192,175060,1,0,0:0:0:0:
320,192,175060,1,0,0:0:0:0:
448,192,175160,1,0,0:0:0:0:
64,192,175160,1,0,0:0:0:0:
192,192,175260,1,0,0:0:0:0:
64,192,175260,1,0,0:0:0:0:
448,192,175360,1,0,0:0:0:0:
192,192,175360,1,0,0:0:0:0:
320,192,175460,1,0,0:0:0:0:
64,192,175460,1,0,0:0:0:0:
192,192,175560,1,0,0:0:0:0:
320,192,175660,1,0,0:0:0:0:
448,192,175660,1,0,0:0:0:0:
64,192,175760,1,0,0:0:0:0:
448,192,175760,1,0,0:0:0:0:
320,192,175860,1,0,0:0:0:0:
192,192,175860,1,0,0:0:0:0:
448,192,175960,1,0,0:0:0:0:
320,192,176060,1,0,0:0:0:0:
64,192,176060,1,0,0:0:0:0:
64,192,176160,1,0,0:0:0:0:
448,192,176260,1,0,0:0:0:0:
192,192,176260,1,0,0:0:0:0:
320,192,176360,1,0,0:0:0:0:
64,192,176460,1,0,0:0:0:0:
192,192,176460,1,0,0:0:0:0:
448,192,176560,1,0,0:0:0:0:
64,192,176560,1,0,0:0:0:0:
192,192,176660,128,0,176860:0:0:0:0:
448,192,176660,1,0,0:0:0:0:
320,192,176760,1,0,0:0:0:0:
64,192,176860,1,0,0:0:0:0:
448,192,176860,1,0,0:0:0:0:
192,192,176960,1,0,0:0:0:0:
448,192,176960,1,0,0:0:0:0:
320,192,177060,1,0,0:0:0:0:
192,192,177060,1,0,0:0:0:0:
64,192,177160,1,0,0:0:0:0:
320,192,177260,1,0,0:0:0:0:
448,192,177260,1,0,0:0:0:0:
64,192,177360,1,0,0:0:0:0:
320,192,177360,1,0,0:0:0:0:
192,192,177460,1,0,0:0:0:0:
448,192,177460,1,0,0:0:0:0:
64,192,177560,1,0,0:0:0:0:
320,192,177660,1,0,0:0:0:0:
192,192,177660,1,0,0:0:0:0:
320,192,177760,1,0,0:0:0:0:
192,192,177860,1,0,0:0:0:0:
64,192,177860,1,0,0:0:0:0:
64,192,177960,1,0,0:0:0:0:
192,192,177960,1,0,0:0:0:0:
320,192,178060,1,0,0:0:0:0:
448,192,178060,1,0,0:0:0:0:
320,192,178160,1,0,0:0:0:0:
448,192,178160,1,0,0:0:0:0:
64,192,178260,1,0,0:0:0:0:
192,192,178260,1,0,0:0:0:0:
448,192,178360,1,0,0:0:0:0:
320,192,178360,1,0,0:0:0:0:
64,192,178460,1,0,0:0:0:0:
320,192,178460,1,0,0:0:0:0:
192,192,178560,1,0,0:0:0:0:
64,192,178560,1,0,0:0:0:0:
320,192,178660,1,0,0:0:0:0:
448,192,178660,1,0,0:0:0:0:
192,192,178760,1,0,0:0:0:0:
64,192,178860,1,0,0:0:0:0:
320,192,178860,1,0,0:0:0:0:
448,192,178960,1,0,0:0:0:0:
64,192,178960,1,0,0:0:0:0:
192,192,179060,1,0,0:0:0:0:
320,192,179060,1,0,0:0:0:0:
64,192,179160,1,0,0:0:0:0:
448,192,179260,1,0,0:0:0:0:
192,192,179260,1,0,0:0:0:0:
192,192,179360,1,0,0:0:0:0:
320,192,179460,1,0,0:0:0:0:
64,192,179460,1,0,0:0:0:0:
448,192,179560,1,0,0:0:0:0:
320,192,179660,1,0,0:0:0:0:
192,192,179660,1,0,0:0:0:0:
64,192,179760,1,0,0:0:0:0:
320,192,179760,1,0,0:0:0:0:
192,192,179860,1,0,0:0:0:0:
448,192,179860,1,0,0:0:0:0:
320,192,179960,1,0,0:0:0:0:
64,192,179960,1,0,0:0:0:0:
192,192,180060,1,0,0:0:0:0:
320,192,180060,1,0,0:0:0:0:
448,192,180160,1,0,0:0:0:0:
192,192,180160,1,0,0:0:0:0:
64,192,180260,1,0,0:0:0:0:
320,192,180260,1,0,0:0:0:0:
448,192,180360,1,0,0:0:0:0:
64,192,180460,1,0,0:0:0:0:
320,192,180460,1,0,0:0:0:0:
192,192,180560,1,0,0:0:0:0:
320,192,180560,1,0,0:0:0:0:
448,192,180660,1,0,0:0:0:0:
64,192,180660,1,0,0:0:0:0:
192,192,180760,1,0,0:0:0:0:
448,192,180860,1,0,0:0:0:0:
64,192,180860,1,0,0:0:0:0:
448,192,180960,1,0,0:0:0:0:
192,192,181060,1,0,0:0:0:0:
64,192,181060,1,0,0:0:0:0:
320,192,181160,1,0,0:0:0:0:
448,192,181260,1,0,0:0:0:0:
192,192,181260,1,0,0:0:0:0:
192,192,181360,1,0,0:0:0:0:
320,192,181360,1,0,0:0:0:0:
64,192,181460,1,0,0:0:0:0:
448,192,181460,1,0,0:0:0:0:
320,192,181560,1,0,0:0:0:0:
192,192,181560,1,0,0:0:0:0:
64,192,181660,1,0,0:0:0:0:
320,192,181660,1,0,0:0:0:0:
448,192,181760,1,0,0:0:0:0:
64,192,181760,1,0,0:0:0:0:
192,192,181860,1,0,0:0:0:0:
320,192,181860,1,0,0:0:0:0:
64,192,181960,1,0,0:0:0:0:
320,192,182060,1,0,0:0:0:0:
448,192,182060,1,0,0:0:0:0:
64,192,182160,1,0,0:0:0:0:
448,192,182160,1,0,0:0:0:0:
320,192,182260,1,0,0:0:0:0:
192,192,182260,1,0,0:0:0:0:
448,192,182360,1,0,0:0:0:0:
64,192,182460,1,0,0:0:0:0:
320,192,182460,1,0,0:0:0:0:
64,192,182560,1,0,0:0:0:0:
320,192,182660,1,0,0:0:0:0:
192,192,182660,1,0,0:0:0:0:
448,192,182760,1,0,0:0:0:0:
192,192,182860,1,0,0:0:0:0:
320,192,182860,1,0,0:0:0:0:
448,192,182960,1,0,0:0:0:0:
192,192,182960,1,0,0:0:0:0:
320,192,183060,128,0,183260:0:0:0:0:
448,192,183060,1,0,0:0:0:0:
64,192,183160,1,0,0:0:0:0:
192,192,183260,1,0,0:0:0:0:
448,192,183260,1,0,0:0:0:0:
64,192,183360,1,0,0:0:0:0:
192,192,183360,1,0,0:0:0:0:
448,192,183460,1,0,0:0:0:0:
64,192,183460,1,0,0:0:0:0:
192,192,183560,1,0,0:0:0:0:
320,192,183660,1,0,0:0:0:0:
448,192,183660,1,0,0:0:0:0:
64,192,183760,1,0,0:0:0:0:
320,192,183760,1,0,0:0:0:0:
192,192,183860,1,0,0:0:0:0:
448,192,183860,1,0,0:0:0:0:
320,192,183960,1,0,0:0:0:0:
64,192,184060,1,0,0:0:0:0:
192,192,184060,1,0,0:0:0:0:
64,192,184160,1,0,0:0:0:0:
320,192,184260,1,0,0:0:0:0:
448,192,184260,1,0,0:0:0:0:
320,192,184360,1,0,0:0:0:0:
448,192,184360,1,0,0:0:0:0:
64,192,184460,1,0,0:0:0:0:
192,192,184460,1,0,0:0:0:0:
192,192,184560,1,0,0:0:0:0:
64,192,184560,1,0,0:0:0:0:
448,192,184660,1,0,0:0:0:0:
320,192,184660,1,0,0:0:0:0:
64,192,184760,1,0,0:0:0:0:
192,192,184760,1,0,0:0:0:0:
448,192,184860,1,0,0:0:0:0:
64,192,184860,1,0,0:0:0:0:
192,192,184960,1,0,0:0:0:0:
448,192,184960,1,0,0:0:0:0:
320,192,185060,1,0,0:0:0:0:
64,192,185060,1,0,0:0:0:0:
192,192,185160,1,0,0:0:0:0:
64,192,185260,1,0,0:0:0:0:
448,192,185260,1,0,0:0:0:0:
192,192,185360,1,0,0:0:0:0:
448,192,185360,1,0,0:0:0:0:
64,192,185460,1,0,0:0:0:0:
320,192,185460,1,0,0:0:0:0:
192,192,185560,1,0,0:0:0:0:
64,192,185660,1,0,0:0:0:0:
448,192,185660,1,0,0:0:0:0:
448,192,185760,1,0,0:0:0:0:
320,192,185860,1,0,0:0:0:0:
192,192,185860,1,0,0:0:0:0:
64,192,185960,1,0,0:0:0:0:
192,192,186060,1,0,0:0:0:0:
448,192,186060,1,0,0:0:0:0:
64,192,186160,1,0,0:0:0:0:
192,192,186160,1,0,0:0:0:0:
448,192,186260,1,0,0:0:0:0:
320,192,186260,1,0,0:0:0:0:
64,192,186360,1,0,0:0:0:0:
192,192,186360,1,0,0:0:0:0:
448,192,186460,1,0,0:0:0:0:
192,192,186460,1,0,0:0:0:0:
320,192,186560,1,0,0:0:0:0:
448,192,186560,1,0,0:0:0:0:
192,192,186660,1,0,0:0:0:0:
64,192,186660,1,0,0:0:0:0:
320,192,186760,1,0,0:0:0:0:
64,192,186860,1,0,0:0:0:0:
448,192,186860,1,0,0:0:0:0:
320,192,186960,1,0,0:0:0:0:
448,192,186960,1,0,0:0:0:0:
192,192,187060,1,0,0:0:0:0:
64,192,187060,1,0,0:0:0:0:
448,192,187160,1,0,0:0:0:0:
64,192,187260,1,0,0:0:0:0:
192,192,187260,1,0,0:0:0:0:
192,192,187360,1,0,0:0:0:0:
320,192,187460,1,0,0:0:0:0:
448,192,187460,1,0,0:0:0:0:
64,192,187560,1,0,0:0:0:0:
192,192,187660,1,0,0:0:0:0:
320,192,187660,1,0,0:0:0:0:
448,192,187760,1,0,0:0:0:0:
192,192,187760,1,0,0:0:0:0:
320,192,187860,1,0,0:0:0:0:
64,192,187860,1,0,0:0:0:0:
192,192,187960,1,0,0:0:0:0:
448,192,187960,1,0,0:0:0:0:
320,192,188060,1,0,0:0:0:0:
192,192,188060,1,0,0:0:0:0:
64,192,188160,1,0,0:0:0:0:
320,192,188160,1,0,0:0:0:0:
192,192,188260,1,0,0:0:0:0:
448,192,188260,1,0,0:0:0:0:
320,192,188360,1,0,0:0:0:0:
192,192,188360,1,0,0:0:0:0:
448,192,188460,1,0,0:0:0:0:
64,192,188460,1,0,0:0:0:0:
320,192,188560,1,0,0:0:0:0:
64,192,188560,1,0,0:0:0:0:
448,192,188660,1,0,0:0:0:0:
192,192,188660,1,0,0:0:0:0:
64,192,188760,1,0,0:0:0:0:
448,192,188760,1,0,0:0:0:0:
320,192,188860,1,0,0:0:0:0:
192,192,188860,1,0,0:0:0:0:
64,192,188960,1,0,0:0:0:0:
320,192,188960,1,0,0:0:0:0:
448,192,189060,1,0,0:0:0:0:
192,192,189060,1,0,0:0:0:0:
192,192,189160,1,0,0:0:0:0:
64,192,189260,1,0,0:0:0:0:
320,192,189260,1,0,0:0:0:0:
320,192,189360,1,0,0:0:0:0:
448,192,189360,1,0,0:0:0:0:
192,192,189460,1,0,0:0:0:0:
64,192,189460,1,0,0:0:0:0:
320,192,189560,1,0,0:0:0:0:
64,192,189560,1,0,0:0:0:0:
448,192,189660,1,0,0:0:0:0:
192,192,189660,1,0,0:0:0:0:
64,192,189760,1,0,0:0:0:0:
448,192,189760,1,0,0:0:0:0:
64,192,189860,1,0,0:0:0:0:
320,192,189860,1,0,0:0:0:0:
192,192,189860,128,0,190060:0:0:0:0:
64,192,190060,128,0,190260:0:0:0:0:
192,192,190260,128,0,190460:0:0:0:0:
320,192,190460,128,0,190860:0:0:0:0:
448,192,190460,1,0,0:0:0:0:
448,192,190860,128,0,191260:0:0:0:0:
192,192,191260,128,0,191660:0:0:0:0:
320,192,191660,128,0,192060:0:0:0:0:
192,192,192060,128,0,192260:0:0:0:0:
64,192,192060,1,0,0:0:0:0:
320,192,192260,128,0,192460:0:0:0:0:
192,192,192460,128,0,192660:0:0:0:0:
320,192,192660,128,0,192860:0:0:0:0:
64,192,192860,128,0,193060:0:0:0:0:
192,192,193060,128,0,193260:0:0:0:0:
64,192,193260,128,0,193460:0:0:0:0:
192,192,193460,128,0,193660:0:0:0:0:
448,192,193660,128,0,194060:0:0:0:0:
320,192,193660,1,0,0:0:0:0:
320,192,194060,128,0,194460:0:0:0:0:
192,192,194460,128,0,194860:0:0:0:0:
64,192,194860,128,0,195260:0:0:0:0:
192,192,195260,128,0,195460:0:0:0:0:
448,192,195260,1,0,0:0:0:0:
320,192,195460,128,0,195660:0:0:0:0:
448,192,195660,128,0,195860:0:0:0:0:
320,192,195860,128,0,196060:0:0:0:0:
64,192,196060,128,0,196260:0:0:0:0:
192,192,196260,128,0,196460:0:0:0:0:
64,192,196460,128,0,196660:0:0:0:0:
192,192,196660,128,0,196860:0:0:0:0:
320,192,196860,128,0,197260:0:0:0:0:
448,192,196860,1,0,0:0:0:0:
448,192,197260,128,0,197660:0:0:0:0:
320,192,197660,128,0,197860:0:0:0:0:
192,192,197860,128,0,198060:0:0:0:0:
64,192,198060,128,0,198260:0:0:0:0:
192,192,198260,128,0,198460:0:0:0:0:
448,192,198460,128,0,198860:0:0:0:0:
64,192,198460,1,0,0:0:0:0:
320,192,198860,128,0,199260:0:0:0:0:
64,192,199260,128,0,199460:0:0:0:0:
192,192,199460,128,0,199660:0:0:0:0:
64,192,199660,128,0,199860:0:0:0:0:
448,192,199860,128,0,200060:0:0:0:0:
320,192,200060,128,0,200460:0:0:0:0:
192,192,200060,1,0,0:0:0:0:
192,192,200460,128,0,200860:0:0:0:0:
64,192,200860,128,0,201260:0:0:0:0:
448,192,201260,128,0,201460:0:0:0:0:
320,192,201460,128,0,201660:0:0:0:0:
64,192,201660,1,0,0:0:0:0:
192,192,201660,1,0,0:0:0:0:
320,192,201710,1,0,0:0:0:0:
448,192,201710,1,0,0:0:0:0:
192,192,201760,1,0,0:0:0:0:
64,192,201760,1,0,0:0:0:0:
320,192,201810,1,0,0:0:0:0:
448,192,201810,1,0,0:0:0:0:
64,192,201860,128,0,202060:0:0:0:0:
192,192,201860,1,0,0:0:0:0:
320,192,202060,1,0,0:0:0:0:
192,192,202060,1,0,0:0:0:0:
448,192,202160,1,0,0:0:0:0:
64,192,202160,1,0,0:0:0:0:
448,192,202260,1,0,0:0:0:0:
320,192,202260,1,0,0:0:0:0:
192,192,202260,1,0,0:0:0:0:
320,192,202360,1,0,0:0:0:0:
64,192,202360,1,0,0:0:0:0:
448,192,202460,128,0,202660:0:0:0:0:
192,192,202460,1,0,0:0:0:0:
192,192,202660,128,0,202860:0:0:0:0:
320,192,202660,1,0,0:0:0:0:
64,192,202660,1,0,0:0:0:0:
64,192,202860,128,0,203060:0:0:0:0:
192,192,203060,128,0,203260:0:0:0:0:
320,192,203260,128,0,203660:0:0:0:0:
448,192,203260,1,0,0:0:0:0:
448,192,203660,128,0,204060:0:0:0:0:
192,192,204060,128,0,204460:0:0:0:0:
320,192,204460,128,0,204860:0:0:0:0:
192,192,204860,128,0,205060:0:0:0:0:
64,192,204860,1,0,0:0:0:0:
320,192,205060,128,0,205260:0:0:0:0:
192,192,205260,128,0,205460:0:0:0:0:
320,192,205460,128,0,205660:0:0:0:0:
64,192,205660,128,0,205860:0:0:0:0:
192,192,205860,128,0,206060:0:0:0:0:
64,192,206060,128,0,206260:0:0:0:0:
192,192,206260,128,0,206460:0:0:0:0:
448,192,206460,128,0,206860:0:0:0:0:
64,192,206460,1,0,0:0:0:0:
320,192,206860,128,0,207260:0:0:0:0:
192,192,207260,128,0,207660:0:0:0:0:
64,192,207660,128,0,208060:0:0:0:0:
192,192,208060,128,0,208260:0:0:0:0:
448,192,208060,1,0,0:0:0:0:
320,192,208260,128,0,208460:0:0:0:0:
448,192,208460,128,0,208660:0:0:0:0:
320,192,208660,128,0,208860:0:0:0:0:
64,192,208860,128,0,209060:0:0:0:0:
192,192,209060,128,0,209260:0:0:0:0:
64,192,209260,128,0,209460:0:0:0:0:
192,192,209460,128,0,209660:0:0:0:0:
320,192,209660,128,0,210060:0:0:0:0:
64,192,209660,1,0,0:0:0:0:
448,192,210060,128,0,210460:0:0:0:0:
320,192,210460,128,0,210660:0:0:0:0:
192,192,210660,128,0,210860:0:0:0:0:
64,192,210860,128,0,211060:0:0:0:0:
192,192,211060,128,0,211260:0:0:0:0:
448,192,211260,128,0,211660:0:0:0:0:
320,192,211260,1,0,0:0:0:0:
320,192,211660,128,0,212060:0:0:0:0:
64,192,212060,128,0,212260:0:0:0:0:
192,192,212260,128,0,212460:0:0:0:0:
64,192,212460,128,0,212660:0:0:0:0:
448,192,212660,128,0,212860:0:0:0:0:
320,192,212860,128,0,213260:0:0:0:0:
64,192,212860,1,0,0:0:0:0:
192,192,213260,128,0,213660:0:0:0:0:
64,192,213660,128,0,214060:0:0:0:0:
448,192,214060,128,0,214260:0:0:0:0:
320,192,214260,128,0,214460:0:0:0:0:
64,192,214460,1,0,0:0:0:0:
192,192,214460,1,0,0:0:0:0:
320,192,214510,1,0,0:0:0:0:
448,192,214510,1,0,0:0:0:0:
192,192,214560,1,0,0:0:0:0:
64,192,214560,1,0,0:0:0:0:
448,192,214610,1,0,0:0:0:0:
320,192,214610,1,0,0:0:0:0:
64,192,214660,128,0,214860:0:0:0:0:
192,192,214660,1,0,0:0:0:0:
448,192,214860,1,0,0:0:0:0:
192,192,214860,1,0,0:0:0:0:
320,192,214960,1,0,0:0:0:0:
64,192,214960,1,0,0:0:0:0:
192,192,215060,1,0,0:0:0:0:
64,192,215060,1,0,0:0:0:0:
448,192,215060,1,0,0:0:0:0:
320,192,215160,1,0,0:0:0:0:
192,192,215160,1,0,0:0:0:0:
64,192,215260,1,0,0:0:0:0:
448,192,215260,128,0,215360:0:0:0:0:
320,192,215460,1,0,0:0:0:0:
192,192,215460,1,0,0:0:0:0:
64,192,215460,1,0,0:0:0:0:
448,192,215460,1,0,0:0:0:0:
64,192,215560,1,0,0:0:0:0:
192,192,215660,1,0,0:0:0:0:
320,192,215660,1,0,0:0:0:0:
320,192,215760,1,0,0:0:0:0:
448,192,215860,1,0,0:0:0:0:
192,192,215860,1,0,0:0:0:0:
64,192,215860,1,0,0:0:0:0:
64,192,215960,1,0,0:0:0:0:
192,192,216060,1,0,0:0:0:0:
320,192,216060,1,0,0:0:0:0:
192,192,216160,1,0,0:0:0:0:
64,192,216260,1,0,0:0:0:0:
448,192,216260,1,0,0:0:0:0:
192,192,216360,1,0,0:0:0:0:
320,192,216460,1,0,0:0:0:0:
448,192,216460,1,0,0:0:0:0:
448,192,216560,1,0,0:0:0:0:
320,192,216660,1,0,0:0:0:0:
192,192,216660,1,0,0:0:0:0:
64,192,216660,1,0,0:0:0:0:
448,192,216760,1,0,0:0:0:0:
320,192,216860,1,0,0:0:0:0:
64,192,216860,1,0,0:0:0:0:
64,192,216960,1,0,0:0:0:0:
320,192,217060,1,0,0:0:0:0:
448,192,217060,1,0,0:0:0:0:
64,192,217160,1,0,0:0:0:0:
192,192,217260,1,0,0:0:0:0:
320,192,217260,1,0,0:0:0:0:
320,192,217360,1,0,0:0:0:0:
192,192,217460,1,0,0:0:0:0:
64,192,217460,1,0,0:0:0:0:
448,192,217460,1,0,0:0:0:0:
320,192,217560,1,0,0:0:0:0:
448,192,217660,1,0,0:0:0:0:
192,192,217660,1,0,0:0:0:0:
192,192,217760,1,0,0:0:0:0:
320,192,217860,1,0,0:0:0:0:
448,192,217860,1,0,0:0:0:0:
320,192,217960,1,0,0:0:0:0:
448,192,218060,1,0,0:0:0:0:
64,192,218060,1,0,0:0:0:0:
64,192,218160,1,0,0:0:0:0:
192,192,218260,1,0,0:0:0:0:
320,192,218260,1,0,0:0:0:0:
448,192,218260,1,0,0:0:0:0:
448,192,218360,1,0,0:0:0:0:
320,192,218460,1,0,0:0:0:0:
192,192,218460,1,0,0:0:0:0:
64,192,218460,1,0,0:0:0:0:
192,192,218560,1,0,0:0:0:0:
64,192,218660,1,0,0:0:0:0:
320,192,218660,1,0,0:0:0:0:
320,192,218760,1,0,0:0:0:0:
448,192,218860,1,0,0:0:0:0:
64,192,218860,1,0,0:0:0:0:
64,192,218960,1,0,0:0:0:0:
192,192,219060,1,0,0:0:0:0:
320,192,219060,1,0,0:0:0:0:
448,192,219060,1,0,0:0:0:0:
448,192,219160,1,0,0:0:0:0:
64,192,219260,1,0,0:0:0:0:
192,192,219260,1,0,0:0:0:0:
192,192,219360,1,0,0:0:0:0:
448,192,219460,1,0,0:0:0:0:
64,192,219460,1,0,0:0:0:0:
320,192,219560,1,0,0:0:0:0:
448,192,219660,1,0,0:0:0:0:
192,192,219660,1,0,0:0:0:0:
448,192,219760,1,0,0:0:0:0:
192,192,219860,1,0,0:0:0:0:
64,192,219860,1,0,0:0:0:0:
320,192,219860,1,0,0:0:0:0:
448,192,219960,1,0,0:0:0:0:
64,192,220060,1,0,0:0:0:0:
320,192,220060,1,0,0:0:0:0:
64,192,220160,1,0,0:0:0:0:
448,192,220260,1,0,0:0:0:0:
192,192,220260,1,0,0:0:0:0:
64,192,220360,1,0,0:0:0:0:
448,192,220460,1,0,0:0:0:0:
320,192,220460,1,0,0:0:0:0:
448,192,220560,1,0,0:0:0:0:
192,192,220660,1,0,0:0:0:0:
64,192,220660,1,0,0:0:0:0:
320,192,220660,1,0,0:0:0:0:
448,192,220760,1,0,0:0:0:0:
64,192,220860,1,0,0:0:0:0:
192,192,220860,1,0,0:0:0:0:
64,192,220960,1,0,0:0:0:0:
192,192,221060,1,0,0:0:0:0:
448,192,221060,1,0,0:0:0:0:
448,192,221160,1,0,0:0:0:0:
320,192,221260,1,0,0:0:0:0:
192,192,221260,1,0,0:0:0:0:
192,192,221360,1,0,0:0:0:0:
320,192,221460,1,0,0:0:0:0:
448,192,221460,1,0,0:0:0:0:
64,192,221460,1,0,0:0:0:0:
320,192,221560,1,0,0:0:0:0:
192,192,221660,1,0,0:0:0:0:
64,192,221660,1,0,0:0:0:0:
448,192,221660,1,0,0:0:0:0:
64,192,221760,1,0,0:0:0:0:
192,192,221860,1,0,0:0:0:0:
320,192,221860,1,0,0:0:0:0:
192,192,221960,1,0,0:0:0:0:
320,192,222060,1,0,0:0:0:0:
64,192,222060,1,0,0:0:0:0:
320,192,222160,1,0,0:0:0:0:
448,192,222260,1,0,0:0:0:0:
64,192,222260,1,0,0:0:0:0:
192,192,222260,1,0,0:0:0:0:
448,192,222360,1,0,0:0:0:0:
320,192,222460,1,0,0:0:0:0:
192,192,222460,1,0,0:0:0:0:
192,192,222560,1,0,0:0:0:0:
448,192,222660,1,0,0:0:0:0:
320,192,222660,1,0,0:0:0:0:
192,192,222760,1,0,0:0:0:0:
448,192,222860,1,0,0:0:0:0:
320,192,222860,1,0,0:0:0:0:
320,192,222960,1,0,0:0:0:0:
448,192,223060,1,0,0:0:0:0:
192,192,223060,1,0,0:0:0:0:
64,192,223060,1,0,0:0:0:0:
320,192,223160,1,0,0:0:0:0:
64,192,223260,1,0,0:0:0:0:
192,192,223260,1,0,0:0:0:0:
64,192,223360,1,0,0:0:0:0:
320,192,223460,1,0,0:0:0:0:
192,192,223460,1,0,0:0:0:0:
320,192,223560,1,0,0:0:0:0:
448,192,223660,1,0,0:0:0:0:
64,192,223660,1,0,0:0:0:0:
448,192,223760,1,0,0:0:0:0:
192,192,223860,1,0,0:0:0:0:
64,192,223860,1,0,0:0:0:0:
320,192,223860,1,0,0:0:0:0:
192,192,223960,1,0,0:0:0:0:
320,192,224060,1,0,0:0:0:0:
448,192,224060,1,0,0:0:0:0:
320,192,224160,1,0,0:0:0:0:
64,192,224260,1,0,0:0:0:0:
448,192,224260,1,0,0:0:0:0:
320,192,224360,1,0,0:0:0:0:
192,192,224460,1,0,0:0:0:0:
64,192,224460,1,0,0:0:0:0:
192,192,224560,1,0,0:0:0:0:
320,192,224660,1,0,0:0:0:0:
448,192,224660,1,0,0:0:0:0:
64,192,224660,1,0,0:0:0:0:
192,192,224760,1,0,0:0:0:0:
320,192,224860,1,0,0:0:0:0:
64,192,224860,1,0,0:0:0:0:
448,192,224860,1,0,0:0:0:0:
64,192,224960,1,0,0:0:0:0:
448,192,225060,1,0,0:0:0:0:
192,192,225060,1,0,0:0:0:0:
448,192,225160,1,0,0:0:0:0:
320,192,225260,1,0,0:0:0:0:
192,192,225260,1,0,0:0:0:0:
192,192,225360,1,0,0:0:0:0:
320,192,225460,1,0,0:0:0:0:
448,192,225460,1,0,0:0:0:0:
64,192,225460,1,0,0:0:0:0:
320,192,225560,1,0,0:0:0:0:
448,192,225660,1,0,0:0:0:0:
192,192,225660,1,0,0:0:0:0:
448,192,225760,1,0,0:0:0:0:
192,192,225860,1,0,0:0:0:0:
64,192,225860,1,0,0:0:0:0:
448,192,225960,1,0,0:0:0:0:
64,192,226060,1,0,0:0:0:0:
320,192,226060,1,0,0:0:0:0:
64,192,226160,1,0,0:0:0:0:
192,192,226260,1,0,0:0:0:0:
320,192,226260,1,0,0:0:0:0:
448,192,226260,1,0,0:0:0:0:
64,192,226360,1,0,0:0:0:0:
320,192,226460,1,0,0:0:0:0:
192,192,226460,1,0,0:0:0:0:
320,192,226560,1,0,0:0:0:0:
192,192,226660,1,0,0:0:0:0:
64,192,226660,1,0,0:0:0:0:
320,192,226760,1,0,0:0:0:0:
448,192,226860,1,0,0:0:0:0:
64,192,226860,1,0,0:0:0:0:
448,192,226960,1,0,0:0:0:0:
320,192,227060,1,0,0:0:0:0:
192,192,227060,1,0,0:0:0:0:
64,192,227060,1,0,0:0:0:0:
192,192,227160,1,0,0:0:0:0:
320,192,227260,1,0,0:0:0:0:
448,192,227260,1,0,0:0:0:0:
192,192,227310,1,0,0:0:0:0:
64,192,227310,1,0,0:0:0:0:
320,192,227360,1,0,0:0:0:0:
448,192,227360,1,0,0:0:0:0:
192,192,227410,1,0,0:0:0:0:
64,192,227410,1,0,0:0:0:0:
320,192,227460,1,0,0:0:0:0:
448,192,227460,1,0,0:0:0:0:
192,192,227560,1,0,0:0:0:0:
64,192,227660,1,0,0:0:0:0:
320,192,227660,1,0,0:0:0:0:
64,192,227760,1,0,0:0:0:0:
448,192,227760,1,0,0:0:0:0:
192,192,227860,1,0,0:0:0:0:
320,192,227860,1,0,0:0:0:0:
448,192,227960,1,0,0:0:0:0:
192,192,227960,1,0,0:0:0:0:
448,192,228060,1,0,0:0:0:0:
320,192,228060,1,0,0:0:0:0:
64,192,228060,1,0,0:0:0:0:
320,192,228160,1,0,0:0:0:0:
448,192,228260,1,0,0:0:0:0:
64,192,228260,1,0,0:0:0:0:
192,192,228260,1,0,0:0:0:0:
320,192,228260,1,0,0:0:0:0:
192,192,228360,1,0,0:0:0:0:
320,192,228460,1,0,0:0:0:0:
448,192,228460,1,0,0:0:0:0:
448,192,228560,1,0,0:0:0:0:
192,192,228660,1,0,0:0:0:0:
64,192,228660,1,0,0:0:0:0:
320,192,228660,1,0,0:0:0:0:
64,192,228760,1,0,0:0:0:0:
192,192,228860,1,0,0:0:0:0:
320,192,228860,1,0,0:0:0:0:
320,192,228960,1,0,0:0:0:0:
448,192,229060,1,0,0:0:0:0:
64,192,229060,1,0,0:0:0:0:
192,192,229160,1,0,0:0:0:0:
64,192,229260,1,0,0:0:0:0:
320,192,229260,1,0,0:0:0:0:
64,192,229360,1,0,0:0:0:0:
448,192,229460,1,0,0:0:0:0:
192,192,229460,1,0,0:0:0:0:
320,192,229460,1,0,0:0:0:0:
64,192,229560,1,0,0:0:0:0:
448,192,229660,1,0,0:0:0:0:
192,192,229660,1,0,0:0:0:0:
192,192,229760,1,0,0:0:0:0:
320,192,229860,1,0,0:0:0:0:
448,192,229860,1,0,0:0:0:0:
64,192,229960,1,0,0:0:0:0:
192,192,230060,1,0,0:0:0:0:
448,192,230060,1,0,0:0:0:0:
448,192,230160,1,0,0:0:0:0:
320,192,230260,1,0,0:0:0:0:
192,192,230260,1,0,0:0:0:0:
64,192,230260,1,0,0:0:0:0:
448,192,230360,1,0,0:0:0:0:
320,192,230460,1,0,0:0:0:0:
64,192,230460,1,0,0:0:0:0:
64,192,230560,1,0,0:0:0:0:
192,192,230660,1,0,0:0:0:0:
320,192,230660,1,0,0:0:0:0:
320,192,230760,1,0,0:0:0:0:
192,192,230860,1,0,0:0:0:0:
64,192,230860,1,0,0:0:0:0:
192,192,230960,1,0,0:0:0:0:
448,192,231060,1,0,0:0:0:0:
320,192,231060,1,0,0:0:0:0:
64,192,231060,1,0,0:0:0:0:
448,192,231160,1,0,0:0:0:0:
320,192,231260,1,0,0:0:0:0:
192,192,231260,1,0,0:0:0:0:
64,192,231260,1,0,0:0:0:0:
320,192,231360,1,0,0:0:0:0:
192,192,231460,1,0,0:0:0:0:
64,192,231460,1,0,0:0:0:0:
64,192,231560,1,0,0:0:0:0:
448,192,231660,1,0,0:0:0:0:
320,192,231660,1,0,0:0:0:0:
448,192,231760,1,0,0:0:0:0:
320,192,231860,1,0,0:0:0:0:
192,192,231860,1,0,0:0:0:0:
64,192,231860,1,0,0:0:0:0:
192,192,231960,1,0,0:0:0:0:
448,192,232060,1,0,0:0:0:0:
64,192,232060,1,0,0:0:0:0:
448,192,232160,1,0,0:0:0:0:
320,192,232260,1,0,0:0:0:0:
192,192,232260,1,0,0:0:0:0:
64,192,232360,1,0,0:0:0:0:
192,192,232460,1,0,0:0:0:0:
320,192,232460,1,0,0:0:0:0:
320,192,232560,1,0,0:0:0:0:
448,192,232660,1,0,0:0:0:0:
192,192,232660,1,0,0:0:0:0:
64,192,232660,1,0,0:0:0:0:
320,192,232760,1,0,0:0:0:0:
192,192,232860,1,0,0:0:0:0:
64,192,232860,1,0,0:0:0:0:
192,192,232960,1,0,0:0:0:0:
320,192,233060,1,0,0:0:0:0:
448,192,233060,1,0,0:0:0:0:
64,192,233160,1,0,0:0:0:0:
192,192,233260,1,0,0:0:0:0:
448,192,233260,1,0,0:0:0:0:
448,192,233360,1,0,0:0:0:0:
320,192,233460,1,0,0:0:0:0:
192,192,233460,1,0,0:0:0:0:
64,192,233460,1,0,0:0:0:0:
448,192,233560,1,0,0:0:0:0:
320,192,233660,1,0,0:0:0:0:
64,192,233660,1,0,0:0:0:0:
64,192,233760,1,0,0:0:0:0:
192,192,233860,1,0,0:0:0:0:
320,192,233860,1,0,0:0:0:0:
192,192,233960,1,0,0:0:0:0:
320,192,234060,1,0,0:0:0:0:
64,192,234060,1,0,0:0:0:0:
320,192,234160,1,0,0:0:0:0:
448,192,234260,1,0,0:0:0:0:
64,192,234260,1,0,0:0:0:0:
192,192,234260,1,0,0:0:0:0:
448,192,234360,1,0,0:0:0:0:
192,192,234460,1,0,0:0:0:0:
64,192,234460,1,0,0:0:0:0:
192,192,234560,1,0,0:0:0:0:
320,192,234660,1,0,0:0:0:0:
448,192,234660,1,0,0:0:0:0:
320,192,234760,1,0,0:0:0:0:
64,192,234860,1,0,0:0:0:0:
448,192,234860,1,0,0:0:0:0:
64,192,234960,1,0,0:0:0:0:
192,192,235060,1,0,0:0:0:0:
320,192,235060,1,0,0:0:0:0:
448,192,235060,1,0,0:0:0:0:
192,192,235160,1,0,0:0:0:0:
320,192,235260,1,0,0:0:0:0:
448,192,235260,1,0,0:0:0:0:
320,192,235360,1,0,0:0:0:0:
448,192,235460,1,0,0:0:0:0:
64,192,235460,1,0,0:0:0:0:
192,192,235560,1,0,0:0:0:0:
320,192,235660,1,0,0:0:0:0:
64,192,235660,1,0,0:0:0:0:
64,192,235760,1,0,0:0:0:0:
192,192,235860,1,0,0:0:0:0:
320,192,235860,1,0,0:0:0:0:
448,192,235860,1,0,0:0:0:0:
64,192,235960,1,0,0:0:0:0:
320,192,236060,1,0,0:0:0:0:
448,192,236060,1,0,0:0:0:0:
448,192,236160,1,0,0:0:0:0:
64,192,236260,1,0,0:0:0:0:
320,192,236260,1,0,0:0:0:0:
64,192,236360,1,0,0:0:0:0:
192,192,236460,1,0,0:0:0:0:
448,192,236460,1,0,0:0:0:0:
192,192,236560,1,0,0:0:0:0:
320,192,236660,1,0,0:0:0:0:
448,192,236660,1,0,0:0:0:0:
64,192,236660,1,0,0:0:0:0:
448,192,236760,1,0,0:0:0:0:
192,192,236860,1,0,0:0:0:0:
320,192,236860,1,0,0:0:0:0:
192,192,236960,1,0,0:0:0:0:
320,192,237060,1,0,0:0:0:0:
448,192,237060,1,0,0:0:0:0:
64,192,237160,1,0,0:0:0:0:
192,192,237260,1,0,0:0:0:0:
448,192,237260,1,0,0:0:0:0:
448,192,237360,1,0,0:0:0:0:
320,192,237460,1,0,0:0:0:0:
64,192,237460,1,0,0:0:0:0:
192,192,237460,1,0,0:0:0:0:
448,192,237560,1,0,0:0:0:0:
192,192,237660,1,0,0:0:0:0:
320,192,237660,1,0,0:0:0:0:
64,192,237660,1,0,0:0:0:0:
192,192,237760,1,0,0:0:0:0:
448,192,237860,1,0,0:0:0:0:
64,192,237860,1,0,0:0:0:0:
448,192,237960,1,0,0:0:0:0:
320,192,238060,1,0,0:0:0:0:
192,192,238060,1,0,0:0:0:0:
320,192,238160,1,0,0:0:0:0:
192,192,238260,1,0,0:0:0:0:
64,192,238260,1,0,0:0:0:0:
448,192,238260,1,0,0:0:0:0:
64,192,238360,1,0,0:0:0:0:
320,192,238460,1,0,0:0:0:0:
448,192,238460,1,0,0:0:0:0:
320,192,238560,1,0,0:0:0:0:
448,192,238660,1,0,0:0:0:0:
64,192,238660,1,0,0:0:0:0:
320,192,238760,1,0,0:0:0:0:
64,192,238860,1,0,0:0:0:0:
192,192,238860,1,0,0:0:0:0:
192,192,238960,1,0,0:0:0:0:
448,192,239060,1,0,0:0:0:0:
320,192,239060,1,0,0:0:0:0:
64,192,239060,1,0,0:0:0:0:
192,192,239160,1,0,0:0:0:0:
448,192,239260,1,0,0:0:0:0:
320,192,239260,1,0,0:0:0:0:
448,192,239360,1,0,0:0:0:0:
192,192,239460,1,0,0:0:0:0:
64,192,239460,1,0,0:0:0:0:
320,192,239560,1,0,0:0:0:0:
448,192,239560,1,0,0:0:0:0:
448,192,239660,1,0,0:0:0:0:
64,192,239660,1,0,0:0:0:0:
192,192,239760,1,0,0:0:0:0:
320,192,239760,1,0,0:0:0:0:
320,192,239860,1,0,0:0:0:0:
64,192,239860,1,0,0:0:0:0:
448,192,239860,1,0,0:0:0:0:
192,192,239960,1,0,0:0:0:0:
448,192,239960,1,0,0:0:0:0:
192,192,240060,1,0,0:0:0:0:
64,192,240060,1,0,0:0:0:0:
320,192,240110,1,0,0:0:0:0:
448,192,240110,1,0,0:0:0:0:
192,192,240160,1,0,0:0:0:0:
64,192,240160,1,0,0:0:0:0:
320,192,240210,1,0,0:0:0:0:
448,192,240210,1,0,0:0:0:0:
192,192,240260,1,0,0:0:0:0:
64,192,240260,1,0,0:0:0:0:
320,192,240360,1,0,0:0:0:0:
64,192,240360,1,0,0:0:0:0:
320,192,240460,1,0,0:0:0:0:
448,192,240460,1,0,0:0:0:0:
192,192,240560,1,0,0:0:0:0:
64,192,240560,1,0,0:0:0:0:
320,192,240660,1,0,0:0:0:0:
448,192,240660,1,0,0:0:0:0:
320,192,240760,1,0,0:0:0:0:
64,192,240760,1,0,0:0:0:0:
192,192,240860,1,0,0:0:0:0:
448,192,240860,1,0,0:0:0:0:
64,192,240860,1,0,0:0:0:0:
320,192,240960,1,0,0:0:0:0:
192,192,240960,1,0,0:0:0:0:
448,192,241060,1,0,0:0:0:0:
64,192,241060,1,0,0:0:0:0:
192,192,241060,1,0,0:0:0:0:
320,192,241060,1,0,0:0:0:0:
448,192,241160,1,0,0:0:0:0:
320,192,241260,1,0,0:0:0:0:
192,192,241260,1,0,0:0:0:0:
192,192,241360,1,0,0:0:0:0:
320,192,241460,1,0,0:0:0:0:
448,192,241460,1,0,0:0:0:0:
64,192,241460,1,0,0:0:0:0:
320,192,241560,1,0,0:0:0:0:
192,192,241660,1,0,0:0:0:0:
64,192,241660,1,0,0:0:0:0:
64,192,241760,1,0,0:0:0:0:
192,192,241860,1,0,0:0:0:0:
320,192,241860,1,0,0:0:0:0:
448,192,241860,1,0,0:0:0:0:
64,192,241960,1,0,0:0:0:0:
448,192,242060,1,0,0:0:0:0:
192,192,242060,1,0,0:0:0:0:
448,192,242160,1,0,0:0:0:0:
320,192,242260,1,0,0:0:0:0:
192,192,242260,1,0,0:0:0:0:
64,192,242260,1,0,0:0:0:0:
448,192,242360,1,0,0:0:0:0:
320,192,242460,1,0,0:0:0:0:
64,192,242460,1,0,0:0:0:0:
64,192,242560,1,0,0:0:0:0:
192,192,242660,1,0,0:0:0:0:
320,192,242660,1,0,0:0:0:0:
448,192,242660,1,0,0:0:0:0:
64,192,242760,1,0,0:0:0:0:
320,192,242860,1,0,0:0:0:0:
448,192,242860,1,0,0:0:0:0:
448,192,242960,1,0,0:0:0:0:
192,192,243060,1,0,0:0:0:0:
64,192,243060,1,0,0:0:0:0:
320,192,243060,1,0,0:0:0:0:
448,192,243160,1,0,0:0:0:0:
192,192,243260,1,0,0:0:0:0:
64,192,243260,1,0,0:0:0:0:
192,192,243360,1,0,0:0:0:0:
320,192,243460,1,0,0:0:0:0:
448,192,243460,1,0,0:0:0:0:
64,192,243460,1,0,0:0:0:0:
320,192,243560,1,0,0:0:0:0:
448,192,243660,1,0,0:0:0:0:
192,192,243660,1,0,0:0:0:0:
192,192,243760,1,0,0:0:0:0:
448,192,243860,1,0,0:0:0:0:
64,192,243860,1,0,0:0:0:0:
320,192,243860,1,0,0:0:0:0:
64,192,243960,1,0,0:0:0:0:
192,192,244060,1,0,0:0:0:0:
448,192,244060,1,0,0:0:0:0:
320,192,244060,1,0,0:0:0:0:
448,192,244160,1,0,0:0:0:0:
320,192,244260,1,0,0:0:0:0:
192,192,244260,1,0,0:0:0:0:
64,192,244260,1,0,0:0:0:0:
192,192,244360,1,0,0:0:0:0:
320,192,244460,1,0,0:0:0:0:
448,192,244460,1,0,0:0:0:0:
320,192,244560,1,0,0:0:0:0:
448,192,244660,1,0,0:0:0:0:
192,192,244660,1,0,0:0:0:0:
64,192,244660,1,0,0:0:0:0:
64,192,244760,1,0,0:0:0:0:
192,192,244860,1,0,0:0:0:0:
448,192,244860,1,0,0:0:0:0:
448,192,244960,1,0,0:0:0:0:
320,192,245060,1,0,0:0:0:0:
192,192,245060,1,0,0:0:0:0:
64,192,245060,1,0,0:0:0:0:
448,192,245160,1,0,0:0:0:0:
320,192,245260,1,0,0:0:0:0:
192,192,245260,1,0,0:0:0:0:
320,192,245360,1,0,0:0:0:0:
448,192,245460,1,0,0:0:0:0:
64,192,245460,1,0,0:0:0:0:
192,192,245460,1,0,0:0:0:0:
320,192,245560,1,0,0:0:0:0:
192,192,245660,1,0,0:0:0:0:
448,192,245660,1,0,0:0:0:0:
192,192,245760,1,0,0:0:0:0:
320,192,245860,1,0,0:0:0:0:
448,192,245860,1,0,0:0:0:0:
64,192,245860,1,0,0:0:0:0:
192,192,245960,1,0,0:0:0:0:
64,192,246060,1,0,0:0:0:0:
320,192,246060,1,0,0:0:0:0:
64,192,246160,1,0,0:0:0:0:
192,192,246260,1,0,0:0:0:0:
320,192,246260,1,0,0:0:0:0:
448,192,246260,1,0,0:0:0:0:
64,192,246360,1,0,0:0:0:0:
448,192,246460,1,0,0:0:0:0:
192,192,246460,1,0,0:0:0:0:
448,192,246560,1,0,0:0:0:0:
320,192,246660,1,0,0:0:0:0:
192,192,246660,1,0,0:0:0:0:
64,192,246660,1,0,0:0:0:0:
192,192,246760,1,0,0:0:0:0:
320,192,246860,1,0,0:0:0:0:
448,192,246860,1,0,0:0:0:0:
64,192,246860,1,0,0:0:0:0:
320,192,246960,1,0,0:0:0:0:
192,192,247060,1,0,0:0:0:0:
64,192,247060,1,0,0:0:0:0:
448,192,247060,1,0,0:0:0:0:
64,192,247160,1,0,0:0:0:0:
192,192,247260,1,0,0:0:0:0:
448,192,247260,1,0,0:0:0:0:
320,192,247260,1,0,0:0:0:0:
448,192,247360,1,0,0:0:0:0:
192,192,247460,1,0,0:0:0:0:
64,192,247460,1,0,0:0:0:0:
320,192,247460,1,0,0:0:0:0:
448,192,247560,1,0,0:0:0:0:
320,192,247660,1,0,0:0:0:0:
64,192,247660,1,0,0:0:0:0:
64,192,247760,1,0,0:0:0:0:
192,192,247860,1,0,0:0:0:0:
320,192,247860,1,0,0:0:0:0:
448,192,247860,1,0,0:0:0:0:
192,192,247960,1,0,0:0:0:0:
320,192,248060,1,0,0:0:0:0:
448,192,248060,1,0,0:0:0:0:
64,192,248060,1,0,0:0:0:0:
448,192,248160,1,0,0:0:0:0:
320,192,248260,1,0,0:0:0:0:
192,192,248260,1,0,0:0:0:0:
64,192,248260,1,0,0:0:0:0:
448,192,248360,1,0,0:0:0:0:
192,192,248460,1,0,0:0:0:0:
320,192,248460,1,0,0:0:0:0:
192,192,248560,1,0,0:0:0:0:
320,192,248660,1,0,0:0:0:0:
448,192,248660,1,0,0:0:0:0:
64,192,248660,1,0,0:0:0:0:
192,192,248760,1,0,0:0:0:0:
320,192,248860,1,0,0:0:0:0:
448,192,248860,1,0,0:0:0:0:
448,192,248960,1,0,0:0:0:0:
320,192,249060,1,0,0:0:0:0:
192,192,249060,1,0,0:0:0:0:
64,192,249060,1,0,0:0:0:0:
64,192,249160,1,0,0:0:0:0:
192,192,249260,1,0,0:0:0:0:
320,192,249260,1,0,0:0:0:0:
192,192,249360,1,0,0:0:0:0:
448,192,249460,1,0,0:0:0:0:
320,192,249460,1,0,0:0:0:0:
64,192,249460,1,0,0:0:0:0:
64,192,249560,1,0,0:0:0:0:
448,192,249660,1,0,0:0:0:0:
192,192,249660,1,0,0:0:0:0:
448,192,249760,1,0,0:0:0:0:
320,192,249860,1,0,0:0:0:0:
192,192,249860,1,0,0:0:0:0:
64,192,249860,1,0,0:0:0:0:
448,192,249960,1,0,0:0:0:0:
320,192,250060,1,0,0:0:0:0:
192,192,250060,1,0,0:0:0:0:
192,192,250160,1,0,0:0:0:0:
320,192,250260,1,0,0:0:0:0:
448,192,250260,1,0,0:0:0:0:
64,192,250260,1,0,0:0:0:0:
192,192,250360,1,0,0:0:0:0:
320,192,250460,1,0,0:0:0:0:
64,192,250460,1,0,0:0:0:0:
448,192,250460,1,0,0:0:0:0:
64,192,250560,1,0,0:0:0:0:
192,192,250660,1,0,0:0:0:0:
320,192,250660,1,0,0:0:0:0:
448,192,250660,1,0,0:0:0:0:
192,192,250760,1,0,0:0:0:0:
320,192,250860,1,0,0:0:0:0:
448,192,250860,1,0,0:0:0:0:
320,192,250960,1,0,0:0:0:0:
448,192,251060,1,0,0:0:0:0:
64,192,251060,1,0,0:0:0:0:
192,192,251060,1,0,0:0:0:0:
192,192,251160,1,0,0:0:0:0:
448,192,251260,1,0,0:0:0:0:
64,192,251260,1,0,0:0:0:0:
64,192,251360,1,0,0:0:0:0:
320,192,251460,1,0,0:0:0:0:
448,192,251460,1,0,0:0:0:0:
192,192,251460,1,0,0:0:0:0:
64,192,251560,1,0,0:0:0:0:
192,192,251660,1,0,0:0:0:0:
320,192,251660,1,0,0:0:0:0:
320,192,251760,1,0,0:0:0:0:
448,192,251860,1,0,0:0:0:0:
192,192,251860,1,0,0:0:0:0:
64,192,251860,1,0,0:0:0:0:
320,192,251960,1,0,0:0:0:0:
192,192,252060,1,0,0:0:0:0:
448,192,252060,1,0,0:0:0:0:
192,192,252160,1,0,0:0:0:0:
320,192,252260,1,0,0:0:0:0:
448,192,252260,1,0,0:0:0:0:
64,192,252260,1,0,0:0:0:0:
192,192,252360,1,0,0:0:0:0:
320,192,252460,1,0,0:0:0:0:
448,192,252460,1,0,0:0:0:0:
448,192,252560,1,0,0:0:0:0:
320,192,252660,1,0,0:0:0:0:
192,192,252660,1,0,0:0:0:0:
64,192,252660,1,0,0:0:0:0:
64,192,252760,1,0,0:0:0:0:
320,192,252860,1,0,0:0:0:0:
448,192,252860,1,0,0:0:0:0:
192,192,252910,1,0,0:0:0:0:
64,192,252910,1,0,0:0:0:0:
320,192,252960,1,0,0:0:0:0:
448,192,252960,1,0,0:0:0:0:
192,192,253010,1,0,0:0:0:0:
64,192,253010,1,0,0:0:0:0:
448,192,253060,1,0,0:0:0:0:
320,192,253060,1,0,0:0:0:0:
448,192,253160,1,0,0:0:0:0:
192,192,253260,1,0,0:0:0:0:
64,192,253260,1,0,0:0:0:0:
192,192,253360,1,0,0:0:0:0:
320,192,253360,1,0,0:0:0:0:
448,192,253460,1,0,0:0:0:0:
320,192,253460,1,0,0:0:0:0:
448,192,253560,1,0,0:0:0:0:
64,192,253560,1,0,0:0:0:0:
64,192,253660,1,0,0:0:0:0:
192,192,253660,1,0,0:0:0:0:
320,192,253660,1,0,0:0:0:0:
192,192,253760,1,0,0:0:0:0:
320,192,253860,1,0,0:0:0:0:
448,192,253860,1,0,0:0:0:0:
64,192,253860,1,0,0:0:0:0:
192,192,253860,1,0,0:0:0:0:
448,192,253960,1,0,0:0:0:0:
320,192,254060,1,0,0:0:0:0:
64,192,254060,1,0,0:0:0:0:
64,192,254160,1,0,0:0:0:0:
448,192,254260,1,0,0:0:0:0:
192,192,254260,1,0,0:0:0:0:
320,192,254260,1,0,0:0:0:0:
320,192,254360,1,0,0:0:0:0:
448,192,254460,1,0,0:0:0:0:
192,192,254460,1,0,0:0:0:0:
192,192,254560,1,0,0:0:0:0:
320,192,254660,1,0,0:0:0:0:
448,192,254660,1,0,0:0:0:0:
64,192,254660,1,0,0:0:0:0:
192,192,254760,1,0,0:0:0:0:
448,192,254860,1,0,0:0:0:0:
320,192,254860,1,0,0:0:0:0:
320,192,254960,1,0,0:0:0:0:
448,192,255060,1,0,0:0:0:0:
192,192,255060,1,0,0:0:0:0:
64,192,255060,1,0,0:0:0:0:
320,192,255160,1,0,0:0:0:0:
192,192,255260,1,0,0:0:0:0:
64,192,255260,1,0,0:0:0:0:
64,192,255360,1,0,0:0:0:0:
192,192,255460,1,0,0:0:0:0:
320,192,255460,1,0,0:0:0:0:
448,192,255460,1,0,0:0:0:0:
64,192,255560,1,0,0:0:0:0:
192,192,255660,1,0,0:0:0:0:
448,192,255660,1,0,0:0:0:0:
448,192,255760,1,0,0:0:0:0:
320,192,255860,1,0,0:0:0:0:
192,192,255860,1,0,0:0:0:0:
64,192,255860,1,0,0:0:0:0:
448,192,255960,1,0,0:0:0:0:
320,192,256060,1,0,0:0:0:0:
64,192,256060,1,0,0:0:0:0:
64,192,256160,1,0,0:0:0:0:
192,192,256260,1,0,0:0:0:0:
320,192,256260,1,0,0:0:0:0:
448,192,256260,1,0,0:0:0:0:
320,192,256360,1,0,0:0:0:0:
448,192,256460,1,0,0:0:0:0:
192,192,256460,1,0,0:0:0:0:
192,192,256560,1,0,0:0:0:0:
320,192,256660,1,0,0:0:0:0:
448,192,256660,1,0,0:0:0:0:
64,192,256660,1,0,0:0:0:0:
448,192,256760,1,0,0:0:0:0:
192,192,256860,1,0,0:0:0:0:
64,192,256860,1,0,0:0:0:0:
320,192,256860,1,0,0:0:0:0:
192,192,256960,1,0,0:0:0:0:
320,192,257060,1,0,0:0:0:0:
448,192,257060,1,0,0:0:0:0:
64,192,257060,1,0,0:0:0:0:
448,192,257160,1,0,0:0:0:0:
320,192,257260,1,0,0:0:0:0:
64,192,257260,1,0,0:0:0:0:
64,192,257360,1,0,0:0:0:0:
192,192,257460,1,0,0:0:0:0:
320,192,257460,1,0,0:0:0:0:
448,192,257460,1,0,0:0:0:0:
192,192,257560,1,0,0:0:0:0:
320,192,257660,1,0,0:0:0:0:
448,192,257660,1,0,0:0:0:0:
320,192,257760,1,0,0:0:0:0:
448,192,257860,1,0,0:0:0:0:
192,192,257860,1,0,0:0:0:0:
64,192,257860,1,0,0:0:0:0:
320,192,257960,1,0,0:0:0:0:
192,192,258060,1,0,0:0:0:0:
64,192,258060,1,0,0:0:0:0:
192,192,258160,1,0,0:0:0:0:
320,192,258260,1,0,0:0:0:0:
448,192,258260,1,0,0:0:0:0:
64,192,258260,1,0,0:0:0:0:
192,192,258360,1,0,0:0:0:0:
448,192,258460,1,0,0:0:0:0:
64,192,258460,1,0,0:0:0:0:
64,192,258560,1,0,0:0:0:0:
448,192,258660,1,0,0:0:0:0:
192,192,258660,1,0,0:0:0:0:
320,192,258660,1,0,0:0:0:0:
64,192,258760,1,0,0:0:0:0:
192,192,258860,1,0,0:0:0:0:
448,192,258860,1,0,0:0:0:0:
448,192,258960,1,0,0:0:0:0:
320,192,259060,1,0,0:0:0:0:
192,192,259060,1,0,0:0:0:0:
64,192,259060,1,0,0:0:0:0:
448,192,259160,1,0,0:0:0:0:
320,192,259260,1,0,0:0:0:0:
192,192,259260,1,0,0:0:0:0:
192,192,259360,1,0,0:0:0:0:
320,192,259460,1,0,0:0:0:0:
448,192,259460,1,0,0:0:0:0:
64,192,259460,1,0,0:0:0:0:
320,192,259560,1,0,0:0:0:0:
448,192,259660,1,0,0:0:0:0:
192,192,259660,1,0,0:0:0:0:
448,192,259760,1,0,0:0:0:0:
320,192,259860,1,0,0:0:0:0:
192,192,259860,1,0,0:0:0:0:
64,192,259860,1,0,0:0:0:0:
192,192,259960,1,0,0:0:0:0:
64,192,260060,1,0,0:0:0:0:
448,192,260060,1,0,0:0:0:0:
320,192,260060,1,0,0:0:0:0:
64,192,260160,1,0,0:0:0:0:
192,192,260260,1,0,0:0:0:0:
320,192,260260,1,0,0:0:0:0:
448,192,260260,1,0,0:0:0:0:
192,192,260360,1,0,0:0:0:0:
320,192,260460,1,0,0:0:0:0:
64,192,260460,1,0,0:0:0:0:
320,192,260560,1,0,0:0:0:0:
192,192,260660,1,0,0:0:0:0:
448,192,260660,1,0,0:0:0:0:
64,192,260660,1,0,0:0:0:0:
448,192,260760,1,0,0:0:0:0:
320,192,260860,1,0,0:0:0:0:
192,192,260860,1,0,0:0:0:0:
320,192,260960,1,0,0:0:0:0:
192,192,261060,1,0,0:0:0:0:
64,192,261060,1,0,0:0:0:0:
448,192,261060,1,0,0:0:0:0:
320,192,261160,1,0,0:0:0:0:
448,192,261260,1,0,0:0:0:0:
64,192,261260,1,0,0:0:0:0:
448,192,261360,1,0,0:0:0:0:
320,192,261460,1,0,0:0:0:0:
192,192,261460,1,0,0:0:0:0:
64,192,261460,1,0,0:0:0:0:
448,192,261560,1,0,0:0:0:0:
320,192,261660,1,0,0:0:0:0:
64,192,261660,1,0,0:0:0:0:
64,192,261760,1,0,0:0:0:0:
192,192,261860,1,0,0:0:0:0:
320,192,261860,1,0,0:0:0:0:
448,192,261860,1,0,0:0:0:0:
320,192,261960,1,0,0:0:0:0:
192,192,262060,1,0,0:0:0:0:
448,192,262060,1,0,0:0:0:0:
192,192,262160,1,0,0:0:0:0:
448,192,262260,1,0,0:0:0:0:
320,192,262260,1,0,0:0:0:0:
64,192,262260,1,0,0:0:0:0:
320,192,262360,1,0,0:0:0:0:
448,192,262460,1,0,0:0:0:0:
192,192,262460,1,0,0:0:0:0:
448,192,262560,1,0,0:0:0:0:
320,192,262660,1,0,0:0:0:0:
192,192,262660,1,0,0:0:0:0:
64,192,262660,1,0,0:0:0:0:
448,192,262760,1,0,0:0:0:0:
192,192,262860,1,0,0:0:0:0:
64,192,262860,1,0,0:0:0:0:
64,192,262960,1,0,0:0:0:0:
320,192,263060,1,0,0:0:0:0:
448,192,263060,1,0,0:0:0:0:
192,192,263060,1,0,0:0:0:0:
64,192,263160,1,0,0:0:0:0:
448,192,263260,1,0,0:0:0:0:
192,192,263260,1,0,0:0:0:0:
320,192,263260,1,0,0:0:0:0:
448,192,263360,1,0,0:0:0:0:
320,192,263460,1,0,0:0:0:0:
192,192,263460,1,0,0:0:0:0:
64,192,263460,1,0,0:0:0:0:
448,192,263560,1,0,0:0:0:0:
320,192,263560,1,0,0:0:0:0:
192,192,263660,1,0,0:0:0:0:
64,192,263660,1,0,0:0:0:0:
320,192,263760,1,0,0:0:0:0:
448,192,263760,1,0,0:0:0:0:
448,192,263860,1,0,0:0:0:0:
192,192,263860,1,0,0:0:0:0:
64,192,263860,1,0,0:0:0:0:
320,192,263960,1,0,0:0:0:0:
192,192,263960,1,0,0:0:0:0:
64,192,264060,1,0,0:0:0:0:
448,192,264060,1,0,0:0:0:0:
320,192,264160,1,0,0:0:0:0:
192,192,264160,1,0,0:0:0:0:
448,192,264260,1,0,0:0:0:0:
64,192,264260,1,0,0:0:0:0:
320,192,264260,1,0,0:0:0:0:
192,192,264360,1,0,0:0:0:0:
64,192,264360,1,0,0:0:0:0:
320,192,264460,1,0,0:0:0:0:
448,192,264460,1,0,0:0:0:0:
192,192,264560,1,0,0:0:0:0:
64,192,264560,1,0,0:0:0:0:
192,192,264660,1,0,0:0:0:0:
320,192,264660,1,0,0:0:0:0:
448,192,264660,1,0,0:0:0:0:
64,192,264760,1,0,0:0:0:0:
448,192,264760,1,0,0:0:0:0:
320,192,264860,1,0,0:0:0:0:
192,192,264860,1,0,0:0:0:0:
64,192,264960,1,0,0:0:0:0:
448,192,264960,1,0,0:0:0:0:
320,192,265010,1,0,0:0:0:0:
192,192,265010,1,0,0:0:0:0:
64,192,265060,1,0,0:0:0:0:
448,192,265060,1,0,0:0:0:0:
192,192,265160,1,0,0:0:0:0:
320,192,265160,1,0,0:0:0:0:
64,192,265260,1,0,0:0:0:0:
192,192,265260,1,0,0:0:0:0:
320,192,265360,1,0,0:0:0:0:
448,192,265360,1,0,0:0:0:0:
192,192,265460,1,0,0:0:0:0:
64,192,265460,1,0,0:0:0:0:
448,192,265460,1,0,0:0:0:0:
64,192,265560,1,0,0:0:0:0:
192,192,265560,1,0,0:0:0:0:
320,192,265660,1,0,0:0:0:0:
448,192,265660,1,0,0:0:0:0:
192,192,265710,1,0,0:0:0:0:
64,192,265710,1,0,0:0:0:0:
320,192,265760,1,0,0:0:0:0:
448,192,265760,1,0,0:0:0:0:
64,192,265810,1,0,0:0:0:0:
192,192,265810,1,0,0:0:0:0:
320,192,265860,1,0,0:0:0:0:
448,192,265860,1,0,0:0:0:0:
192,192,265960,1,0,0:0:0:0:
64,192,265960,1,0,0:0:0:0:
320,192,266060,1,0,0:0:0:0:
448,192,266060,1,0,0:0:0:0:
64,192,266160,1,0,0:0:0:0:
448,192,266160,1,0,0:0:0:0:
320,192,266260,1,0,0:0:0:0:
64,192,266260,1,0,0:0:0:0:
192,192,266360,1,0,0:0:0:0:
320,192,266360,1,0,0:0:0:0:
192,192,266460,1,0,0:0:0:0:
64,192,266460,1,0,0:0:0:0:
320,192,266510,1,0,0:0:0:0:
448,192,266510,1,0,0:0:0:0:
192,192,266560,1,0,0:0:0:0:
64,192,266560,1,0,0:0:0:0:
320,192,266610,1,0,0:0:0:0:
448,192,266660,1,0,0:0:0:0:
192,192,266660,1,0,0:0:0:0:
64,192,266660,1,0,0:0:0:0:
320,192,266760,1,0,0:0:0:0:
192,192,266860,1,0,0:0:0:0:
192,192,266960,1,0,0:0:0:0:
320,192,267060,1,0,0:0:0:0:
64,192,267060,1,0,0:0:0:0:
192,192,267160,1,0,0:0:0:0:
448,192,267260,1,0,0:0:0:0:
448,192,267360,1,0,0:0:0:0:
64,192,267460,1,0,0:0:0:0:
192,192,267460,1,0,0:0:0:0:
320,192,267560,1,0,0:0:0:0:
192,192,267660,1,0,0:0:0:0:
192,192,267760,1,0,0:0:0:0:
320,192,267860,1,0,0:0:0:0:
448,192,267860,1,0,0:0:0:0:
64,192,267960,1,0,0:0:0:0:
448,192,268060,1,0,0:0:0:0:
448,192,268160,1,0,0:0:0:0:
64,192,268260,1,0,0:0:0:0:
320,192,268260,1,0,0:0:0:0:
192,192,268360,1,0,0:0:0:0:
448,192,268460,1,0,0:0:0:0:
448,192,268560,1,0,0:0:0:0:
320,192,268660,1,0,0:0:0:0:
64,192,268660,1,0,0:0:0:0:
448,192,268760,1,0,0:0:0:0:
192,192,268860,1,0,0:0:0:0:
192,192,268960,1,0,0:0:0:0:
64,192,269060,1,0,0:0:0:0:
320,192,269060,1,0,0:0:0:0:
192,192,269160,1,0,0:0:0:0:
448,192,269260,1,0,0:0:0:0:
448,192,269360,1,0,0:0:0:0:
64,192,269460,1,0,0:0:0:0:
320,192,269460,1,0,0:0:0:0:
448,192,269560,1,0,0:0:0:0:
320,192,269660,1,0,0:0:0:0:
192,192,269660,1,0,0:0:0:0:
64,192,269660,1,0,0:0:0:0:
64,192,269760,1,0,0:0:0:0:
448,192,269860,1,0,0:0:0:0:
320,192,269860,1,0,0:0:0:0:
192,192,269960,1,0,0:0:0:0:
64,192,270060,1,0,0:0:0:0:
64,192,270160,1,0,0:0:0:0:
192,192,270260,1,0,0:0:0:0:
448,192,270260,1,0,0:0:0:0:
64,192,270360,1,0,0:0:0:0:
320,192,270460,1,0,0:0:0:0:
320,192,270560,1,0,0:0:0:0:
448,192,270660,1,0,0:0:0:0:
192,192,270660,1,0,0:0:0:0:
320,192,270760,1,0,0:0:0:0:
64,192,270860,1,0,0:0:0:0:
64,192,270960,1,0,0:0:0:0:
192,192,271060,1,0,0:0:0:0:
448,192,271060,1,0,0:0:0:0:
64,192,271160,1,0,0:0:0:0:
320,192,271260,1,0,0:0:0:0:
320,192,271360,1,0,0:0:0:0:
448,192,271460,1,0,0:0:0:0:
64,192,271460,1,0,0:0:0:0:
192,192,271560,1,0,0:0:0:0:
320,192,271660,1,0,0:0:0:0:
320,192,271760,1,0,0:0:0:0:
192,192,271860,1,0,0:0:0:0:
448,192,271860,1,0,0:0:0:0:
320,192,271960,1,0,0:0:0:0:
64,192,272060,1,0,0:0:0:0:
64,192,272160,1,0,0:0:0:0:
448,192,272260,1,0,0:0:0:0:
320,192,272260,1,0,0:0:0:0:
192,192,272360,1,0,0:0:0:0:
320,192,272460,1,0,0:0:0:0:
320,192,272560,1,0,0:0:0:0:
192,192,272660,1,0,0:0:0:0:
448,192,272660,1,0,0:0:0:0:
320,192,272760,1,0,0:0:0:0:
64,192,272860,1,0,0:0:0:0:
192,192,272860,1,0,0:0:0:0:
448,192,272860,1,0,0:0:0:0:
64,192,272960,1,0,0:0:0:0:
320,192,273060,1,0,0:0:0:0:
192,192,273060,1,0,0:0:0:0:
64,192,273160,1,0,0:0:0:0:
448,192,273260,1,0,0:0:0:0:
448,192,273360,1,0,0:0:0:0:
64,192,273460,1,0,0:0:0:0:
320,192,273460,1,0,0:0:0:0:
448,192,273560,1,0,0:0:0:0:
192,192,273660,1,0,0:0:0:0:
192,192,273760,1,0,0:0:0:0:
320,192,273860,1,0,0:0:0:0:
448,192,273860,1,0,0:0:0:0:
64,192,273960,1,0,0:0:0:0:
448,192,274060,1,0,0:0:0:0:
448,192,274160,1,0,0:0:0:0:
64,192,274260,1,0,0:0:0:0:
320,192,274260,1,0,0:0:0:0:
448,192,274360,1,0,0:0:0:0:
192,192,274460,1,0,0:0:0:0:
192,192,274560,1,0,0:0:0:0:
448,192,274660,1,0,0:0:0:0:
64,192,274660,1,0,0:0:0:0:
320,192,274760,1,0,0:0:0:0:
64,192,274860,1,0,0:0:0:0:
64,192,274960,1,0,0:0:0:0:
192,192,275060,1,0,0:0:0:0:
320,192,275060,1,0,0:0:0:0:
448,192,275160,1,0,0:0:0:0:
320,192,275260,1,0,0:0:0:0:
320,192,275360,1,0,0:0:0:0:
448,192,275460,1,0,0:0:0:0:
64,192,275460,1,0,0:0:0:0:
192,192,275560,1,0,0:0:0:0:
64,192,275660,1,0,0:0:0:0:
64,192,275760,1,0,0:0:0:0:
192,192,275860,1,0,0:0:0:0:
320,192,275860,1,0,0:0:0:0:
448,192,275960,1,0,0:0:0:0:
320,192,276060,1,0,0:0:0:0:
64,192,276060,1,0,0:0:0:0:
192,192,276060,1,0,0:0:0:0:
320,192,276160,1,0,0:0:0:0:
64,192,276260,1,0,0:0:0:0:
448,192,276260,1,0,0:0:0:0:
320,192,276360,1,0,0:0:0:0:
192,192,276460,1,0,0:0:0:0:
192,192,276560,1,0,0:0:0:0:
320,192,276660,1,0,0:0:0:0:
448,192,276660,1,0,0:0:0:0:
64,192,276760,1,0,0:0:0:0:
448,192,276860,1,0,0:0:0:0:
448,192,276960,1,0,0:0:0:0:
64,192,277060,1,0,0:0:0:0:
320,192,277060,1,0,0:0:0:0:
448,192,277160,1,0,0:0:0:0:
192,192,277260,1,0,0:0:0:0:
192,192,277360,1,0,0:0:0:0:
320,192,277460,1,0,0:0:0:0:
64,192,277460,1,0,0:0:0:0:
192,192,277560,1,0,0:0:0:0:
448,192,277660,1,0,0:0:0:0:
448,192,277760,1,0,0:0:0:0:
64,192,277860,1,0,0:0:0:0:
320,192,277960,1,0,0:0:0:0:
192,192,278060,1,0,0:0:0:0:
192,192,278160,1,0,0:0:0:0:
192,192,278360,1,0,0:0:0:0:
320,192,278460,1,0,0:0:0:0:
448,192,278460,1,0,0:0:0:0:
192,192,278510,1,0,0:0:0:0:
64,192,278510,1,0,0:0:0:0:
320,192,278560,1,0,0:0:0:0:
448,192,278560,1,0,0:0:0:0:
192,192,278610,1,0,0:0:0:0:
64,192,278610,1,0,0:0:0:0:
320,192,278660,1,0,0:0:0:0:
448,192,278660,1,0,0:0:0:0:
192,192,278860,1,0,0:0:0:0:
64,192,278860,1,0,0:0:0:0:
64,192,278960,1,0,0:0:0:0:
192,192,278960,1,0,0:0:0:0:
320,192,279160,1,0,0:0:0:0:
448,192,279160,1,0,0:0:0:0:
448,192,279260,1,0,0:0:0:0:
320,192,279260,1,0,0:0:0:0:
64,192,279260,1,0,0:0:0:0:
448,192,279460,1,0,0:0:0:0:
320,192,279460,1,0,0:0:0:0:
64,192,279460,1,0,0:0:0:0:
192,192,279460,1,0,0:0:0:0:
320,192,279560,1,0,0:0:0:0:
64,192,279560,1,0,0:0:0:0:
192,192,279660,1,0,0:0:0:0:
448,192,279660,1,0,0:0:0:0:
64,192,279760,1,0,0:0:0:0:
192,192,279760,1,0,0:0:0:0:
320,192,279860,1,0,0:0:0:0:
64,192,279860,1,0,0:0:0:0:
448,192,279860,1,0,0:0:0:0:
192,192,279960,1,0,0:0:0:0:
448,192,279960,1,0,0:0:0:0:
448,192,280060,1,0,0:0:0:0:
64,192,280060,1,0,0:0:0:0:
320,192,280160,1,0,0:0:0:0:
192,192,280160,1,0,0:0:0:0:
64,192,280260,1,0,0:0:0:0:
192,192,280260,1,0,0:0:0:0:
448,192,280260,1,0,0:0:0:0:
448,192,280360,1,0,0:0:0:0:
320,192,280360,1,0,0:0:0:0:
192,192,280460,1,0,0:0:0:0:
64,192,280460,1,0,0:0:0:0:
320,192,280560,1,0,0:0:0:0:
192,192,280560,1,0,0:0:0:0:
64,192,280660,1,0,0:0:0:0:
448,192,280660,1,0,0:0:0:0:
320,192,280660,1,0,0:0:0:0:
192,192,280760,1,0,0:0:0:0:
448,192,280760,1,0,0:0:0:0:
64,192,280860,1,0,0:0:0:0:
320,192,280860,1,0,0:0:0:0:
448,192,280960,1,0,0:0:0:0:
64,192,280960,1,0,0:0:0:0:
192,192,281060,1,0,0:0:0:0:
320,192,281060,1,0,0:0:0:0:
448,192,281060,1,0,0:0:0:0:
192,192,281160,1,0,0:0:0:0:
64,192,281160,1,0,0:0:0:0:
192,192,281260,1,0,0:0:0:0:
448,192,281260,1,0,0:0:0:0:
448,192,281360,1,0,0:0:0:0:
64,192,281360,1,0,0:0:0:0:
320,192,281460,1,0,0:0:0:0:
448,192,281460,1,0,0:0:0:0:
192,192,281460,1,0,0:0:0:0:
64,192,281560,1,0,0:0:0:0:
320,192,281560,1,0,0:0:0:0:
192,192,281660,1,0,0:0:0:0:
448,192,281660,1,0,0:0:0:0:
448,192,281760,1,0,0:0:0:0:
320,192,281760,1,0,0:0:0:0:
64,192,281860,1,0,0:0:0:0:
192,192,281860,1,0,0:0:0:0:
448,192,281860,1,0,0:0:0:0:
320,192,281960,1,0,0:0:0:0:
64,192,281960,1,0,0:0:0:0:
192,192,282060,1,0,0:0:0:0:
448,192,282060,1,0,0:0:0:0:
192,192,282160,1,0,0:0:0:0:
320,192,282160,1,0,0:0:0:0:
448,192,282260,1,0,0:0:0:0:
320,192,282260,1,0,0:0:0:0:
64,192,282260,1,0,0:0:0:0:
192,192,282360,1,0,0:0:0:0:
64,192,282360,1,0,0:0:0:0:
448,192,282460,1,0,0:0:0:0:
192,192,282460,1,0,0:0:0:0:
320,192,282460,1,0,0:0:0:0:
448,192,282560,1,0,0:0:0:0:
64,192,282560,1,0,0:0:0:0:
192,192,282660,1,0,0:0:0:0:
320,192,282660,1,0,0:0:0:0:
64,192,282660,1,0,0:0:0:0:
448,192,282760,1,0,0:0:0:0:
192,192,282760,1,0,0:0:0:0:
448,192,282860,1,0,0:0:0:0:
64,192,282860,1,0,0:0:0:0:
320,192,282960,1,0,0:0:0:0:
192,192,282960,1,0,0:0:0:0:
192,192,283060,1,0,0:0:0:0:
64,192,283060,1,0,0:0:0:0:
448,192,283060,1,0,0:0:0:0:
64,192,283160,1,0,0:0:0:0:
320,192,283160,1,0,0:0:0:0:
448,192,283260,1,0,0:0:0:0:
192,192,283260,1,0,0:0:0:0:
320,192,283360,1,0,0:0:0:0:
192,192,283360,1,0,0:0:0:0:
448,192,283460,1,0,0:0:0:0:
320,192,283460,1,0,0:0:0:0:
64,192,283460,1,0,0:0:0:0:
320,192,283560,1,0,0:0:0:0:
192,192,283560,1,0,0:0:0:0:
448,192,283660,1,0,0:0:0:0:
64,192,283660,1,0,0:0:0:0:
320,192,283760,1,0,0:0:0:0:
448,192,283760,1,0,0:0:0:0:
192,192,283860,1,0,0:0:0:0:
320,192,283860,1,0,0:0:0:0:
64,192,283860,1,0,0:0:0:0:
448,192,283960,1,0,0:0:0:0:
192,192,283960,1,0,0:0:0:0:
192,192,284060,1,0,0:0:0:0:
64,192,284060,1,0,0:0:0:0:
320,192,284160,1,0,0:0:0:0:
448,192,284160,1,0,0:0:0:0:
448,192,284260,1,0,0:0:0:0:
64,192,284260,1,0,0:0:0:0:
192,192,284260,1,0,0:0:0:0:
320,192,284360,1,0,0:0:0:0:
64,192,284360,1,0,0:0:0:0:
320,192,284460,1,0,0:0:0:0:
448,192,284460,1,0,0:0:0:0:
64,192,284560,1,0,0:0:0:0:
192,192,284560,1,0,0:0:0:0:
320,192,284660,1,0,0:0:0:0:
64,192,284660,1,0,0:0:0:0:
448,192,284660,1,0,0:0:0:0:
192,192,284760,1,0,0:0:0:0:
448,192,284760,1,0,0:0:0:0:
64,192,284860,1,0,0:0:0:0:
320,192,284860,1,0,0:0:0:0:
192,192,284960,1,0,0:0:0:0:
320,192,284960,1,0,0:0:0:0:
64,192,285060,1,0,0:0:0:0:
320,192,285060,1,0,0:0:0:0:
448,192,285060,1,0,0:0:0:0:
64,192,285160,1,0,0:0:0:0:
192,192,285160,1,0,0:0:0:0:
192,192,285260,1,0,0:0:0:0:
448,192,285260,1,0,0:0:0:0:
448,192,285360,1,0,0:0:0:0:
320,192,285360,1,0,0:0:0:0:
64,192,285460,1,0,0:0:0:0:
192,192,285460,1,0,0:0:0:0:
320,192,285460,1,0,0:0:0:0:
64,192,285560,1,0,0:0:0:0:
448,192,285560,1,0,0:0:0:0:
448,192,285660,1,0,0:0:0:0:
320,192,285660,1,0,0:0:0:0:
192,192,285660,1,0,0:0:0:0:
64,192,285760,1,0,0:0:0:0:
192,192,285760,1,0,0:0:0:0:
64,192,285860,1,0,0:0:0:0:
320,192,285860,1,0,0:0:0:0:
448,192,285860,1,0,0:0:0:0:
320,192,285960,1,0,0:0:0:0:
192,192,285960,1,0,0:0:0:0:
192,192,286060,1,0,0:0:0:0:
448,192,286060,1,0,0:0:0:0:
320,192,286160,1,0,0:0:0:0:
448,192,286160,1,0,0:0:0:0:
64,192,286260,1,0,0:0:0:0:
192,192,286260,1,0,0:0:0:0:
320,192,286260,1,0,0:0:0:0:
448,192,286360,1,0,0:0:0:0:
64,192,286360,1,0,0:0:0:0:
192,192,286460,1,0,0:0:0:0:
448,192,286460,1,0,0:0:0:0:
192,192,286560,1,0,0:0:0:0:
320,192,286560,1,0,0:0:0:0:
192,192,286660,1,0,0:0:0:0:
64,192,286660,1,0,0:0:0:0:
448,192,286660,1,0,0:0:0:0:
320,192,286760,1,0,0:0:0:0:
448,192,286760,1,0,0:0:0:0:
64,192,286860,1,0,0:0:0:0:
320,192,286860,1,0,0:0:0:0:
448,192,286960,1,0,0:0:0:0:
64,192,286960,1,0,0:0:0:0:
64,192,287060,1,0,0:0:0:0:
192,192,287060,1,0,0:0:0:0:
320,192,287060,1,0,0:0:0:0:
448,192,287160,1,0,0:0:0:0:
320,192,287160,1,0,0:0:0:0:
320,192,287260,1,0,0:0:0:0:
64,192,287260,1,0,0:0:0:0:
448,192,287360,1,0,0:0:0:0:
192,192,287360,1,0,0:0:0:0:
448,192,287460,1,0,0:0:0:0:
320,192,287460,1,0,0:0:0:0:
64,192,287460,1,0,0:0:0:0:
192,192,287560,1,0,0:0:0:0:
64,192,287560,1,0,0:0:0:0:
320,192,287660,1,0,0:0:0:0:
448,192,287660,1,0,0:0:0:0:
64,192,287760,1,0,0:0:0:0:
192,192,287760,1,0,0:0:0:0:
448,192,287860,1,0,0:0:0:0:
192,192,287860,1,0,0:0:0:0:
320,192,287860,1,0,0:0:0:0:
448,192,287960,1,0,0:0:0:0:
64,192,287960,1,0,0:0:0:0:
64,192,288060,1,0,0:0:0:0:
320,192,288060,1,0,0:0:0:0:
192,192,288160,1,0,0:0:0:0:
448,192,288160,1,0,0:0:0:0:
64,192,288260,1,0,0:0:0:0:
320,192,288260,1,0,0:0:0:0:
448,192,288260,1,0,0:0:0:0:
320,192,288360,1,0,0:0:0:0:
192,192,288360,1,0,0:0:0:0:
448,192,288460,1,0,0:0:0:0:
64,192,288460,1,0,0:0:0:0:
448,192,288560,1,0,0:0:0:0:
192,192,288560,1,0,0:0:0:0:
320,192,288660,1,0,0:0:0:0:
64,192,288660,1,0,0:0:0:0:
192,192,288660,1,0,0:0:0:0:
192,192,288760,1,0,0:0:0:0:
448,192,288760,1,0,0:0:0:0:
320,192,288860,1,0,0:0:0:0:
64,192,288860,1,0,0:0:0:0:
448,192,288860,1,0,0:0:0:0:
64,192,288960,1,0,0:0:0:0:
192,192,288960,1,0,0:0:0:0:
320,192,289060,1,0,0:0:0:0:
448,192,289060,1,0,0:0:0:0:
192,192,289060,1,0,0:0:0:0:
448,192,289160,1,0,0:0:0:0:
64,192,289160,1,0,0:0:0:0:
192,192,289260,1,0,0:0:0:0:
448,192,289260,1,0,0:0:0:0:
320,192,289360,1,0,0:0:0:0:
192,192,289360,1,0,0:0:0:0:
192,192,289460,1,0,0:0:0:0:
448,192,289460,1,0,0:0:0:0:
64,192,289460,1,0,0:0:0:0:
64,192,289560,1,0,0:0:0:0:
320,192,289560,1,0,0:0:0:0:
448,192,289660,1,0,0:0:0:0:
192,192,289660,1,0,0:0:0:0:
320,192,289760,1,0,0:0:0:0:
64,192,289760,1,0,0:0:0:0:
320,192,289860,1,0,0:0:0:0:
192,192,289860,1,0,0:0:0:0:
448,192,289860,1,0,0:0:0:0:
64,192,289960,1,0,0:0:0:0:
448,192,289960,1,0,0:0:0:0:
320,192,290060,1,0,0:0:0:0:
192,192,290060,1,0,0:0:0:0:
64,192,290160,1,0,0:0:0:0:
192,192,290160,1,0,0:0:0:0:
448,192,290260,1,0,0:0:0:0:
64,192,290260,1,0,0:0:0:0:
320,192,290260,1,0,0:0:0:0:
448,192,290360,1,0,0:0:0:0:
192,192,290360,1,0,0:0:0:0:
448,192,290460,1,0,0:0:0:0:
320,192,290460,1,0,0:0:0:0:
320,192,290560,1,0,0:0:0:0:
64,192,290560,1,0,0:0:0:0:
192,192,290660,1,0,0:0:0:0:
64,192,290660,1,0,0:0:0:0:
448,192,290660,1,0,0:0:0:0:
448,192,290760,1,0,0:0:0:0:
320,192,290760,1,0,0:0:0:0:
192,192,290860,1,0,0:0:0:0:
64,192,290860,1,0,0:0:0:0:
320,192,290960,1,0,0:0:0:0:
448,192,290960,1,0,0:0:0:0:
192,192,291060,1,0,0:0:0:0:
64,192,291060,1,0,0:0:0:0:
320,192,291060,1,0,0:0:0:0:
448,192,291160,1,0,0:0:0:0:
192,192,291160,1,0,0:0:0:0:
448,192,291260,1,0,0:0:0:0:
64,192,291260,1,0,0:0:0:0:
320,192,291360,1,0,0:0:0:0:
192,192,291360,1,0,0:0:0:0:
192,192,291460,1,0,0:0:0:0:
64,192,291460,1,0,0:0:0:0:
448,192,291460,1,0,0:0:0:0:
320,192,291560,1,0,0:0:0:0:
64,192,291560,1,0,0:0:0:0:
192,192,291660,1,0,0:0:0:0:
448,192,291660,1,0,0:0:0:0:
448,192,291760,1,0,0:0:0:0:
64,192,291760,1,0,0:0:0:0:
64,192,291860,1,0,0:0:0:0:
192,192,291860,1,0,0:0:0:0:
448,192,291860,1,0,0:0:0:0:
320,192,291960,1,0,0:0:0:0:
192,192,291960,1,0,0:0:0:0:
448,192,292060,1,0,0:0:0:0:
320,192,292060,1,0,0:0:0:0:
64,192,292060,1,0,0:0:0:0:
64,192,292160,1,0,0:0:0:0:
192,192,292160,1,0,0:0:0:0:
320,192,292260,1,0,0:0:0:0:
192,192,292260,1,0,0:0:0:0:
448,192,292260,1,0,0:0:0:0:
64,192,292260,1,0,0:0:0:0:
320,192,292360,1,0,0:0:0:0:
448,192,292360,1,0,0:0:0:0:
192,192,292460,1,0,0:0:0:0:
64,192,292460,1,0,0:0:0:0:
448,192,292560,1,0,0:0:0:0:
320,192,292560,1,0,0:0:0:0:
320,192,292660,1,0,0:0:0:0:
64,192,292660,1,0,0:0:0:0:
192,192,292660,1,0,0:0:0:0:
192,192,292760,1,0,0:0:0:0:
448,192,292760,1,0,0:0:0:0:
64,192,292860,1,0,0:0:0:0:
320,192,292860,1,0,0:0:0:0:
448,192,292960,1,0,0:0:0:0:
64,192,292960,1,0,0:0:0:0:
192,192,293060,1,0,0:0:0:0:
320,192,293060,1,0,0:0:0:0:
448,192,293060,1,0,0:0:0:0:
448,192,293160,1,0,0:0:0:0:
64,192,293160,1,0,0:0:0:0:
192,192,293260,1,0,0:0:0:0:
320,192,293260,1,0,0:0:0:0:
320,192,293360,1,0,0:0:0:0:
448,192,293360,1,0,0:0:0:0:
192,192,293460,1,0,0:0:0:0:
64,192,293460,1,0,0:0:0:0:
448,192,293460,1,0,0:0:0:0:
192,192,293560,1,0,0:0:0:0:
320,192,293560,1,0,0:0:0:0:
448,192,293660,1,0,0:0:0:0:
64,192,293660,1,0,0:0:0:0:
192,192,293760,1,0,0:0:0:0:
448,192,293760,1,0,0:0:0:0:
448,192,293860,1,0,0:0:0:0:
320,192,293860,1,0,0:0:0:0:
64,192,293860,1,0,0:0:0:0:
448,192,293960,1,0,0:0:0:0:
192,192,293960,1,0,0:0:0:0:
64,192,294060,1,0,0:0:0:0:
448,192,294060,1,0,0:0:0:0:
320,192,294160,1,0,0:0:0:0:
192,192,294160,1,0,0:0:0:0:
448,192,294260,1,0,0:0:0:0:
64,192,294260,1,0,0:0:0:0:
320,192,294260,1,0,0:0:0:0:
320,192,294360,1,0,0:0:0:0:
192,192,294360,1,0,0:0:0:0:
64,192,294460,1,0,0:0:0:0:
448,192,294460,1,0,0:0:0:0:
192,192,294560,1,0,0:0:0:0:
448,192,294560,1,0,0:0:0:0:
320,192,294660,1,0,0:0:0:0:
448,192,294660,1,0,0:0:0:0:
64,192,294660,1,0,0:0:0:0:
64,192,294760,1,0,0:0:0:0:
192,192,294760,1,0,0:0:0:0:
320,192,294860,1,0,0:0:0:0:
64,192,294860,1,0,0:0:0:0:
448,192,294960,1,0,0:0:0:0:
320,192,294960,1,0,0:0:0:0:
448,192,295060,1,0,0:0:0:0:
192,192,295060,1,0,0:0:0:0:
64,192,295060,1,0,0:0:0:0:
64,192,295160,1,0,0:0:0:0:
320,192,295160,1,0,0:0:0:0:
192,192,295260,1,0,0:0:0:0:
320,192,295260,1,0,0:0:0:0:
448,192,295260,1,0,0:0:0:0:
448,192,295360,1,0,0:0:0:0:
64,192,295360,1,0,0:0:0:0:
192,192,295460,1,0,0:0:0:0:
448,192,295460,1,0,0:0:0:0:
320,192,295460,1,0,0:0:0:0:
64,192,295560,1,0,0:0:0:0:
320,192,295560,1,0,0:0:0:0:
192,192,295660,1,0,0:0:0:0:
448,192,295660,1,0,0:0:0:0:
448,192,295760,1,0,0:0:0:0:
64,192,295760,1,0,0:0:0:0:
448,192,295860,1,0,0:0:0:0:
192,192,295860,1,0,0:0:0:0:
320,192,295860,1,0,0:0:0:0:
320,192,295960,1,0,0:0:0:0:
64,192,295960,1,0,0:0:0:0:
192,192,296060,1,0,0:0:0:0:
64,192,296060,1,0,0:0:0:0:
64,192,296160,1,0,0:0:0:0:
448,192,296160,1,0,0:0:0:0:
320,192,296260,1,0,0:0:0:0:
448,192,296260,1,0,0:0:0:0:
192,192,296260,1,0,0:0:0:0:
320,192,296360,1,0,0:0:0:0:
64,192,296360,1,0,0:0:0:0:
448,192,296460,1,0,0:0:0:0:
192,192,296460,1,0,0:0:0:0:
64,192,296560,1,0,0:0:0:0:
320,192,296560,1,0,0:0:0:0:
320,192,296660,1,0,0:0:0:0:
192,192,296660,1,0,0:0:0:0:
448,192,296660,1,0,0:0:0:0:
64,192,296760,1,0,0:0:0:0:
448,192,296760,1,0,0:0:0:0:
192,192,296860,1,0,0:0:0:0:
320,192,296860,1,0,0:0:0:0:
448,192,296960,1,0,0:0:0:0:
192,192,296960,1,0,0:0:0:0:
320,192,297060,1,0,0:0:0:0:
448,192,297060,1,0,0:0:0:0:
64,192,297060,1,0,0:0:0:0:
192,192,297160,1,0,0:0:0:0:
320,192,297160,1,0,0:0:0:0:
320,192,297260,1,0,0:0:0:0:
64,192,297260,1,0,0:0:0:0:
192,192,297360,1,0,0:0:0:0:
64,192,297360,1,0,0:0:0:0:
320,192,297460,1,0,0:0:0:0:
192,192,297460,1,0,0:0:0:0:
448,192,297460,1,0,0:0:0:0:
64,192,297560,1,0,0:0:0:0:
448,192,297560,1,0,0:0:0:0:
320,192,297660,1,0,0:0:0:0:
192,192,297660,1,0,0:0:0:0:
448,192,297760,1,0,0:0:0:0:
64,192,297760,1,0,0:0:0:0:
192,192,297860,1,0,0:0:0:0:
320,192,297860,1,0,0:0:0:0:
64,192,297860,1,0,0:0:0:0:
192,192,297960,1,0,0:0:0:0:
448,192,297960,1,0,0:0:0:0:
320,192,298060,1,0,0:0:0:0:
64,192,298060,1,0,0:0:0:0:
448,192,298160,1,0,0:0:0:0:
64,192,298160,1,0,0:0:0:0:
320,192,298260,1,0,0:0:0:0:
448,192,298260,1,0,0:0:0:0:
192,192,298260,1,0,0:0:0:0:
192,192,298360,1,0,0:0:0:0:
64,192,298360,1,0,0:0:0:0:
320,192,298460,1,0,0:0:0:0:
192,192,298460,1,0,0:0:0:0:
64,192,298460,1,0,0:0:0:0:
320,192,298560,1,0,0:0:0:0:
448,192,298560,1,0,0:0:0:0:
64,192,298660,1,0,0:0:0:0:
192,192,298660,1,0,0:0:0:0:
448,192,298660,1,0,0:0:0:0:
320,192,298760,1,0,0:0:0:0:
192,192,298760,1,0,0:0:0:0:
64,192,298860,1,0,0:0:0:0:
448,192,298860,1,0,0:0:0:0:
320,192,298960,1,0,0:0:0:0:
192,192,298960,1,0,0:0:0:0:
64,192,299060,1,0,0:0:0:0:
448,192,299060,1,0,0:0:0:0:
320,192,299060,1,0,0:0:0:0:
192,192,299160,1,0,0:0:0:0:
64,192,299160,1,0,0:0:0:0:
320,192,299260,1,0,0:0:0:0:
448,192,299260,1,0,0:0:0:0:
64,192,299360,1,0,0:0:0:0:
448,192,299360,1,0,0:0:0:0:
320,192,299460,1,0,0:0:0:0:
448,192,299460,1,0,0:0:0:0:
192,192,299460,1,0,0:0:0:0:
64,192,299560,1,0,0:0:0:0:
448,192,299560,1,0,0:0:0:0:
320,192,299660,1,0,0:0:0:0:
192,192,299660,1,0,0:0:0:0:
448,192,299760,1,0,0:0:0:0:
320,192,299760,1,0,0:0:0:0:
320,192,299860,1,0,0:0:0:0:
64,192,299860,1,0,0:0:0:0:
192,192,299860,1,0,0:0:0:0:
448,192,299960,1,0,0:0:0:0:
192,192,299960,1,0,0:0:0:0:
64,192,300060,1,0,0:0:0:0:
320,192,300060,1,0,0:0:0:0:
320,192,300160,1,0,0:0:0:0:
448,192,300160,1,0,0:0:0:0:
448,192,300260,1,0,0:0:0:0:
192,192,300260,1,0,0:0:0:0:
64,192,300260,1,0,0:0:0:0:
192,192,300360,1,0,0:0:0:0:
320,192,300360,1,0,0:0:0:0:
64,192,300460,1,0,0:0:0:0:
320,192,300460,1,0,0:0:0:0:
64,192,300560,1,0,0:0:0:0:
448,192,300560,1,0,0:0:0:0:
320,192,300660,1,0,0:0:0:0:
192,192,300660,1,0,0:0:0:0:
448,192,300660,1,0,0:0:0:0:
320,192,300760,1,0,0:0:0:0:
64,192,300760,1,0,0:0:0:0:
192,192,300860,1,0,0:0:0:0:
448,192,300860,1,0,0:0:0:0:
320,192,300960,1,0,0:0:0:0:
64,192,300960,1,0,0:0:0:0:
192,192,301060,1,0,0:0:0:0:
448,192,301060,1,0,0:0:0:0:
64,192,301060,1,0,0:0:0:0:
320,192,301160,1,0,0:0:0:0:
64,192,301160,1,0,0:0:0:0:
448,192,301260,1,0,0:0:0:0:
192,192,301260,1,0,0:0:0:0:
320,192,301360,1,0,0:0:0:0:
448,192,301360,1,0,0:0:0:0:
192,192,301460,1,0,0:0:0:0:
64,192,301460,1,0,0:0:0:0:
320,192,301460,1,0,0:0:0:0:
448,192,301560,1,0,0:0:0:0:
64,192,301560,1,0,0:0:0:0:
448,192,301660,1,0,0:0:0:0:
320,192,301660,1,0,0:0:0:0:
192,192,301660,1,0,0:0:0:0:
192,192,301760,1,0,0:0:0:0:
64,192,301760,1,0,0:0:0:0:
320,192,301860,1,0,0:0:0:0:
448,192,301860,1,0,0:0:0:0:
192,192,301860,1,0,0:0:0:0:
64,192,301960,1,0,0:0:0:0:
448,192,301960,1,0,0:0:0:0:
192,192,302060,1,0,0:0:0:0:
320,192,302060,1,0,0:0:0:0:
448,192,302160,1,0,0:0:0:0:
192,192,302160,1,0,0:0:0:0:
64,192,302260,1,0,0:0:0:0:
320,192,302260,1,0,0:0:0:0:
448,192,302260,1,0,0:0:0:0:
320,192,302360,1,0,0:0:0:0:
192,192,302360,1,0,0:0:0:0:
448,192,302460,1,0,0:0:0:0:
64,192,302460,1,0,0:0:0:0:
192,192,302560,1,0,0:0:0:0:
320,192,302560,1,0,0:0:0:0:
64,192,302660,1,0,0:0:0:0:
192,192,302660,1,0,0:0:0:0:
448,192,302660,1,0,0:0:0:0:
320,192,302760,1,0,0:0:0:0:
64,192,302760,1,0,0:0:0:0:
448,192,302860,1,0,0:0:0:0:
320,192,302860,1,0,0:0:0:0:
192,192,302960,1,0,0:0:0:0:
64,192,302960,1,0,0:0:0:0:
192,192,303060,1,0,0:0:0:0:
448,192,303060,1,0,0:0:0:0:
320,192,303060,1,0,0:0:0:0:
64,192,303160,1,0,0:0:0:0:
448,192,303160,1,0,0:0:0:0:
192,192,303260,1,0,0:0:0:0:
64,192,303260,1,0,0:0:0:0:
320,192,303360,1,0,0:0:0:0:
448,192,303360,1,0,0:0:0:0:
64,192,303460,1,0,0:0:0:0:
192,192,303460,1,0,0:0:0:0:
448,192,303460,1,0,0:0:0:0:
192,192,303560,1,0,0:0:0:0:
64,192,303560,1,0,0:0:0:0:
320,192,303660,1,0,0:0:0:0:
448,192,303660,1,0,0:0:0:0:
192,192,303760,1,0,0:0:0:0:
64,192,303760,1,0,0:0:0:0:
320,192,303860,1,0,0:0:0:0:
448,192,303860,1,0,0:0:0:0:
64,192,303860,1,0,0:0:0:0:
320,192,303960,1,0,0:0:0:0:
448,192,303960,1,0,0:0:0:0:
192,192,304060,1,0,0:0:0:0:
64,192,304060,1,0,0:0:0:0:
320,192,304110,1,0,0:0:0:0:
448,192,304110,1,0,0:0:0:0:
192,192,304160,1,0,0:0:0:0:
64,192,304160,1,0,0:0:0:0:
320,192,304210,1,0,0:0:0:0:
448,192,304210,1,0,0:0:0:0:
192,192,304260,1,0,0:0:0:0:
64,192,304260,1,0,0:0:0:0:
320,192,304360,1,0,0:0:0:0:
448,192,304360,1,0,0:0:0:0:
64,192,304460,1,0,0:0:0:0:
192,192,304460,1,0,0:0:0:0:
320,192,304560,1,0,0:0:0:0:
448,192,304560,1,0,0:0:0:0:
192,192,304660,1,0,0:0:0:0:
64,192,304660,1,0,0:0:0:0:
320,192,304760,1,0,0:0:0:0:
448,192,304760,1,0,0:0:0:0:
192,192,304860,1,0,0:0:0:0:
64,192,304860,1,0,0:0:0:0:
448,192,304860,1,0,0:0:0:0:
320,192,304910,1,0,0:0:0:0:
192,192,304960,1,0,0:0:0:0:
64,192,304960,1,0,0:0:0:0:
320,192,305010,1,0,0:0:0:0:
448,192,305060,1,0,0:0:0:0:
192,192,305060,1,0,0:0:0:0:
64,192,305060,1,0,0:0:0:0:
320,192,305160,1,0,0:0:0:0:
64,192,305160,1,0,0:0:0:0:
192,192,305260,1,0,0:0:0:0:
448,192,305260,1,0,0:0:0:0:
320,192,305360,1,0,0:0:0:0:
192,192,305360,1,0,0:0:0:0:
64,192,305460,1,0,0:0:0:0:
320,192,305460,1,0,0:0:0:0:
448,192,305460,1,0,0:0:0:0:
192,192,305560,1,0,0:0:0:0:
64,192,305560,1,0,0:0:0:0:
320,192,305660,1,0,0:0:0:0:
448,192,305660,1,0,0:0:0:0:
448,192,305760,1,0,0:0:0:0:
64,192,305760,1,0,0:0:0:0:
192,192,305860,1,0,0:0:0:0:
320,192,305860,1,0,0:0:0:0:
64,192,305860,1,0,0:0:0:0:
448,192,305960,1,0,0:0:0:0:
192,192,305960,1,0,0:0:0:0:
320,192,306060,1,0,0:0:0:0:
448,192,306060,1,0,0:0:0:0:
320,192,306160,1,0,0:0:0:0:
64,192,306160,1,0,0:0:0:0:
192,192,306260,1,0,0:0:0:0:
64,192,306260,1,0,0:0:0:0:
448,192,306260,1,0,0:0:0:0:
320,192,306360,1,0,0:0:0:0:
192,192,306360,1,0,0:0:0:0:
64,192,306460,1,0,0:0:0:0:
448,192,306460,1,0,0:0:0:0:
320,192,306560,1,0,0:0:0:0:
192,192,306560,1,0,0:0:0:0:
320,192,306660,1,0,0:0:0:0:
448,192,306660,1,0,0:0:0:0:
64,192,306660,1,0,0:0:0:0:
192,192,306760,1,0,0:0:0:0:
448,192,306760,1,0,0:0:0:0:
320,192,306860,1,0,0:0:0:0:
64,192,306860,1,0,0:0:0:0:
448,192,306960,1,0,0:0:0:0:
320,192,306960,1,0,0:0:0:0:
192,192,307060,1,0,0:0:0:0:
64,192,307060,1,0,0:0:0:0:
448,192,307060,1,0,0:0:0:0:
64,192,307160,1,0,0:0:0:0:
320,192,307160,1,0,0:0:0:0:
192,192,307260,1,0,0:0:0:0:
320,192,307260,1,0,0:0:0:0:
448,192,307360,1,0,0:0:0:0:
192,192,307360,1,0,0:0:0:0:
320,192,307460,1,0,0:0:0:0:
448,192,307460,1,0,0:0:0:0:
64,192,307460,1,0,0:0:0:0:
320,192,307560,1,0,0:0:0:0:
192,192,307560,1,0,0:0:0:0:
320,192,307660,1,0,0:0:0:0:
448,192,307660,1,0,0:0:0:0:
64,192,307760,1,0,0:0:0:0:
192,192,307760,1,0,0:0:0:0:
320,192,307860,1,0,0:0:0:0:
448,192,307860,1,0,0:0:0:0:
64,192,307860,1,0,0:0:0:0:
192,192,307960,1,0,0:0:0:0:
320,192,307960,1,0,0:0:0:0:
64,192,308060,1,0,0:0:0:0:
448,192,308060,1,0,0:0:0:0:
192,192,308060,1,0,0:0:0:0:
320,192,308160,1,0,0:0:0:0:
448,192,308160,1,0,0:0:0:0:
320,192,308260,1,0,0:0:0:0:
192,192,308260,1,0,0:0:0:0:
64,192,308260,1,0,0:0:0:0:
448,192,308360,1,0,0:0:0:0:
192,192,308360,1,0,0:0:0:0:
320,192,308460,1,0,0:0:0:0:
64,192,308460,1,0,0:0:0:0:
192,192,308560,1,0,0:0:0:0:
64,192,308560,1,0,0:0:0:0:
192,192,308660,1,0,0:0:0:0:
320,192,308660,1,0,0:0:0:0:
448,192,308660,1,0,0:0:0:0:
64,192,308760,1,0,0:0:0:0:
448,192,308760,1,0,0:0:0:0:
320,192,308860,1,0,0:0:0:0:
192,192,308860,1,0,0:0:0:0:
64,192,308960,1,0,0:0:0:0:
448,192,308960,1,0,0:0:0:0:
192,192,309060,1,0,0:0:0:0:
320,192,309060,1,0,0:0:0:0:
64,192,309060,1,0,0:0:0:0:
448,192,309160,1,0,0:0:0:0:
320,192,309160,1,0,0:0:0:0:
192,192,309260,1,0,0:0:0:0:
64,192,309260,1,0,0:0:0:0:
320,192,309360,1,0,0:0:0:0:
448,192,309360,1,0,0:0:0:0:
448,192,309460,1,0,0:0:0:0:
192,192,309460,1,0,0:0:0:0:
64,192,309460,1,0,0:0:0:0:
320,192,309560,1,0,0:0:0:0:
192,192,309560,1,0,0:0:0:0:
448,192,309660,1,0,0:0:0:0:
320,192,309660,1,0,0:0:0:0:
64,192,309760,1,0,0:0:0:0:
192,192,309760,1,0,0:0:0:0:
192,192,309860,1,0,0:0:0:0:
320,192,309860,1,0,0:0:0:0:
448,192,309860,1,0,0:0:0:0:
448,192,309960,1,0,0:0:0:0:
64,192,309960,1,0,0:0:0:0:
192,192,310060,1,0,0:0:0:0:
64,192,310060,1,0,0:0:0:0:
320,192,310160,1,0,0:0:0:0:
448,192,310160,1,0,0:0:0:0:
448,192,310260,1,0,0:0:0:0:
192,192,310260,1,0,0:0:0:0:
64,192,310260,1,0,0:0:0:0:
320,192,310360,1,0,0:0:0:0:
448,192,310360,1,0,0:0:0:0:
192,192,310460,1,0,0:0:0:0:
64,192,310460,1,0,0:0:0:0:
320,192,310560,1,0,0:0:0:0:
192,192,310560,1,0,0:0:0:0:
64,192,310660,1,0,0:0:0:0:
448,192,310660,1,0,0:0:0:0:
320,192,310660,1,0,0:0:0:0:
192,192,310760,1,0,0:0:0:0:
448,192,310760,1,0,0:0:0:0:
320,192,310860,1,0,0:0:0:0:
448,192,310860,1,0,0:0:0:0:
192,192,310960,1,0,0:0:0:0:
64,192,310960,1,0,0:0:0:0:
192,192,311060,1,0,0:0:0:0:
320,192,311060,1,0,0:0:0:0:
448,192,311060,1,0,0:0:0:0:
64,192,311160,1,0,0:0:0:0:
448,192,311160,1,0,0:0:0:0:
320,192,311260,1,0,0:0:0:0:
192,192,311260,1,0,0:0:0:0:
64,192,311260,1,0,0:0:0:0:
448,192,311360,1,0,0:0:0:0:
192,192,311360,1,0,0:0:0:0:
64,192,311460,1,0,0:0:0:0:
320,192,311460,1,0,0:0:0:0:
448,192,311460,1,0,0:0:0:0:
192,192,311560,1,0,0:0:0:0:
320,192,311560,1,0,0:0:0:0:
448,192,311660,1,0,0:0:0:0:
64,192,311660,1,0,0:0:0:0:
192,192,311760,1,0,0:0:0:0:
320,192,311760,1,0,0:0:0:0:
448,192,311860,1,0,0:0:0:0:
192,192,311860,1,0,0:0:0:0:
64,192,311860,1,0,0:0:0:0:
320,192,311960,1,0,0:0:0:0:
448,192,311960,1,0,0:0:0:0:
192,192,312060,1,0,0:0:0:0:
64,192,312060,1,0,0:0:0:0:
448,192,312160,1,0,0:0:0:0:
64,192,312160,1,0,0:0:0:0:
192,192,312260,1,0,0:0:0:0:
320,192,312260,1,0,0:0:0:0:
448,192,312260,1,0,0:0:0:0:
64,192,312360,1,0,0:0:0:0:
192,192,312360,1,0,0:0:0:0:
320,192,312460,1,0,0:0:0:0:
448,192,312460,1,0,0:0:0:0:
64,192,312560,1,0,0:0:0:0:
192,192,312560,1,0,0:0:0:0:
64,192,312660,1,0,0:0:0:0:
320,192,312660,1,0,0:0:0:0:
448,192,312660,1,0,0:0:0:0:
192,192,312760,1,0,0:0:0:0:
320,192,312760,1,0,0:0:0:0:
448,192,312860,1,0,0:0:0:0:
192,192,312860,1,0,0:0:0:0:
64,192,312960,1,0,0:0:0:0:
320,192,312960,1,0,0:0:0:0:
192,192,313060,1,0,0:0:0:0:
64,192,313060,1,0,0:0:0:0:
448,192,313060,1,0,0:0:0:0:
320,192,313160,1,0,0:0:0:0:
448,192,313160,1,0,0:0:0:0:
192,192,313260,1,0,0:0:0:0:
64,192,313260,1,0,0:0:0:0:
64,192,313360,1,0,0:0:0:0:
320,192,313360,1,0,0:0:0:0:
320,192,313460,1,0,0:0:0:0:
192,192,313460,1,0,0:0:0:0:
448,192,313460,1,0,0:0:0:0:
64,192,313560,1,0,0:0:0:0:
192,192,313560,1,0,0:0:0:0:
448,192,313660,1,0,0:0:0:0:
320,192,313660,1,0,0:0:0:0:
64,192,313760,1,0,0:0:0:0:
320,192,313760,1,0,0:0:0:0:
192,192,313860,1,0,0:0:0:0:
64,192,313860,1,0,0:0:0:0:
448,192,313860,1,0,0:0:0:0:
320,192,313960,1,0,0:0:0:0:
448,192,313960,1,0,0:0:0:0:
192,192,314060,1,0,0:0:0:0:
64,192,314060,1,0,0:0:0:0:
192,192,314160,1,0,0:0:0:0:
320,192,314160,1,0,0:0:0:0:
448,192,314260,1,0,0:0:0:0:
320,192,314260,1,0,0:0:0:0:
64,192,314260,1,0,0:0:0:0:
192,192,314360,1,0,0:0:0:0:
448,192,314360,1,0,0:0:0:0:
320,192,314460,1,0,0:0:0:0:
448,192,314460,1,0,0:0:0:0:
192,192,314460,1,0,0:0:0:0:
64,192,314560,1,0,0:0:0:0:
320,192,314560,1,0,0:0:0:0:
192,192,314660,1,0,0:0:0:0:
64,192,314660,1,0,0:0:0:0:
448,192,314660,1,0,0:0:0:0:
192,192,314760,1,0,0:0:0:0:
320,192,314760,1,0,0:0:0:0:
64,192,314860,1,0,0:0:0:0:
448,192,314860,1,0,0:0:0:0:
320,192,314960,1,0,0:0:0:0:
192,192,314960,1,0,0:0:0:0:
64,192,315060,1,0,0:0:0:0:
320,192,315060,1,0,0:0:0:0:
448,192,315060,1,0,0:0:0:0:
192,192,315160,1,0,0:0:0:0:
64,192,315160,1,0,0:0:0:0:
320,192,315260,1,0,0:0:0:0:
192,192,315260,1,0,0:0:0:0:
448,192,315360,1,0,0:0:0:0:
320,192,315360,1,0,0:0:0:0:
448,192,315460,1,0,0:0:0:0:
192,192,315460,1,0,0:0:0:0:
64,192,315460,1,0,0:0:0:0:
320,192,315560,1,0,0:0:0:0:
64,192,315560,1,0,0:0:0:0:
192,192,315660,1,0,0:0:0:0:
448,192,315660,1,0,0:0:0:0:
320,192,315760,1,0,0:0:0:0:
448,192,315760,1,0,0:0:0:0:
320,192,315860,1,0,0:0:0:0:
192,192,315860,1,0,0:0:0:0:
64,192,315860,1,0,0:0:0:0:
448,192,315960,1,0,0:0:0:0:
64,192,315960,1,0,0:0:0:0:
192,192,316060,1,0,0:0:0:0:
320,192,316060,1,0,0:0:0:0:
448,192,316160,1,0,0:0:0:0:
64,192,316160,1,0,0:0:0:0:
192,192,316260,1,0,0:0:0:0:
320,192,316260,1,0,0:0:0:0:
448,192,316260,1,0,0:0:0:0:
64,192,316360,1,0,0:0:0:0:
192,192,316360,1,0,0:0:0:0:
320,192,316460,1,0,0:0:0:0:
448,192,316460,1,0,0:0:0:0:
320,192,316560,1,0,0:0:0:0:
64,192,316560,1,0,0:0:0:0:
192,192,316660,1,0,0:0:0:0:
64,192,316660,1,0,0:0:0:0:
448,192,316660,1,0,0:0:0:0:
320,192,316760,1,0,0:0:0:0:
192,192,316760,1,0,0:0:0:0:
448,192,316860,1,0,0:0:0:0:
64,192,316860,1,0,0:0:0:0:
320,192,316960,1,0,0:0:0:0:
448,192,316960,1,0,0:0:0:0:
320,192,317060,1,0,0:0:0:0:
192,192,317060,1,0,0:0:0:0:
64,192,317060,1,0,0:0:0:0:
448,192,317160,1,0,0:0:0:0:
64,192,317160,1,0,0:0:0:0:
192,192,317260,1,0,0:0:0:0:
320,192,317260,1,0,0:0:0:0:
448,192,317360,1,0,0:0:0:0:
192,192,317360,1,0,0:0:0:0:
320,192,317460,1,0,0:0:0:0:
64,192,317460,1,0,0:0:0:0:
448,192,317460,1,0,0:0:0:0:
192,192,317560,1,0,0:0:0:0:
64,192,317560,1,0,0:0:0:0:
448,192,317660,1,0,0:0:0:0:
64,192,317660,1,0,0:0:0:0:
320,192,317660,1,0,0:0:0:0:
448,192,317760,1,0,0:0:0:0:
192,192,317760,1,0,0:0:0:0:
320,192,317860,1,0,0:0:0:0:
192,192,317860,1,0,0:0:0:0:
64,192,317860,1,0,0:0:0:0:
448,192,317860,1,0,0:0:0:0:
320,192,317960,1,0,0:0:0:0:
64,192,317960,1,0,0:0:0:0:
192,192,318060,1,0,0:0:0:0:
448,192,318060,1,0,0:0:0:0:
320,192,318160,1,0,0:0:0:0:
192,192,318160,1,0,0:0:0:0:
64,192,318260,1,0,0:0:0:0:
320,192,318260,1,0,0:0:0:0:
448,192,318260,1,0,0:0:0:0:
192,192,318360,1,0,0:0:0:0:
64,192,318360,1,0,0:0:0:0:
192,192,318460,1,0,0:0:0:0:
448,192,318460,1,0,0:0:0:0:
320,192,318560,1,0,0:0:0:0:
448,192,318560,1,0,0:0:0:0:
320,192,318660,1,0,0:0:0:0:
192,192,318660,1,0,0:0:0:0:
64,192,318660,1,0,0:0:0:0:
448,192,318760,1,0,0:0:0:0:
64,192,318760,1,0,0:0:0:0:
192,192,318860,1,0,0:0:0:0:
320,192,318860,1,0,0:0:0:0:
64,192,318960,1,0,0:0:0:0:
448,192,318960,1,0,0:0:0:0:
192,192,319060,1,0,0:0:0:0:
320,192,319060,1,0,0:0:0:0:
448,192,319060,1,0,0:0:0:0:
320,192,319160,1,0,0:0:0:0:
64,192,319160,1,0,0:0:0:0:
192,192,319260,1,0,0:0:0:0:
64,192,319260,1,0,0:0:0:0:
320,192,319360,1,0,0:0:0:0:
448,192,319360,1,0,0:0:0:0:
448,192,319460,1,0,0:0:0:0:
192,192,319460,1,0,0:0:0:0:
64,192,319460,1,0,0:0:0:0:
320,192,319560,1,0,0:0:0:0:
448,192,319560,1,0,0:0:0:0:
320,192,319660,1,0,0:0:0:0:
64,192,319660,1,0,0:0:0:0:
192,192,319760,1,0,0:0:0:0:
64,192,319760,1,0,0:0:0:0:
192,192,319860,1,0,0:0:0:0:
320,192,319860,1,0,0:0:0:0:
448,192,319860,1,0,0:0:0:0:
64,192,319960,1,0,0:0:0:0:
320,192,319960,1,0,0:0:0:0:
192,192,320060,1,0,0:0:0:0:
64,192,320060,1,0,0:0:0:0:
320,192,320160,1,0,0:0:0:0:
448,192,320160,1,0,0:0:0:0:
448,192,320260,1,0,0:0:0:0:
192,192,320260,1,0,0:0:0:0:
64,192,320260,1,0,0:0:0:0:
320,192,320360,1,0,0:0:0:0:
448,192,320360,1,0,0:0:0:0:
192,192,320460,1,0,0:0:0:0:
64,192,320460,1,0,0:0:0:0:
192,192,320560,1,0,0:0:0:0:
448,192,320560,1,0,0:0:0:0:
320,192,320660,1,0,0:0:0:0:
448,192,320660,1,0,0:0:0:0:
64,192,320660,1,0,0:0:0:0:
192,192,320760,1,0,0:0:0:0:
320,192,320760,1,0,0:0:0:0:
64,192,320860,1,0,0:0:0:0:
448,192,320860,1,0,0:0:0:0:
192,192,320860,1,0,0:0:0:0:
64,192,320960,1,0,0:0:0:0:
320,192,320960,1,0,0:0:0:0:
192,192,321060,1,0,0:0:0:0:
448,192,321060,1,0,0:0:0:0:
320,192,321060,1,0,0:0:0:0:
448,192,321160,1,0,0:0:0:0:
64,192,321160,1,0,0:0:0:0:
192,192,321260,1,0,0:0:0:0:
320,192,321260,1,0,0:0:0:0:
64,192,321360,1,0,0:0:0:0:
192,192,321360,1,0,0:0:0:0:
64,192,321460,1,0,0:0:0:0:
320,192,321460,1,0,0:0:0:0:
448,192,321460,1,0,0:0:0:0:
192,192,321560,1,0,0:0:0:0:
320,192,321560,1,0,0:0:0:0:
64,192,321660,1,0,0:0:0:0:
448,192,321660,1,0,0:0:0:0:
448,192,321760,1,0,0:0:0:0:
320,192,321760,1,0,0:0:0:0:
320,192,321860,1,0,0:0:0:0:
64,192,321860,1,0,0:0:0:0:
192,192,321860,1,0,0:0:0:0:
448,192,321960,1,0,0:0:0:0:
64,192,321960,1,0,0:0:0:0:
192,192,322060,1,0,0:0:0:0:
320,192,322060,1,0,0:0:0:0:
448,192,322160,1,0,0:0:0:0:
64,192,322160,1,0,0:0:0:0:
192,192,322260,1,0,0:0:0:0:
320,192,322260,1,0,0:0:0:0:
448,192,322260,1,0,0:0:0:0:
64,192,322360,1,0,0:0:0:0:
192,192,322360,1,0,0:0:0:0:
320,192,322460,1,0,0:0:0:0:
448,192,322460,1,0,0:0:0:0:
448,192,322560,1,0,0:0:0:0:
64,192,322560,1,0,0:0:0:0:
320,192,322660,1,0,0:0:0:0:
192,192,322660,1,0,0:0:0:0:
64,192,322660,1,0,0:0:0:0:
448,192,322760,1,0,0:0:0:0:
320,192,322760,1,0,0:0:0:0:
192,192,322860,1,0,0:0:0:0:
64,192,322860,1,0,0:0:0:0:
320,192,322960,1,0,0:0:0:0:
448,192,322960,1,0,0:0:0:0:
448,192,323060,1,0,0:0:0:0:
192,192,323060,1,0,0:0:0:0:
64,192,323060,1,0,0:0:0:0:
320,192,323160,1,0,0:0:0:0:
192,192,323160,1,0,0:0:0:0:
64,192,323260,1,0,0:0:0:0:
320,192,323260,1,0,0:0:0:0:
192,192,323360,1,0,0:0:0:0:
64,192,323360,1,0,0:0:0:0:
192,192,323460,1,0,0:0:0:0:
320,192,323460,1,0,0:0:0:0:
448,192,323460,1,0,0:0:0:0:
64,192,323560,1,0,0:0:0:0:
448,192,323560,1,0,0:0:0:0:
320,192,323660,1,0,0:0:0:0:
192,192,323660,1,0,0:0:0:0:
320,192,323760,1,0,0:0:0:0:
448,192,323760,1,0,0:0:0:0:
448,192,323860,1,0,0:0:0:0:
192,192,323860,1,0,0:0:0:0:
64,192,323860,1,0,0:0:0:0:
320,192,323960,1,0,0:0:0:0:
192,192,323960,1,0,0:0:0:0:
64,192,324060,1,0,0:0:0:0:
448,192,324060,1,0,0:0:0:0:
192,192,324060,1,0,0:0:0:0:
320,192,324160,1,0,0:0:0:0:
64,192,324160,1,0,0:0:0:0:
448,192,324260,1,0,0:0:0:0:
320,192,324260,1,0,0:0:0:0:
192,192,324260,1,0,0:0:0:0:
64,192,324360,1,0,0:0:0:0:
448,192,324360,1,0,0:0:0:0:
320,192,324460,1,0,0:0:0:0:
192,192,324460,1,0,0:0:0:0:
320,192,324560,1,0,0:0:0:0:
448,192,324560,1,0,0:0:0:0:
192,192,324660,1,0,0:0:0:0:
64,192,324660,1,0,0:0:0:0:
320,192,324660,1,0,0:0:0:0:
448,192,324760,1,0,0:0:0:0:
192,192,324760,1,0,0:0:0:0:
320,192,324860,1,0,0:0:0:0:
64,192,324860,1,0,0:0:0:0:
192,192,324960,1,0,0:0:0:0:
448,192,324960,1,0,0:0:0:0:
320,192,325060,1,0,0:0:0:0:
448,192,325060,1,0,0:0:0:0:
64,192,325060,1,0,0:0:0:0:
192,192,325160,1,0,0:0:0:0:
64,192,325160,1,0,0:0:0:0:
320,192,325260,1,0,0:0:0:0:
448,192,325260,1,0,0:0:0:0:
64,192,325360,1,0,0:0:0:0:
448,192,325360,1,0,0:0:0:0:
320,192,325460,1,0,0:0:0:0:
192,192,325460,1,0,0:0:0:0:
64,192,325460,1,0,0:0:0:0:
320,192,325560,1,0,0:0:0:0:
448,192,325560,1,0,0:0:0:0:
192,192,325660,1,0,0:0:0:0:
64,192,325660,1,0,0:0:0:0:
192,192,325760,1,0,0:0:0:0:
320,192,325760,1,0,0:0:0:0:
448,192,325860,1,0,0:0:0:0:
320,192,325860,1,0,0:0:0:0:
64,192,325860,1,0,0:0:0:0:
192,192,325960,1,0,0:0:0:0:
64,192,325960,1,0,0:0:0:0:
320,192,326060,1,0,0:0:0:0:
448,192,326060,1,0,0:0:0:0:
192,192,326160,1,0,0:0:0:0:
64,192,326160,1,0,0:0:0:0:
192,192,326260,1,0,0:0:0:0:
320,192,326260,1,0,0:0:0:0:
448,192,326260,1,0,0:0:0:0:
64,192,326360,1,0,0:0:0:0:
320,192,326360,1,0,0:0:0:0:
448,192,326460,1,0,0:0:0:0:
64,192,326460,1,0,0:0:0:0:
192,192,326560,1,0,0:0:0:0:
448,192,326560,1,0,0:0:0:0:
320,192,326660,1,0,0:0:0:0:
192,192,326660,1,0,0:0:0:0:
64,192,326660,1,0,0:0:0:0:
448,192,326760,1,0,0:0:0:0:
320,192,326760,1,0,0:0:0:0:
192,192,326860,1,0,0:0:0:0:
64,192,326860,1,0,0:0:0:0:
448,192,326960,1,0,0:0:0:0:
64,192,326960,1,0,0:0:0:0:
192,192,327060,1,0,0:0:0:0:
320,192,327060,1,0,0:0:0:0:
448,192,327060,1,0,0:0:0:0:
64,192,327160,1,0,0:0:0:0:
320,192,327160,1,0,0:0:0:0:
448,192,327260,1,0,0:0:0:0:
192,192,327260,1,0,0:0:0:0:
64,192,327260,1,0,0:0:0:0:
320,192,327360,1,0,0:0:0:0:
192,192,327360,1,0,0:0:0:0:
64,192,327460,1,0,0:0:0:0:
448,192,327460,1,0,0:0:0:0:
320,192,327460,1,0,0:0:0:0:
448,192,327560,1,0,0:0:0:0:
320,192,327560,1,0,0:0:0:0:
192,192,327660,1,0,0:0:0:0:
64,192,327660,1,0,0:0:0:0:
64,192,327760,1,0,0:0:0:0:
448,192,327760,1,0,0:0:0:0:
192,192,327860,1,0,0:0:0:0:
64,192,327860,1,0,0:0:0:0:
320,192,327860,1,0,0:0:0:0:
320,192,327960,1,0,0:0:0:0:
192,192,327960,1,0,0:0:0:0:
64,192,328060,1,0,0:0:0:0:
448,192,328060,1,0,0:0:0:0:
320,192,328160,1,0,0:0:0:0:
192,192,328160,1,0,0:0:0:0:
448,192,328260,1,0,0:0:0:0:
192,192,328260,1,0,0:0:0:0:
64,192,328260,1,0,0:0:0:0:
192,192,328360,1,0,0:0:0:0:
448,192,328360,1,0,0:0:0:0:
320,192,328460,1,0,0:0:0:0:
64,192,328460,1,0,0:0:0:0:
192,192,328560,1,0,0:0:0:0:
448,192,328560,1,0,0:0:0:0:
192,192,328660,1,0,0:0:0:0:
64,192,328660,1,0,0:0:0:0:
448,192,328660,1,0,0:0:0:0:
320,192,328760,1,0,0:0:0:0:
64,192,328760,1,0,0:0:0:0:
192,192,328860,1,0,0:0:0:0:
64,192,328860,1,0,0:0:0:0:
448,192,328960,1,0,0:0:0:0:
320,192,328960,1,0,0:0:0:0:
192,192,329010,1,0,0:0:0:0:
448,192,329060,1,0,0:0:0:0:
320,192,329060,1,0,0:0:0:0:
64,192,329060,1,0,0:0:0:0:
320,192,329160,1,0,0:0:0:0:
448,192,329160,1,0,0:0:0:0:
192,192,329260,1,0,0:0:0:0:
64,192,329260,1,0,0:0:0:0:
320,192,329360,1,0,0:0:0:0:
448,192,329360,1,0,0:0:0:0:
192,192,329460,1,0,0:0:0:0:
64,192,329460,1,0,0:0:0:0:
448,192,329460,1,0,0:0:0:0:
192,192,329560,1,0,0:0:0:0:
64,192,329560,1,0,0:0:0:0:
320,192,329660,1,0,0:0:0:0:
448,192,329660,1,0,0:0:0:0:
192,192,329710,1,0,0:0:0:0:
64,192,329710,1,0,0:0:0:0:
320,192,329760,1,0,0:0:0:0:
448,192,329760,1,0,0:0:0:0:
192,192,329810,1,0,0:0:0:0:
64,192,329810,1,0,0:0:0:0:
320,192,329860,1,0,0:0:0:0:
448,192,329860,1,0,0:0:0:0:
192,192,329960,1,0,0:0:0:0:
64,192,329960,1,0,0:0:0:0:
448,192,330060,1,0,0:0:0:0:
320,192,330060,1,0,0:0:0:0:
192,192,330160,1,0,0:0:0:0:
64,192,330160,1,0,0:0:0:0:
320,192,330260,1,0,0:0:0:0:
448,192,330260,1,0,0:0:0:0:
192,192,330360,1,0,0:0:0:0:
64,192,330360,1,0,0:0:0:0:
320,192,330460,1,0,0:0:0:0:
448,192,330460,1,0,0:0:0:0:
64,192,330460,1,0,0:0:0:0:
192,192,330510,1,0,0:0:0:0:
320,192,330560,1,0,0:0:0:0:
448,192,330560,1,0,0:0:0:0:
192,192,330610,1,0,0:0:0:0:
448,192,330660,1,0,0:0:0:0:
64,192,330660,1,0,0:0:0:0:
320,192,330660,1,0,0:0:0:0:
192,192,330760,1,0,0:0:0:0:
320,192,330860,1,0,0:0:0:0:
448,192,330960,1,0,0:0:0:0:
320,192,331060,1,0,0:0:0:0:
64,192,331060,1,0,0:0:0:0:
192,192,331160,1,0,0:0:0:0:
448,192,331260,1,0,0:0:0:0:
64,192,331260,1,0,0:0:0:0:
448,192,331360,1,0,0:0:0:0:
192,192,331460,1,0,0:0:0:0:
64,192,331460,1,0,0:0:0:0:
448,192,331560,1,0,0:0:0:0:
320,192,331560,1,0,0:0:0:0:
192,192,331660,1,0,0:0:0:0:
448,192,331760,1,0,0:0:0:0:
64,192,331760,1,0,0:0:0:0:
192,192,331860,1,0,0:0:0:0:
320,192,331860,1,0,0:0:0:0:
448,192,331960,1,0,0:0:0:0:
64,192,332060,1,0,0:0:0:0:
320,192,332160,1,0,0:0:0:0:
448,192,332210,1,0,0:0:0:0:
192,192,332260,1,0,0:0:0:0:
64,192,332260,1,0,0:0:0:0:
320,192,332360,1,0,0:0:0:0:
192,192,332460,1,0,0:0:0:0:
64,192,332560,1,0,0:0:0:0:
320,192,332660,1,0,0:0:0:0:
448,192,332660,1,0,0:0:0:0:
192,192,332760,1,0,0:0:0:0:
320,192,332860,1,0,0:0:0:0:
64,192,332860,1,0,0:0:0:0:
64,192,332960,1,0,0:0:0:0:
320,192,333060,1,0,0:0:0:0:
192,192,333060,1,0,0:0:0:0:
64,192,333160,1,0,0:0:0:0:
448,192,333160,1,0,0:0:0:0:
320,192,333260,1,0,0:0:0:0:
448,192,333360,1,0,0:0:0:0:
192,192,333360,1,0,0:0:0:0:
64,192,333460,1,0,0:0:0:0:
320,192,333460,1,0,0:0:0:0:
192,192,333560,1,0,0:0:0:0:
448,192,333660,1,0,0:0:0:0:
192,192,333760,1,0,0:0:0:0:
64,192,333810,1,0,0:0:0:0:
320,192,333860,1,0,0:0:0:0:
448,192,333860,1,0,0:0:0:0:
192,192,333960,1,0,0:0:0:0:
320,192,334060,1,0,0:0:0:0:
64,192,334160,1,0,0:0:0:0:
192,192,334260,1,0,0:0:0:0:
448,192,334260,1,0,0:0:0:0:
320,192,334360,1,0,0:0:0:0:
64,192,334460,1,0,0:0:0:0:
192,192,334460,1,0,0:0:0:0:
192,192,334560,1,0,0:0:0:0:
320,192,334660,1,0,0:0:0:0:
448,192,334660,1,0,0:0:0:0:
64,192,334760,1,0,0:0:0:0:
192,192,334760,1,0,0:0:0:0:
320,192,334860,1,0,0:0:0:0:
192,192,334960,1,0,0:0:0:0:
64,192,334960,1,0,0:0:0:0:
320,192,335060,1,0,0:0:0:0:
448,192,335060,1,0,0:0:0:0:
192,192,335160,1,0,0:0:0:0:
320,192,335260,1,0,0:0:0:0:
64,192,335360,1,0,0:0:0:0:
192,192,335410,1,0,0:0:0:0:
320,192,335460,1,0,0:0:0:0:
448,192,335460,1,0,0:0:0:0:
192,192,335560,1,0,0:0:0:0:
64,192,335660,1,0,0:0:0:0:
192,192,335760,1,0,0:0:0:0:
448,192,335860,1,0,0:0:0:0:
320,192,335860,1,0,0:0:0:0:
64,192,335960,1,0,0:0:0:0:
320,192,336060,1,0,0:0:0:0:
192,192,336060,1,0,0:0:0:0:
320,192,336160,1,0,0:0:0:0:
192,192,336260,1,0,0:0:0:0:
64,192,336260,1,0,0:0:0:0:
448,192,336360,1,0,0:0:0:0:
320,192,336360,1,0,0:0:0:0:
192,192,336460,1,0,0:0:0:0:
320,192,336560,1,0,0:0:0:0:
64,192,336560,1,0,0:0:0:0:
192,192,336660,1,0,0:0:0:0:
448,192,336660,128,0,336860:0:0:0:0:
320,192,336760,1,0,0:0:0:0:
64,192,336860,128,0,337060:0:0:0:0:
320,192,336960,1,0,0:0:0:0:
448,192,337010,1,0,0:0:0:0:
192,192,337060,1,0,0:0:0:0:
320,192,337060,1,0,0:0:0:0:
448,192,337160,1,0,0:0:0:0:
64,192,337260,1,0,0:0:0:0:
448,192,337360,1,0,0:0:0:0:
64,192,337460,1,0,0:0:0:0:
192,192,337460,1,0,0:0:0:0:
320,192,337560,1,0,0:0:0:0:
448,192,337660,1,0,0:0:0:0:
192,192,337660,1,0,0:0:0:0:
192,192,337760,1,0,0:0:0:0:
64,192,337860,1,0,0:0:0:0:
448,192,337860,1,0,0:0:0:0:
320,192,337960,1,0,0:0:0:0:
192,192,337960,1,0,0:0:0:0:
64,192,338060,1,0,0:0:0:0:
448,192,338160,1,0,0:0:0:0:
192,192,338160,1,0,0:0:0:0:
64,192,338260,1,0,0:0:0:0:
320,192,338260,1,0,0:0:0:0:
192,192,338360,1,0,0:0:0:0:
320,192,338460,1,0,0:0:0:0:
448,192,338560,1,0,0:0:0:0:
192,192,338610,1,0,0:0:0:0:
64,192,338660,1,0,0:0:0:0:
320,192,338660,1,0,0:0:0:0:
448,192,338760,1,0,0:0:0:0:
192,192,338860,1,0,0:0:0:0:
320,192,338960,1,0,0:0:0:0:
64,192,339060,1,0,0:0:0:0:
192,192,339060,1,0,0:0:0:0:
448,192,339160,1,0,0:0:0:0:
320,192,339260,1,0,0:0:0:0:
64,192,339260,1,0,0:0:0:0:
64,192,339360,1,0,0:0:0:0:
320,192,339460,1,0,0:0:0:0:
448,192,339460,1,0,0:0:0:0:
192,192,339560,1,0,0:0:0:0:
64,192,339560,1,0,0:0:0:0:
320,192,339660,1,0,0:0:0:0:
448,192,339760,1,0,0:0:0:0:
192,192,339760,1,0,0:0:0:0:
320,192,339860,1,0,0:0:0:0:
64,192,339860,1,0,0:0:0:0:
192,192,339960,1,0,0:0:0:0:
320,192,340060,1,0,0:0:0:0:
64,192,340160,1,0,0:0:0:0:
320,192,340210,1,0,0:0:0:0:
192,192,340260,1,0,0:0:0:0:
448,192,340260,1,0,0:0:0:0:
64,192,340360,1,0,0:0:0:0:
320,192,340460,1,0,0:0:0:0:
192,192,340560,1,0,0:0:0:0:
448,192,340660,1,0,0:0:0:0:
64,192,340660,1,0,0:0:0:0:
192,192,340760,1,0,0:0:0:0:
320,192,340860,1,0,0:0:0:0:
448,192,340860,1,0,0:0:0:0:
320,192,340960,1,0,0:0:0:0:
64,192,341060,1,0,0:0:0:0:
192,192,341060,1,0,0:0:0:0:
320,192,341160,1,0,0:0:0:0:
448,192,341160,1,0,0:0:0:0:
192,192,341260,1,0,0:0:0:0:
448,192,341360,1,0,0:0:0:0:
64,192,341360,1,0,0:0:0:0:
320,192,341460,1,0,0:0:0:0:
192,192,341460,1,0,0:0:0:0:
448,192,341560,1,0,0:0:0:0:
320,192,341660,1,0,0:0:0:0:
192,192,341760,1,0,0:0:0:0:
64,192,341810,1,0,0:0:0:0:
448,192,341860,1,0,0:0:0:0:
320,192,341860,1,0,0:0:0:0:
192,192,341960,1,0,0:0:0:0:
320,192,342060,1,0,0:0:0:0:
448,192,342160,1,0,0:0:0:0:
320,192,342260,1,0,0:0:0:0:
64,192,342260,1,0,0:0:0:0:
192,192,342360,1,0,0:0:0:0:
448,192,342460,1,0,0:0:0:0:
64,192,342460,1,0,0:0:0:0:
448,192,342560,1,0,0:0:0:0:
320,192,342660,1,0,0:0:0:0:
192,192,342660,1,0,0:0:0:0:
448,192,342760,1,0,0:0:0:0:
64,192,342760,1,0,0:0:0:0:
192,192,342860,1,0,0:0:0:0:
320,192,342960,1,0,0:0:0:0:
448,192,342960,1,0,0:0:0:0:
192,192,343060,128,0,343260:0:0:0:0:
64,192,343060,1,0,0:0:0:0:
448,192,343160,1,0,0:0:0:0:
320,192,343260,128,0,343360:0:0:0:0:
64,192,343360,1,0,0:0:0:0:
448,192,343410,1,0,0:0:0:0:
64,192,343460,1,0,0:0:0:0:
192,192,343460,1,0,0:0:0:0:
320,192,343460,1,0,0:0:0:0:
448,192,343560,1,0,0:0:0:0:
320,192,343660,1,0,0:0:0:0:
192,192,343760,1,0,0:0:0:0:
64,192,343860,1,0,0:0:0:0:
448,192,343860,1,0,0:0:0:0:
320,192,343960,1,0,0:0:0:0:
192,192,344060,1,0,0:0:0:0:
448,192,344060,1,0,0:0:0:0:
192,192,344160,1,0,0:0:0:0:
64,192,344260,1,0,0:0:0:0:
448,192,344260,1,0,0:0:0:0:
320,192,344360,1,0,0:0:0:0:
192,192,344360,1,0,0:0:0:0:
448,192,344460,1,0,0:0:0:0:
192,192,344560,1,0,0:0:0:0:
64,192,344560,1,0,0:0:0:0:
320,192,344660,1,0,0:0:0:0:
448,192,344660,1,0,0:0:0:0:
192,192,344760,1,0,0:0:0:0:
64,192,344860,1,0,0:0:0:0:
320,192,344960,1,0,0:0:0:0:
192,192,345010,1,0,0:0:0:0:
448,192,345060,1,0,0:0:0:0:
64,192,345060,1,0,0:0:0:0:
320,192,345160,1,0,0:0:0:0:
448,192,345260,1,0,0:0:0:0:
192,192,345360,1,0,0:0:0:0:
448,192,345460,1,0,0:0:0:0:
64,192,345460,1,0,0:0:0:0:
320,192,345560,1,0,0:0:0:0:
448,192,345660,1,0,0:0:0:0:
192,192,345660,1,0,0:0:0:0:
448,192,345760,1,0,0:0:0:0:
320,192,345860,1,0,0:0:0:0:
64,192,345860,1,0,0:0:0:0:
192,192,345960,1,0,0:0:0:0:
448,192,345960,1,0,0:0:0:0:
320,192,346060,1,0,0:0:0:0:
64,192,346160,1,0,0:0:0:0:
448,192,346160,1,0,0:0:0:0:
320,192,346260,1,0,0:0:0:0:
192,192,346260,1,0,0:0:0:0:
448,192,346360,1,0,0:0:0:0:
64,192,346460,1,0,0:0:0:0:
192,192,346560,1,0,0:0:0:0:
320,192,346610,1,0,0:0:0:0:
64,192,346660,1,0,0:0:0:0:
448,192,346660,1,0,0:0:0:0:
192,192,346760,1,0,0:0:0:0:
320,192,346860,1,0,0:0:0:0:
448,192,346960,1,0,0:0:0:0:
192,192,347060,1,0,0:0:0:0:
64,192,347060,1,0,0:0:0:0:
320,192,347160,1,0,0:0:0:0:
64,192,347260,1,0,0:0:0:0:
448,192,347260,1,0,0:0:0:0:
64,192,347360,1,0,0:0:0:0:
448,192,347460,1,0,0:0:0:0:
320,192,347460,1,0,0:0:0:0:
64,192,347560,1,0,0:0:0:0:
192,192,347560,1,0,0:0:0:0:
320,192,347660,1,0,0:0:0:0:
64,192,347760,1,0,0:0:0:0:
448,192,347760,1,0,0:0:0:0:
192,192,347860,1,0,0:0:0:0:
320,192,347860,1,0,0:0:0:0:
448,192,347960,1,0,0:0:0:0:
320,192,348060,1,0,0:0:0:0:
192,192,348160,1,0,0:0:0:0:
64,192,348210,1,0,0:0:0:0:
320,192,348260,1,0,0:0:0:0:
448,192,348260,1,0,0:0:0:0:
192,192,348360,1,0,0:0:0:0:
448,192,348460,1,0,0:0:0:0:
64,192,348560,1,0,0:0:0:0:
448,192,348660,1,0,0:0:0:0:
320,192,348660,1,0,0:0:0:0:
192,192,348760,1,0,0:0:0:0:
64,192,348860,1,0,0:0:0:0:
320,192,348860,1,0,0:0:0:0:
320,192,348960,1,0,0:0:0:0:
192,192,349060,1,0,0:0:0:0:
448,192,349060,1,0,0:0:0:0:
64,192,349160,1,0,0:0:0:0:
320,192,349160,1,0,0:0:0:0:
192,192,349260,1,0,0:0:0:0:
448,192,349360,1,0,0:0:0:0:
64,192,349360,1,0,0:0:0:0:
320,192,349460,128,0,349660:0:0:0:0:
192,192,349460,1,0,0:0:0:0:
448,192,349560,1,0,0:0:0:0:
192,192,349660,128,0,349860:0:0:0:0:
320,192,349760,1,0,0:0:0:0:
64,192,349810,1,0,0:0:0:0:
320,192,349860,1,0,0:0:0:0:
448,192,349860,1,0,0:0:0:0:
192,192,349960,1,0,0:0:0:0:
320,192,350060,1,0,0:0:0:0:
448,192,350160,1,0,0:0:0:0:
192,192,350260,1,0,0:0:0:0:
64,192,350260,1,0,0:0:0:0:
320,192,350360,1,0,0:0:0:0:
64,192,350460,1,0,0:0:0:0:
448,192,350460,1,0,0:0:0:0:
64,192,350560,1,0,0:0:0:0:
320,192,350660,1,0,0:0:0:0:
448,192,350660,1,0,0:0:0:0:
64,192,350760,1,0,0:0:0:0:
192,192,350760,1,0,0:0:0:0:
320,192,350860,1,0,0:0:0:0:
448,192,350960,1,0,0:0:0:0:
192,192,350960,1,0,0:0:0:0:
320,192,351060,1,0,0:0:0:0:
64,192,351060,1,0,0:0:0:0:
448,192,351160,1,0,0:0:0:0:
320,192,351260,1,0,0:0:0:0:
64,192,351360,1,0,0:0:0:0:
192,192,351410,1,0,0:0:0:0:
448,192,351460,1,0,0:0:0:0:
320,192,351460,1,0,0:0:0:0:
64,192,351560,1,0,0:0:0:0:
448,192,351660,1,0,0:0:0:0:
192,192,351760,1,0,0:0:0:0:
320,192,351860,1,0,0:0:0:0:
448,192,351860,1,0,0:0:0:0:
64,192,351960,1,0,0:0:0:0:
448,192,352060,1,0,0:0:0:0:
192,192,352060,1,0,0:0:0:0:
192,192,352160,1,0,0:0:0:0:
448,192,352260,1,0,0:0:0:0:
64,192,352260,1,0,0:0:0:0:
320,192,352360,1,0,0:0:0:0:
192,192,352360,1,0,0:0:0:0:
448,192,352460,1,0,0:0:0:0:
320,192,352560,1,0,0:0:0:0:
192,192,352560,1,0,0:0:0:0:
64,192,352660,1,0,0:0:0:0:
448,192,352660,1,0,0:0:0:0:
192,192,352760,1,0,0:0:0:0:
320,192,352860,1,0,0:0:0:0:
448,192,352960,1,0,0:0:0:0:
192,192,353010,1,0,0:0:0:0:
320,192,353060,1,0,0:0:0:0:
64,192,353060,1,0,0:0:0:0:
448,192,353160,1,0,0:0:0:0:
192,192,353260,1,0,0:0:0:0:
320,192,353360,1,0,0:0:0:0:
448,192,353460,1,0,0:0:0:0:
192,192,353460,1,0,0:0:0:0:
64,192,353560,1,0,0:0:0:0:
448,192,353660,1,0,0:0:0:0:
320,192,353660,1,0,0:0:0:0:
320,192,353760,1,0,0:0:0:0:
64,192,353860,1,0,0:0:0:0:
192,192,353860,1,0,0:0:0:0:
320,192,353960,1,0,0:0:0:0:
448,192,353960,1,0,0:0:0:0:
64,192,354060,1,0,0:0:0:0:
320,192,354160,1,0,0:0:0:0:
448,192,354160,1,0,0:0:0:0:
192,192,354260,1,0,0:0:0:0:
64,192,354260,1,0,0:0:0:0:
448,192,354360,1,0,0:0:0:0:
64,192,354460,1,0,0:0:0:0:
320,192,354560,1,0,0:0:0:0:
448,192,354660,1,0,0:0:0:0:
192,192,354660,1,0,0:0:0:0:
64,192,354760,1,0,0:0:0:0:
448,192,354860,1,0,0:0:0:0:
192,192,354960,1,0,0:0:0:0:
320,192,355060,1,0,0:0:0:0:
64,192,355060,1,0,0:0:0:0:
192,192,355160,1,0,0:0:0:0:
448,192,355260,1,0,0:0:0:0:
320,192,355260,1,0,0:0:0:0:
448,192,355360,1,0,0:0:0:0:
192,192,355460,1,0,0:0:0:0:
64,192,355460,1,0,0:0:0:0:
320,192,355560,1,0,0:0:0:0:
448,192,355560,1,0,0:0:0:0:
64,192,355660,1,0,0:0:0:0:
448,192,355760,1,0,0:0:0:0:
192,192,355760,1,0,0:0:0:0:
320,192,355860,1,0,0:0:0:0:
64,192,355860,128,0,356060:0:0:0:0:
192,192,355960,1,0,0:0:0:0:
448,192,356060,128,0,356160:0:0:0:0:
192,192,356160,1,0,0:0:0:0:
320,192,356210,1,0,0:0:0:0:
64,192,356260,1,0,0:0:0:0:
192,192,356260,1,0,0:0:0:0:
448,192,356260,1,0,0:0:0:0:
320,192,356460,1,0,0:0:0:0:
448,192,356560,1,0,0:0:0:0:
192,192,356660,1,0,0:0:0:0:
64,192,356660,1,0,0:0:0:0:
448,192,356860,1,0,0:0:0:0:
192,192,357060,1,0,0:0:0:0:
64,192,357060,1,0,0:0:0:0:
320,192,357160,1,0,0:0:0:0:
448,192,357160,1,0,0:0:0:0:
192,192,357260,1,0,0:0:0:0:
448,192,357360,1,0,0:0:0:0:
64,192,357360,1,0,0:0:0:0:
320,192,357460,1,0,0:0:0:0:
192,192,357460,1,0,0:0:0:0:
448,192,357660,1,0,0:0:0:0:
320,192,357710,1,0,0:0:0:0:
192,192,357760,1,0,0:0:0:0:
64,192,357810,1,0,0:0:0:0:
320,192,357860,1,0,0:0:0:0:
448,192,357860,1,0,0:0:0:0:
192,192,358060,1,0,0:0:0:0:
64,192,358160,1,0,0:0:0:0:
320,192,358260,1,0,0:0:0:0:
448,192,358260,1,0,0:0:0:0:
192,192,358460,1,0,0:0:0:0:
448,192,358660,1,0,0:0:0:0:
64,192,358660,1,0,0:0:0:0:
320,192,358760,1,0,0:0:0:0:
192,192,358760,1,0,0:0:0:0:
448,192,358860,1,0,0:0:0:0:
320,192,358960,1,0,0:0:0:0:
64,192,358960,1,0,0:0:0:0:
192,192,359060,1,0,0:0:0:0:
448,192,359060,1,0,0:0:0:0:
320,192,359260,1,0,0:0:0:0:
192,192,359310,1,0,0:0:0:0:
448,192,359360,1,0,0:0:0:0:
64,192,359410,1,0,0:0:0:0:
192,192,359460,1,0,0:0:0:0:
320,192,359460,1,0,0:0:0:0:
448,192,359660,1,0,0:0:0:0:
192,192,359760,1,0,0:0:0:0:
320,192,359860,1,0,0:0:0:0:
64,192,359860,1,0,0:0:0:0:
192,192,360060,1,0,0:0:0:0:
320,192,360260,1,0,0:0:0:0:
448,192,360260,1,0,0:0:0:0:
192,192,360360,1,0,0:0:0:0:
64,192,360360,1,0,0:0:0:0:
448,192,360460,1,0,0:0:0:0:
320,192,360560,1,0,0:0:0:0:
64,192,360560,1,0,0:0:0:0:
192,192,360660,1,0,0:0:0:0:
448,192,360660,1,0,0:0:0:0:
320,192,360860,1,0,0:0:0:0:
448,192,360910,1,0,0:0:0:0:
64,192,360960,1,0,0:0:0:0:
192,192,361010,1,0,0:0:0:0:
320,192,361060,1,0,0:0:0:0:
448,192,361060,1,0,0:0:0:0:
64,192,361260,1,0,0:0:0:0:
320,192,361360,1,0,0:0:0:0:
192,192,361460,1,0,0:0:0:0:
448,192,361460,1,0,0:0:0:0:
320,192,361660,1,0,0:0:0:0:
192,192,361860,1,0,0:0:0:0:
64,192,361860,1,0,0:0:0:0:
448,192,361960,1,0,0:0:0:0:
320,192,361960,1,0,0:0:0:0:
192,192,362060,1,0,0:0:0:0:
448,192,362160,1,0,0:0:0:0:
64,192,362160,1,0,0:0:0:0:
320,192,362260,1,0,0:0:0:0:
192,192,362260,128,0,362460:0:0:0:0:
320,192,362460,128,0,362660:0:0:0:0:
448,192,362460,1,0,0:0:0:0:
192,192,362660,1,0,0:0:0:0:
64,192,362660,1,0,0:0:0:0:
448,192,362860,1,0,0:0:0:0:
192,192,362960,1,0,0:0:0:0:
320,192,363060,1,0,0:0:0:0:
64,192,363060,1,0,0:0:0:0:
448,192,363260,1,0,0:0:0:0:
320,192,363460,1,0,0:0:0:0:
64,192,363460,1,0,0:0:0:0:
192,192,363560,1,0,0:0:0:0:
448,192,363560,1,0,0:0:0:0:
320,192,363660,1,0,0:0:0:0:
192,192,363760,1,0,0:0:0:0:
64,192,363760,1,0,0:0:0:0:
448,192,363860,1,0,0:0:0:0:
320,192,363860,1,0,0:0:0:0:
64,192,364060,1,0,0:0:0:0:
192,192,364110,1,0,0:0:0:0:
448,192,364160,1,0,0:0:0:0:
320,192,364210,1,0,0:0:0:0:
192,192,364260,1,0,0:0:0:0:
64,192,364260,1,0,0:0:0:0:
448,192,364460,1,0,0:0:0:0:
320,192,364560,1,0,0:0:0:0:
192,192,364660,1,0,0:0:0:0:
64,192,364660,1,0,0:0:0:0:
320,192,364860,1,0,0:0:0:0:
448,192,365060,1,0,0:0:0:0:
64,192,365060,1,0,0:0:0:0:
192,192,365160,1,0,0:0:0:0:
320,192,365160,1,0,0:0:0:0:
448,192,365260,1,0,0:0:0:0:
320,192,365360,1,0,0:0:0:0:
64,192,365360,1,0,0:0:0:0:
192,192,365460,1,0,0:0:0:0:
448,192,365460,1,0,0:0:0:0:
320,192,365660,1,0,0:0:0:0:
64,192,365710,1,0,0:0:0:0:
448,192,365760,1,0,0:0:0:0:
192,192,365810,1,0,0:0:0:0:
320,192,365860,1,0,0:0:0:0:
64,192,365860,1,0,0:0:0:0:
192,192,366060,1,0,0:0:0:0:
64,192,366160,1,0,0:0:0:0:
320,192,366260,1,0,0:0:0:0:
448,192,366260,1,0,0:0:0:0:
192,192,366460,1,0,0:0:0:0:
64,192,366660,1,0,0:0:0:0:
320,192,366660,1,0,0:0:0:0:
192,192,366760,1,0,0:0:0:0:
448,192,366760,1,0,0:0:0:0:
64,192,366860,1,0,0:0:0:0:
320,192,366960,1,0,0:0:0:0:
448,192,366960,1,0,0:0:0:0:
192,192,367060,1,0,0:0:0:0:
64,192,367060,1,0,0:0:0:0:
448,192,367260,1,0,0:0:0:0:
64,192,367310,1,0,0:0:0:0:
320,192,367360,1,0,0:0:0:0:
192,192,367410,1,0,0:0:0:0:
64,192,367460,1,0,0:0:0:0:
448,192,367460,1,0,0:0:0:0:
320,192,367560,1,0,0:0:0:0:
192,192,367560,1,0,0:0:0:0:
192,192,367660,1,0,0:0:0:0:
64,192,367660,1,0,0:0:0:0:
320,192,367760,1,0,0:0:0:0:
448,192,367760,1,0,0:0:0:0:
64,192,367860,1,0,0:0:0:0:
320,192,367860,1,0,0:0:0:0:
192,192,367960,1,0,0:0:0:0:
448,192,367960,1,0,0:0:0:0:
448,192,368060,1,0,0:0:0:0:
320,192,368060,1,0,0:0:0:0:
192,192,368160,1,0,0:0:0:0:
64,192,368160,1,0,0:0:0:0:
448,192,368210,1,0,0:0:0:0:
320,192,368210,1,0,0:0:0:0:
192,192,368260,1,0,0:0:0:0:
64,192,368260,1,0,0:0:0:0:
448,192,368360,1,0,0:0:0:0:
320,192,368360,1,0,0:0:0:0:
64,192,368460,1,0,0:0:0:0:
448,192,368460,1,0,0:0:0:0:
320,192,368560,1,0,0:0:0:0:
192,192,368560,1,0,0:0:0:0:
448,192,368660,1,0,0:0:0:0:
192,192,368660,1,0,0:0:0:0:
64,192,368760,1,0,0:0:0:0:
320,192,368760,1,0,0:0:0:0:
64,192,368860,1,0,0:0:0:0:
192,192,368860,1,0,0:0:0:0:
320,192,368910,1,0,0:0:0:0:
448,192,368910,1,0,0:0:0:0:
192,192,368960,1,0,0:0:0:0:
64,192,368960,1,0,0:0:0:0:
320,192,369010,1,0,0:0:0:0:
64,192,369060,128,0,370460:0:0:0:0:
192,192,369060,128,0,370460:0:0:0:0:
448,192,369060,128,0,370460:0:0:0:0:
320,192,370460,1,0,0:0:0:0:
