osu file format v14

[General]
AudioFilename: audio.mp3
AudioLeadIn: 0
PreviewTime: 36019
Countdown: 0
SampleSet: Soft
StackLeniency: 0.7
Mode: 3
LetterboxInBreaks: 0
SpecialStyle: 0
WidescreenStoryboard: 0

[Editor]
Bookmarks: 8591,22306,63449,104591
DistanceSpacing: 1.2
BeatDivisor: 3
GridSize: 32
TimelineZoom: 1.98

[Metadata]
Title:EternuS
TitleUnicode:EternuS
Artist:Sanxion7
ArtistUnicode:Sanxion7
Creator:riunosk
Version:Timeless
Source:
Tags:epic trance DanceDanceRevolution DDR SuperNOVA 2 Pump_It_Up PIU PRO
BeatmapID:2176549
BeatmapSetID:1041386

[Difficulty]
HPDrainRate:9
CircleSize:4
OverallDifficulty:7.7
ApproachRate:5
SliderMultiplier:1.4
SliderTickRate:1

[Events]
//Background and Video events
0,0,"eternus.jpg",0,0
//Break Periods
//Storyboard Layer 0 (Background)
//Storyboard Layer 1 (Fail)
//Storyboard Layer 2 (Pass)
//Storyboard Layer 3 (Foreground)
//Storyboard Layer 4 (Overlay)
//Storyboard Sound Samples
Sample,8591,0,"fiinish.wav",100

[TimingPoints]
1734,428.571428571429,4,2,1,40,1,0
36020,-100,4,2,1,40,0,1
90877,-100,4,2,1,40,0,0

[HitObjects]
320,192,1163,5,0,0:0:0:0:
320,192,1306,1,0,0:0:0:0:
448,192,1306,1,0,0:0:0:0:
64,192,1449,1,0,0:0:0:0:
192,192,1449,1,0,0:0:0:0:
64,192,1591,1,0,0:0:0:0:
192,192,1591,1,0,0:0:0:0:
64,192,1734,1,0,0:0:0:70:kiick.wav
192,192,1734,1,0,0:0:0:100:fiinish.wav
320,192,1734,1,0,0:0:0:0:
448,192,1734,1,0,0:0:0:0:
320,192,1877,1,0,0:0:0:0:
448,192,1877,1,0,0:0:0:0:
64,192,2020,1,0,0:0:0:0:
192,192,2020,1,0,0:0:0:0:
64,192,2163,1,0,0:0:0:70:kiick.wav
320,192,2163,1,0,0:0:0:50:snehh.wav
448,192,2163,1,0,0:0:0:0:
192,192,2306,1,0,0:0:0:0:
320,192,2306,1,0,0:0:0:0:
64,192,2449,1,0,0:0:0:0:
192,192,2449,1,0,0:0:0:0:
64,192,2591,1,0,0:0:0:70:kiick.wav
320,192,2591,1,0,0:0:0:0:
448,192,2591,1,0,0:0:0:0:
192,192,2734,1,0,0:0:0:0:
448,192,2734,1,0,0:0:0:0:
64,192,2877,1,0,0:0:0:0:
320,192,2877,1,0,0:0:0:0:
192,192,3020,1,0,0:0:0:70:kiick.wav
320,192,3020,1,0,0:0:0:50:snehh.wav
448,192,3020,1,0,0:0:0:0:
64,192,3163,1,0,0:0:0:0:
448,192,3163,1,0,0:0:0:0:
192,192,3306,1,0,0:0:0:0:
320,192,3306,1,0,0:0:0:0:
64,192,3449,1,0,0:0:0:70:kiick.wav
192,192,3449,1,0,0:0:0:0:
448,192,3449,1,0,0:0:0:0:
64,192,3591,1,0,0:0:0:0:
320,192,3591,1,0,0:0:0:0:
192,192,3734,1,0,0:0:0:0:
448,192,3734,1,0,0:0:0:0:
64,192,3877,1,0,0:0:0:70:kiick.wav
320,192,3877,1,0,0:0:0:50:snehh.wav
448,192,3877,1,0,0:0:0:0:
192,192,4020,1,0,0:0:0:0:
320,192,4020,1,0,0:0:0:0:
64,192,4163,1,0,0:0:0:0:
192,192,4163,1,0,0:0:0:0:
64,192,4306,1,0,0:0:0:70:kiick.wav
320,192,4306,1,0,0:0:0:0:
448,192,4306,1,0,0:0:0:0:
192,192,4449,1,0,0:0:0:0:
448,192,4449,1,0,0:0:0:0:
64,192,4591,1,0,0:0:0:0:
320,192,4591,1,0,0:0:0:0:
64,192,4734,1,0,0:0:0:70:kiick.wav
192,192,4734,1,0,0:0:0:50:snehh.wav
320,192,4734,1,0,0:0:0:0:
192,192,4877,1,0,0:0:0:0:
448,192,4877,1,0,0:0:0:0:
320,192,5020,1,0,0:0:0:0:
448,192,5020,1,0,0:0:0:0:
64,192,5163,1,0,0:0:0:70:kiick.wav
192,192,5163,1,0,0:0:0:20:tsh.wav
320,192,5163,1,0,0:0:0:0:
64,192,5306,1,0,0:0:0:20:tsh.wav
448,192,5306,1,0,0:0:0:0:
192,192,5449,1,0,0:0:0:20:tsh.wav
320,192,5449,1,0,0:0:0:0:
64,192,5591,1,0,0:0:0:70:kiick.wav
320,192,5591,1,0,0:0:0:50:snehh.wav
448,192,5591,1,0,0:0:0:20:tsh.wav
64,192,5734,1,0,0:0:0:20:tsh.wav
192,192,5734,1,0,0:0:0:0:
192,192,5877,1,0,0:0:0:20:tsh.wav
448,192,5877,1,0,0:0:0:0:
64,192,6020,1,0,0:0:0:70:kiick.wav
320,192,6020,1,0,0:0:0:20:tsh.wav
448,192,6020,1,0,0:0:0:0:
192,192,6163,1,0,0:0:0:20:tsh.wav
320,192,6163,1,0,0:0:0:0:
64,192,6306,1,0,0:0:0:20:tsh.wav
192,192,6306,1,0,0:0:0:0:
64,192,6449,1,0,0:0:0:70:kiick.wav
320,192,6449,1,0,0:0:0:50:snehh.wav
448,192,6449,1,0,0:0:0:20:tsh.wav
192,192,6591,1,0,0:0:0:20:tsh.wav
448,192,6591,1,0,0:0:0:0:
64,192,6734,1,0,0:0:0:20:tsh.wav
192,192,6734,1,0,0:0:0:0:
64,192,6877,1,0,0:0:0:70:kiick.wav
320,192,6877,1,0,0:0:0:25:tsh.wav
448,192,6877,1,0,0:0:0:0:
192,192,7020,1,0,0:0:0:25:tsh.wav
448,192,7020,1,0,0:0:0:0:
320,192,7163,1,0,0:0:0:25:tsh.wav
448,192,7163,1,0,0:0:0:0:
64,192,7306,1,0,0:0:0:70:kiick.wav
192,192,7306,1,0,0:0:0:50:snehh.wav
448,192,7306,1,0,0:0:0:25:tsh.wav
64,192,7449,1,0,0:0:0:25:tsh.wav
320,192,7449,1,0,0:0:0:0:
64,192,7591,1,0,0:0:0:25:tsh.wav
192,192,7591,1,0,0:0:0:0:
64,192,7734,1,0,0:0:0:70:kiick.wav
320,192,7734,1,0,0:0:0:25:tsh.wav
448,192,7734,1,0,0:0:0:0:
192,192,7877,1,0,0:0:0:25:tsh.wav
448,192,7877,1,0,0:0:0:0:
320,192,8020,1,0,0:0:0:25:tsh.wav
448,192,8020,1,0,0:0:0:0:
64,192,8163,1,0,0:0:0:30:tsh.wav
192,192,8163,1,0,0:0:0:0:
320,192,8234,1,0,0:0:0:30:tsh.wav
448,192,8234,1,0,0:0:0:0:
64,192,8306,1,0,0:0:0:70:kiick.wav
192,192,8306,1,0,0:0:0:30:tsh.wav
320,192,8377,1,0,0:0:0:30:tsh.wav
448,192,8377,1,0,0:0:0:0:
64,192,8449,1,0,0:0:0:70:kiick.wav
192,192,8449,1,0,0:0:0:30:tsh.wav
320,192,8520,1,0,0:0:0:30:tsh.wav
448,192,8520,1,0,0:0:0:0:
64,192,8591,1,0,0:0:0:70:kiick.wav
192,192,8591,128,0,9020:0:0:0:30:tsh.wav
64,192,9020,128,0,9449:0:0:0:0:
192,192,9449,128,0,9877:0:0:0:0:
320,192,9877,128,0,10306:0:0:0:0:
448,192,10306,128,0,10734:0:0:0:0:
192,192,10734,128,0,11163:0:0:0:0:
320,192,11163,128,0,11591:0:0:0:0:
448,192,11591,128,0,11877:0:0:0:0:
320,192,11877,128,0,12020:0:0:0:0:
448,192,12020,128,0,12449:0:0:0:0:
192,192,12449,128,0,12877:0:0:0:0:
448,192,12877,128,0,13306:0:0:0:0:
320,192,13306,128,0,13734:0:0:0:0:
192,192,13734,128,0,14163:0:0:0:0:
320,192,14163,128,0,14591:0:0:0:0:
192,192,14591,128,0,15020:0:0:0:0:
320,192,15020,128,0,15163:0:0:0:0:
448,192,15163,128,0,15306:0:0:0:0:
192,192,15306,128,0,15449:0:0:0:0:
320,192,15449,128,0,15877:0:0:0:0:
192,192,15877,128,0,16306:0:0:0:0:
64,192,16306,128,0,16734:0:0:0:0:
320,192,16734,128,0,16877:0:0:0:0:
448,192,16877,128,0,17020:0:0:0:0:
192,192,17020,128,0,17163:0:0:0:0:
64,192,17163,128,0,17591:0:0:0:0:
192,192,17591,128,0,18020:0:0:0:0:
320,192,18020,128,0,18449:0:0:0:0:
448,192,18449,128,0,18734:0:0:0:0:
320,192,18734,128,0,18877:0:0:0:0:
192,192,18877,128,0,19306:0:0:0:0:
64,192,19306,128,0,19734:0:0:0:0:
448,192,19734,128,0,20163:0:0:0:0:
320,192,20163,128,0,20591:0:0:0:0:
192,192,20591,1,0,0:0:0:0:
64,192,20734,1,0,0:0:0:0:
192,192,20877,1,0,0:0:0:0:
320,192,21020,1,0,0:0:0:0:
64,192,21163,1,0,0:0:0:0:
192,192,21306,1,0,0:0:0:0:
320,192,21449,1,0,0:0:0:0:
192,192,21591,1,0,0:0:0:0:
320,192,21734,1,0,0:0:0:0:
64,192,21877,1,0,0:0:0:30:tsh.wav
192,192,21877,1,0,0:0:0:0:
320,192,21949,1,0,0:0:0:30:tsh.wav
448,192,21949,1,0,0:0:0:0:
64,192,22020,1,0,0:0:0:30:tsh.wav
192,192,22020,1,0,0:0:0:0:
320,192,22091,1,0,0:0:0:30:tsh.wav
448,192,22091,1,0,0:0:0:0:
64,192,22163,1,0,0:0:0:30:tsh.wav
192,192,22163,1,0,0:0:0:0:
320,192,22234,1,0,0:0:0:30:tsh.wav
64,192,22306,1,0,0:0:0:70:kiick.wav
192,192,22306,128,0,22734:0:0:0:30:tsh.wav
448,192,22306,1,0,0:0:0:100:fiinish.wav
320,192,22591,128,0,22734:0:0:0:0:
64,192,22734,128,0,23163:0:0:0:0:
192,192,23163,128,0,23591:0:0:0:0:
320,192,23591,128,0,24020:0:0:0:0:
448,192,24020,128,0,24449:0:0:0:0:
320,192,24306,128,0,24449:0:0:0:0:
192,192,24449,128,0,24877:0:0:0:0:
320,192,24877,128,0,25306:0:0:0:0:
448,192,25306,128,0,25591:0:0:0:0:
192,192,25591,128,0,25734:0:0:0:0:
64,192,25734,1,0,0:0:0:70:kiick.wav
320,192,25734,1,0,0:0:0:100:fiinish.wav
448,192,25734,128,0,26163:0:0:0:0:
320,192,26020,128,0,26163:0:0:0:0:
192,192,26163,128,0,26591:0:0:0:0:
448,192,26591,128,0,27020:0:0:0:0:
192,192,27020,128,0,27449:0:0:0:0:
320,192,27449,128,0,27877:0:0:0:0:
192,192,27877,128,0,28306:0:0:0:0:
64,192,28306,128,0,28734:0:0:0:0:
320,192,28734,128,0,28877:0:0:0:0:
448,192,28877,128,0,29020:0:0:0:0:
192,192,29020,128,0,29163:0:0:0:0:
64,192,29163,1,0,0:0:0:70:kiick.wav
320,192,29163,1,0,0:0:0:20:tsh.wav
448,192,29163,128,0,29591:0:0:0:100:fiinish.wav
192,192,29449,128,0,29591:0:0:0:20:tsh.wav
320,192,29591,128,0,30020:0:0:0:20:tsh.wav
192,192,30020,128,0,30449:0:0:0:20:tsh.wav
320,192,30449,128,0,30591:0:0:0:20:tsh.wav
448,192,30591,128,0,30734:0:0:0:20:tsh.wav
192,192,30734,128,0,30877:0:0:0:20:tsh.wav
64,192,30877,128,0,31306:0:0:0:70:kiick.wav
320,192,30877,1,0,0:0:0:20:tsh.wav
448,192,30877,1,0,0:0:0:100:fiinish.wav
320,192,31163,128,0,31306:0:0:0:20:tsh.wav
192,192,31306,128,0,31734:0:0:0:20:tsh.wav
320,192,31734,128,0,32163:0:0:0:20:tsh.wav
448,192,32163,128,0,32449:0:0:0:20:tsh.wav
320,192,32449,128,0,32591:0:0:0:20:tsh.wav
64,192,32591,1,0,0:0:0:70:kiick.wav
192,192,32591,128,0,33020:0:0:0:20:tsh.wav
448,192,32591,1,0,0:0:0:100:fiinish.wav
320,192,32877,128,0,33020:0:0:0:20:tsh.wav
64,192,33020,128,0,33449:0:0:0:20:tsh.wav
448,192,33449,128,0,33877:0:0:0:20:tsh.wav
320,192,33877,128,0,34306:0:0:0:20:tsh.wav
64,192,34306,1,0,0:0:0:70:kiick.wav
192,192,34306,1,0,0:0:0:25:tsh.wav
448,192,34306,128,0,34449:0:0:0:100:fiinish.wav
320,192,34449,128,0,34591:0:0:0:25:tsh.wav
192,192,34591,128,0,34734:0:0:0:25:tsh.wav
448,192,34734,128,0,34877:0:0:0:25:tsh.wav
64,192,34877,128,0,35020:0:0:0:25:tsh.wav
192,192,35020,128,0,35163:0:0:0:25:tsh.wav
448,192,35163,128,0,35306:0:0:0:25:tsh.wav
320,192,35306,128,0,35449:0:0:0:25:tsh.wav
192,192,35449,128,0,35591:0:0:0:25:tsh.wav
320,192,35591,1,0,0:0:0:30:tsh.wav
448,192,35591,1,0,0:0:0:0:
64,192,35663,1,0,0:0:0:30:tsh.wav
192,192,35663,1,0,0:0:0:0:
320,192,35734,1,0,0:0:0:30:tsh.wav
448,192,35734,1,0,0:0:0:0:
64,192,35806,1,0,0:0:0:30:tsh.wav
192,192,35806,1,0,0:0:0:0:
320,192,35877,1,0,0:0:0:30:tsh.wav
448,192,35877,1,0,0:0:0:0:
192,192,35949,1,0,0:0:0:30:tsh.wav
64,192,36020,1,0,0:0:0:70:kiick.wav
320,192,36020,1,0,0:0:0:30:tsh.wav
448,192,36020,1,0,0:0:0:100:fiinish.wav
64,192,36163,1,0,0:0:0:0:
320,192,36306,1,0,0:0:0:0:
448,192,36306,1,0,0:0:0:0:
64,192,36449,1,0,0:0:0:70:kiick.wav
192,192,36449,1,0,0:0:0:50:snehh.wav
320,192,36449,1,0,0:0:0:0:
448,192,36449,1,0,0:0:0:0:
64,192,36591,1,0,0:0:0:0:
192,192,36591,1,0,0:0:0:0:
320,192,36734,1,0,0:0:0:0:
448,192,36734,1,0,0:0:0:0:
64,192,36877,1,0,0:0:0:70:kiick.wav
192,192,36877,1,0,0:0:0:0:
448,192,36877,1,0,0:0:0:0:
64,192,37020,1,0,0:0:0:0:
192,192,37163,1,0,0:0:0:0:
320,192,37163,1,0,0:0:0:0:
64,192,37306,1,0,0:0:0:70:kiick.wav
192,192,37306,1,0,0:0:0:50:snehh.wav
320,192,37306,1,0,0:0:0:0:
448,192,37306,1,0,0:0:0:0:
64,192,37449,1,0,0:0:0:0:
448,192,37449,1,0,0:0:0:0:
192,192,37591,1,0,0:0:0:0:
320,192,37591,1,0,0:0:0:0:
64,192,37734,1,0,0:0:0:70:kiick.wav
192,192,37734,1,0,0:0:0:0:
448,192,37734,1,0,0:0:0:0:
448,192,37877,1,0,0:0:0:0:
64,192,38020,1,0,0:0:0:0:
192,192,38020,1,0,0:0:0:0:
64,192,38163,1,0,0:0:0:70:kiick.wav
192,192,38163,1,0,0:0:0:50:snehh.wav
320,192,38163,1,0,0:0:0:0:
448,192,38163,1,0,0:0:0:0:
320,192,38306,1,0,0:0:0:0:
448,192,38306,1,0,0:0:0:0:
64,192,38449,1,0,0:0:0:0:
192,192,38449,1,0,0:0:0:0:
64,192,38591,1,0,0:0:0:70:kiick.wav
320,192,38591,1,0,0:0:0:0:
448,192,38591,1,0,0:0:0:0:
320,192,38734,1,0,0:0:0:0:
192,192,38877,1,0,0:0:0:0:
448,192,38877,1,0,0:0:0:0:
64,192,39020,1,0,0:0:0:70:kiick.wav
192,192,39020,1,0,0:0:0:50:snehh.wav
320,192,39020,1,0,0:0:0:0:
448,192,39020,1,0,0:0:0:0:
64,192,39163,1,0,0:0:0:0:
320,192,39163,1,0,0:0:0:0:
192,192,39306,1,0,0:0:0:0:
448,192,39306,1,0,0:0:0:0:
64,192,39449,1,0,0:0:0:70:kiick.wav
320,192,39449,1,0,0:0:0:0:
448,192,39449,1,0,0:0:0:0:
64,192,39591,1,0,0:0:0:0:
320,192,39734,1,0,0:0:0:0:
448,192,39734,1,0,0:0:0:0:
64,192,39877,1,0,0:0:0:70:kiick.wav
192,192,39877,1,0,0:0:0:50:snehh.wav
320,192,39877,1,0,0:0:0:0:
448,192,39877,1,0,0:0:0:0:
64,192,40020,1,0,0:0:0:0:
192,192,40020,1,0,0:0:0:0:
320,192,40163,1,0,0:0:0:0:
448,192,40163,1,0,0:0:0:0:
64,192,40306,1,0,0:0:0:70:kiick.wav
192,192,40306,1,0,0:0:0:0:
320,192,40306,1,0,0:0:0:0:
64,192,40449,1,0,0:0:0:0:
192,192,40591,1,0,0:0:0:0:
320,192,40591,1,0,0:0:0:0:
64,192,40734,1,0,0:0:0:70:kiick.wav
192,192,40734,1,0,0:0:0:50:snehh.wav
320,192,40734,1,0,0:0:0:0:
448,192,40734,1,0,0:0:0:0:
64,192,40877,1,0,0:0:0:0:
448,192,40877,1,0,0:0:0:0:
192,192,41020,1,0,0:0:0:0:
320,192,41020,1,0,0:0:0:0:
64,192,41163,1,0,0:0:0:70:kiick.wav
320,192,41163,1,0,0:0:0:0:
448,192,41163,1,0,0:0:0:0:
64,192,41306,1,0,0:0:0:0:
192,192,41449,1,0,0:0:0:0:
448,192,41449,1,0,0:0:0:0:
64,192,41591,1,0,0:0:0:70:kiick.wav
192,192,41591,1,0,0:0:0:50:snehh.wav
320,192,41591,1,0,0:0:0:0:
448,192,41591,1,0,0:0:0:0:
64,192,41734,1,0,0:0:0:0:
320,192,41734,1,0,0:0:0:0:
192,192,41877,1,0,0:0:0:0:
448,192,41877,1,0,0:0:0:0:
64,192,42020,1,0,0:0:0:70:kiick.wav
320,192,42020,1,0,0:0:0:0:
448,192,42020,1,0,0:0:0:0:
320,192,42163,1,0,0:0:0:0:
192,192,42306,1,0,0:0:0:0:
448,192,42306,1,0,0:0:0:0:
64,192,42449,1,0,0:0:0:70:kiick.wav
192,192,42449,1,0,0:0:0:50:snehh.wav
320,192,42449,1,0,0:0:0:0:
448,192,42449,1,0,0:0:0:0:
64,192,42591,1,0,0:0:0:0:
320,192,42591,1,0,0:0:0:0:
192,192,42734,1,0,0:0:0:0:
448,192,42734,1,0,0:0:0:0:
64,192,42877,1,0,0:0:0:70:kiick.wav
320,192,42877,1,0,0:0:0:0:
448,192,42877,1,0,0:0:0:0:
320,192,43020,1,0,0:0:0:0:
64,192,43163,1,0,0:0:0:0:
192,192,43163,1,0,0:0:0:0:
64,192,43306,1,0,0:0:0:70:kiick.wav
192,192,43306,1,0,0:0:0:50:snehh.wav
320,192,43306,1,0,0:0:0:0:
448,192,43306,1,0,0:0:0:0:
320,192,43449,1,0,0:0:0:0:
448,192,43449,1,0,0:0:0:0:
64,192,43591,1,0,0:0:0:0:
192,192,43591,1,0,0:0:0:0:
192,192,43734,1,0,0:0:0:70:kiick.wav
320,192,43734,1,0,0:0:0:0:
448,192,43734,1,0,0:0:0:0:
448,192,43877,1,0,0:0:0:0:
64,192,44020,1,0,0:0:0:0:
320,192,44020,1,0,0:0:0:0:
64,192,44163,1,0,0:0:0:70:kiick.wav
192,192,44163,1,0,0:0:0:50:snehh.wav
320,192,44163,1,0,0:0:0:0:
448,192,44163,1,0,0:0:0:0:
192,192,44306,1,0,0:0:0:0:
448,192,44306,1,0,0:0:0:0:
64,192,44449,1,0,0:0:0:0:
320,192,44449,1,0,0:0:0:0:
64,192,44591,1,0,0:0:0:70:kiick.wav
192,192,44591,1,0,0:0:0:0:
448,192,44591,1,0,0:0:0:0:
448,192,44734,1,0,0:0:0:0:
64,192,44877,1,0,0:0:0:0:
192,192,44877,1,0,0:0:0:0:
64,192,45020,1,0,0:0:0:70:kiick.wav
192,192,45020,1,0,0:0:0:50:snehh.wav
320,192,45020,1,0,0:0:0:0:
448,192,45020,1,0,0:0:0:0:
320,192,45163,1,0,0:0:0:0:
448,192,45163,1,0,0:0:0:0:
64,192,45306,1,0,0:0:0:0:
192,192,45306,1,0,0:0:0:0:
64,192,45449,1,0,0:0:0:70:kiick.wav
320,192,45449,1,0,0:0:0:0:
448,192,45449,1,0,0:0:0:0:
448,192,45591,1,0,0:0:0:0:
64,192,45734,1,0,0:0:0:0:
320,192,45734,1,0,0:0:0:0:
64,192,45877,1,0,0:0:0:70:kiick.wav
192,192,45877,1,0,0:0:0:50:snehh.wav
320,192,45877,1,0,0:0:0:0:
448,192,45877,1,0,0:0:0:0:
192,192,46020,1,0,0:0:0:0:
448,192,46020,1,0,0:0:0:0:
64,192,46163,1,0,0:0:0:0:
320,192,46163,1,0,0:0:0:0:
192,192,46306,1,0,0:0:0:70:kiick.wav
320,192,46306,1,0,0:0:0:0:
448,192,46306,1,0,0:0:0:0:
192,192,46449,1,0,0:0:0:0:
320,192,46591,1,0,0:0:0:0:
448,192,46591,1,0,0:0:0:0:
64,192,46734,1,0,0:0:0:70:kiick.wav
192,192,46734,1,0,0:0:0:50:snehh.wav
320,192,46734,1,0,0:0:0:0:
448,192,46734,1,0,0:0:0:0:
64,192,46877,1,0,0:0:0:0:
192,192,46877,1,0,0:0:0:0:
320,192,47020,1,0,0:0:0:0:
448,192,47020,1,0,0:0:0:0:
64,192,47163,1,0,0:0:0:70:kiick.wav
192,192,47163,1,0,0:0:0:0:
448,192,47163,1,0,0:0:0:0:
192,192,47306,1,0,0:0:0:0:
64,192,47449,1,0,0:0:0:0:
320,192,47449,1,0,0:0:0:0:
64,192,47591,1,0,0:0:0:70:kiick.wav
192,192,47591,1,0,0:0:0:50:snehh.wav
320,192,47591,1,0,0:0:0:0:
448,192,47591,1,0,0:0:0:0:
192,192,47734,1,0,0:0:0:0:
448,192,47734,1,0,0:0:0:0:
64,192,47877,1,0,0:0:0:0:
320,192,47877,1,0,0:0:0:0:
192,192,48020,1,0,0:0:0:70:kiick.wav
320,192,48020,1,0,0:0:0:0:
448,192,48020,1,0,0:0:0:0:
448,192,48163,1,0,0:0:0:0:
64,192,48306,1,0,0:0:0:0:
192,192,48306,1,0,0:0:0:0:
64,192,48449,1,0,0:0:0:70:kiick.wav
192,192,48449,1,0,0:0:0:50:snehh.wav
320,192,48449,1,0,0:0:0:0:
448,192,48449,1,0,0:0:0:0:
320,192,48591,1,0,0:0:0:0:
448,192,48591,1,0,0:0:0:0:
64,192,48734,1,0,0:0:0:0:
192,192,48734,1,0,0:0:0:0:
64,192,48877,1,0,0:0:0:70:kiick.wav
320,192,48877,1,0,0:0:0:0:
448,192,48877,1,0,0:0:0:0:
320,192,49020,1,0,0:0:0:0:
192,192,49163,1,0,0:0:0:0:
448,192,49163,1,0,0:0:0:0:
64,192,49306,1,0,0:0:0:70:kiick.wav
192,192,49306,1,0,0:0:0:50:snehh.wav
320,192,49306,1,0,0:0:0:0:
448,192,49306,1,0,0:0:0:0:
64,192,49449,1,0,0:0:0:0:
320,192,49449,1,0,0:0:0:0:
64,192,49591,1,0,0:0:0:70:kiick.wav
192,192,49591,1,0,0:0:0:0:
448,192,49591,1,0,0:0:0:0:
64,192,49734,1,0,0:0:0:70:kiick.wav
192,192,49734,1,0,0:0:0:100:fiinish.wav
320,192,49734,1,0,0:0:0:0:
448,192,49734,1,0,0:0:0:0:
320,192,49877,1,0,0:0:0:0:
64,192,50020,1,0,0:0:0:0:
192,192,50020,1,0,0:0:0:0:
64,192,50163,1,0,0:0:0:70:kiick.wav
192,192,50163,1,0,0:0:0:50:snehh.wav
320,192,50163,1,0,0:0:0:0:
448,192,50163,1,0,0:0:0:0:
320,192,50306,1,0,0:0:0:0:
448,192,50306,1,0,0:0:0:0:
64,192,50449,1,0,0:0:0:0:
192,192,50449,1,0,0:0:0:0:
64,192,50591,1,0,0:0:0:70:kiick.wav
320,192,50591,1,0,0:0:0:0:
448,192,50591,1,0,0:0:0:0:
320,192,50734,1,0,0:0:0:0:
192,192,50877,1,0,0:0:0:0:
448,192,50877,1,0,0:0:0:0:
64,192,51020,1,0,0:0:0:70:kiick.wav
192,192,51020,1,0,0:0:0:50:snehh.wav
320,192,51020,1,0,0:0:0:0:
448,192,51020,1,0,0:0:0:0:
64,192,51163,1,0,0:0:0:0:
320,192,51163,1,0,0:0:0:0:
192,192,51306,1,0,0:0:0:0:
448,192,51306,1,0,0:0:0:0:
64,192,51449,1,0,0:0:0:70:kiick.wav
320,192,51449,1,0,0:0:0:0:
448,192,51449,1,0,0:0:0:0:
64,192,51591,1,0,0:0:0:0:
192,192,51734,1,0,0:0:0:0:
320,192,51734,1,0,0:0:0:0:
64,192,51877,1,0,0:0:0:70:kiick.wav
192,192,51877,1,0,0:0:0:50:snehh.wav
320,192,51877,1,0,0:0:0:0:
448,192,51877,1,0,0:0:0:0:
64,192,52020,1,0,0:0:0:0:
448,192,52020,1,0,0:0:0:0:
192,192,52163,1,0,0:0:0:0:
320,192,52163,1,0,0:0:0:0:
64,192,52306,1,0,0:0:0:70:kiick.wav
320,192,52306,1,0,0:0:0:0:
448,192,52306,1,0,0:0:0:0:
64,192,52449,1,0,0:0:0:0:
192,192,52591,1,0,0:0:0:0:
448,192,52591,1,0,0:0:0:0:
64,192,52734,1,0,0:0:0:70:kiick.wav
192,192,52734,1,0,0:0:0:50:snehh.wav
320,192,52734,1,0,0:0:0:0:
448,192,52734,1,0,0:0:0:0:
64,192,52877,1,0,0:0:0:0:
320,192,52877,1,0,0:0:0:0:
192,192,53020,1,0,0:0:0:0:
448,192,53020,1,0,0:0:0:0:
64,192,53163,1,0,0:0:0:70:kiick.wav
192,192,53163,1,0,0:0:0:0:
320,192,53163,1,0,0:0:0:0:
64,192,53306,1,0,0:0:0:0:
320,192,53449,1,0,0:0:0:0:
448,192,53449,1,0,0:0:0:0:
64,192,53591,1,0,0:0:0:70:kiick.wav
192,192,53591,1,0,0:0:0:50:snehh.wav
320,192,53591,1,0,0:0:0:0:
448,192,53591,1,0,0:0:0:0:
64,192,53734,1,0,0:0:0:0:
192,192,53734,1,0,0:0:0:0:
320,192,53877,1,0,0:0:0:0:
448,192,53877,1,0,0:0:0:0:
64,192,54020,1,0,0:0:0:70:kiick.wav
192,192,54020,1,0,0:0:0:0:
448,192,54020,1,0,0:0:0:0:
192,192,54163,1,0,0:0:0:0:
64,192,54306,1,0,0:0:0:0:
320,192,54306,1,0,0:0:0:0:
64,192,54449,1,0,0:0:0:70:kiick.wav
192,192,54449,1,0,0:0:0:50:snehh.wav
320,192,54449,1,0,0:0:0:0:
448,192,54449,1,0,0:0:0:0:
192,192,54591,1,0,0:0:0:0:
448,192,54591,1,0,0:0:0:0:
64,192,54734,1,0,0:0:0:0:
320,192,54734,1,0,0:0:0:0:
192,192,54877,1,0,0:0:0:70:kiick.wav
320,192,54877,1,0,0:0:0:0:
448,192,54877,1,0,0:0:0:0:
448,192,55020,1,0,0:0:0:0:
64,192,55163,1,0,0:0:0:0:
192,192,55163,1,0,0:0:0:0:
64,192,55306,1,0,0:0:0:70:kiick.wav
192,192,55306,1,0,0:0:0:50:snehh.wav
320,192,55306,1,0,0:0:0:0:
448,192,55306,1,0,0:0:0:0:
320,192,55449,1,0,0:0:0:0:
448,192,55449,1,0,0:0:0:0:
64,192,55591,1,0,0:0:0:0:
192,192,55591,1,0,0:0:0:0:
192,192,55734,1,0,0:0:0:70:kiick.wav
320,192,55734,1,0,0:0:0:0:
448,192,55734,1,0,0:0:0:0:
448,192,55877,1,0,0:0:0:0:
64,192,56020,1,0,0:0:0:0:
320,192,56020,1,0,0:0:0:0:
64,192,56163,1,0,0:0:0:70:kiick.wav
192,192,56163,1,0,0:0:0:50:snehh.wav
320,192,56163,1,0,0:0:0:0:
448,192,56163,1,0,0:0:0:0:
192,192,56306,1,0,0:0:0:0:
448,192,56306,1,0,0:0:0:0:
64,192,56449,1,0,0:0:0:0:
320,192,56449,1,0,0:0:0:0:
64,192,56591,1,0,0:0:0:70:kiick.wav
192,192,56591,1,0,0:0:0:0:
448,192,56591,1,0,0:0:0:0:
448,192,56734,1,0,0:0:0:0:
192,192,56877,1,0,0:0:0:0:
320,192,56877,1,0,0:0:0:0:
64,192,57020,1,0,0:0:0:70:kiick.wav
192,192,57020,1,0,0:0:0:50:snehh.wav
320,192,57020,1,0,0:0:0:0:
448,192,57020,1,0,0:0:0:0:
64,192,57163,1,0,0:0:0:0:
448,192,57163,1,0,0:0:0:0:
192,192,57306,1,0,0:0:0:0:
320,192,57306,1,0,0:0:0:0:
64,192,57449,1,0,0:0:0:70:kiick.wav
192,192,57449,1,0,0:0:0:0:
448,192,57449,1,0,0:0:0:0:
448,192,57591,1,0,0:0:0:0:
64,192,57734,1,0,0:0:0:0:
192,192,57734,1,0,0:0:0:0:
64,192,57877,1,0,0:0:0:70:kiick.wav
192,192,57877,1,0,0:0:0:50:snehh.wav
320,192,57877,1,0,0:0:0:0:
448,192,57877,1,0,0:0:0:0:
320,192,58020,1,0,0:0:0:0:
448,192,58020,1,0,0:0:0:0:
64,192,58163,1,0,0:0:0:0:
192,192,58163,1,0,0:0:0:0:
192,192,58306,1,0,0:0:0:70:kiick.wav
320,192,58306,1,0,0:0:0:0:
448,192,58306,1,0,0:0:0:0:
320,192,58449,1,0,0:0:0:0:
192,192,58591,1,0,0:0:0:0:
448,192,58591,1,0,0:0:0:0:
64,192,58734,1,0,0:0:0:70:kiick.wav
192,192,58734,1,0,0:0:0:50:snehh.wav
320,192,58734,1,0,0:0:0:0:
448,192,58734,1,0,0:0:0:0:
64,192,58877,1,0,0:0:0:0:
320,192,58877,1,0,0:0:0:0:
192,192,59020,1,0,0:0:0:0:
448,192,59020,1,0,0:0:0:0:
64,192,59163,1,0,0:0:0:70:kiick.wav
320,192,59163,1,0,0:0:0:0:
448,192,59163,1,0,0:0:0:0:
64,192,59306,1,0,0:0:0:0:
320,192,59449,1,0,0:0:0:0:
448,192,59449,1,0,0:0:0:0:
64,192,59591,1,0,0:0:0:70:kiick.wav
192,192,59591,1,0,0:0:0:50:snehh.wav
320,192,59591,1,0,0:0:0:0:
448,192,59591,1,0,0:0:0:0:
64,192,59734,1,0,0:0:0:0:
192,192,59734,1,0,0:0:0:0:
320,192,59877,1,0,0:0:0:0:
448,192,59877,1,0,0:0:0:0:
64,192,60020,1,0,0:0:0:70:kiick.wav
192,192,60020,1,0,0:0:0:0:
448,192,60020,1,0,0:0:0:0:
64,192,60163,1,0,0:0:0:0:
192,192,60306,1,0,0:0:0:0:
320,192,60306,1,0,0:0:0:0:
64,192,60449,1,0,0:0:0:70:kiick.wav
192,192,60449,1,0,0:0:0:50:snehh.wav
320,192,60449,1,0,0:0:0:0:
448,192,60449,1,0,0:0:0:0:
64,192,60591,1,0,0:0:0:0:
448,192,60591,1,0,0:0:0:0:
192,192,60734,1,0,0:0:0:0:
320,192,60734,1,0,0:0:0:0:
64,192,60877,1,0,0:0:0:70:kiick.wav
320,192,60877,1,0,0:0:0:0:
448,192,60877,1,0,0:0:0:0:
64,192,61020,1,0,0:0:0:0:
192,192,61163,1,0,0:0:0:0:
448,192,61163,1,0,0:0:0:0:
64,192,61306,1,0,0:0:0:70:kiick.wav
192,192,61306,1,0,0:0:0:50:snehh.wav
320,192,61306,1,0,0:0:0:0:
448,192,61306,1,0,0:0:0:0:
64,192,61449,1,0,0:0:0:0:
320,192,61449,1,0,0:0:0:0:
192,192,61591,1,0,0:0:0:0:
448,192,61591,1,0,0:0:0:0:
64,192,61734,1,0,0:0:0:70:kiick.wav
192,192,61734,1,0,0:0:0:0:
320,192,61734,1,0,0:0:0:0:
320,192,61877,1,0,0:0:0:0:
64,192,62020,1,0,0:0:0:0:
192,192,62020,1,0,0:0:0:0:
64,192,62163,1,0,0:0:0:70:kiick.wav
192,192,62163,1,0,0:0:0:50:snehh.wav
320,192,62163,1,0,0:0:0:0:
448,192,62163,1,0,0:0:0:0:
320,192,62306,1,0,0:0:0:0:
448,192,62306,1,0,0:0:0:0:
64,192,62449,1,0,0:0:0:0:
192,192,62449,1,0,0:0:0:0:
64,192,62591,1,0,0:0:0:70:kiick.wav
320,192,62591,1,0,0:0:0:0:
448,192,62591,1,0,0:0:0:0:
448,192,62734,1,0,0:0:0:0:
192,192,62877,1,0,0:0:0:0:
320,192,62877,1,0,0:0:0:0:
64,192,63020,1,0,0:0:0:30:tsh.wav
192,192,63020,1,0,0:0:0:0:
320,192,63091,1,0,0:0:0:30:tsh.wav
448,192,63091,1,0,0:0:0:0:
64,192,63163,1,0,0:0:0:70:kiick.wav
192,192,63163,1,0,0:0:0:30:tsh.wav
320,192,63234,1,0,0:0:0:30:tsh.wav
448,192,63234,1,0,0:0:0:0:
64,192,63306,1,0,0:0:0:70:kiick.wav
192,192,63306,1,0,0:0:0:30:tsh.wav
320,192,63377,1,0,0:0:0:30:tsh.wav
64,192,63449,1,0,0:0:0:70:kiick.wav
192,192,63449,1,0,0:0:0:30:tsh.wav
448,192,63449,1,0,0:0:0:100:fiinish.wav
448,192,63591,1,0,0:0:0:0:
64,192,63734,1,0,0:0:0:0:
192,192,63734,1,0,0:0:0:0:
64,192,63877,1,0,0:0:0:70:kiick.wav
192,192,63877,1,0,0:0:0:50:snehh.wav
320,192,63877,1,0,0:0:0:0:
448,192,63877,1,0,0:0:0:0:
320,192,64020,1,0,0:0:0:0:
448,192,64020,1,0,0:0:0:0:
64,192,64163,1,0,0:0:0:0:
192,192,64163,1,0,0:0:0:0:
64,192,64306,1,0,0:0:0:70:kiick.wav
320,192,64306,1,0,0:0:0:0:
448,192,64306,1,0,0:0:0:0:
320,192,64449,1,0,0:0:0:0:
192,192,64591,1,0,0:0:0:0:
448,192,64591,1,0,0:0:0:0:
64,192,64734,1,0,0:0:0:70:kiick.wav
192,192,64734,1,0,0:0:0:50:snehh.wav
320,192,64734,1,0,0:0:0:0:
448,192,64734,1,0,0:0:0:0:
64,192,64877,1,0,0:0:0:0:
320,192,64877,1,0,0:0:0:0:
192,192,65020,1,0,0:0:0:0:
448,192,65020,1,0,0:0:0:0:
64,192,65163,1,0,0:0:0:70:kiick.wav
192,192,65163,1,0,0:0:0:0:
320,192,65163,1,0,0:0:0:0:
320,192,65306,1,0,0:0:0:0:
64,192,65449,1,0,0:0:0:0:
192,192,65449,1,0,0:0:0:0:
64,192,65591,1,0,0:0:0:70:kiick.wav
192,192,65591,1,0,0:0:0:50:snehh.wav
320,192,65591,1,0,0:0:0:0:
448,192,65591,1,0,0:0:0:0:
320,192,65734,1,0,0:0:0:0:
448,192,65734,1,0,0:0:0:0:
64,192,65877,1,0,0:0:0:0:
192,192,65877,1,0,0:0:0:0:
64,192,66020,1,0,0:0:0:70:kiick.wav
320,192,66020,1,0,0:0:0:0:
448,192,66020,1,0,0:0:0:0:
320,192,66163,1,0,0:0:0:0:
64,192,66306,1,0,0:0:0:0:
448,192,66306,1,0,0:0:0:0:
64,192,66449,1,0,0:0:0:70:kiick.wav
192,192,66449,1,0,0:0:0:50:snehh.wav
320,192,66449,1,0,0:0:0:0:
448,192,66449,1,0,0:0:0:0:
192,192,66591,1,0,0:0:0:0:
320,192,66591,1,0,0:0:0:0:
64,192,66734,1,0,0:0:0:0:
448,192,66734,1,0,0:0:0:0:
64,192,66877,1,0,0:0:0:70:kiick.wav
192,192,66877,1,0,0:0:0:0:
320,192,66877,1,0,0:0:0:0:
192,192,67020,1,0,0:0:0:0:
320,192,67163,1,0,0:0:0:0:
448,192,67163,1,0,0:0:0:0:
64,192,67306,1,0,0:0:0:70:kiick.wav
192,192,67306,1,0,0:0:0:50:snehh.wav
320,192,67306,1,0,0:0:0:0:
448,192,67306,1,0,0:0:0:0:
64,192,67449,1,0,0:0:0:0:
192,192,67449,1,0,0:0:0:0:
320,192,67591,1,0,0:0:0:0:
448,192,67591,1,0,0:0:0:0:
64,192,67734,1,0,0:0:0:70:kiick.wav
192,192,67734,1,0,0:0:0:0:
320,192,67734,1,0,0:0:0:0:
192,192,67877,1,0,0:0:0:0:
320,192,68020,1,0,0:0:0:0:
448,192,68020,1,0,0:0:0:0:
64,192,68163,1,0,0:0:0:70:kiick.wav
192,192,68163,1,0,0:0:0:50:snehh.wav
320,192,68163,1,0,0:0:0:0:
448,192,68163,1,0,0:0:0:0:
64,192,68306,1,0,0:0:0:0:
192,192,68306,1,0,0:0:0:0:
320,192,68449,1,0,0:0:0:0:
448,192,68449,1,0,0:0:0:0:
64,192,68591,1,0,0:0:0:70:kiick.wav
192,192,68591,1,0,0:0:0:0:
320,192,68591,1,0,0:0:0:0:
192,192,68734,1,0,0:0:0:0:
64,192,68877,1,0,0:0:0:0:
448,192,68877,1,0,0:0:0:0:
64,192,69020,1,0,0:0:0:70:kiick.wav
192,192,69020,1,0,0:0:0:50:snehh.wav
320,192,69020,1,0,0:0:0:0:
448,192,69020,1,0,0:0:0:0:
192,192,69163,1,0,0:0:0:0:
320,192,69163,1,0,0:0:0:0:
64,192,69306,1,0,0:0:0:0:
448,192,69306,1,0,0:0:0:0:
192,192,69449,1,0,0:0:0:70:kiick.wav
320,192,69449,1,0,0:0:0:0:
448,192,69449,1,0,0:0:0:0:
320,192,69591,1,0,0:0:0:0:
192,192,69734,1,0,0:0:0:0:
448,192,69734,1,0,0:0:0:0:
64,192,69877,1,0,0:0:0:70:kiick.wav
192,192,69877,1,0,0:0:0:50:snehh.wav
320,192,69877,1,0,0:0:0:0:
448,192,69877,1,0,0:0:0:0:
64,192,70020,1,0,0:0:0:0:
320,192,70020,1,0,0:0:0:0:
192,192,70163,1,0,0:0:0:0:
448,192,70163,1,0,0:0:0:0:
64,192,70306,1,0,0:0:0:70:kiick.wav
192,192,70306,1,0,0:0:0:0:
320,192,70306,1,0,0:0:0:0:
320,192,70449,1,0,0:0:0:0:
64,192,70591,1,0,0:0:0:0:
192,192,70591,1,0,0:0:0:0:
64,192,70734,1,0,0:0:0:70:kiick.wav
192,192,70734,1,0,0:0:0:50:snehh.wav
320,192,70734,1,0,0:0:0:0:
448,192,70734,1,0,0:0:0:0:
320,192,70877,1,0,0:0:0:0:
448,192,70877,1,0,0:0:0:0:
64,192,71020,1,0,0:0:0:0:
192,192,71020,1,0,0:0:0:0:
64,192,71163,1,0,0:0:0:70:kiick.wav
320,192,71163,1,0,0:0:0:0:
448,192,71163,1,0,0:0:0:0:
320,192,71306,1,0,0:0:0:0:
192,192,71449,1,0,0:0:0:0:
448,192,71449,1,0,0:0:0:0:
64,192,71591,1,0,0:0:0:70:kiick.wav
192,192,71591,1,0,0:0:0:50:snehh.wav
320,192,71591,1,0,0:0:0:0:
448,192,71591,1,0,0:0:0:0:
64,192,71734,1,0,0:0:0:0:
320,192,71734,1,0,0:0:0:0:
192,192,71877,1,0,0:0:0:0:
448,192,71877,1,0,0:0:0:0:
64,192,72020,1,0,0:0:0:70:kiick.wav
192,192,72020,1,0,0:0:0:0:
320,192,72020,1,0,0:0:0:0:
320,192,72163,1,0,0:0:0:0:
64,192,72306,1,0,0:0:0:0:
192,192,72306,1,0,0:0:0:0:
64,192,72449,1,0,0:0:0:70:kiick.wav
192,192,72449,1,0,0:0:0:50:snehh.wav
320,192,72449,1,0,0:0:0:0:
448,192,72449,1,0,0:0:0:0:
320,192,72591,1,0,0:0:0:0:
448,192,72591,1,0,0:0:0:0:
64,192,72734,1,0,0:0:0:0:
192,192,72734,1,0,0:0:0:0:
64,192,72877,1,0,0:0:0:70:kiick.wav
320,192,72877,1,0,0:0:0:0:
448,192,72877,1,0,0:0:0:0:
320,192,73020,1,0,0:0:0:0:
64,192,73163,1,0,0:0:0:0:
448,192,73163,1,0,0:0:0:0:
64,192,73306,1,0,0:0:0:70:kiick.wav
192,192,73306,1,0,0:0:0:50:snehh.wav
320,192,73306,1,0,0:0:0:0:
448,192,73306,1,0,0:0:0:0:
192,192,73449,1,0,0:0:0:0:
320,192,73449,1,0,0:0:0:0:
64,192,73591,1,0,0:0:0:0:
448,192,73591,1,0,0:0:0:0:
64,192,73734,1,0,0:0:0:70:kiick.wav
192,192,73734,1,0,0:0:0:0:
320,192,73734,1,0,0:0:0:0:
192,192,73877,1,0,0:0:0:0:
320,192,74020,1,0,0:0:0:0:
448,192,74020,1,0,0:0:0:0:
64,192,74163,1,0,0:0:0:70:kiick.wav
192,192,74163,1,0,0:0:0:50:snehh.wav
320,192,74163,1,0,0:0:0:0:
448,192,74163,1,0,0:0:0:0:
64,192,74306,1,0,0:0:0:0:
192,192,74306,1,0,0:0:0:0:
320,192,74449,1,0,0:0:0:0:
448,192,74449,1,0,0:0:0:0:
64,192,74591,1,0,0:0:0:70:kiick.wav
192,192,74591,1,0,0:0:0:0:
448,192,74591,1,0,0:0:0:0:
64,192,74734,1,0,0:0:0:0:
192,192,74877,1,0,0:0:0:0:
320,192,74877,1,0,0:0:0:0:
64,192,75020,1,0,0:0:0:70:kiick.wav
192,192,75020,1,0,0:0:0:50:snehh.wav
320,192,75020,1,0,0:0:0:0:
448,192,75020,1,0,0:0:0:0:
64,192,75163,1,0,0:0:0:0:
448,192,75163,1,0,0:0:0:0:
192,192,75306,1,0,0:0:0:0:
320,192,75306,1,0,0:0:0:0:
64,192,75449,1,0,0:0:0:70:kiick.wav
320,192,75449,1,0,0:0:0:0:
448,192,75449,1,0,0:0:0:0:
448,192,75591,1,0,0:0:0:0:
64,192,75734,1,0,0:0:0:0:
320,192,75734,1,0,0:0:0:0:
64,192,75877,1,0,0:0:0:70:kiick.wav
192,192,75877,1,0,0:0:0:50:snehh.wav
320,192,75877,1,0,0:0:0:0:
448,192,75877,1,0,0:0:0:0:
192,192,76020,1,0,0:0:0:0:
448,192,76020,1,0,0:0:0:0:
64,192,76163,1,0,0:0:0:0:
320,192,76163,1,0,0:0:0:0:
192,192,76306,1,0,0:0:0:70:kiick.wav
320,192,76306,1,0,0:0:0:0:
448,192,76306,1,0,0:0:0:0:
448,192,76449,1,0,0:0:0:0:
64,192,76591,1,0,0:0:0:0:
192,192,76591,1,0,0:0:0:0:
64,192,76734,1,0,0:0:0:70:kiick.wav
192,192,76734,1,0,0:0:0:50:snehh.wav
320,192,76734,1,0,0:0:0:0:
448,192,76734,1,0,0:0:0:0:
320,192,76877,1,0,0:0:0:0:
448,192,76877,1,0,0:0:0:0:
64,192,77020,1,0,0:0:0:70:kiick.wav
192,192,77020,1,0,0:0:0:0:
448,192,77020,1,0,0:0:0:0:
64,192,77163,1,0,0:0:0:70:kiick.wav
192,192,77163,1,0,0:0:0:100:fiinish.wav
320,192,77163,1,0,0:0:0:0:
448,192,77163,1,0,0:0:0:0:
320,192,77306,1,0,0:0:0:0:
64,192,77449,1,0,0:0:0:0:
192,192,77449,1,0,0:0:0:0:
64,192,77591,1,0,0:0:0:70:kiick.wav
192,192,77591,1,0,0:0:0:50:snehh.wav
320,192,77591,1,0,0:0:0:0:
448,192,77591,1,0,0:0:0:0:
320,192,77734,1,0,0:0:0:0:
448,192,77734,1,0,0:0:0:0:
64,192,77877,1,0,0:0:0:0:
192,192,77877,1,0,0:0:0:0:
192,192,78020,1,0,0:0:0:70:kiick.wav
320,192,78020,1,0,0:0:0:0:
448,192,78020,1,0,0:0:0:0:
320,192,78163,1,0,0:0:0:0:
192,192,78306,1,0,0:0:0:0:
448,192,78306,1,0,0:0:0:0:
64,192,78449,1,0,0:0:0:70:kiick.wav
192,192,78449,1,0,0:0:0:50:snehh.wav
320,192,78449,1,0,0:0:0:0:
448,192,78449,1,0,0:0:0:0:
64,192,78591,1,0,0:0:0:0:
320,192,78591,1,0,0:0:0:0:
192,192,78734,1,0,0:0:0:0:
448,192,78734,1,0,0:0:0:0:
64,192,78877,1,0,0:0:0:70:kiick.wav
320,192,78877,1,0,0:0:0:0:
448,192,78877,1,0,0:0:0:0:
64,192,79020,1,0,0:0:0:0:
192,192,79163,1,0,0:0:0:0:
320,192,79163,1,0,0:0:0:0:
64,192,79306,1,0,0:0:0:70:kiick.wav
192,192,79306,1,0,0:0:0:50:snehh.wav
320,192,79306,1,0,0:0:0:0:
448,192,79306,1,0,0:0:0:0:
64,192,79449,1,0,0:0:0:0:
448,192,79449,1,0,0:0:0:0:
192,192,79591,1,0,0:0:0:0:
320,192,79591,1,0,0:0:0:0:
64,192,79734,1,0,0:0:0:70:kiick.wav
320,192,79734,1,0,0:0:0:0:
448,192,79734,1,0,0:0:0:0:
64,192,79877,1,0,0:0:0:0:
192,192,80020,1,0,0:0:0:0:
448,192,80020,1,0,0:0:0:0:
64,192,80163,1,0,0:0:0:70:kiick.wav
192,192,80163,1,0,0:0:0:50:snehh.wav
320,192,80163,1,0,0:0:0:0:
448,192,80163,1,0,0:0:0:0:
64,192,80306,1,0,0:0:0:0:
320,192,80306,1,0,0:0:0:0:
192,192,80449,1,0,0:0:0:0:
448,192,80449,1,0,0:0:0:0:
64,192,80591,1,0,0:0:0:70:kiick.wav
320,192,80591,1,0,0:0:0:0:
448,192,80591,1,0,0:0:0:0:
64,192,80734,1,0,0:0:0:0:
320,192,80877,1,0,0:0:0:0:
448,192,80877,1,0,0:0:0:0:
64,192,81020,1,0,0:0:0:70:kiick.wav
192,192,81020,1,0,0:0:0:50:snehh.wav
320,192,81020,1,0,0:0:0:0:
448,192,81020,1,0,0:0:0:0:
64,192,81163,1,0,0:0:0:0:
192,192,81163,1,0,0:0:0:0:
320,192,81306,1,0,0:0:0:0:
448,192,81306,1,0,0:0:0:0:
64,192,81449,1,0,0:0:0:70:kiick.wav
192,192,81449,1,0,0:0:0:0:
448,192,81449,1,0,0:0:0:0:
64,192,81591,1,0,0:0:0:0:
192,192,81734,1,0,0:0:0:0:
320,192,81734,1,0,0:0:0:0:
64,192,81877,1,0,0:0:0:70:kiick.wav
192,192,81877,1,0,0:0:0:50:snehh.wav
320,192,81877,1,0,0:0:0:0:
448,192,81877,1,0,0:0:0:0:
64,192,82020,1,0,0:0:0:0:
448,192,82020,1,0,0:0:0:0:
192,192,82163,1,0,0:0:0:0:
320,192,82163,1,0,0:0:0:0:
64,192,82306,1,0,0:0:0:70:kiick.wav
320,192,82306,1,0,0:0:0:0:
448,192,82306,1,0,0:0:0:0:
448,192,82449,1,0,0:0:0:0:
64,192,82591,1,0,0:0:0:0:
192,192,82591,1,0,0:0:0:0:
64,192,82734,1,0,0:0:0:70:kiick.wav
192,192,82734,1,0,0:0:0:50:snehh.wav
320,192,82734,1,0,0:0:0:0:
448,192,82734,1,0,0:0:0:0:
320,192,82877,1,0,0:0:0:0:
448,192,82877,1,0,0:0:0:0:
64,192,83020,1,0,0:0:0:0:
192,192,83020,1,0,0:0:0:0:
64,192,83163,1,0,0:0:0:70:kiick.wav
320,192,83163,1,0,0:0:0:0:
448,192,83163,1,0,0:0:0:0:
448,192,83306,1,0,0:0:0:0:
64,192,83449,1,0,0:0:0:0:
320,192,83449,1,0,0:0:0:0:
64,192,83591,1,0,0:0:0:70:kiick.wav
192,192,83591,1,0,0:0:0:50:snehh.wav
320,192,83591,1,0,0:0:0:0:
448,192,83591,1,0,0:0:0:0:
192,192,83734,1,0,0:0:0:0:
448,192,83734,1,0,0:0:0:0:
64,192,83877,1,0,0:0:0:0:
320,192,83877,1,0,0:0:0:0:
64,192,84020,1,0,0:0:0:70:kiick.wav
192,192,84020,1,0,0:0:0:0:
448,192,84020,1,0,0:0:0:0:
448,192,84163,1,0,0:0:0:0:
192,192,84306,1,0,0:0:0:0:
320,192,84306,1,0,0:0:0:0:
64,192,84449,1,0,0:0:0:70:kiick.wav
192,192,84449,1,0,0:0:0:50:snehh.wav
320,192,84449,1,0,0:0:0:0:
448,192,84449,1,0,0:0:0:0:
64,192,84591,1,0,0:0:0:0:
448,192,84591,1,0,0:0:0:0:
192,192,84734,1,0,0:0:0:0:
320,192,84734,1,0,0:0:0:0:
64,192,84877,1,0,0:0:0:70:kiick.wav
320,192,84877,1,0,0:0:0:0:
448,192,84877,1,0,0:0:0:0:
64,192,85020,1,0,0:0:0:0:
320,192,85163,1,0,0:0:0:0:
448,192,85163,1,0,0:0:0:0:
64,192,85306,1,0,0:0:0:70:kiick.wav
192,192,85306,1,0,0:0:0:50:snehh.wav
320,192,85306,1,0,0:0:0:0:
448,192,85306,1,0,0:0:0:0:
64,192,85449,1,0,0:0:0:0:
192,192,85449,1,0,0:0:0:0:
320,192,85591,1,0,0:0:0:0:
448,192,85591,1,0,0:0:0:0:
64,192,85734,1,0,0:0:0:70:kiick.wav
192,192,85734,1,0,0:0:0:0:
320,192,85734,1,0,0:0:0:0:
192,192,85877,1,0,0:0:0:0:
64,192,86020,1,0,0:0:0:0:
448,192,86020,1,0,0:0:0:0:
64,192,86163,1,0,0:0:0:70:kiick.wav
192,192,86163,1,0,0:0:0:50:snehh.wav
320,192,86163,1,0,0:0:0:0:
448,192,86163,1,0,0:0:0:0:
192,192,86306,1,0,0:0:0:0:
320,192,86306,1,0,0:0:0:0:
64,192,86449,1,0,0:0:0:0:
448,192,86449,1,0,0:0:0:0:
64,192,86591,1,0,0:0:0:70:kiick.wav
192,192,86591,1,0,0:0:0:0:
320,192,86591,1,0,0:0:0:0:
192,192,86734,1,0,0:0:0:0:
320,192,86877,1,0,0:0:0:0:
448,192,86877,1,0,0:0:0:0:
64,192,87020,1,0,0:0:0:70:kiick.wav
192,192,87020,1,0,0:0:0:50:snehh.wav
320,192,87020,1,0,0:0:0:0:
448,192,87020,1,0,0:0:0:0:
64,192,87163,1,0,0:0:0:0:
192,192,87163,1,0,0:0:0:0:
320,192,87306,1,0,0:0:0:0:
448,192,87306,1,0,0:0:0:0:
64,192,87449,1,0,0:0:0:70:kiick.wav
192,192,87449,1,0,0:0:0:0:
320,192,87449,1,0,0:0:0:0:
64,192,87591,1,0,0:0:0:0:
192,192,87734,1,0,0:0:0:0:
448,192,87734,1,0,0:0:0:0:
64,192,87877,1,0,0:0:0:70:kiick.wav
192,192,87877,1,0,0:0:0:50:snehh.wav
320,192,87877,1,0,0:0:0:0:
448,192,87877,1,0,0:0:0:0:
64,192,88020,1,0,0:0:0:0:
320,192,88020,1,0,0:0:0:0:
192,192,88163,1,0,0:0:0:0:
448,192,88163,1,0,0:0:0:0:
64,192,88306,1,0,0:0:0:70:kiick.wav
320,192,88306,1,0,0:0:0:0:
448,192,88306,1,0,0:0:0:0:
64,192,88449,1,0,0:0:0:0:
192,192,88591,1,0,0:0:0:0:
320,192,88591,1,0,0:0:0:0:
64,192,88734,1,0,0:0:0:70:kiick.wav
192,192,88734,1,0,0:0:0:50:snehh.wav
320,192,88734,1,0,0:0:0:0:
448,192,88734,1,0,0:0:0:0:
64,192,88877,1,0,0:0:0:0:
448,192,88877,1,0,0:0:0:0:
192,192,89020,1,0,0:0:0:0:
320,192,89020,1,0,0:0:0:0:
64,192,89163,1,0,0:0:0:70:kiick.wav
192,192,89163,1,0,0:0:0:0:
448,192,89163,1,0,0:0:0:0:
448,192,89306,1,0,0:0:0:0:
64,192,89449,1,0,0:0:0:0:
192,192,89449,1,0,0:0:0:0:
64,192,89591,1,0,0:0:0:70:kiick.wav
192,192,89591,1,0,0:0:0:50:snehh.wav
320,192,89591,1,0,0:0:0:0:
448,192,89591,1,0,0:0:0:0:
320,192,89734,1,0,0:0:0:0:
448,192,89734,1,0,0:0:0:0:
64,192,89877,1,0,0:0:0:0:
192,192,89877,1,0,0:0:0:0:
64,192,90020,1,0,0:0:0:70:kiick.wav
320,192,90020,1,0,0:0:0:0:
448,192,90020,1,0,0:0:0:0:
448,192,90163,1,0,0:0:0:0:
192,192,90306,1,0,0:0:0:0:
320,192,90306,1,0,0:0:0:0:
64,192,90449,1,0,0:0:0:30:tsh.wav
192,192,90449,1,0,0:0:0:0:
320,192,90520,1,0,0:0:0:30:tsh.wav
448,192,90520,1,0,0:0:0:0:
64,192,90591,1,0,0:0:0:70:kiick.wav
192,192,90591,1,0,0:0:0:30:tsh.wav
320,192,90663,1,0,0:0:0:30:tsh.wav
448,192,90663,1,0,0:0:0:0:
64,192,90734,1,0,0:0:0:70:kiick.wav
192,192,90734,1,0,0:0:0:30:tsh.wav
320,192,90806,1,0,0:0:0:30:tsh.wav
64,192,90877,1,0,0:0:0:70:kiick.wav
192,192,90877,128,0,91734:0:0:0:30:tsh.wav
448,192,90877,1,0,0:0:0:100:fiinish.wav
320,192,91020,1,0,0:0:0:0:
64,192,91163,1,0,0:0:0:0:
64,192,91306,1,0,0:0:0:70:kiick.wav
320,192,91306,1,0,0:0:0:50:snehh.wav
448,192,91306,1,0,0:0:0:0:
448,192,91449,1,0,0:0:0:0:
320,192,91591,1,0,0:0:0:0:
64,192,91734,128,0,92163:0:0:0:70:kiick.wav
448,192,91734,1,0,0:0:0:0:
320,192,91877,1,0,0:0:0:0:
192,192,92020,1,0,0:0:0:0:
192,192,92163,128,0,92591:0:0:0:70:kiick.wav
320,192,92163,1,0,0:0:0:50:snehh.wav
448,192,92163,1,0,0:0:0:0:
448,192,92306,1,0,0:0:0:0:
64,192,92449,1,0,0:0:0:0:
320,192,92591,128,0,93449:0:0:0:70:kiick.wav
448,192,92591,1,0,0:0:0:0:
192,192,92734,1,0,0:0:0:0:
64,192,92877,1,0,0:0:0:0:
64,192,93020,1,0,0:0:0:70:kiick.wav
192,192,93020,1,0,0:0:0:50:snehh.wav
448,192,93020,1,0,0:0:0:0:
448,192,93163,1,0,0:0:0:0:
64,192,93306,1,0,0:0:0:0:
192,192,93449,128,0,93877:0:0:0:70:kiick.wav
448,192,93449,1,0,0:0:0:0:
320,192,93591,1,0,0:0:0:0:
448,192,93734,1,0,0:0:0:0:
64,192,93877,1,0,0:0:0:70:kiick.wav
320,192,93877,128,0,94306:0:0:0:50:snehh.wav
448,192,93877,1,0,0:0:0:0:
64,192,94020,1,0,0:0:0:0:
192,192,94163,1,0,0:0:0:0:
64,192,94306,1,0,0:0:0:70:kiick.wav
448,192,94306,128,0,95163:0:0:0:0:
320,192,94449,1,0,0:0:0:0:
64,192,94591,1,0,0:0:0:0:
64,192,94734,1,0,0:0:0:70:kiick.wav
192,192,94734,1,0,0:0:0:50:snehh.wav
320,192,94734,1,0,0:0:0:0:
320,192,94877,1,0,0:0:0:0:
192,192,95020,1,0,0:0:0:0:
64,192,95163,128,0,95591:0:0:0:70:kiick.wav
320,192,95163,1,0,0:0:0:0:
448,192,95306,1,0,0:0:0:0:
192,192,95449,1,0,0:0:0:0:
192,192,95591,128,0,96020:0:0:0:70:kiick.wav
320,192,95591,1,0,0:0:0:50:snehh.wav
448,192,95591,1,0,0:0:0:0:
448,192,95734,1,0,0:0:0:0:
320,192,95877,1,0,0:0:0:0:
64,192,96020,1,0,0:0:0:70:kiick.wav
448,192,96020,128,0,96449:0:0:0:0:
192,192,96163,1,0,0:0:0:0:
320,192,96306,1,0,0:0:0:0:
64,192,96449,128,0,96877:0:0:0:70:kiick.wav
192,192,96449,1,0,0:0:0:50:snehh.wav
320,192,96449,1,0,0:0:0:0:
192,192,96591,1,0,0:0:0:0:
448,192,96734,1,0,0:0:0:0:
192,192,96877,1,0,0:0:0:70:kiick.wav
320,192,96877,128,0,97306:0:0:0:0:
448,192,97020,1,0,0:0:0:0:
64,192,97163,1,0,0:0:0:0:
64,192,97306,1,0,0:0:0:70:kiick.wav
192,192,97306,128,0,97734:0:0:0:50:snehh.wav
448,192,97306,1,0,0:0:0:0:
320,192,97449,1,0,0:0:0:0:
64,192,97591,1,0,0:0:0:0:
320,192,97734,1,0,0:0:0:70:kiick.wav
448,192,97734,128,0,98591:0:0:0:0:
192,192,97877,1,0,0:0:0:0:
64,192,98020,1,0,0:0:0:0:
64,192,98163,1,0,0:0:0:70:kiick.wav
192,192,98163,1,0,0:0:0:50:snehh.wav
320,192,98163,1,0,0:0:0:0:
320,192,98306,1,0,0:0:0:0:
192,192,98449,1,0,0:0:0:0:
64,192,98591,1,0,0:0:0:70:kiick.wav
320,192,98591,128,0,99020:0:0:0:0:
448,192,98734,1,0,0:0:0:0:
192,192,98877,1,0,0:0:0:0:
64,192,99020,128,0,99449:0:0:0:70:kiick.wav
192,192,99020,1,0,0:0:0:50:snehh.wav
448,192,99020,1,0,0:0:0:0:
320,192,99163,1,0,0:0:0:0:
448,192,99306,1,0,0:0:0:0:
192,192,99449,128,0,100306:0:0:0:70:kiick.wav
320,192,99449,1,0,0:0:0:0:
64,192,99591,1,0,0:0:0:0:
448,192,99734,1,0,0:0:0:0:
64,192,99877,1,0,0:0:0:70:kiick.wav
320,192,99877,1,0,0:0:0:50:snehh.wav
448,192,99877,1,0,0:0:0:0:
64,192,100020,1,0,0:0:0:0:
320,192,100163,1,0,0:0:0:0:
64,192,100306,128,0,100734:0:0:0:70:kiick.wav
448,192,100306,1,0,0:0:0:0:
192,192,100449,1,0,0:0:0:0:
320,192,100591,1,0,0:0:0:0:
192,192,100734,1,0,0:0:0:70:kiick.wav
320,192,100734,128,0,100949:0:0:0:50:snehh.wav
448,192,100734,1,0,0:0:0:0:
64,192,100877,1,0,0:0:0:0:
448,192,100949,128,0,101163:0:0:0:0:
192,192,101020,1,0,0:0:0:0:
64,192,101163,128,0,102020:0:0:0:70:kiick.wav
320,192,101163,1,0,0:0:0:0:
192,192,101306,1,0,0:0:0:0:
448,192,101449,1,0,0:0:0:0:
192,192,101591,1,0,0:0:0:70:kiick.wav
320,192,101591,1,0,0:0:0:50:snehh.wav
448,192,101591,1,0,0:0:0:0:
192,192,101734,1,0,0:0:0:0:
320,192,101877,1,0,0:0:0:0:
192,192,102020,128,0,102449:0:0:0:70:kiick.wav
448,192,102020,1,0,0:0:0:0:
64,192,102163,1,0,0:0:0:0:
320,192,102306,1,0,0:0:0:0:
64,192,102449,1,0,0:0:0:70:kiick.wav
320,192,102449,128,0,102877:0:0:0:50:snehh.wav
448,192,102449,1,0,0:0:0:0:
192,192,102591,1,0,0:0:0:0:
64,192,102734,1,0,0:0:0:0:
192,192,102877,1,0,0:0:0:70:kiick.wav
448,192,102877,128,0,104163:0:0:0:0:
320,192,103020,1,0,0:0:0:0:
64,192,103163,1,0,0:0:0:0:
64,192,103306,1,0,0:0:0:70:kiick.wav
192,192,103306,1,0,0:0:0:50:snehh.wav
320,192,103306,1,0,0:0:0:0:
320,192,103449,1,0,0:0:0:0:
192,192,103591,1,0,0:0:0:0:
64,192,103734,1,0,0:0:0:70:kiick.wav
320,192,103734,1,0,0:0:0:0:
192,192,103877,1,0,0:0:0:0:
320,192,104020,1,0,0:0:0:0:
64,192,104163,1,0,0:0:0:70:kiick.wav
192,192,104163,128,0,104306:0:0:0:50:snehh.wav
320,192,104306,1,0,0:0:0:0:
448,192,104306,128,0,104449:0:0:0:0:
64,192,104449,1,0,0:0:0:70:kiick.wav
192,192,104449,1,0,0:0:0:0:
320,192,104449,128,0,104591:0:0:0:0:
64,192,104591,1,0,0:0:0:70:kiick.wav
192,192,104591,128,0,105449:0:0:0:100:fiinish.wav
448,192,104591,1,0,0:0:0:0:
320,192,104734,1,0,0:0:0:0:
64,192,104877,1,0,0:0:0:0:
64,192,105020,1,0,0:0:0:70:kiick.wav
320,192,105020,1,0,0:0:0:50:snehh.wav
448,192,105020,1,0,0:0:0:0:
448,192,105163,1,0,0:0:0:0:
320,192,105306,1,0,0:0:0:0:
64,192,105449,128,0,105877:0:0:0:70:kiick.wav
448,192,105449,1,0,0:0:0:0:
320,192,105591,1,0,0:0:0:0:
192,192,105734,1,0,0:0:0:0:
192,192,105877,128,0,106306:0:0:0:70:kiick.wav
320,192,105877,1,0,0:0:0:50:snehh.wav
448,192,105877,1,0,0:0:0:0:
320,192,106020,1,0,0:0:0:0:
64,192,106163,1,0,0:0:0:0:
320,192,106306,128,0,107163:0:0:0:70:kiick.wav
448,192,106306,1,0,0:0:0:0:
64,192,106449,1,0,0:0:0:0:
192,192,106591,1,0,0:0:0:0:
64,192,106734,1,0,0:0:0:70:kiick.wav
192,192,106734,1,0,0:0:0:50:snehh.wav
448,192,106734,1,0,0:0:0:0:
448,192,106877,1,0,0:0:0:0:
64,192,107020,1,0,0:0:0:0:
192,192,107163,128,0,107591:0:0:0:70:kiick.wav
448,192,107163,1,0,0:0:0:0:
64,192,107306,1,0,0:0:0:0:
320,192,107449,1,0,0:0:0:0:
64,192,107591,1,0,0:0:0:70:kiick.wav
320,192,107591,128,0,108020:0:0:0:50:snehh.wav
448,192,107591,1,0,0:0:0:0:
192,192,107734,1,0,0:0:0:0:
64,192,107877,1,0,0:0:0:0:
192,192,108020,1,0,0:0:0:70:kiick.wav
448,192,108020,128,0,108877:0:0:0:0:
320,192,108163,1,0,0:0:0:0:
64,192,108306,1,0,0:0:0:0:
64,192,108449,1,0,0:0:0:70:kiick.wav
192,192,108449,1,0,0:0:0:50:snehh.wav
320,192,108449,1,0,0:0:0:0:
320,192,108591,1,0,0:0:0:0:
192,192,108734,1,0,0:0:0:0:
64,192,108877,128,0,109306:0:0:0:70:kiick.wav
320,192,108877,1,0,0:0:0:0:
448,192,109020,1,0,0:0:0:0:
192,192,109163,1,0,0:0:0:0:
192,192,109306,128,0,109734:0:0:0:70:kiick.wav
320,192,109306,1,0,0:0:0:50:snehh.wav
448,192,109306,1,0,0:0:0:0:
320,192,109449,1,0,0:0:0:0:
64,192,109591,1,0,0:0:0:0:
320,192,109734,1,0,0:0:0:70:kiick.wav
448,192,109734,128,0,110163:0:0:0:0:
64,192,109877,1,0,0:0:0:0:
192,192,110020,1,0,0:0:0:0:
64,192,110163,128,0,110591:0:0:0:70:kiick.wav
192,192,110163,1,0,0:0:0:50:snehh.wav
320,192,110163,1,0,0:0:0:0:
320,192,110306,1,0,0:0:0:0:
192,192,110449,1,0,0:0:0:0:
320,192,110591,128,0,111449:0:0:0:70:kiick.wav
448,192,110591,1,0,0:0:0:0:
192,192,110734,1,0,0:0:0:0:
64,192,110877,1,0,0:0:0:0:
64,192,111020,1,0,0:0:0:70:kiick.wav
192,192,111020,1,0,0:0:0:50:snehh.wav
448,192,111020,1,0,0:0:0:0:
448,192,111163,1,0,0:0:0:0:
64,192,111306,1,0,0:0:0:0:
192,192,111449,1,0,0:0:0:70:kiick.wav
448,192,111449,128,0,112306:0:0:0:20:tsh.wav
320,192,111591,1,0,0:0:0:20:tsh.wav
64,192,111734,1,0,0:0:0:20:tsh.wav
64,192,111877,1,0,0:0:0:70:kiick.wav
192,192,111877,1,0,0:0:0:50:snehh.wav
320,192,111877,1,0,0:0:0:20:tsh.wav
320,192,112020,1,0,0:0:0:20:tsh.wav
64,192,112163,1,0,0:0:0:20:tsh.wav
192,192,112306,128,0,112734:0:0:0:70:kiick.wav
320,192,112306,1,0,0:0:0:20:tsh.wav
448,192,112449,1,0,0:0:0:20:tsh.wav
64,192,112591,1,0,0:0:0:20:tsh.wav
64,192,112734,1,0,0:0:0:70:kiick.wav
320,192,112734,1,0,0:0:0:50:snehh.wav
448,192,112734,128,0,113163:0:0:0:20:tsh.wav
320,192,112877,1,0,0:0:0:20:tsh.wav
192,192,113020,1,0,0:0:0:20:tsh.wav
64,192,113163,1,0,0:0:0:70:kiick.wav
320,192,113163,128,0,114020:0:0:0:20:tsh.wav
192,192,113306,1,0,0:0:0:20:tsh.wav
448,192,113449,1,0,0:0:0:20:tsh.wav
64,192,113591,1,0,0:0:0:70:kiick.wav
192,192,113591,1,0,0:0:0:50:snehh.wav
448,192,113591,1,0,0:0:0:20:tsh.wav
64,192,113734,1,0,0:0:0:20:tsh.wav
448,192,113877,1,0,0:0:0:20:tsh.wav
64,192,114020,1,0,0:0:0:70:kiick.wav
192,192,114020,128,0,114449:0:0:0:20:tsh.wav
320,192,114163,1,0,0:0:0:20:tsh.wav
64,192,114306,1,0,0:0:0:20:tsh.wav
64,192,114449,128,0,114663:0:0:0:70:kiick.wav
320,192,114449,1,0,0:0:0:50:snehh.wav
448,192,114449,1,0,0:0:0:20:tsh.wav
320,192,114591,1,0,0:0:0:20:tsh.wav
448,192,114663,128,0,114877:0:0:0:0:
192,192,114734,1,0,0:0:0:20:tsh.wav
64,192,114877,1,0,0:0:0:70:kiick.wav
320,192,114877,128,0,115734:0:0:0:20:tsh.wav
64,192,115020,1,0,0:0:0:20:tsh.wav
192,192,115163,1,0,0:0:0:20:tsh.wav
64,192,115306,1,0,0:0:0:70:kiick.wav
192,192,115306,1,0,0:0:0:50:snehh.wav
448,192,115306,1,0,0:0:0:20:tsh.wav
448,192,115449,1,0,0:0:0:20:tsh.wav
64,192,115591,1,0,0:0:0:20:tsh.wav
64,192,115734,1,0,0:0:0:70:kiick.wav
192,192,115734,128,0,116163:0:0:0:20:tsh.wav
320,192,115877,1,0,0:0:0:20:tsh.wav
448,192,116020,1,0,0:0:0:20:tsh.wav
64,192,116163,1,0,0:0:0:70:kiick.wav
320,192,116163,128,0,116591:0:0:0:50:snehh.wav
448,192,116163,1,0,0:0:0:20:tsh.wav
64,192,116306,1,0,0:0:0:20:tsh.wav
192,192,116449,1,0,0:0:0:20:tsh.wav
64,192,116591,1,0,0:0:0:70:kiick.wav
448,192,116591,128,0,116734:0:0:0:25:tsh.wav
192,192,116734,1,0,0:0:0:25:tsh.wav
320,192,116734,128,0,116877:0:0:0:0:
64,192,116877,1,0,0:0:0:25:tsh.wav
192,192,116877,128,0,117020:0:0:0:0:
448,192,116877,1,0,0:0:0:0:
64,192,117020,128,0,117163:0:0:0:70:kiick.wav
320,192,117020,1,0,0:0:0:50:snehh.wav
448,192,117020,1,0,0:0:0:25:tsh.wav
192,192,117163,128,0,117306:0:0:0:25:tsh.wav
320,192,117163,1,0,0:0:0:0:
320,192,117306,128,0,117449:0:0:0:25:tsh.wav
448,192,117306,1,0,0:0:0:0:
64,192,117449,1,0,0:0:0:70:kiick.wav
448,192,117449,128,0,117591:0:0:0:25:tsh.wav
192,192,117591,1,0,0:0:0:25:tsh.wav
320,192,117591,128,0,117734:0:0:0:0:
64,192,117734,1,0,0:0:0:25:tsh.wav
192,192,117734,128,0,117877:0:0:0:0:
320,192,117877,1,0,0:0:0:30:tsh.wav
448,192,117877,1,0,0:0:0:0:
64,192,117949,1,0,0:0:0:30:tsh.wav
192,192,117949,1,0,0:0:0:0:
320,192,118020,1,0,0:0:0:70:kiick.wav
448,192,118020,1,0,0:0:0:30:tsh.wav
64,192,118091,1,0,0:0:0:30:tsh.wav
192,192,118091,1,0,0:0:0:0:
320,192,118163,1,0,0:0:0:70:kiick.wav
448,192,118163,1,0,0:0:0:30:tsh.wav
192,192,118234,1,0,0:0:0:30:tsh.wav
64,192,118306,1,0,0:0:0:70:kiick.wav
320,192,118306,1,0,0:0:0:30:tsh.wav
448,192,118306,1,0,0:0:0:100:fiinish.wav
