osu file format v14

[General]
AudioFilename: audio.mp3
AudioLeadIn: 0
PreviewTime: 36009
Countdown: 0
SampleSet: Soft
StackLeniency: 0.7
Mode: 3
LetterboxInBreaks: 0
SpecialStyle: 0
WidescreenStoryboard: 0

[Editor]
Bookmarks: 8581,22295,36009,63438,90866,104581
DistanceSpacing: 1.2
BeatDivisor: 3
GridSize: 32
TimelineZoom: 1.3

[Metadata]
Title:EternuS
TitleUnicode:EternuS
Artist:Sanxion7
ArtistUnicode:Sanxion7
Creator:Irone OSU
Version:Insane
Source:DanceDanceRevolution SuperNOVA2
Tags:riunosk epic trance Dancing Stage DDR SN2 CS electronic videogame video game instrumental 2007 SLAYBR004 DDR Broadjam Song Contest Anthony Tony Konzel Saxxon Fox Pleska Saxxonpike Pump It Up PRO2 PIU ReRave StepmaniaX Limited Edition Music Sampler V-RARE SOUNDTRACK-14 USA U.S.A.
BeatmapID:3268272
BeatmapSetID:1600318

[Difficulty]
HPDrainRate:8
CircleSize:4
OverallDifficulty:8
ApproachRate:5
SliderMultiplier:1.4
SliderTickRate:1

[Events]
//Background and Video events
0,0,"29496516_p0.jpg",0,0
//Break Periods
//Storyboard Layer 0 (Background)
//Storyboard Layer 1 (Fail)
//Storyboard Layer 2 (Pass)
//Storyboard Layer 3 (Foreground)
//Storyboard Layer 4 (Overlay)
//Storyboard Sound Samples

[TimingPoints]
1724,428.571428571429,4,2,1,50,1,0
36009,-100,4,2,1,50,0,1
90866,-100,4,2,1,50,0,0

[HitObjects]
320,192,1152,5,0,0:0:0:0:
448,192,1295,1,0,0:0:0:0:
64,192,1295,1,0,0:0:0:20:tsh.wav
320,192,1438,1,0,0:0:0:0:
64,192,1438,1,0,0:0:0:25:tsh.wav
320,192,1581,1,0,0:0:0:0:
192,192,1581,1,0,0:0:0:30:tsh.wav
448,192,1724,1,0,0:0:0:0:
192,192,1724,1,0,0:0:0:70:kiick.wav
64,192,1724,1,0,0:0:0:100:fiinish.wav
448,192,1866,1,0,0:0:0:0:
320,192,2009,1,0,0:0:0:0:
64,192,2009,1,0,0:0:0:0:
448,192,2152,1,0,0:0:0:0:
320,192,2152,1,0,0:0:0:50:snehh.wav
192,192,2152,1,0,0:0:0:70:kiick.wav
192,192,2295,1,0,0:0:0:0:
448,192,2438,1,0,0:0:0:0:
64,192,2438,1,0,0:0:0:0:
192,192,2581,1,0,0:0:0:0:
64,192,2581,1,0,0:0:0:70:kiick.wav
320,192,2724,1,0,0:0:0:0:
448,192,2866,1,0,0:0:0:0:
192,192,2866,1,0,0:0:0:0:
448,192,3009,1,0,0:0:0:0:
320,192,3009,1,0,0:0:0:50:snehh.wav
64,192,3009,1,0,0:0:0:70:kiick.wav
64,192,3152,1,0,0:0:0:0:
448,192,3295,1,0,0:0:0:0:
320,192,3295,1,0,0:0:0:0:
192,192,3438,1,0,0:0:0:0:
64,192,3438,1,0,0:0:0:70:kiick.wav
192,192,3581,1,0,0:0:0:0:
448,192,3724,1,0,0:0:0:0:
64,192,3724,1,0,0:0:0:0:
320,192,3866,1,0,0:0:0:0:
192,192,3866,1,0,0:0:0:50:snehh.wav
64,192,3866,1,0,0:0:0:70:kiick.wav
320,192,4009,1,0,0:0:0:0:
192,192,4152,1,0,0:0:0:0:
64,192,4152,1,0,0:0:0:0:
448,192,4295,1,0,0:0:0:0:
320,192,4295,1,0,0:0:0:70:kiick.wav
320,192,4438,1,0,0:0:0:0:
448,192,4581,1,0,0:0:0:0:
64,192,4581,1,0,0:0:0:0:
320,192,4724,1,0,0:0:0:0:
192,192,4724,1,0,0:0:0:50:snehh.wav
64,192,4724,1,0,0:0:0:70:kiick.wav
192,192,4866,1,0,0:0:0:0:
448,192,5009,1,0,0:0:0:0:
320,192,5009,1,0,0:0:0:0:
448,192,5152,1,0,0:0:0:20:tsh.wav
64,192,5152,1,0,0:0:0:70:kiick.wav
320,192,5295,1,0,0:0:0:0:
64,192,5295,1,0,0:0:0:20:tsh.wav
448,192,5438,1,0,0:0:0:0:
192,192,5438,1,0,0:0:0:20:tsh.wav
448,192,5581,1,0,0:0:0:20:tsh.wav
320,192,5581,1,0,0:0:0:50:snehh.wav
64,192,5581,1,0,0:0:0:70:kiick.wav
320,192,5724,1,0,0:0:0:0:
192,192,5724,1,0,0:0:0:20:tsh.wav
448,192,5866,1,0,0:0:0:0:
64,192,5866,1,0,0:0:0:20:tsh.wav
320,192,6009,1,0,0:0:0:20:tsh.wav
64,192,6009,1,0,0:0:0:70:kiick.wav
448,192,6152,1,0,0:0:0:0:
320,192,6152,1,0,0:0:0:20:tsh.wav
192,192,6295,1,0,0:0:0:0:
64,192,6295,1,0,0:0:0:20:tsh.wav
448,192,6438,1,0,0:0:0:20:tsh.wav
320,192,6438,1,0,0:0:0:50:snehh.wav
64,192,6438,1,0,0:0:0:70:kiick.wav
320,192,6581,1,0,0:0:0:0:
192,192,6581,1,0,0:0:0:20:tsh.wav
448,192,6724,1,0,0:0:0:0:
64,192,6724,1,0,0:0:0:20:tsh.wav
448,192,6866,1,0,0:0:0:25:tsh.wav
192,192,6866,1,0,0:0:0:70:kiick.wav
320,192,7009,1,0,0:0:0:0:
192,192,7009,1,0,0:0:0:25:tsh.wav
448,192,7152,1,0,0:0:0:0:
64,192,7152,1,0,0:0:0:25:tsh.wav
320,192,7295,1,0,0:0:0:25:tsh.wav
192,192,7295,1,0,0:0:0:50:snehh.wav
64,192,7295,1,0,0:0:0:70:kiick.wav
448,192,7438,1,0,0:0:0:0:
192,192,7438,1,0,0:0:0:25:tsh.wav
320,192,7581,1,0,0:0:0:0:
64,192,7581,1,0,0:0:0:25:tsh.wav
320,192,7724,1,0,0:0:0:25:tsh.wav
192,192,7724,1,0,0:0:0:70:kiick.wav
192,192,7866,1,0,0:0:0:0:
64,192,7866,1,0,0:0:0:25:tsh.wav
448,192,8009,1,0,0:0:0:0:
320,192,8009,1,0,0:0:0:25:tsh.wav
192,192,8152,1,0,0:0:0:0:
64,192,8152,1,0,0:0:0:30:tsh.wav
448,192,8224,1,0,0:0:0:30:tsh.wav
320,192,8295,1,0,0:0:0:30:tsh.wav
64,192,8295,1,0,0:0:0:70:kiick.wav
192,192,8366,1,0,0:0:0:30:tsh.wav
448,192,8438,1,0,0:0:0:30:tsh.wav
320,192,8438,1,0,0:0:0:70:kiick.wav
64,192,8509,1,0,0:0:0:30:tsh.wav
448,192,8581,128,0,9009:0:0:0:30:tsh.wav
320,192,8581,1,0,0:0:0:70:kiick.wav
192,192,8581,1,0,0:0:0:100:fiinish.wav
64,192,9009,128,0,9438:0:0:0:0:
192,192,9438,128,0,9866:0:0:0:0:
320,192,9866,128,0,10295:0:0:0:0:
448,192,10295,128,0,10724:0:0:0:0:
192,192,10724,128,0,11152:0:0:0:0:
320,192,11152,128,0,11581:0:0:0:0:
448,192,11581,128,0,11866:0:0:0:0:
192,192,11866,128,0,12009:0:0:0:0:
448,192,12009,128,0,12438:0:0:0:0:
64,192,12438,128,0,12866:0:0:0:0:
320,192,12866,128,0,13295:0:0:0:0:
192,192,13295,128,0,13724:0:0:0:0:
64,192,13724,128,0,14152:0:0:0:0:
448,192,14152,128,0,14581:0:0:0:0:
320,192,14581,128,0,15009:0:0:0:0:
192,192,15009,128,0,15152:0:0:0:0:
448,192,15152,128,0,15295:0:0:0:0:
64,192,15295,128,0,15438:0:0:0:0:
320,192,15438,128,0,15866:0:0:0:0:
192,192,15866,128,0,16295:0:0:0:0:
64,192,16295,128,0,16724:0:0:0:0:
320,192,16724,128,0,16866:0:0:0:0:
448,192,16866,128,0,17009:0:0:0:0:
64,192,17009,128,0,17152:0:0:0:0:
192,192,17152,128,0,17581:0:0:0:0:
320,192,17581,128,0,18009:0:0:0:0:
448,192,18009,128,0,18438:0:0:0:0:
192,192,18438,128,0,18724:0:0:0:0:
320,192,18724,128,0,18866:0:0:0:0:
64,192,18866,128,0,19295:0:0:0:0:
448,192,19295,128,0,19724:0:0:0:0:
192,192,19724,128,0,20152:0:0:0:0:
64,192,20152,128,0,20581:0:0:0:0:
320,192,20581,128,0,20724:0:0:0:0:
192,192,20724,128,0,20866:0:0:0:0:
448,192,20866,128,0,21009:0:0:0:0:
192,192,21009,128,0,21152:0:0:0:0:
64,192,21152,128,0,21295:0:0:0:0:
320,192,21295,128,0,21438:0:0:0:0:
64,192,21438,128,0,21581:0:0:0:0:
448,192,21581,128,0,21724:0:0:0:0:
192,192,21724,128,0,21866:0:0:0:0:
448,192,21866,1,0,0:0:0:0:
320,192,21866,1,0,0:0:0:30:tsh.wav
64,192,21938,1,0,0:0:0:30:tsh.wav
320,192,22009,1,0,0:0:0:0:
192,192,22009,1,0,0:0:0:30:tsh.wav
448,192,22081,1,0,0:0:0:30:tsh.wav
192,192,22152,1,0,0:0:0:0:
64,192,22152,1,0,0:0:0:30:tsh.wav
320,192,22224,1,0,0:0:0:30:tsh.wav
448,192,22295,128,0,22724:0:0:0:30:tsh.wav
192,192,22295,1,0,0:0:0:70:kiick.wav
64,192,22295,1,0,0:0:0:100:fiinish.wav
320,192,22581,128,0,22724:0:0:0:0:
64,192,22724,128,0,23152:0:0:0:0:
192,192,23152,128,0,23581:0:0:0:0:
320,192,23581,128,0,24009:0:0:0:0:
448,192,24009,128,0,24438:0:0:0:0:
64,192,24295,128,0,24438:0:0:0:0:
192,192,24438,128,0,24866:0:0:0:0:
320,192,24866,128,0,25295:0:0:0:0:
448,192,25295,128,0,25581:0:0:0:0:
192,192,25581,128,0,25724:0:0:0:0:
448,192,25724,128,0,26152:0:0:0:0:
320,192,25724,1,0,0:0:0:70:kiick.wav
64,192,25724,1,0,0:0:0:100:fiinish.wav
192,192,26009,128,0,26152:0:0:0:0:
64,192,26152,128,0,26581:0:0:0:0:
320,192,26581,128,0,27009:0:0:0:0:
192,192,27009,128,0,27438:0:0:0:0:
64,192,27438,128,0,27866:0:0:0:0:
448,192,27866,128,0,28295:0:0:0:0:
320,192,28295,128,0,28724:0:0:0:0:
192,192,28724,128,0,28866:0:0:0:0:
448,192,28866,128,0,29009:0:0:0:0:
64,192,29009,128,0,29152:0:0:0:0:
448,192,29152,1,0,0:0:0:20:tsh.wav
320,192,29152,128,0,29581:0:0:0:70:kiick.wav
192,192,29152,1,0,0:0:0:100:fiinish.wav
64,192,29438,128,0,29581:0:0:0:20:tsh.wav
192,192,29581,128,0,30009:0:0:0:20:tsh.wav
64,192,30009,128,0,30438:0:0:0:20:tsh.wav
320,192,30438,128,0,30581:0:0:0:20:tsh.wav
448,192,30581,128,0,30724:0:0:0:20:tsh.wav
64,192,30724,128,0,30866:0:0:0:20:tsh.wav
448,192,30866,1,0,0:0:0:20:tsh.wav
320,192,30866,1,0,0:0:0:70:kiick.wav
192,192,30866,128,0,31295:0:0:0:100:fiinish.wav
448,192,31152,128,0,31295:0:0:0:20:tsh.wav
320,192,31295,128,0,31724:0:0:0:20:tsh.wav
448,192,31724,128,0,32152:0:0:0:20:tsh.wav
192,192,32152,128,0,32438:0:0:0:20:tsh.wav
320,192,32438,128,0,32581:0:0:0:20:tsh.wav
448,192,32581,1,0,0:0:0:20:tsh.wav
192,192,32581,1,0,0:0:0:70:kiick.wav
64,192,32581,128,0,33009:0:0:0:100:fiinish.wav
320,192,32866,128,0,33009:0:0:0:20:tsh.wav
448,192,33009,128,0,33438:0:0:0:20:tsh.wav
320,192,33438,128,0,33866:0:0:0:20:tsh.wav
192,192,33866,128,0,34295:0:0:0:20:tsh.wav
448,192,34295,1,0,0:0:0:25:tsh.wav
320,192,34295,128,0,34438:0:0:0:70:kiick.wav
64,192,34295,1,0,0:0:0:100:fiinish.wav
192,192,34438,128,0,34581:0:0:0:25:tsh.wav
448,192,34581,128,0,34724:0:0:0:25:tsh.wav
192,192,34724,128,0,34866:0:0:0:25:tsh.wav
64,192,34866,128,0,35009:0:0:0:25:tsh.wav
320,192,35009,128,0,35152:0:0:0:25:tsh.wav
64,192,35152,128,0,35295:0:0:0:25:tsh.wav
448,192,35295,128,0,35438:0:0:0:25:tsh.wav
192,192,35438,128,0,35581:0:0:0:25:tsh.wav
448,192,35581,1,0,0:0:0:0:
320,192,35581,1,0,0:0:0:30:tsh.wav
64,192,35652,1,0,0:0:0:30:tsh.wav
448,192,35724,1,0,0:0:0:0:
192,192,35724,1,0,0:0:0:30:tsh.wav
320,192,35795,1,0,0:0:0:30:tsh.wav
192,192,35866,1,0,0:0:0:0:
64,192,35866,1,0,0:0:0:30:tsh.wav
448,192,35938,1,0,0:0:0:30:tsh.wav
320,192,36009,1,0,0:0:0:30:tsh.wav
192,192,36009,1,0,0:0:0:70:kiick.wav
64,192,36009,1,0,0:0:0:100:fiinish.wav
448,192,36152,1,0,0:0:0:0:
320,192,36295,1,0,0:0:0:0:
192,192,36295,1,0,0:0:0:0:
448,192,36438,1,0,0:0:0:0:
320,192,36438,1,0,0:0:0:50:snehh.wav
64,192,36438,1,0,0:0:0:70:kiick.wav
448,192,36581,1,0,0:0:0:0:
192,192,36581,1,0,0:0:0:0:
320,192,36724,1,0,0:0:0:0:
64,192,36724,1,0,0:0:0:0:
192,192,36866,1,0,0:0:0:0:
64,192,36866,1,0,0:0:0:70:kiick.wav
320,192,37009,1,0,0:0:0:0:
448,192,37152,1,0,0:0:0:0:
192,192,37152,1,0,0:0:0:0:
448,192,37295,1,0,0:0:0:0:
320,192,37295,1,0,0:0:0:50:snehh.wav
64,192,37295,1,0,0:0:0:70:kiick.wav
320,192,37438,1,0,0:0:0:0:
192,192,37438,1,0,0:0:0:0:
448,192,37581,1,0,0:0:0:0:
64,192,37581,1,0,0:0:0:0:
448,192,37724,1,0,0:0:0:0:
320,192,37724,1,0,0:0:0:70:kiick.wav
192,192,37866,1,0,0:0:0:0:
448,192,38009,1,0,0:0:0:0:
64,192,38009,1,0,0:0:0:0:
320,192,38152,1,0,0:0:0:0:
192,192,38152,1,0,0:0:0:50:snehh.wav
64,192,38152,1,0,0:0:0:70:kiick.wav
448,192,38295,1,0,0:0:0:0:
320,192,38295,1,0,0:0:0:0:
192,192,38438,1,0,0:0:0:0:
64,192,38438,1,0,0:0:0:0:
320,192,38581,1,0,0:0:0:0:
64,192,38581,1,0,0:0:0:70:kiick.wav
448,192,38724,1,0,0:0:0:0:
320,192,38866,1,0,0:0:0:0:
192,192,38866,1,0,0:0:0:0:
448,192,39009,1,0,0:0:0:0:
192,192,39009,1,0,0:0:0:50:snehh.wav
64,192,39009,1,0,0:0:0:70:kiick.wav
320,192,39152,1,0,0:0:0:0:
64,192,39152,1,0,0:0:0:0:
448,192,39295,1,0,0:0:0:0:
192,192,39295,1,0,0:0:0:0:
192,192,39438,1,0,0:0:0:0:
64,192,39438,1,0,0:0:0:70:kiick.wav
320,192,39581,1,0,0:0:0:0:
448,192,39724,1,0,0:0:0:0:
64,192,39724,1,0,0:0:0:0:
320,192,39866,1,0,0:0:0:0:
192,192,39866,1,0,0:0:0:50:snehh.wav
64,192,39866,1,0,0:0:0:70:kiick.wav
448,192,40009,1,0,0:0:0:0:
192,192,40009,1,0,0:0:0:0:
320,192,40152,1,0,0:0:0:0:
64,192,40152,1,0,0:0:0:0:
448,192,40295,1,0,0:0:0:0:
320,192,40295,1,0,0:0:0:70:kiick.wav
64,192,40438,1,0,0:0:0:0:
320,192,40581,1,0,0:0:0:0:
192,192,40581,1,0,0:0:0:0:
448,192,40724,1,0,0:0:0:0:
192,192,40724,1,0,0:0:0:50:snehh.wav
64,192,40724,1,0,0:0:0:70:kiick.wav
320,192,40866,1,0,0:0:0:0:
64,192,40866,1,0,0:0:0:0:
448,192,41009,1,0,0:0:0:0:
192,192,41009,1,0,0:0:0:0:
320,192,41152,1,0,0:0:0:0:
192,192,41152,1,0,0:0:0:70:kiick.wav
448,192,41295,1,0,0:0:0:0:
192,192,41438,1,0,0:0:0:0:
64,192,41438,1,0,0:0:0:0:
448,192,41581,1,0,0:0:0:0:
320,192,41581,1,0,0:0:0:50:snehh.wav
64,192,41581,1,0,0:0:0:70:kiick.wav
448,192,41724,1,0,0:0:0:0:
192,192,41724,1,0,0:0:0:0:
320,192,41866,1,0,0:0:0:0:
64,192,41866,1,0,0:0:0:0:
192,192,42009,1,0,0:0:0:0:
64,192,42009,1,0,0:0:0:70:kiick.wav
320,192,42152,1,0,0:0:0:0:
448,192,42295,1,0,0:0:0:0:
192,192,42295,1,0,0:0:0:0:
448,192,42438,1,0,0:0:0:0:
320,192,42438,1,0,0:0:0:50:snehh.wav
64,192,42438,1,0,0:0:0:70:kiick.wav
192,192,42581,1,0,0:0:0:0:
64,192,42581,1,0,0:0:0:0:
448,192,42724,1,0,0:0:0:0:
320,192,42724,1,0,0:0:0:0:
448,192,42866,1,0,0:0:0:0:
64,192,42866,1,0,0:0:0:70:kiick.wav
192,192,43009,1,0,0:0:0:0:
448,192,43152,1,0,0:0:0:0:
320,192,43152,1,0,0:0:0:0:
448,192,43295,1,0,0:0:0:0:
192,192,43295,1,0,0:0:0:50:snehh.wav
64,192,43295,1,0,0:0:0:70:kiick.wav
320,192,43438,1,0,0:0:0:0:
192,192,43438,1,0,0:0:0:0:
448,192,43581,1,0,0:0:0:0:
64,192,43581,1,0,0:0:0:0:
448,192,43724,1,0,0:0:0:0:
320,192,43724,1,0,0:0:0:70:kiick.wav
192,192,43866,1,0,0:0:0:0:
448,192,44009,1,0,0:0:0:0:
64,192,44009,1,0,0:0:0:0:
320,192,44152,1,0,0:0:0:0:
192,192,44152,1,0,0:0:0:50:snehh.wav
64,192,44152,1,0,0:0:0:70:kiick.wav
448,192,44295,1,0,0:0:0:0:
320,192,44295,1,0,0:0:0:0:
192,192,44438,1,0,0:0:0:0:
64,192,44438,1,0,0:0:0:0:
320,192,44581,1,0,0:0:0:0:
64,192,44581,1,0,0:0:0:70:kiick.wav
448,192,44724,1,0,0:0:0:0:
320,192,44866,1,0,0:0:0:0:
192,192,44866,1,0,0:0:0:0:
448,192,45009,1,0,0:0:0:0:
192,192,45009,1,0,0:0:0:50:snehh.wav
64,192,45009,1,0,0:0:0:70:kiick.wav
320,192,45152,1,0,0:0:0:0:
64,192,45152,1,0,0:0:0:0:
448,192,45295,1,0,0:0:0:0:
192,192,45295,1,0,0:0:0:0:
320,192,45438,1,0,0:0:0:0:
192,192,45438,1,0,0:0:0:70:kiick.wav
64,192,45581,1,0,0:0:0:0:
448,192,45724,1,0,0:0:0:0:
320,192,45724,1,0,0:0:0:0:
448,192,45866,1,0,0:0:0:0:
192,192,45866,1,0,0:0:0:50:snehh.wav
64,192,45866,1,0,0:0:0:70:kiick.wav
320,192,46009,1,0,0:0:0:0:
192,192,46009,1,0,0:0:0:0:
448,192,46152,1,0,0:0:0:0:
64,192,46152,1,0,0:0:0:0:
448,192,46295,1,0,0:0:0:0:
320,192,46295,1,0,0:0:0:70:kiick.wav
64,192,46438,1,0,0:0:0:0:
448,192,46581,1,0,0:0:0:0:
192,192,46581,1,0,0:0:0:0:
320,192,46724,1,0,0:0:0:0:
192,192,46724,1,0,0:0:0:50:snehh.wav
64,192,46724,1,0,0:0:0:70:kiick.wav
448,192,46866,1,0,0:0:0:0:
320,192,46866,1,0,0:0:0:0:
192,192,47009,1,0,0:0:0:0:
64,192,47009,1,0,0:0:0:0:
320,192,47152,1,0,0:0:0:0:
64,192,47152,1,0,0:0:0:70:kiick.wav
448,192,47295,1,0,0:0:0:0:
192,192,47438,1,0,0:0:0:0:
64,192,47438,1,0,0:0:0:0:
448,192,47581,1,0,0:0:0:0:
320,192,47581,1,0,0:0:0:50:snehh.wav
64,192,47581,1,0,0:0:0:70:kiick.wav
320,192,47724,1,0,0:0:0:0:
192,192,47724,1,0,0:0:0:0:
448,192,47866,1,0,0:0:0:0:
64,192,47866,1,0,0:0:0:0:
448,192,48009,1,0,0:0:0:0:
192,192,48009,1,0,0:0:0:70:kiick.wav
320,192,48152,1,0,0:0:0:0:
192,192,48295,1,0,0:0:0:0:
64,192,48295,1,0,0:0:0:0:
448,192,48438,1,0,0:0:0:0:
320,192,48438,1,0,0:0:0:50:snehh.wav
64,192,48438,1,0,0:0:0:70:kiick.wav
448,192,48581,1,0,0:0:0:0:
192,192,48581,1,0,0:0:0:0:
320,192,48724,1,0,0:0:0:0:
64,192,48724,1,0,0:0:0:0:
448,192,48866,1,0,0:0:0:0:
320,192,48866,1,0,0:0:0:70:kiick.wav
192,192,49009,1,0,0:0:0:0:
448,192,49152,1,0,0:0:0:0:
64,192,49152,1,0,0:0:0:0:
320,192,49295,1,0,0:0:0:0:
192,192,49295,1,0,0:0:0:50:snehh.wav
64,192,49295,1,0,0:0:0:70:kiick.wav
448,192,49438,1,0,0:0:0:0:
192,192,49438,1,0,0:0:0:0:
320,192,49581,1,0,0:0:0:0:
64,192,49581,1,0,0:0:0:70:kiick.wav
448,192,49724,1,0,0:0:0:0:
320,192,49724,1,0,0:0:0:70:kiick.wav
64,192,49724,1,0,0:0:0:100:fiinish.wav
192,192,49866,1,0,0:0:0:0:
448,192,50009,1,0,0:0:0:0:
320,192,50009,1,0,0:0:0:0:
448,192,50152,1,0,0:0:0:0:
192,192,50152,1,0,0:0:0:50:snehh.wav
64,192,50152,1,0,0:0:0:70:kiick.wav
320,192,50295,1,0,0:0:0:0:
64,192,50295,1,0,0:0:0:0:
448,192,50438,1,0,0:0:0:0:
192,192,50438,1,0,0:0:0:0:
448,192,50581,1,0,0:0:0:0:
64,192,50581,1,0,0:0:0:70:kiick.wav
320,192,50724,1,0,0:0:0:0:
192,192,50866,1,0,0:0:0:0:
64,192,50866,1,0,0:0:0:0:
448,192,51009,1,0,0:0:0:0:
320,192,51009,1,0,0:0:0:50:snehh.wav
64,192,51009,1,0,0:0:0:70:kiick.wav
320,192,51152,1,0,0:0:0:0:
192,192,51152,1,0,0:0:0:0:
448,192,51295,1,0,0:0:0:0:
64,192,51295,1,0,0:0:0:0:
448,192,51438,1,0,0:0:0:0:
320,192,51438,1,0,0:0:0:70:kiick.wav
192,192,51581,1,0,0:0:0:0:
448,192,51724,1,0,0:0:0:0:
64,192,51724,1,0,0:0:0:0:
320,192,51866,1,0,0:0:0:0:
192,192,51866,1,0,0:0:0:50:snehh.wav
64,192,51866,1,0,0:0:0:70:kiick.wav
448,192,52009,1,0,0:0:0:0:
192,192,52009,1,0,0:0:0:0:
320,192,52152,1,0,0:0:0:0:
64,192,52152,1,0,0:0:0:0:
448,192,52295,1,0,0:0:0:0:
320,192,52295,1,0,0:0:0:70:kiick.wav
192,192,52438,1,0,0:0:0:0:
320,192,52581,1,0,0:0:0:0:
64,192,52581,1,0,0:0:0:0:
448,192,52724,1,0,0:0:0:0:
192,192,52724,1,0,0:0:0:50:snehh.wav
64,192,52724,1,0,0:0:0:70:kiick.wav
320,192,52866,1,0,0:0:0:0:
192,192,52866,1,0,0:0:0:0:
448,192,53009,1,0,0:0:0:0:
64,192,53009,1,0,0:0:0:0:
192,192,53152,1,0,0:0:0:0:
64,192,53152,1,0,0:0:0:70:kiick.wav
320,192,53295,1,0,0:0:0:0:
448,192,53438,1,0,0:0:0:0:
192,192,53438,1,0,0:0:0:0:
320,192,53581,1,0,0:0:0:0:
192,192,53581,1,0,0:0:0:50:snehh.wav
64,192,53581,1,0,0:0:0:70:kiick.wav
448,192,53724,1,0,0:0:0:0:
64,192,53724,1,0,0:0:0:0:
320,192,53866,1,0,0:0:0:0:
192,192,53866,1,0,0:0:0:0:
448,192,54009,1,0,0:0:0:0:
320,192,54009,1,0,0:0:0:70:kiick.wav
64,192,54152,1,0,0:0:0:0:
448,192,54295,1,0,0:0:0:0:
192,192,54295,1,0,0:0:0:0:
320,192,54438,1,0,0:0:0:0:
192,192,54438,1,0,0:0:0:50:snehh.wav
64,192,54438,1,0,0:0:0:70:kiick.wav
448,192,54581,1,0,0:0:0:0:
320,192,54581,1,0,0:0:0:0:
192,192,54724,1,0,0:0:0:0:
64,192,54724,1,0,0:0:0:0:
320,192,54866,1,0,0:0:0:0:
64,192,54866,1,0,0:0:0:70:kiick.wav
448,192,55009,1,0,0:0:0:0:
320,192,55152,1,0,0:0:0:0:
192,192,55152,1,0,0:0:0:0:
448,192,55295,1,0,0:0:0:0:
320,192,55295,1,0,0:0:0:50:snehh.wav
64,192,55295,1,0,0:0:0:70:kiick.wav
448,192,55438,1,0,0:0:0:0:
192,192,55438,1,0,0:0:0:0:
320,192,55581,1,0,0:0:0:0:
64,192,55581,1,0,0:0:0:0:
448,192,55724,1,0,0:0:0:0:
64,192,55724,1,0,0:0:0:70:kiick.wav
192,192,55866,1,0,0:0:0:0:
448,192,56009,1,0,0:0:0:0:
320,192,56009,1,0,0:0:0:0:
320,192,56152,1,0,0:0:0:0:
192,192,56152,1,0,0:0:0:50:snehh.wav
64,192,56152,1,0,0:0:0:70:kiick.wav
448,192,56295,1,0,0:0:0:0:
64,192,56295,1,0,0:0:0:0:
320,192,56438,1,0,0:0:0:0:
192,192,56438,1,0,0:0:0:0:
320,192,56581,1,0,0:0:0:0:
64,192,56581,1,0,0:0:0:70:kiick.wav
192,192,56724,1,0,0:0:0:0:
448,192,56866,1,0,0:0:0:0:
320,192,56866,1,0,0:0:0:0:
448,192,57009,1,0,0:0:0:0:
192,192,57009,1,0,0:0:0:50:snehh.wav
64,192,57009,1,0,0:0:0:70:kiick.wav
320,192,57152,1,0,0:0:0:0:
64,192,57152,1,0,0:0:0:0:
448,192,57295,1,0,0:0:0:0:
192,192,57295,1,0,0:0:0:0:
448,192,57438,1,0,0:0:0:0:
64,192,57438,1,0,0:0:0:70:kiick.wav
320,192,57581,1,0,0:0:0:0:
192,192,57724,1,0,0:0:0:0:
64,192,57724,1,0,0:0:0:0:
448,192,57866,1,0,0:0:0:0:
320,192,57866,1,0,0:0:0:50:snehh.wav
64,192,57866,1,0,0:0:0:70:kiick.wav
448,192,58009,1,0,0:0:0:0:
192,192,58009,1,0,0:0:0:0:
320,192,58152,1,0,0:0:0:0:
64,192,58152,1,0,0:0:0:0:
448,192,58295,1,0,0:0:0:0:
320,192,58295,1,0,0:0:0:70:kiick.wav
192,192,58438,1,0,0:0:0:0:
320,192,58581,1,0,0:0:0:0:
64,192,58581,1,0,0:0:0:0:
448,192,58724,1,0,0:0:0:0:
192,192,58724,1,0,0:0:0:50:snehh.wav
64,192,58724,1,0,0:0:0:70:kiick.wav
448,192,58866,1,0,0:0:0:0:
320,192,58866,1,0,0:0:0:0:
192,192,59009,1,0,0:0:0:0:
64,192,59009,1,0,0:0:0:0:
320,192,59152,1,0,0:0:0:0:
64,192,59152,1,0,0:0:0:70:kiick.wav
448,192,59295,1,0,0:0:0:0:
320,192,59438,1,0,0:0:0:0:
192,192,59438,1,0,0:0:0:0:
448,192,59581,1,0,0:0:0:0:
320,192,59581,1,0,0:0:0:50:snehh.wav
64,192,59581,1,0,0:0:0:70:kiick.wav
192,192,59724,1,0,0:0:0:0:
64,192,59724,1,0,0:0:0:0:
448,192,59866,1,0,0:0:0:0:
320,192,59866,1,0,0:0:0:0:
448,192,60009,1,0,0:0:0:0:
64,192,60009,1,0,0:0:0:70:kiick.wav
192,192,60152,1,0,0:0:0:0:
448,192,60295,1,0,0:0:0:0:
320,192,60295,1,0,0:0:0:0:
448,192,60438,1,0,0:0:0:0:
192,192,60438,1,0,0:0:0:50:snehh.wav
64,192,60438,1,0,0:0:0:70:kiick.wav
320,192,60581,1,0,0:0:0:0:
64,192,60581,1,0,0:0:0:0:
448,192,60724,1,0,0:0:0:0:
192,192,60724,1,0,0:0:0:0:
448,192,60866,1,0,0:0:0:0:
320,192,60866,1,0,0:0:0:70:kiick.wav
64,192,61009,1,0,0:0:0:0:
320,192,61152,1,0,0:0:0:0:
192,192,61152,1,0,0:0:0:0:
448,192,61295,1,0,0:0:0:0:
320,192,61295,1,0,0:0:0:50:snehh.wav
64,192,61295,1,0,0:0:0:70:kiick.wav
448,192,61438,1,0,0:0:0:0:
192,192,61438,1,0,0:0:0:0:
320,192,61581,1,0,0:0:0:0:
64,192,61581,1,0,0:0:0:0:
192,192,61724,1,0,0:0:0:0:
64,192,61724,1,0,0:0:0:70:kiick.wav
448,192,61866,1,0,0:0:0:0:
320,192,62009,1,0,0:0:0:0:
192,192,62009,1,0,0:0:0:0:
448,192,62152,1,0,0:0:0:0:
320,192,62152,1,0,0:0:0:50:snehh.wav
64,192,62152,1,0,0:0:0:70:kiick.wav
192,192,62295,1,0,0:0:0:0:
64,192,62295,1,0,0:0:0:0:
448,192,62438,1,0,0:0:0:0:
320,192,62438,1,0,0:0:0:0:
320,192,62581,1,0,0:0:0:0:
64,192,62581,1,0,0:0:0:70:kiick.wav
192,192,62724,1,0,0:0:0:0:
448,192,62866,1,0,0:0:0:0:
320,192,62866,1,0,0:0:0:0:
192,192,63009,1,0,0:0:0:0:
64,192,63009,1,0,0:0:0:30:tsh.wav
320,192,63081,1,0,0:0:0:30:tsh.wav
448,192,63152,1,0,0:0:0:30:tsh.wav
192,192,63152,1,0,0:0:0:70:kiick.wav
64,192,63224,1,0,0:0:0:30:tsh.wav
448,192,63295,1,0,0:0:0:30:tsh.wav
320,192,63295,1,0,0:0:0:70:kiick.wav
192,192,63366,1,0,0:0:0:30:tsh.wav
448,192,63438,1,0,0:0:0:30:tsh.wav
320,192,63438,1,0,0:0:0:70:kiick.wav
64,192,63438,1,0,0:0:0:100:fiinish.wav
192,192,63581,1,0,0:0:0:0:
448,192,63724,1,0,0:0:0:0:
320,192,63724,1,0,0:0:0:0:
448,192,63866,1,0,0:0:0:0:
192,192,63866,1,0,0:0:0:50:snehh.wav
64,192,63866,1,0,0:0:0:70:kiick.wav
320,192,64009,1,0,0:0:0:0:
64,192,64009,1,0,0:0:0:0:
448,192,64152,1,0,0:0:0:0:
192,192,64152,1,0,0:0:0:0:
448,192,64295,1,0,0:0:0:0:
320,192,64295,1,0,0:0:0:70:kiick.wav
192,192,64438,1,0,0:0:0:0:
448,192,64581,1,0,0:0:0:0:
64,192,64581,1,0,0:0:0:0:
320,192,64724,1,0,0:0:0:0:
192,192,64724,1,0,0:0:0:50:snehh.wav
64,192,64724,1,0,0:0:0:70:kiick.wav
448,192,64866,1,0,0:0:0:0:
192,192,64866,1,0,0:0:0:0:
320,192,65009,1,0,0:0:0:0:
64,192,65009,1,0,0:0:0:0:
448,192,65152,1,0,0:0:0:0:
320,192,65152,1,0,0:0:0:70:kiick.wav
192,192,65295,1,0,0:0:0:0:
448,192,65438,1,0,0:0:0:0:
64,192,65438,1,0,0:0:0:0:
448,192,65581,1,0,0:0:0:0:
320,192,65581,1,0,0:0:0:50:snehh.wav
192,192,65581,1,0,0:0:0:70:kiick.wav
192,192,65724,1,0,0:0:0:0:
64,192,65724,1,0,0:0:0:0:
448,192,65866,1,0,0:0:0:0:
320,192,65866,1,0,0:0:0:0:
448,192,66009,1,0,0:0:0:0:
192,192,66009,1,0,0:0:0:70:kiick.wav
64,192,66152,1,0,0:0:0:0:
320,192,66295,1,0,0:0:0:0:
192,192,66295,1,0,0:0:0:0:
448,192,66438,1,0,0:0:0:0:
320,192,66438,1,0,0:0:0:50:snehh.wav
64,192,66438,1,0,0:0:0:70:kiick.wav
448,192,66581,1,0,0:0:0:0:
192,192,66581,1,0,0:0:0:0:
320,192,66724,1,0,0:0:0:0:
64,192,66724,1,0,0:0:0:0:
448,192,66866,1,0,0:0:0:0:
320,192,66866,1,0,0:0:0:70:kiick.wav
192,192,67009,1,0,0:0:0:0:
448,192,67152,1,0,0:0:0:0:
64,192,67152,1,0,0:0:0:0:
448,192,67295,1,0,0:0:0:0:
320,192,67295,1,0,0:0:0:50:snehh.wav
192,192,67295,1,0,0:0:0:70:kiick.wav
320,192,67438,1,0,0:0:0:0:
64,192,67438,1,0,0:0:0:0:
448,192,67581,1,0,0:0:0:0:
192,192,67581,1,0,0:0:0:0:
192,192,67724,1,0,0:0:0:0:
64,192,67724,1,0,0:0:0:70:kiick.wav
448,192,67866,1,0,0:0:0:0:
320,192,68009,1,0,0:0:0:0:
192,192,68009,1,0,0:0:0:0:
448,192,68152,1,0,0:0:0:0:
320,192,68152,1,0,0:0:0:50:snehh.wav
64,192,68152,1,0,0:0:0:70:kiick.wav
448,192,68295,1,0,0:0:0:0:
192,192,68295,1,0,0:0:0:0:
320,192,68438,1,0,0:0:0:0:
64,192,68438,1,0,0:0:0:0:
320,192,68581,1,0,0:0:0:0:
192,192,68581,1,0,0:0:0:70:kiick.wav
64,192,68724,1,0,0:0:0:0:
448,192,68866,1,0,0:0:0:0:
320,192,68866,1,0,0:0:0:0:
448,192,69009,1,0,0:0:0:0:
192,192,69009,1,0,0:0:0:50:snehh.wav
64,192,69009,1,0,0:0:0:70:kiick.wav
320,192,69152,1,0,0:0:0:0:
64,192,69152,1,0,0:0:0:0:
448,192,69295,1,0,0:0:0:0:
192,192,69295,1,0,0:0:0:0:
448,192,69438,1,0,0:0:0:0:
320,192,69438,1,0,0:0:0:70:kiick.wav
192,192,69581,1,0,0:0:0:0:
320,192,69724,1,0,0:0:0:0:
64,192,69724,1,0,0:0:0:0:
448,192,69866,1,0,0:0:0:0:
192,192,69866,1,0,0:0:0:50:snehh.wav
64,192,69866,1,0,0:0:0:70:kiick.wav
448,192,70009,1,0,0:0:0:0:
320,192,70009,1,0,0:0:0:0:
192,192,70152,1,0,0:0:0:0:
64,192,70152,1,0,0:0:0:0:
448,192,70295,1,0,0:0:0:0:
64,192,70295,1,0,0:0:0:70:kiick.wav
320,192,70438,1,0,0:0:0:0:
192,192,70581,1,0,0:0:0:0:
64,192,70581,1,0,0:0:0:0:
448,192,70724,1,0,0:0:0:0:
320,192,70724,1,0,0:0:0:50:snehh.wav
64,192,70724,1,0,0:0:0:70:kiick.wav
320,192,70866,1,0,0:0:0:0:
192,192,70866,1,0,0:0:0:0:
448,192,71009,1,0,0:0:0:0:
64,192,71009,1,0,0:0:0:0:
192,192,71152,1,0,0:0:0:0:
64,192,71152,1,0,0:0:0:70:kiick.wav
320,192,71295,1,0,0:0:0:0:
448,192,71438,1,0,0:0:0:0:
64,192,71438,1,0,0:0:0:0:
448,192,71581,1,0,0:0:0:0:
320,192,71581,1,0,0:0:0:50:snehh.wav
192,192,71581,1,0,0:0:0:70:kiick.wav
192,192,71724,1,0,0:0:0:0:
64,192,71724,1,0,0:0:0:0:
448,192,71866,1,0,0:0:0:0:
320,192,71866,1,0,0:0:0:0:
448,192,72009,1,0,0:0:0:0:
192,192,72009,1,0,0:0:0:70:kiick.wav
64,192,72152,1,0,0:0:0:0:
320,192,72295,1,0,0:0:0:0:
192,192,72295,1,0,0:0:0:0:
448,192,72438,1,0,0:0:0:0:
320,192,72438,1,0,0:0:0:50:snehh.wav
64,192,72438,1,0,0:0:0:70:kiick.wav
448,192,72581,1,0,0:0:0:0:
192,192,72581,1,0,0:0:0:0:
320,192,72724,1,0,0:0:0:0:
64,192,72724,1,0,0:0:0:0:
320,192,72866,1,0,0:0:0:0:
192,192,72866,1,0,0:0:0:70:kiick.wav
448,192,73009,1,0,0:0:0:0:
192,192,73152,1,0,0:0:0:0:
64,192,73152,1,0,0:0:0:0:
448,192,73295,1,0,0:0:0:0:
320,192,73295,1,0,0:0:0:50:snehh.wav
64,192,73295,1,0,0:0:0:70:kiick.wav
320,192,73438,1,0,0:0:0:0:
192,192,73438,1,0,0:0:0:0:
448,192,73581,1,0,0:0:0:0:
64,192,73581,1,0,0:0:0:0:
192,192,73724,1,0,0:0:0:0:
64,192,73724,1,0,0:0:0:70:kiick.wav
448,192,73866,1,0,0:0:0:0:
320,192,74009,1,0,0:0:0:0:
64,192,74009,1,0,0:0:0:0:
448,192,74152,1,0,0:0:0:0:
320,192,74152,1,0,0:0:0:50:snehh.wav
192,192,74152,1,0,0:0:0:70:kiick.wav
192,192,74295,1,0,0:0:0:0:
64,192,74295,1,0,0:0:0:0:
448,192,74438,1,0,0:0:0:0:
320,192,74438,1,0,0:0:0:0:
448,192,74581,1,0,0:0:0:0:
192,192,74581,1,0,0:0:0:70:kiick.wav
64,192,74724,1,0,0:0:0:0:
448,192,74866,1,0,0:0:0:0:
320,192,74866,1,0,0:0:0:0:
448,192,75009,1,0,0:0:0:0:
192,192,75009,1,0,0:0:0:50:snehh.wav
64,192,75009,1,0,0:0:0:70:kiick.wav
320,192,75152,1,0,0:0:0:0:
192,192,75152,1,0,0:0:0:0:
448,192,75295,1,0,0:0:0:0:
64,192,75295,1,0,0:0:0:0:
320,192,75438,1,0,0:0:0:0:
64,192,75438,1,0,0:0:0:70:kiick.wav
192,192,75581,1,0,0:0:0:0:
448,192,75724,1,0,0:0:0:0:
320,192,75724,1,0,0:0:0:0:
448,192,75866,1,0,0:0:0:0:
192,192,75866,1,0,0:0:0:50:snehh.wav
64,192,75866,1,0,0:0:0:70:kiick.wav
320,192,76009,1,0,0:0:0:0:
64,192,76009,1,0,0:0:0:0:
448,192,76152,1,0,0:0:0:0:
192,192,76152,1,0,0:0:0:0:
192,192,76295,1,0,0:0:0:0:
64,192,76295,1,0,0:0:0:70:kiick.wav
320,192,76438,1,0,0:0:0:0:
448,192,76581,1,0,0:0:0:0:
64,192,76581,1,0,0:0:0:0:
448,192,76724,1,0,0:0:0:0:
320,192,76724,1,0,0:0:0:50:snehh.wav
192,192,76724,1,0,0:0:0:70:kiick.wav
320,192,76866,1,0,0:0:0:0:
64,192,76866,1,0,0:0:0:0:
448,192,77009,1,0,0:0:0:0:
192,192,77009,1,0,0:0:0:70:kiick.wav
448,192,77152,1,0,0:0:0:0:
192,192,77152,1,0,0:0:0:70:kiick.wav
64,192,77152,1,0,0:0:0:100:fiinish.wav
320,192,77295,1,0,0:0:0:0:
192,192,77438,1,0,0:0:0:0:
64,192,77438,1,0,0:0:0:0:
448,192,77581,1,0,0:0:0:0:
320,192,77581,1,0,0:0:0:50:snehh.wav
64,192,77581,1,0,0:0:0:70:kiick.wav
448,192,77724,1,0,0:0:0:0:
192,192,77724,1,0,0:0:0:0:
320,192,77866,1,0,0:0:0:0:
64,192,77866,1,0,0:0:0:0:
448,192,78009,1,0,0:0:0:0:
64,192,78009,1,0,0:0:0:70:kiick.wav
192,192,78152,1,0,0:0:0:0:
448,192,78295,1,0,0:0:0:0:
320,192,78295,1,0,0:0:0:0:
448,192,78438,1,0,0:0:0:0:
192,192,78438,1,0,0:0:0:50:snehh.wav
64,192,78438,1,0,0:0:0:70:kiick.wav
320,192,78581,1,0,0:0:0:0:
192,192,78581,1,0,0:0:0:0:
448,192,78724,1,0,0:0:0:0:
64,192,78724,1,0,0:0:0:0:
192,192,78866,1,0,0:0:0:0:
64,192,78866,1,0,0:0:0:70:kiick.wav
320,192,79009,1,0,0:0:0:0:
448,192,79152,1,0,0:0:0:0:
64,192,79152,1,0,0:0:0:0:
448,192,79295,1,0,0:0:0:0:
320,192,79295,1,0,0:0:0:50:snehh.wav
192,192,79295,1,0,0:0:0:70:kiick.wav
320,192,79438,1,0,0:0:0:0:
64,192,79438,1,0,0:0:0:0:
448,192,79581,1,0,0:0:0:0:
192,192,79581,1,0,0:0:0:0:
192,192,79724,1,0,0:0:0:0:
64,192,79724,1,0,0:0:0:70:kiick.wav
320,192,79866,1,0,0:0:0:0:
448,192,80009,1,0,0:0:0:0:
192,192,80009,1,0,0:0:0:0:
448,192,80152,1,0,0:0:0:0:
320,192,80152,1,0,0:0:0:50:snehh.wav
64,192,80152,1,0,0:0:0:70:kiick.wav
320,192,80295,1,0,0:0:0:0:
192,192,80295,1,0,0:0:0:0:
448,192,80438,1,0,0:0:0:0:
64,192,80438,1,0,0:0:0:0:
448,192,80581,1,0,0:0:0:0:
320,192,80581,1,0,0:0:0:70:kiick.wav
192,192,80724,1,0,0:0:0:0:
320,192,80866,1,0,0:0:0:0:
64,192,80866,1,0,0:0:0:0:
448,192,81009,1,0,0:0:0:0:
320,192,81009,1,0,0:0:0:50:snehh.wav
192,192,81009,1,0,0:0:0:70:kiick.wav
448,192,81152,1,0,0:0:0:0:
64,192,81152,1,0,0:0:0:0:
320,192,81295,1,0,0:0:0:0:
192,192,81295,1,0,0:0:0:0:
192,192,81438,1,0,0:0:0:0:
64,192,81438,1,0,0:0:0:70:kiick.wav
448,192,81581,1,0,0:0:0:0:
320,192,81724,1,0,0:0:0:0:
64,192,81724,1,0,0:0:0:0:
448,192,81866,1,0,0:0:0:0:
320,192,81866,1,0,0:0:0:50:snehh.wav
192,192,81866,1,0,0:0:0:70:kiick.wav
192,192,82009,1,0,0:0:0:0:
64,192,82009,1,0,0:0:0:0:
448,192,82152,1,0,0:0:0:0:
320,192,82152,1,0,0:0:0:0:
448,192,82295,1,0,0:0:0:0:
192,192,82295,1,0,0:0:0:70:kiick.wav
64,192,82438,1,0,0:0:0:0:
320,192,82581,1,0,0:0:0:0:
192,192,82581,1,0,0:0:0:0:
448,192,82724,1,0,0:0:0:0:
192,192,82724,1,0,0:0:0:50:snehh.wav
64,192,82724,1,0,0:0:0:70:kiick.wav
320,192,82866,1,0,0:0:0:0:
64,192,82866,1,0,0:0:0:0:
448,192,83009,1,0,0:0:0:0:
192,192,83009,1,0,0:0:0:0:
448,192,83152,1,0,0:0:0:0:
64,192,83152,1,0,0:0:0:70:kiick.wav
320,192,83295,1,0,0:0:0:0:
192,192,83438,1,0,0:0:0:0:
64,192,83438,1,0,0:0:0:0:
448,192,83581,1,0,0:0:0:0:
320,192,83581,1,0,0:0:0:50:snehh.wav
192,192,83581,1,0,0:0:0:70:kiick.wav
448,192,83724,1,0,0:0:0:0:
64,192,83724,1,0,0:0:0:0:
320,192,83866,1,0,0:0:0:0:
192,192,83866,1,0,0:0:0:0:
448,192,84009,1,0,0:0:0:0:
192,192,84009,1,0,0:0:0:70:kiick.wav
320,192,84152,1,0,0:0:0:0:
192,192,84295,1,0,0:0:0:0:
64,192,84295,1,0,0:0:0:0:
448,192,84438,1,0,0:0:0:0:
320,192,84438,1,0,0:0:0:50:snehh.wav
64,192,84438,1,0,0:0:0:70:kiick.wav
448,192,84581,1,0,0:0:0:0:
192,192,84581,1,0,0:0:0:0:
320,192,84724,1,0,0:0:0:0:
64,192,84724,1,0,0:0:0:0:
448,192,84866,1,0,0:0:0:0:
64,192,84866,1,0,0:0:0:70:kiick.wav
192,192,85009,1,0,0:0:0:0:
448,192,85152,1,0,0:0:0:0:
320,192,85152,1,0,0:0:0:0:
448,192,85295,1,0,0:0:0:0:
192,192,85295,1,0,0:0:0:50:snehh.wav
64,192,85295,1,0,0:0:0:70:kiick.wav
320,192,85438,1,0,0:0:0:0:
64,192,85438,1,0,0:0:0:0:
448,192,85581,1,0,0:0:0:0:
192,192,85581,1,0,0:0:0:0:
192,192,85724,1,0,0:0:0:0:
64,192,85724,1,0,0:0:0:70:kiick.wav
320,192,85866,1,0,0:0:0:0:
448,192,86009,1,0,0:0:0:0:
192,192,86009,1,0,0:0:0:0:
448,192,86152,1,0,0:0:0:0:
320,192,86152,1,0,0:0:0:50:snehh.wav
64,192,86152,1,0,0:0:0:70:kiick.wav
192,192,86295,1,0,0:0:0:0:
64,192,86295,1,0,0:0:0:0:
448,192,86438,1,0,0:0:0:0:
320,192,86438,1,0,0:0:0:0:
448,192,86581,1,0,0:0:0:0:
192,192,86581,1,0,0:0:0:70:kiick.wav
64,192,86724,1,0,0:0:0:0:
320,192,86866,1,0,0:0:0:0:
192,192,86866,1,0,0:0:0:0:
448,192,87009,1,0,0:0:0:0:
192,192,87009,1,0,0:0:0:50:snehh.wav
64,192,87009,1,0,0:0:0:70:kiick.wav
448,192,87152,1,0,0:0:0:0:
320,192,87152,1,0,0:0:0:0:
192,192,87295,1,0,0:0:0:0:
64,192,87295,1,0,0:0:0:0:
448,192,87438,1,0,0:0:0:0:
64,192,87438,1,0,0:0:0:70:kiick.wav
320,192,87581,1,0,0:0:0:0:
192,192,87724,1,0,0:0:0:0:
64,192,87724,1,0,0:0:0:0:
448,192,87866,1,0,0:0:0:0:
320,192,87866,1,0,0:0:0:50:snehh.wav
64,192,87866,1,0,0:0:0:70:kiick.wav
448,192,88009,1,0,0:0:0:0:
192,192,88009,1,0,0:0:0:0:
320,192,88152,1,0,0:0:0:0:
64,192,88152,1,0,0:0:0:0:
192,192,88295,1,0,0:0:0:0:
64,192,88295,1,0,0:0:0:70:kiick.wav
448,192,88438,1,0,0:0:0:0:
320,192,88581,1,0,0:0:0:0:
192,192,88581,1,0,0:0:0:0:
448,192,88724,1,0,0:0:0:0:
192,192,88724,1,0,0:0:0:50:snehh.wav
64,192,88724,1,0,0:0:0:70:kiick.wav
320,192,88866,1,0,0:0:0:0:
64,192,88866,1,0,0:0:0:0:
448,192,89009,1,0,0:0:0:0:
192,192,89009,1,0,0:0:0:0:
448,192,89152,1,0,0:0:0:0:
320,192,89152,1,0,0:0:0:70:kiick.wav
64,192,89295,1,0,0:0:0:0:
448,192,89438,1,0,0:0:0:0:
192,192,89438,1,0,0:0:0:0:
448,192,89581,1,0,0:0:0:0:
320,192,89581,1,0,0:0:0:50:snehh.wav
64,192,89581,1,0,0:0:0:70:kiick.wav
192,192,89724,1,0,0:0:0:0:
64,192,89724,1,0,0:0:0:0:
448,192,89866,1,0,0:0:0:0:
320,192,89866,1,0,0:0:0:0:
448,192,90009,1,0,0:0:0:0:
64,192,90009,1,0,0:0:0:70:kiick.wav
192,192,90152,1,0,0:0:0:0:
448,192,90295,1,0,0:0:0:0:
320,192,90295,1,0,0:0:0:0:
192,192,90438,1,0,0:0:0:0:
64,192,90438,1,0,0:0:0:30:tsh.wav
448,192,90509,1,0,0:0:0:30:tsh.wav
320,192,90581,1,0,0:0:0:30:tsh.wav
64,192,90581,1,0,0:0:0:70:kiick.wav
192,192,90652,1,0,0:0:0:30:tsh.wav
448,192,90724,1,0,0:0:0:30:tsh.wav
320,192,90724,1,0,0:0:0:70:kiick.wav
64,192,90795,1,0,0:0:0:30:tsh.wav
448,192,90866,1,0,0:0:0:30:tsh.wav
320,192,90866,1,0,0:0:0:70:kiick.wav
192,192,90866,1,0,0:0:0:100:fiinish.wav
192,192,91009,1,0,0:0:0:0:
448,192,91152,1,0,0:0:0:0:
320,192,91295,1,0,0:0:0:0:
192,192,91295,1,0,0:0:0:50:snehh.wav
64,192,91295,1,0,0:0:0:70:kiick.wav
320,192,91438,1,0,0:0:0:0:
64,192,91581,1,0,0:0:0:0:
448,192,91724,1,0,0:0:0:0:
192,192,91724,1,0,0:0:0:70:kiick.wav
448,192,91866,1,0,0:0:0:0:
192,192,92009,1,0,0:0:0:0:
448,192,92152,1,0,0:0:0:0:
320,192,92152,1,0,0:0:0:50:snehh.wav
64,192,92152,1,0,0:0:0:70:kiick.wav
64,192,92295,1,0,0:0:0:0:
320,192,92438,1,0,0:0:0:0:
448,192,92581,1,0,0:0:0:0:
192,192,92581,1,0,0:0:0:70:kiick.wav
192,192,92724,1,0,0:0:0:0:
320,192,92866,1,0,0:0:0:0:
448,192,93009,1,0,0:0:0:0:
192,192,93009,1,0,0:0:0:50:snehh.wav
64,192,93009,1,0,0:0:0:70:kiick.wav
64,192,93152,1,0,0:0:0:0:
192,192,93295,1,0,0:0:0:0:
448,192,93438,1,0,0:0:0:0:
320,192,93438,1,0,0:0:0:70:kiick.wav
320,192,93581,1,0,0:0:0:0:
192,192,93724,1,0,0:0:0:0:
448,192,93866,1,0,0:0:0:0:
320,192,93866,1,0,0:0:0:50:snehh.wav
64,192,93866,1,0,0:0:0:70:kiick.wav
64,192,94009,1,0,0:0:0:0:
320,192,94152,1,0,0:0:0:0:
448,192,94295,1,0,0:0:0:0:
192,192,94295,1,0,0:0:0:70:kiick.wav
448,192,94438,1,0,0:0:0:0:
192,192,94581,1,0,0:0:0:0:
448,192,94724,1,0,0:0:0:0:
320,192,94724,1,0,0:0:0:50:snehh.wav
64,192,94724,1,0,0:0:0:70:kiick.wav
448,192,94866,1,0,0:0:0:0:
192,192,95009,1,0,0:0:0:0:
320,192,95152,1,0,0:0:0:0:
64,192,95152,1,0,0:0:0:70:kiick.wav
64,192,95295,1,0,0:0:0:0:
320,192,95438,1,0,0:0:0:0:
448,192,95581,1,0,0:0:0:0:
192,192,95581,1,0,0:0:0:50:snehh.wav
64,192,95581,1,0,0:0:0:70:kiick.wav
64,192,95724,1,0,0:0:0:0:
448,192,95866,1,0,0:0:0:0:
320,192,96009,1,0,0:0:0:0:
64,192,96009,1,0,0:0:0:70:kiick.wav
320,192,96152,1,0,0:0:0:0:
192,192,96295,1,0,0:0:0:0:
448,192,96438,1,0,0:0:0:0:
320,192,96438,1,0,0:0:0:50:snehh.wav
64,192,96438,1,0,0:0:0:70:kiick.wav
64,192,96581,1,0,0:0:0:0:
192,192,96724,1,0,0:0:0:0:
448,192,96866,1,0,0:0:0:0:
320,192,96866,1,0,0:0:0:70:kiick.wav
448,192,97009,1,0,0:0:0:0:
192,192,97152,1,0,0:0:0:0:
448,192,97295,1,0,0:0:0:0:
320,192,97295,1,0,0:0:0:50:snehh.wav
64,192,97295,1,0,0:0:0:70:kiick.wav
320,192,97438,1,0,0:0:0:0:
64,192,97581,1,0,0:0:0:0:
448,192,97724,1,0,0:0:0:0:
192,192,97724,1,0,0:0:0:70:kiick.wav
192,192,97866,1,0,0:0:0:0:
320,192,98009,1,0,0:0:0:0:
448,192,98152,1,0,0:0:0:0:
192,192,98152,1,0,0:0:0:50:snehh.wav
64,192,98152,1,0,0:0:0:70:kiick.wav
64,192,98295,1,0,0:0:0:0:
320,192,98438,1,0,0:0:0:0:
448,192,98581,1,0,0:0:0:0:
192,192,98581,1,0,0:0:0:70:kiick.wav
448,192,98724,1,0,0:0:0:0:
64,192,98866,1,0,0:0:0:0:
448,192,99009,1,0,0:0:0:0:
320,192,99009,1,0,0:0:0:50:snehh.wav
192,192,99009,1,0,0:0:0:70:kiick.wav
192,192,99152,1,0,0:0:0:0:
448,192,99295,1,0,0:0:0:0:
320,192,99438,1,0,0:0:0:0:
64,192,99438,1,0,0:0:0:70:kiick.wav
320,192,99581,1,0,0:0:0:0:
192,192,99724,1,0,0:0:0:0:
448,192,99866,1,0,0:0:0:0:
320,192,99866,1,0,0:0:0:50:snehh.wav
64,192,99866,1,0,0:0:0:70:kiick.wav
64,192,100009,1,0,0:0:0:0:
448,192,100152,1,0,0:0:0:0:
320,192,100295,1,0,0:0:0:0:
192,192,100295,1,0,0:0:0:70:kiick.wav
320,192,100438,1,0,0:0:0:0:
192,192,100581,1,0,0:0:0:0:
448,192,100724,1,0,0:0:0:0:
320,192,100724,1,0,0:0:0:50:snehh.wav
64,192,100724,1,0,0:0:0:70:kiick.wav
448,192,100866,1,0,0:0:0:0:
64,192,100938,1,0,0:0:0:0:
320,192,101009,1,0,0:0:0:0:
192,192,101152,1,0,0:0:0:0:
64,192,101152,1,0,0:0:0:70:kiick.wav
192,192,101295,1,0,0:0:0:0:
320,192,101438,1,0,0:0:0:0:
448,192,101581,1,0,0:0:0:0:
192,192,101581,1,0,0:0:0:50:snehh.wav
64,192,101581,1,0,0:0:0:70:kiick.wav
192,192,101724,1,0,0:0:0:0:
448,192,101866,1,0,0:0:0:0:
320,192,102009,1,0,0:0:0:0:
64,192,102009,1,0,0:0:0:70:kiick.wav
320,192,102152,1,0,0:0:0:0:
192,192,102295,1,0,0:0:0:0:
448,192,102438,1,0,0:0:0:0:
320,192,102438,1,0,0:0:0:50:snehh.wav
64,192,102438,1,0,0:0:0:70:kiick.wav
320,192,102581,1,0,0:0:0:0:
64,192,102724,1,0,0:0:0:0:
448,192,102866,1,0,0:0:0:0:
192,192,102866,1,0,0:0:0:70:kiick.wav
192,192,103009,1,0,0:0:0:0:
320,192,103152,1,0,0:0:0:0:
448,192,103295,1,0,0:0:0:0:
192,192,103295,1,0,0:0:0:50:snehh.wav
64,192,103295,1,0,0:0:0:70:kiick.wav
64,192,103438,1,0,0:0:0:0:
448,192,103581,1,0,0:0:0:0:
320,192,103724,1,0,0:0:0:0:
64,192,103724,1,0,0:0:0:70:kiick.wav
320,192,103866,1,0,0:0:0:0:
192,192,104009,1,0,0:0:0:0:
448,192,104152,1,0,0:0:0:0:
320,192,104152,1,0,0:0:0:50:snehh.wav
64,192,104152,1,0,0:0:0:70:kiick.wav
448,192,104295,1,0,0:0:0:0:
320,192,104438,1,0,0:0:0:0:
64,192,104438,1,0,0:0:0:70:kiick.wav
448,192,104581,1,0,0:0:0:0:
192,192,104581,1,0,0:0:0:70:kiick.wav
64,192,104581,1,0,0:0:0:100:fiinish.wav
448,192,104724,1,0,0:0:0:0:
64,192,104866,1,0,0:0:0:0:
448,192,105009,1,0,0:0:0:0:
320,192,105009,1,0,0:0:0:50:snehh.wav
192,192,105009,1,0,0:0:0:70:kiick.wav
192,192,105152,1,0,0:0:0:0:
448,192,105295,1,0,0:0:0:0:
320,192,105438,1,0,0:0:0:0:
64,192,105438,1,0,0:0:0:70:kiick.wav
64,192,105581,1,0,0:0:0:0:
320,192,105724,1,0,0:0:0:0:
448,192,105866,1,0,0:0:0:0:
192,192,105866,1,0,0:0:0:50:snehh.wav
64,192,105866,1,0,0:0:0:70:kiick.wav
448,192,106009,1,0,0:0:0:0:
192,192,106152,1,0,0:0:0:0:
320,192,106295,1,0,0:0:0:0:
64,192,106295,1,0,0:0:0:70:kiick.wav
320,192,106438,1,0,0:0:0:0:
192,192,106581,1,0,0:0:0:0:
448,192,106724,1,0,0:0:0:0:
320,192,106724,1,0,0:0:0:50:snehh.wav
64,192,106724,1,0,0:0:0:70:kiick.wav
448,192,106866,1,0,0:0:0:0:
320,192,107009,1,0,0:0:0:0:
192,192,107152,1,0,0:0:0:0:
64,192,107152,1,0,0:0:0:70:kiick.wav
192,192,107295,1,0,0:0:0:0:
320,192,107438,1,0,0:0:0:0:
448,192,107581,1,0,0:0:0:0:
192,192,107581,1,0,0:0:0:50:snehh.wav
64,192,107581,1,0,0:0:0:70:kiick.wav
448,192,107724,1,0,0:0:0:0:
192,192,107866,1,0,0:0:0:0:
320,192,108009,1,0,0:0:0:0:
64,192,108009,1,0,0:0:0:70:kiick.wav
64,192,108152,1,0,0:0:0:0:
320,192,108295,1,0,0:0:0:0:
448,192,108438,1,0,0:0:0:0:
192,192,108438,1,0,0:0:0:50:snehh.wav
64,192,108438,1,0,0:0:0:70:kiick.wav
64,192,108581,1,0,0:0:0:0:
320,192,108724,1,0,0:0:0:0:
448,192,108866,1,0,0:0:0:0:
192,192,108866,1,0,0:0:0:70:kiick.wav
448,192,109009,1,0,0:0:0:0:
192,192,109152,1,0,0:0:0:0:
448,192,109295,1,0,0:0:0:0:
320,192,109295,1,0,0:0:0:50:snehh.wav
64,192,109295,1,0,0:0:0:70:kiick.wav
448,192,109438,1,0,0:0:0:0:
64,192,109581,1,0,0:0:0:0:
448,192,109724,1,0,0:0:0:0:
192,192,109724,1,0,0:0:0:70:kiick.wav
192,192,109866,1,0,0:0:0:0:
320,192,110009,1,0,0:0:0:0:
448,192,110152,1,0,0:0:0:0:
192,192,110152,1,0,0:0:0:50:snehh.wav
64,192,110152,1,0,0:0:0:70:kiick.wav
448,192,110295,1,0,0:0:0:0:
320,192,110438,1,0,0:0:0:0:
192,192,110581,1,0,0:0:0:0:
64,192,110581,1,0,0:0:0:70:kiick.wav
64,192,110724,1,0,0:0:0:0:
320,192,110866,1,0,0:0:0:0:
448,192,111009,1,0,0:0:0:0:
192,192,111009,1,0,0:0:0:50:snehh.wav
64,192,111009,1,0,0:0:0:70:kiick.wav
192,192,111152,1,0,0:0:0:0:
448,192,111295,1,0,0:0:0:0:
320,192,111438,1,0,0:0:0:20:tsh.wav
64,192,111438,1,0,0:0:0:70:kiick.wav
320,192,111581,1,0,0:0:0:20:tsh.wav
192,192,111724,1,0,0:0:0:20:tsh.wav
448,192,111866,1,0,0:0:0:20:tsh.wav
320,192,111866,1,0,0:0:0:50:snehh.wav
64,192,111866,1,0,0:0:0:70:kiick.wav
448,192,112009,1,0,0:0:0:20:tsh.wav
192,192,112152,1,0,0:0:0:20:tsh.wav
320,192,112295,1,0,0:0:0:20:tsh.wav
64,192,112295,1,0,0:0:0:70:kiick.wav
64,192,112438,1,0,0:0:0:20:tsh.wav
448,192,112581,1,0,0:0:0:20:tsh.wav
320,192,112724,1,0,0:0:0:20:tsh.wav
192,192,112724,1,0,0:0:0:50:snehh.wav
64,192,112724,1,0,0:0:0:70:kiick.wav
320,192,112866,1,0,0:0:0:20:tsh.wav
64,192,113009,1,0,0:0:0:20:tsh.wav
448,192,113152,1,0,0:0:0:20:tsh.wav
192,192,113152,1,0,0:0:0:70:kiick.wav
192,192,113295,1,0,0:0:0:20:tsh.wav
320,192,113438,1,0,0:0:0:20:tsh.wav
448,192,113581,1,0,0:0:0:20:tsh.wav
192,192,113581,1,0,0:0:0:50:snehh.wav
64,192,113581,1,0,0:0:0:70:kiick.wav
448,192,113724,1,0,0:0:0:20:tsh.wav
64,192,113866,1,0,0:0:0:20:tsh.wav
320,192,114009,1,0,0:0:0:20:tsh.wav
192,192,114009,1,0,0:0:0:70:kiick.wav
192,192,114152,1,0,0:0:0:20:tsh.wav
320,192,114295,1,0,0:0:0:20:tsh.wav
448,192,114438,1,0,0:0:0:20:tsh.wav
192,192,114438,1,0,0:0:0:50:snehh.wav
64,192,114438,1,0,0:0:0:70:kiick.wav
64,192,114581,1,0,0:0:0:20:tsh.wav
448,192,114652,1,0,0:0:0:0:
192,192,114724,1,0,0:0:0:20:tsh.wav
448,192,114866,1,0,0:0:0:20:tsh.wav
320,192,114866,1,0,0:0:0:70:kiick.wav
320,192,115009,1,0,0:0:0:20:tsh.wav
192,192,115152,1,0,0:0:0:20:tsh.wav
448,192,115295,1,0,0:0:0:20:tsh.wav
320,192,115295,1,0,0:0:0:50:snehh.wav
64,192,115295,1,0,0:0:0:70:kiick.wav
320,192,115438,1,0,0:0:0:20:tsh.wav
64,192,115581,1,0,0:0:0:20:tsh.wav
448,192,115724,1,0,0:0:0:20:tsh.wav
192,192,115724,1,0,0:0:0:70:kiick.wav
192,192,115866,1,0,0:0:0:20:tsh.wav
320,192,116009,1,0,0:0:0:20:tsh.wav
448,192,116152,1,0,0:0:0:20:tsh.wav
192,192,116152,1,0,0:0:0:50:snehh.wav
64,192,116152,1,0,0:0:0:70:kiick.wav
192,192,116295,1,0,0:0:0:20:tsh.wav
320,192,116438,1,0,0:0:0:20:tsh.wav
448,192,116581,1,0,0:0:0:25:tsh.wav
64,192,116581,1,0,0:0:0:70:kiick.wav
64,192,116724,1,0,0:0:0:25:tsh.wav
320,192,116866,1,0,0:0:0:25:tsh.wav
448,192,117009,1,0,0:0:0:25:tsh.wav
192,192,117009,1,0,0:0:0:50:snehh.wav
64,192,117009,1,0,0:0:0:70:kiick.wav
192,192,117152,1,0,0:0:0:25:tsh.wav
448,192,117295,1,0,0:0:0:25:tsh.wav
320,192,117438,1,0,0:0:0:25:tsh.wav
64,192,117438,1,0,0:0:0:70:kiick.wav
320,192,117581,1,0,0:0:0:25:tsh.wav
192,192,117724,1,0,0:0:0:25:tsh.wav
448,192,117866,1,0,0:0:0:0:
64,192,117866,1,0,0:0:0:30:tsh.wav
320,192,117938,1,0,0:0:0:30:tsh.wav
448,192,118009,1,0,0:0:0:30:tsh.wav
192,192,118009,1,0,0:0:0:70:kiick.wav
64,192,118081,1,0,0:0:0:30:tsh.wav
448,192,118152,1,0,0:0:0:30:tsh.wav
320,192,118152,1,0,0:0:0:70:kiick.wav
192,192,118224,1,0,0:0:0:30:tsh.wav
448,192,118295,1,0,0:0:0:30:tsh.wav
320,192,118295,1,0,0:0:0:70:kiick.wav
64,192,118295,1,0,0:0:0:100:fiinish.wav
