osu file format v14

[General]
AudioFilename: audio.mp3
AudioLeadIn: 0
PreviewTime: 36009
Countdown: 0
SampleSet: Soft
StackLeniency: 0.7
Mode: 3
LetterboxInBreaks: 0
SpecialStyle: 0
WidescreenStoryboard: 1

[Editor]
Bookmarks: 8581,22295,36009,63438,90866,104581
DistanceSpacing: 1.2
BeatDivisor: 3
GridSize: 32
TimelineZoom: 0.3999998

[Metadata]
Title:EternuS
TitleUnicode:EternuS
Artist:Sanxion7
ArtistUnicode:Sanxion7
Creator:Irone OSU
Version:Beginner
Source:DanceDanceRevolution SuperNOVA2
Tags:riunosk epic trance Dancing Stage DDR SN2 CS electronic videogame video game instrumental 2007 SLAYBR004 DDR Broadjam Song Contest Anthony Tony Konzel Saxxon Fox Pleska Saxxonpike Pump It Up PRO2 PIU ReRave StepmaniaX Limited Edition Music Sampler V-RARE SOUNDTRACK-14 USA U.S.A.
BeatmapID:3268269
BeatmapSetID:1600318

[Difficulty]
HPDrainRate:6
CircleSize:4
OverallDifficulty:6
ApproachRate:5
SliderMultiplier:1.4
SliderTickRate:1

[Events]
//Background and Video events
0,0,"29496516_p0.jpg",0,0
//Break Periods
//Storyboard Layer 0 (Background)
//Storyboard Layer 1 (Fail)
//Storyboard Layer 2 (Pass)
//Storyboard Layer 3 (Foreground)
//Storyboard Layer 4 (Overlay)
//Storyboard Sound Samples
Sample,1724,0,"kiick.wav",70
Sample,2152,0,"snehh.wav",50
Sample,3009,0,"snehh.wav",50
Sample,3866,0,"snehh.wav",50
Sample,4724,0,"snehh.wav",50
Sample,5152,0,"tsh.wav",20
Sample,5581,0,"snehh.wav",50
Sample,5581,0,"tsh.wav",20
Sample,6009,0,"tsh.wav",20
Sample,6438,0,"snehh.wav",50
Sample,6438,0,"tsh.wav",20
Sample,6866,0,"tsh.wav",25
Sample,7295,0,"snehh.wav",50
Sample,7295,0,"tsh.wav",25
Sample,7724,0,"tsh.wav",25
Sample,8581,0,"kiick.wav",70
Sample,8581,0,"tsh.wav",30
Sample,22295,0,"kiick.wav",70
Sample,22295,0,"tsh.wav",30
Sample,25724,0,"kiick.wav",70
Sample,29152,0,"kiick.wav",70
Sample,29152,0,"tsh.wav",20
Sample,30866,0,"kiick.wav",70
Sample,30866,0,"tsh.wav",20
Sample,32581,0,"kiick.wav",70
Sample,32581,0,"tsh.wav",20
Sample,34295,0,"kiick.wav",70
Sample,34295,0,"tsh.wav",25
Sample,36009,0,"kiick.wav",70
Sample,36009,0,"tsh.wav",30
Sample,36438,0,"snehh.wav",50
Sample,37295,0,"snehh.wav",50
Sample,38152,0,"snehh.wav",50
Sample,39009,0,"snehh.wav",50
Sample,39866,0,"snehh.wav",50
Sample,40724,0,"snehh.wav",50
Sample,41581,0,"snehh.wav",50
Sample,42438,0,"snehh.wav",50
Sample,43295,0,"snehh.wav",50
Sample,44152,0,"snehh.wav",50
Sample,45009,0,"snehh.wav",50
Sample,45866,0,"snehh.wav",50
Sample,46724,0,"snehh.wav",50
Sample,47581,0,"snehh.wav",50
Sample,48438,0,"snehh.wav",50
Sample,49295,0,"snehh.wav",50
Sample,49724,0,"kiick.wav",70
Sample,50152,0,"snehh.wav",50
Sample,51009,0,"snehh.wav",50
Sample,51866,0,"snehh.wav",50
Sample,52724,0,"snehh.wav",50
Sample,53581,0,"snehh.wav",50
Sample,54438,0,"snehh.wav",50
Sample,55295,0,"snehh.wav",50
Sample,56152,0,"snehh.wav",50
Sample,57009,0,"snehh.wav",50
Sample,57866,0,"snehh.wav",50
Sample,58724,0,"snehh.wav",50
Sample,59581,0,"snehh.wav",50
Sample,60438,0,"snehh.wav",50
Sample,61295,0,"snehh.wav",50
Sample,62152,0,"snehh.wav",50
Sample,63438,0,"kiick.wav",70
Sample,63438,0,"tsh.wav",30
Sample,63866,0,"snehh.wav",50
Sample,64724,0,"snehh.wav",50
Sample,65581,0,"snehh.wav",50
Sample,66438,0,"snehh.wav",50
Sample,67295,0,"snehh.wav",50
Sample,68152,0,"snehh.wav",50
Sample,69009,0,"snehh.wav",50
Sample,69866,0,"snehh.wav",50
Sample,70724,0,"snehh.wav",50
Sample,71581,0,"snehh.wav",50
Sample,72438,0,"snehh.wav",50
Sample,73295,0,"snehh.wav",50
Sample,74152,0,"snehh.wav",50
Sample,75009,0,"snehh.wav",50
Sample,75866,0,"snehh.wav",50
Sample,76724,0,"snehh.wav",50
Sample,77152,0,"kiick.wav",70
Sample,77581,0,"snehh.wav",50
Sample,78438,0,"snehh.wav",50
Sample,79295,0,"snehh.wav",50
Sample,80152,0,"snehh.wav",50
Sample,81009,0,"snehh.wav",50
Sample,81866,0,"snehh.wav",50
Sample,82724,0,"snehh.wav",50
Sample,83581,0,"snehh.wav",50
Sample,84438,0,"snehh.wav",50
Sample,85295,0,"snehh.wav",50
Sample,86152,0,"snehh.wav",50
Sample,87009,0,"snehh.wav",50
Sample,87866,0,"snehh.wav",50
Sample,88724,0,"snehh.wav",50
Sample,89581,0,"snehh.wav",50
Sample,90866,0,"kiick.wav",70
Sample,90866,0,"tsh.wav",30
Sample,92152,0,"snehh.wav",50
Sample,93866,0,"snehh.wav",50
Sample,95581,0,"snehh.wav",50
Sample,96438,0,"snehh.wav",50
Sample,97295,0,"snehh.wav",50
Sample,100724,0,"snehh.wav",50
Sample,102438,0,"snehh.wav",50
Sample,104152,0,"snehh.wav",50
Sample,104581,0,"kiick.wav",70
Sample,105866,0,"snehh.wav",50
Sample,107581,0,"snehh.wav",50
Sample,109295,0,"snehh.wav",50
Sample,110152,0,"snehh.wav",50
Sample,111009,0,"snehh.wav",50
Sample,111438,0,"tsh.wav",20
Sample,112295,0,"tsh.wav",20
Sample,112724,0,"snehh.wav",50
Sample,112724,0,"tsh.wav",20
Sample,113152,0,"tsh.wav",20
Sample,114009,0,"tsh.wav",20
Sample,114438,0,"snehh.wav",50
Sample,114438,0,"tsh.wav",20
Sample,114866,0,"tsh.wav",20
Sample,115724,0,"tsh.wav",20
Sample,116152,0,"snehh.wav",50
Sample,116152,0,"tsh.wav",20
Sample,116581,0,"tsh.wav",25
Sample,117009,0,"snehh.wav",50
Sample,117009,0,"tsh.wav",25
Sample,117438,0,"tsh.wav",25
Sample,118295,0,"kiick.wav",70
Sample,118295,0,"tsh.wav",30

[TimingPoints]
1724,428.571428571429,4,2,1,70,1,0
36009,-100,4,2,1,70,0,1
90866,-100,4,2,1,70,0,0

[HitObjects]
320,192,1295,5,0,0:0:0:20:tsh.wav
64,192,1724,1,0,0:0:0:100:fiinish.wav
448,192,2152,1,0,0:0:0:70:kiick.wav
192,192,2581,1,0,0:0:0:70:kiick.wav
448,192,3009,1,0,0:0:0:70:kiick.wav
64,192,3438,1,0,0:0:0:70:kiick.wav
448,192,3866,1,0,0:0:0:70:kiick.wav
192,192,4295,1,0,0:0:0:70:kiick.wav
448,192,4724,1,0,0:0:0:70:kiick.wav
64,192,5152,1,0,0:0:0:70:kiick.wav
192,192,5581,1,0,0:0:0:70:kiick.wav
320,192,6009,1,0,0:0:0:70:kiick.wav
448,192,6438,1,0,0:0:0:70:kiick.wav
192,192,6866,1,0,0:0:0:70:kiick.wav
320,192,7295,1,0,0:0:0:70:kiick.wav
448,192,7724,1,0,0:0:0:70:kiick.wav
64,192,8152,128,0,8581:0:0:0:30:tsh.wav
448,192,8581,128,0,10295:0:0:0:100:fiinish.wav
192,192,10295,128,0,12009:0:0:0:0:
320,192,12009,128,0,15438:0:0:0:0:
448,192,15438,128,0,17152:0:0:0:0:
192,192,17152,128,0,18866:0:0:0:0:
64,192,18866,128,0,21866:0:0:0:0:
448,192,21866,128,0,22295:0:0:0:30:tsh.wav
192,192,22295,128,0,24009:0:0:0:100:fiinish.wav
64,192,24009,128,0,25724:0:0:0:0:
320,192,25724,128,0,29152:0:0:0:100:fiinish.wav
448,192,29152,128,0,30866:0:0:0:100:fiinish.wav
192,192,30866,128,0,32581:0:0:0:100:fiinish.wav
320,192,32581,128,0,34295:0:0:0:100:fiinish.wav
64,192,34295,128,0,35581:0:0:0:100:fiinish.wav
192,192,35581,128,0,36009:0:0:0:30:tsh.wav
448,192,36009,1,0,0:0:0:100:fiinish.wav
320,192,36438,1,0,0:0:0:70:kiick.wav
448,192,36724,1,0,0:0:0:0:
64,192,36866,1,0,0:0:0:70:kiick.wav
192,192,37295,1,0,0:0:0:70:kiick.wav
64,192,37581,1,0,0:0:0:0:
320,192,37724,1,0,0:0:0:70:kiick.wav
64,192,38152,1,0,0:0:0:70:kiick.wav
192,192,38438,1,0,0:0:0:0:
320,192,38581,1,0,0:0:0:70:kiick.wav
448,192,39009,1,0,0:0:0:70:kiick.wav
320,192,39295,1,0,0:0:0:0:
64,192,39438,1,0,0:0:0:70:kiick.wav
320,192,39866,1,0,0:0:0:70:kiick.wav
448,192,40152,1,0,0:0:0:0:
64,192,40295,1,0,0:0:0:70:kiick.wav
192,192,40724,1,0,0:0:0:70:kiick.wav
64,192,41009,1,0,0:0:0:0:
448,192,41152,1,0,0:0:0:70:kiick.wav
320,192,41581,1,0,0:0:0:70:kiick.wav
192,192,41866,1,0,0:0:0:0:
448,192,42009,1,0,0:0:0:70:kiick.wav
64,192,42438,1,0,0:0:0:70:kiick.wav
320,192,42724,1,0,0:0:0:0:
192,192,42866,1,0,0:0:0:70:kiick.wav
64,192,43295,1,0,0:0:0:70:kiick.wav
192,192,43581,1,0,0:0:0:0:
448,192,43724,1,0,0:0:0:70:kiick.wav
320,192,44152,1,0,0:0:0:70:kiick.wav
448,192,44438,1,0,0:0:0:0:
192,192,44581,1,0,0:0:0:70:kiick.wav
64,192,45009,1,0,0:0:0:70:kiick.wav
192,192,45295,1,0,0:0:0:0:
320,192,45438,1,0,0:0:0:70:kiick.wav
192,192,45866,1,0,0:0:0:70:kiick.wav
448,192,46152,1,0,0:0:0:0:
64,192,46295,1,0,0:0:0:70:kiick.wav
320,192,46724,1,0,0:0:0:70:kiick.wav
448,192,47009,1,0,0:0:0:0:
192,192,47152,1,0,0:0:0:70:kiick.wav
320,192,47581,1,0,0:0:0:70:kiick.wav
64,192,47866,1,0,0:0:0:0:
448,192,48009,1,0,0:0:0:70:kiick.wav
192,192,48438,1,0,0:0:0:70:kiick.wav
64,192,48724,1,0,0:0:0:0:
320,192,48866,1,0,0:0:0:70:kiick.wav
448,192,49295,1,0,0:0:0:70:kiick.wav
320,192,49581,1,0,0:0:0:70:kiick.wav
64,192,49724,1,0,0:0:0:100:fiinish.wav
448,192,50152,1,0,0:0:0:70:kiick.wav
320,192,50438,1,0,0:0:0:0:
192,192,50581,1,0,0:0:0:70:kiick.wav
320,192,51009,1,0,0:0:0:70:kiick.wav
448,192,51295,1,0,0:0:0:0:
64,192,51438,1,0,0:0:0:70:kiick.wav
192,192,51866,1,0,0:0:0:70:kiick.wav
320,192,52152,1,0,0:0:0:0:
64,192,52295,1,0,0:0:0:70:kiick.wav
448,192,52724,1,0,0:0:0:70:kiick.wav
192,192,53009,1,0,0:0:0:0:
320,192,53152,1,0,0:0:0:70:kiick.wav
448,192,53581,1,0,0:0:0:70:kiick.wav
320,192,53866,1,0,0:0:0:0:
192,192,54009,1,0,0:0:0:70:kiick.wav
64,192,54438,1,0,0:0:0:70:kiick.wav
192,192,54724,1,0,0:0:0:0:
448,192,54866,1,0,0:0:0:70:kiick.wav
192,192,55295,1,0,0:0:0:70:kiick.wav
64,192,55581,1,0,0:0:0:0:
320,192,55724,1,0,0:0:0:70:kiick.wav
448,192,56152,1,0,0:0:0:70:kiick.wav
192,192,56438,1,0,0:0:0:0:
320,192,56581,1,0,0:0:0:70:kiick.wav
448,192,57009,1,0,0:0:0:70:kiick.wav
320,192,57295,1,0,0:0:0:0:
64,192,57438,1,0,0:0:0:70:kiick.wav
448,192,57866,1,0,0:0:0:70:kiick.wav
320,192,58152,1,0,0:0:0:0:
192,192,58295,1,0,0:0:0:70:kiick.wav
320,192,58724,1,0,0:0:0:70:kiick.wav
64,192,59009,1,0,0:0:0:0:
448,192,59152,1,0,0:0:0:70:kiick.wav
320,192,59581,1,0,0:0:0:70:kiick.wav
192,192,59866,1,0,0:0:0:0:
448,192,60009,1,0,0:0:0:70:kiick.wav
320,192,60438,1,0,0:0:0:70:kiick.wav
448,192,60724,1,0,0:0:0:0:
64,192,60866,1,0,0:0:0:70:kiick.wav
192,192,61295,1,0,0:0:0:70:kiick.wav
320,192,61581,1,0,0:0:0:0:
64,192,61724,1,0,0:0:0:70:kiick.wav
320,192,62152,1,0,0:0:0:70:kiick.wav
192,192,62438,1,0,0:0:0:0:
448,192,62581,1,0,0:0:0:70:kiick.wav
320,192,63009,128,0,63438:0:0:0:30:tsh.wav
64,192,63438,1,0,0:0:0:100:fiinish.wav
192,192,63866,1,0,0:0:0:70:kiick.wav
64,192,64152,1,0,0:0:0:0:
448,192,64295,1,0,0:0:0:70:kiick.wav
320,192,64724,1,0,0:0:0:70:kiick.wav
448,192,65009,1,0,0:0:0:0:
192,192,65152,1,0,0:0:0:70:kiick.wav
448,192,65581,1,0,0:0:0:70:kiick.wav
320,192,65866,1,0,0:0:0:0:
192,192,66009,1,0,0:0:0:70:kiick.wav
64,192,66438,1,0,0:0:0:70:kiick.wav
192,192,66724,1,0,0:0:0:0:
448,192,66866,1,0,0:0:0:70:kiick.wav
192,192,67295,1,0,0:0:0:70:kiick.wav
64,192,67581,1,0,0:0:0:0:
448,192,67724,1,0,0:0:0:70:kiick.wav
320,192,68152,1,0,0:0:0:70:kiick.wav
448,192,68438,1,0,0:0:0:0:
64,192,68581,1,0,0:0:0:70:kiick.wav
192,192,69009,1,0,0:0:0:70:kiick.wav
320,192,69295,1,0,0:0:0:0:
64,192,69438,1,0,0:0:0:70:kiick.wav
448,192,69866,1,0,0:0:0:70:kiick.wav
192,192,70152,1,0,0:0:0:0:
320,192,70295,1,0,0:0:0:70:kiick.wav
448,192,70724,1,0,0:0:0:70:kiick.wav
320,192,71009,1,0,0:0:0:0:
64,192,71152,1,0,0:0:0:70:kiick.wav
192,192,71581,1,0,0:0:0:70:kiick.wav
64,192,71866,1,0,0:0:0:0:
320,192,72009,1,0,0:0:0:70:kiick.wav
448,192,72438,1,0,0:0:0:70:kiick.wav
320,192,72724,1,0,0:0:0:0:
192,192,72866,1,0,0:0:0:70:kiick.wav
320,192,73295,1,0,0:0:0:70:kiick.wav
64,192,73581,1,0,0:0:0:0:
448,192,73724,1,0,0:0:0:70:kiick.wav
192,192,74152,1,0,0:0:0:70:kiick.wav
64,192,74438,1,0,0:0:0:0:
320,192,74581,1,0,0:0:0:70:kiick.wav
192,192,75009,1,0,0:0:0:70:kiick.wav
448,192,75295,1,0,0:0:0:0:
64,192,75438,1,0,0:0:0:70:kiick.wav
320,192,75866,1,0,0:0:0:70:kiick.wav
448,192,76152,1,0,0:0:0:0:
192,192,76295,1,0,0:0:0:70:kiick.wav
64,192,76724,1,0,0:0:0:70:kiick.wav
192,192,77009,1,0,0:0:0:70:kiick.wav
448,192,77152,1,0,0:0:0:100:fiinish.wav
64,192,77581,1,0,0:0:0:70:kiick.wav
192,192,77866,1,0,0:0:0:0:
320,192,78009,1,0,0:0:0:70:kiick.wav
192,192,78438,1,0,0:0:0:70:kiick.wav
64,192,78724,1,0,0:0:0:0:
448,192,78866,1,0,0:0:0:70:kiick.wav
320,192,79295,1,0,0:0:0:70:kiick.wav
192,192,79581,1,0,0:0:0:0:
448,192,79724,1,0,0:0:0:70:kiick.wav
64,192,80152,1,0,0:0:0:70:kiick.wav
320,192,80438,1,0,0:0:0:0:
192,192,80581,1,0,0:0:0:70:kiick.wav
64,192,81009,1,0,0:0:0:70:kiick.wav
192,192,81295,1,0,0:0:0:0:
320,192,81438,1,0,0:0:0:70:kiick.wav
448,192,81866,1,0,0:0:0:70:kiick.wav
320,192,82152,1,0,0:0:0:0:
64,192,82295,1,0,0:0:0:70:kiick.wav
320,192,82724,1,0,0:0:0:70:kiick.wav
448,192,83009,1,0,0:0:0:0:
192,192,83152,1,0,0:0:0:70:kiick.wav
64,192,83581,1,0,0:0:0:70:kiick.wav
320,192,83866,1,0,0:0:0:0:
192,192,84009,1,0,0:0:0:70:kiick.wav
64,192,84438,1,0,0:0:0:70:kiick.wav
192,192,84724,1,0,0:0:0:0:
448,192,84866,1,0,0:0:0:70:kiick.wav
64,192,85295,1,0,0:0:0:70:kiick.wav
192,192,85581,1,0,0:0:0:0:
320,192,85724,1,0,0:0:0:70:kiick.wav
192,192,86152,1,0,0:0:0:70:kiick.wav
448,192,86438,1,0,0:0:0:0:
64,192,86581,1,0,0:0:0:70:kiick.wav
192,192,87009,1,0,0:0:0:70:kiick.wav
320,192,87295,1,0,0:0:0:0:
64,192,87438,1,0,0:0:0:70:kiick.wav
192,192,87866,1,0,0:0:0:70:kiick.wav
64,192,88152,1,0,0:0:0:0:
448,192,88295,1,0,0:0:0:70:kiick.wav
320,192,88724,1,0,0:0:0:70:kiick.wav
192,192,89009,1,0,0:0:0:0:
448,192,89152,1,0,0:0:0:70:kiick.wav
192,192,89581,1,0,0:0:0:70:kiick.wav
320,192,89866,1,0,0:0:0:0:
64,192,90009,1,0,0:0:0:70:kiick.wav
192,192,90438,128,0,90866:0:0:0:30:tsh.wav
448,192,90866,128,0,91724:0:0:0:100:fiinish.wav
64,192,91724,128,0,92152:0:0:0:70:kiick.wav
192,192,92152,128,0,92581:0:0:0:70:kiick.wav
320,192,92581,128,0,93438:0:0:0:70:kiick.wav
64,192,93438,128,0,93866:0:0:0:70:kiick.wav
320,192,93866,128,0,94295:0:0:0:70:kiick.wav
448,192,94295,128,0,95152:0:0:0:70:kiick.wav
320,192,95152,128,0,95581:0:0:0:70:kiick.wav
64,192,95581,128,0,96009:0:0:0:70:kiick.wav
448,192,96009,128,0,96438:0:0:0:70:kiick.wav
192,192,96438,128,0,96866:0:0:0:70:kiick.wav
320,192,96866,128,0,97295:0:0:0:70:kiick.wav
64,192,97295,128,0,97724:0:0:0:70:kiick.wav
448,192,97724,128,0,98581:0:0:0:70:kiick.wav
320,192,98581,128,0,99438:0:0:0:70:kiick.wav
64,192,99438,128,0,100295:0:0:0:70:kiick.wav
192,192,100295,128,0,100724:0:0:0:70:kiick.wav
448,192,100724,128,0,101152:0:0:0:70:kiick.wav
64,192,101152,128,0,102009:0:0:0:70:kiick.wav
192,192,102009,128,0,102438:0:0:0:70:kiick.wav
320,192,102438,128,0,102866:0:0:0:70:kiick.wav
448,192,102866,128,0,104152:0:0:0:70:kiick.wav
320,192,104152,128,0,104581:0:0:0:70:kiick.wav
192,192,104581,128,0,105438:0:0:0:100:fiinish.wav
64,192,105438,128,0,105866:0:0:0:70:kiick.wav
320,192,105866,128,0,106295:0:0:0:70:kiick.wav
448,192,106295,128,0,107152:0:0:0:70:kiick.wav
64,192,107152,128,0,107581:0:0:0:70:kiick.wav
192,192,107581,128,0,108009:0:0:0:70:kiick.wav
448,192,108009,128,0,108866:0:0:0:70:kiick.wav
64,192,108866,128,0,109295:0:0:0:70:kiick.wav
192,192,109295,128,0,109724:0:0:0:70:kiick.wav
320,192,109724,128,0,110152:0:0:0:70:kiick.wav
64,192,110152,128,0,110581:0:0:0:70:kiick.wav
448,192,110581,128,0,111009:0:0:0:70:kiick.wav
192,192,111009,128,0,111438:0:0:0:70:kiick.wav
320,192,111438,128,0,112295:0:0:0:70:kiick.wav
64,192,112295,128,0,112724:0:0:0:70:kiick.wav
448,192,112724,128,0,113152:0:0:0:70:kiick.wav
320,192,113152,128,0,114009:0:0:0:70:kiick.wav
192,192,114009,128,0,114438:0:0:0:70:kiick.wav
448,192,114438,128,0,114866:0:0:0:70:kiick.wav
64,192,114866,128,0,115724:0:0:0:70:kiick.wav
320,192,115724,128,0,116152:0:0:0:70:kiick.wav
448,192,116152,128,0,116581:0:0:0:70:kiick.wav
192,192,116581,128,0,117009:0:0:0:70:kiick.wav
64,192,117009,128,0,117438:0:0:0:70:kiick.wav
448,192,117438,128,0,117866:0:0:0:70:kiick.wav
320,192,117866,128,0,118295:0:0:0:30:tsh.wav
64,192,118295,1,0,0:0:0:100:fiinish.wav
