osu file format v14

[General]
AudioFilename: audio.mp3
AudioLeadIn: 0
PreviewTime: -1
Countdown: 1
SampleSet: Normal
StackLeniency: 0.7
Mode: 3
LetterboxInBreaks: 0
SpecialStyle: 1
WidescreenStoryboard: 1

[Editor]
DistanceSpacing: 0.8
BeatDivisor: 4
GridSize: 8
TimelineZoom: 1

[Metadata]
Title:Gargoyle
TitleUnicode:Gargoyle
Artist:Sanxion 7
ArtistUnicode:Sanxion 7
Creator:Arnon
Version:D12
Source:Pump It Up: FIESTA EX
Tags:
BeatmapID:1820976
BeatmapSetID:861333

[Difficulty]
HPDrainRate:5
CircleSize:10
OverallDifficulty:8
ApproachRate:5
SliderMultiplier:1.4
SliderTickRate:1

[Events]
//Background and Video events
0,0,"1121.PNG",0,0
Video,0,"BGA Gargoyle Pump It Up Fiesta EX by PandaStyle in HD.mp4"
//Break Periods
//Storyboard Layer 0 (Background)
//Storyboard Layer 1 (Fail)
//Storyboard Layer 2 (Pass)
//Storyboard Layer 3 (Foreground)
//Storyboard Sound Samples

[TimingPoints]
16,400,4,1,0,0,1,0
20816,800,4,1,0,0,1,0
33616,500,4,1,0,0,1,0
46418,400,4,1,0,0,1,0

[HitObjects]
127,192,6416,5,0,0:0:0:0:
25,192,6616,1,0,0:0:0:0:
178,192,6816,1,0,0:0:0:0:
76,192,7016,1,0,0:0:0:0:
127,192,7216,1,0,0:0:0:0:
178,192,7416,1,0,0:0:0:0:
331,192,7616,1,0,0:0:0:0:
280,192,7816,1,0,0:0:0:0:
178,192,8016,1,0,0:0:0:0:
229,192,8216,1,0,0:0:0:0:
331,192,8416,1,0,0:0:0:0:
280,192,8616,1,0,0:0:0:0:
382,192,8816,1,0,0:0:0:0:
331,192,9016,1,0,0:0:0:0:
433,192,9216,1,0,0:0:0:0:
382,192,9416,1,0,0:0:0:0:
331,192,9616,1,0,0:0:0:0:
178,192,9816,1,0,0:0:0:0:
229,192,10016,1,0,0:0:0:0:
127,192,10216,1,0,0:0:0:0:
178,192,10416,1,0,0:0:0:0:
229,192,10616,1,0,0:0:0:0:
331,192,10816,1,0,0:0:0:0:
229,192,11016,1,0,0:0:0:0:
178,192,11216,1,0,0:0:0:0:
127,192,11416,1,0,0:0:0:0:
229,192,11616,1,0,0:0:0:0:
178,192,11816,1,0,0:0:0:0:
127,192,12016,1,0,0:0:0:0:
76,192,12216,1,0,0:0:0:0:
229,192,12416,1,0,0:0:0:0:
178,192,12616,1,0,0:0:0:0:
229,192,12816,1,0,0:0:0:0:
127,192,13016,1,0,0:0:0:0:
178,192,13216,1,0,0:0:0:0:
229,192,13416,1,0,0:0:0:0:
331,192,13616,1,0,0:0:0:0:
178,192,13816,1,0,0:0:0:0:
229,192,14016,1,0,0:0:0:0:
178,192,14216,1,0,0:0:0:0:
331,192,14416,1,0,0:0:0:0:
229,192,14616,1,0,0:0:0:0:
178,192,14816,1,0,0:0:0:0:
229,192,15016,1,0,0:0:0:0:
331,192,15216,1,0,0:0:0:0:
280,192,15416,1,0,0:0:0:0:
382,192,15616,1,0,0:0:0:0:
331,192,15816,1,0,0:0:0:0:
280,192,16016,1,0,0:0:0:0:
331,192,16216,1,0,0:0:0:0:
382,192,16416,1,0,0:0:0:0:
280,192,16616,1,0,0:0:0:0:
433,192,16816,1,0,0:0:0:0:
382,192,17016,1,0,0:0:0:0:
331,192,17216,1,0,0:0:0:0:
178,192,17416,1,0,0:0:0:0:
229,192,17616,1,0,0:0:0:0:
127,192,17816,1,0,0:0:0:0:
178,192,18016,1,0,0:0:0:0:
229,192,18216,1,0,0:0:0:0:
331,192,18416,1,0,0:0:0:0:
178,192,18616,1,0,0:0:0:0:
229,192,18816,1,0,0:0:0:0:
178,192,19216,128,0,20016:0:0:0:0:
331,192,20016,1,0,0:0:0:0:
229,192,20816,128,0,23216:0:0:0:0:
280,192,20816,128,0,23216:0:0:0:0:
127,192,24016,128,0,26416:0:0:0:0:
382,192,27216,128,0,29616:0:0:0:0:
178,192,30416,128,0,33216:0:0:0:0:
331,192,32016,128,0,33216:0:0:0:0:
178,192,33616,1,0,0:0:0:0:
331,192,33616,1,0,0:0:0:0:
331,192,34012,1,0,0:0:0:0:
280,192,34220,1,0,0:0:0:0:
382,192,34616,1,0,0:0:0:0:
331,192,34814,1,0,0:0:0:0:
433,192,35220,1,0,0:0:0:0:
382,192,35418,1,0,0:0:0:0:
484,192,35814,1,0,0:0:0:0:
382,192,36012,1,0,0:0:0:0:
331,192,36418,1,0,0:0:0:0:
178,192,36616,1,0,0:0:0:0:
229,192,36814,1,0,0:0:0:0:
127,192,37220,1,0,0:0:0:0:
178,192,37418,1,0,0:0:0:0:
25,192,37814,1,0,0:0:0:0:
178,192,38012,1,0,0:0:0:0:
127,192,38418,1,0,0:0:0:0:
229,192,38616,1,0,0:0:0:0:
229,192,39012,1,0,0:0:0:0:
178,192,39220,1,0,0:0:0:0:
331,192,39418,1,0,0:0:0:0:
280,192,39616,1,0,0:0:0:0:
382,192,39814,1,0,0:0:0:0:
331,192,40012,1,0,0:0:0:0:
433,192,40418,1,0,0:0:0:0:
382,192,40616,1,0,0:0:0:0:
484,192,41012,1,0,0:0:0:0:
382,192,41220,1,0,0:0:0:0:
433,192,41418,1,0,0:0:0:0:
331,192,41814,1,0,0:0:0:0:
280,192,42012,1,0,0:0:0:0:
178,192,42220,1,0,0:0:0:0:
331,192,42418,1,0,0:0:0:0:
280,192,42616,1,0,0:0:0:0:
178,192,42814,1,0,0:0:0:0:
127,192,43012,1,0,0:0:0:0:
229,192,43220,1,0,0:0:0:0:
127,192,43616,1,0,0:0:0:0:
178,192,43814,1,0,0:0:0:0:
229,192,44220,1,0,0:0:0:0:
331,192,44418,1,0,0:0:0:0:
178,192,44814,1,0,0:0:0:0:
280,192,45012,1,0,0:0:0:0:
229,192,45616,1,0,0:0:0:0:
280,192,45814,1,0,0:0:0:0:
229,192,46012,1,0,0:0:0:0:
280,192,46220,1,0,0:0:0:0:
229,192,46418,1,0,0:0:0:0:
280,192,46418,1,0,0:0:0:0:
178,192,46818,1,0,0:0:0:0:
331,192,46818,1,0,0:0:0:0:
331,192,47218,1,0,0:0:0:0:
280,192,47418,1,0,0:0:0:0:
382,192,47618,1,0,0:0:0:0:
331,192,47818,1,0,0:0:0:0:
433,192,48018,1,0,0:0:0:0:
382,192,48218,1,0,0:0:0:0:
484,192,48418,1,0,0:0:0:0:
433,192,48618,1,0,0:0:0:0:
382,192,48818,1,0,0:0:0:0:
280,192,49018,1,0,0:0:0:0:
178,192,49218,1,0,0:0:0:0:
127,192,49418,1,0,0:0:0:0:
229,192,49618,1,0,0:0:0:0:
25,192,50018,1,0,0:0:0:0:
178,192,50018,1,0,0:0:0:0:
229,192,50418,1,0,0:0:0:0:
76,192,50618,1,0,0:0:0:0:
127,192,50818,1,0,0:0:0:0:
178,192,51018,1,0,0:0:0:0:
25,192,51218,1,0,0:0:0:0:
127,192,51418,1,0,0:0:0:0:
25,192,51618,1,0,0:0:0:0:
76,192,51818,1,0,0:0:0:0:
127,192,52018,1,0,0:0:0:0:
178,192,52218,1,0,0:0:0:0:
331,192,52418,1,0,0:0:0:0:
382,192,52618,1,0,0:0:0:0:
433,192,52818,1,0,0:0:0:0:
280,192,53218,1,0,0:0:0:0:
433,192,53218,1,0,0:0:0:0:
280,192,53618,1,0,0:0:0:0:
331,192,53818,1,0,0:0:0:0:
382,192,54018,1,0,0:0:0:0:
433,192,54218,1,0,0:0:0:0:
382,192,54618,1,0,0:0:0:0:
484,192,54818,1,0,0:0:0:0:
280,192,55018,1,0,0:0:0:0:
382,192,55218,1,0,0:0:0:0:
331,192,55418,1,0,0:0:0:0:
229,192,55618,1,0,0:0:0:0:
127,192,55818,1,0,0:0:0:0:
178,192,56018,1,0,0:0:0:0:
25,192,56418,1,0,0:0:0:0:
229,192,56418,1,0,0:0:0:0:
25,192,56818,1,0,0:0:0:0:
127,192,57018,1,0,0:0:0:0:
127,192,57418,1,0,0:0:0:0:
229,192,57618,1,0,0:0:0:0:
178,192,57818,1,0,0:0:0:0:
127,192,58018,1,0,0:0:0:0:
229,192,58218,1,0,0:0:0:0:
331,192,58418,1,0,0:0:0:0:
280,192,58618,1,0,0:0:0:0:
178,192,58818,1,0,0:0:0:0:
331,192,59018,1,0,0:0:0:0:
382,192,59218,1,0,0:0:0:0:
331,192,59618,1,0,0:0:0:0:
433,192,59618,1,0,0:0:0:0:
331,192,60018,1,0,0:0:0:0:
433,192,60218,1,0,0:0:0:0:
382,192,60418,1,0,0:0:0:0:
331,192,60618,1,0,0:0:0:0:
484,192,60818,1,0,0:0:0:0:
382,192,61018,1,0,0:0:0:0:
484,192,61218,1,0,0:0:0:0:
433,192,61418,1,0,0:0:0:0:
382,192,61618,1,0,0:0:0:0:
331,192,61818,1,0,0:0:0:0:
178,192,62018,1,0,0:0:0:0:
127,192,62218,1,0,0:0:0:0:
76,192,62418,1,0,0:0:0:0:
178,192,62618,1,0,0:0:0:0:
229,192,62818,1,0,0:0:0:0:
178,192,63218,1,0,0:0:0:0:
76,192,63418,1,0,0:0:0:0:
25,192,63818,1,0,0:0:0:0:
76,192,64018,1,0,0:0:0:0:
127,192,64218,1,0,0:0:0:0:
229,192,64418,1,0,0:0:0:0:
331,192,64618,1,0,0:0:0:0:
280,192,64818,1,0,0:0:0:0:
382,192,65018,1,0,0:0:0:0:
331,192,65218,1,0,0:0:0:0:
433,192,65418,1,0,0:0:0:0:
382,192,65618,1,0,0:0:0:0:
484,192,65818,1,0,0:0:0:0:
433,192,66018,1,0,0:0:0:0:
382,192,66418,1,0,0:0:0:0:
331,192,66618,1,0,0:0:0:0:
433,192,66818,1,0,0:0:0:0:
382,192,67018,1,0,0:0:0:0:
331,192,67418,1,0,0:0:0:0:
178,192,67618,1,0,0:0:0:0:
229,192,67818,1,0,0:0:0:0:
127,192,68018,1,0,0:0:0:0:
178,192,68218,1,0,0:0:0:0:
280,192,68418,1,0,0:0:0:0:
382,192,68618,1,0,0:0:0:0:
331,192,68818,1,0,0:0:0:0:
331,192,69218,1,0,0:0:0:0:
382,192,69418,1,0,0:0:0:0:
433,192,69618,1,0,0:0:0:0:
484,192,69818,1,0,0:0:0:0:
331,192,70018,1,0,0:0:0:0:
382,192,70218,1,0,0:0:0:0:
280,192,70418,1,0,0:0:0:0:
433,192,70618,1,0,0:0:0:0:
382,192,70818,1,0,0:0:0:0:
331,192,71018,1,0,0:0:0:0:
178,192,71218,1,0,0:0:0:0:
229,192,71418,1,0,0:0:0:0:
127,192,71618,1,0,0:0:0:0:
331,192,71818,1,0,0:0:0:0:
229,192,72018,128,0,75018:0:0:0:0:
331,192,72418,1,0,0:0:0:0:
331,192,72818,1,0,0:0:0:0:
331,192,73218,1,0,0:0:0:0:
331,192,73618,1,0,0:0:0:0:
331,192,74018,1,0,0:0:0:0:
331,192,74418,1,0,0:0:0:0:
331,192,74818,1,0,0:0:0:0:
331,192,75218,128,0,78218:0:0:0:0:
178,192,75618,1,0,0:0:0:0:
178,192,76018,1,0,0:0:0:0:
178,192,76418,1,0,0:0:0:0:
178,192,76818,1,0,0:0:0:0:
178,192,77218,1,0,0:0:0:0:
178,192,77618,1,0,0:0:0:0:
178,192,78018,1,0,0:0:0:0:
178,192,78418,128,0,79818:0:0:0:0:
280,192,78818,1,0,0:0:0:0:
280,192,79218,1,0,0:0:0:0:
280,192,79618,1,0,0:0:0:0:
280,192,80018,128,0,81418:0:0:0:0:
229,192,80418,1,0,0:0:0:0:
229,192,80818,1,0,0:0:0:0:
229,192,81218,1,0,0:0:0:0:
229,192,81618,128,0,82818:0:0:0:0:
280,192,82018,1,0,0:0:0:0:
280,192,82418,1,0,0:0:0:0:
280,192,82818,1,0,0:0:0:0:
178,192,83218,128,0,84518:0:0:0:0:
331,192,83218,128,0,84518:0:0:0:0:
178,192,84818,1,0,0:0:0:0:
331,192,85018,1,0,0:0:0:0:
178,192,85218,1,0,0:0:0:0:
229,192,85418,1,0,0:0:0:0:
127,192,85618,1,0,0:0:0:0:
178,192,85818,1,0,0:0:0:0:
76,192,86018,1,0,0:0:0:0:
127,192,86218,1,0,0:0:0:0:
25,192,86418,1,0,0:0:0:0:
76,192,86618,1,0,0:0:0:0:
127,192,86818,1,0,0:0:0:0:
178,192,87018,1,0,0:0:0:0:
127,192,87218,1,0,0:0:0:0:
76,192,87418,1,0,0:0:0:0:
25,192,87618,1,0,0:0:0:0:
127,192,87818,1,0,0:0:0:0:
229,192,88018,1,0,0:0:0:0:
178,192,88218,1,0,0:0:0:0:
127,192,88418,1,0,0:0:0:0:
229,192,88618,1,0,0:0:0:0:
178,192,88818,1,0,0:0:0:0:
331,192,89018,1,0,0:0:0:0:
229,192,89218,1,0,0:0:0:0:
280,192,89418,1,0,0:0:0:0:
331,192,89618,1,0,0:0:0:0:
382,192,89818,1,0,0:0:0:0:
280,192,90018,1,0,0:0:0:0:
331,192,90218,1,0,0:0:0:0:
178,192,90418,1,0,0:0:0:0:
229,192,90618,1,0,0:0:0:0:
127,192,90818,1,0,0:0:0:0:
178,192,91018,1,0,0:0:0:0:
229,192,91218,1,0,0:0:0:0:
280,192,91418,1,0,0:0:0:0:
331,192,91618,1,0,0:0:0:0:
229,192,91818,1,0,0:0:0:0:
178,192,92018,1,0,0:0:0:0:
331,192,92218,1,0,0:0:0:0:
280,192,92418,1,0,0:0:0:0:
382,192,92618,1,0,0:0:0:0:
484,192,92818,1,0,0:0:0:0:
433,192,93018,1,0,0:0:0:0:
382,192,93218,1,0,0:0:0:0:
484,192,93418,1,0,0:0:0:0:
433,192,93618,1,0,0:0:0:0:
382,192,93818,1,0,0:0:0:0:
331,192,94018,1,0,0:0:0:0:
433,192,94218,1,0,0:0:0:0:
280,192,94418,1,0,0:0:0:0:
331,192,94618,1,0,0:0:0:0:
178,192,94818,1,0,0:0:0:0:
229,192,95018,1,0,0:0:0:0:
127,192,95218,1,0,0:0:0:0:
178,192,95418,1,0,0:0:0:0:
229,192,95618,1,0,0:0:0:0:
280,192,95818,1,0,0:0:0:0:
178,192,96018,1,0,0:0:0:0:
229,192,96218,1,0,0:0:0:0:
127,192,96418,1,0,0:0:0:0:
25,192,96618,1,0,0:0:0:0:
127,192,96818,1,0,0:0:0:0:
229,192,97018,1,0,0:0:0:0:
178,192,97218,1,0,0:0:0:0:
331,192,97418,1,0,0:0:0:0:
280,192,97618,1,0,0:0:0:0:
382,192,97818,1,0,0:0:0:0:
331,192,98018,1,0,0:0:0:0:
433,192,98218,1,0,0:0:0:0:
382,192,98418,1,0,0:0:0:0:
382,192,98618,1,0,0:0:0:0:
484,192,98818,1,0,0:0:0:0:
331,192,99018,1,0,0:0:0:0:
484,192,99218,1,0,0:0:0:0:
433,192,99418,1,0,0:0:0:0:
382,192,99618,1,0,0:0:0:0:
331,192,99818,1,0,0:0:0:0:
382,192,100018,1,0,0:0:0:0:
433,192,100218,1,0,0:0:0:0:
484,192,100418,1,0,0:0:0:0:
382,192,100618,1,0,0:0:0:0:
280,192,100818,1,0,0:0:0:0:
331,192,101018,1,0,0:0:0:0:
382,192,101218,1,0,0:0:0:0:
280,192,101418,1,0,0:0:0:0:
331,192,101618,1,0,0:0:0:0:
178,192,101818,1,0,0:0:0:0:
280,192,102018,1,0,0:0:0:0:
229,192,102218,1,0,0:0:0:0:
178,192,102418,1,0,0:0:0:0:
127,192,102618,1,0,0:0:0:0:
229,192,102818,1,0,0:0:0:0:
178,192,103018,1,0,0:0:0:0:
331,192,103218,1,0,0:0:0:0:
280,192,103418,1,0,0:0:0:0:
382,192,103618,1,0,0:0:0:0:
331,192,103818,1,0,0:0:0:0:
280,192,104018,1,0,0:0:0:0:
178,192,104218,1,0,0:0:0:0:
229,192,104418,1,0,0:0:0:0:
127,192,104618,1,0,0:0:0:0:
178,192,104818,1,0,0:0:0:0:
178,192,105018,1,0,0:0:0:0:
229,192,105218,1,0,0:0:0:0:
127,192,105418,1,0,0:0:0:0:
25,192,105618,1,0,0:0:0:0:
76,192,105818,1,0,0:0:0:0:
127,192,106018,1,0,0:0:0:0:
178,192,106218,1,0,0:0:0:0:
76,192,106418,1,0,0:0:0:0:
127,192,106618,1,0,0:0:0:0:
178,192,106818,1,0,0:0:0:0:
331,192,107018,1,0,0:0:0:0:
229,192,107218,1,0,0:0:0:0:
178,192,107418,1,0,0:0:0:0:
280,192,107618,1,0,0:0:0:0:
331,192,107818,1,0,0:0:0:0:
229,192,108018,1,0,0:0:0:0:
331,192,108218,1,0,0:0:0:0:
178,192,108418,1,0,0:0:0:0:
229,192,108618,1,0,0:0:0:0:
331,192,108818,1,0,0:0:0:0:
382,192,109018,1,0,0:0:0:0:
280,192,109218,1,0,0:0:0:0:
178,192,109418,1,0,0:0:0:0:
127,192,109618,1,0,0:0:0:0:
229,192,109818,1,0,0:0:0:0:
178,192,110018,1,0,0:0:0:0:
127,192,110418,128,0,114418:0:0:0:0:
382,192,110418,128,0,114418:0:0:0:0:
