osu file format v14

[General]
AudioFilename: audio.mp3
AudioLeadIn: 0
PreviewTime: 56066
Countdown: 0
SampleSet: Soft
StackLeniency: 0.6
Mode: 0
LetterboxInBreaks: 0
WidescreenStoryboard: 1

[Editor]
Bookmarks: 8408,20559,32711,44863
DistanceSpacing: 1
BeatDivisor: 4
GridSize: 32
TimelineZoom: 2.5

[Metadata]
Title:Hoshi to Hana
TitleUnicode:ホシトハナ
Artist:Sanshuu Chuugaku Yuushabu
ArtistUnicode:讃州中学勇者部
Creator:Mir
Version:Normal
Source:結城友奈は勇者である
Tags:yuki yuna is a hero anime opening op haruka 春佳 terui 照井 suzuko すずこ mimori 三森 yumi 夕実 uchida uchiyama 内山 tomoyo ともよ kurosawa 黒沢 juri 樹里 nagatsuma 長妻 sange
BeatmapID:1532536
BeatmapSetID:725875

[Difficulty]
HPDrainRate:3
CircleSize:3
OverallDifficulty:3
ApproachRate:5
SliderMultiplier:1.2
SliderTickRate:1

[Events]
//Background and Video events
0,0,"bg.jpg",0,0
Video,0,"Hoshi to Hana (short+muted).mp4"
//Break Periods
//Storyboard Layer 0 (Background)
//Storyboard Layer 1 (Fail)
//Storyboard Layer 2 (Pass)
//Storyboard Layer 3 (Foreground)
//Storyboard Sound Samples

[TimingPoints]
854,379.746835443038,4,2,1,50,1,0
1993,-100,4,2,1,50,0,0
7689,-100,4,2,1,5,0,0
8069,379.746835443038,4,2,2,35,1,0
8069,-125,4,2,2,35,0,0
11106,-125,4,2,2,35,0,0
11200,-125,4,2,1,35,0,0
14144,-125,4,2,2,35,0,0
14238,-125,4,2,1,35,0,0
17182,-125,4,2,2,35,0,0
17276,-125,4,2,1,35,0,0
19367,-125,4,2,1,5,0,0
19462,-125,4,2,1,35,0,0
19746,-125,4,2,1,5,0,0
19841,-125,4,2,2,35,0,0
20126,-125,4,2,1,5,0,0
20220,-125,4,2,1,5,0,0
20221,-125,4,2,0,35,0,0
20314,-125,4,2,0,35,0,0
32372,-100,4,2,1,60,0,0
56676,370.37037037037,4,2,1,80,1,1
81490,-100,4,2,1,80,0,0
82602,-100,4,2,1,35,0,0
84093,379.746835443038,4,2,1,60,1,0
85896,-100,4,2,1,60,0,0
88649,-100,4,2,1,5,0,0

[Colours]
Combo1 : 252,186,186
Combo2 : 255,202,255
Combo3 : 255,255,179
Combo4 : 211,250,254
Combo5 : 191,255,213

[HitObjects]
82,61,855,6,0,P|167:83|218:68,1,120,2|0,0:2|0:2,0:0:0:0:
249,48,1424,2,0,L|235:187,1,120,2|0,0:2|0:2,0:0:0:0:
230,227,1994,1,2,0:2:0:0:
429,327,3133,6,0,L|295:317,1,120,2|0,0:2|0:0,0:0:0:0:
198,356,3892,2,0,L|182:99,1,240,2|0,0:2|0:0,0:0:0:0:
176,109,5411,1,2,0:2:0:0:
256,192,5601,12,0,8070,0:0:0:0:
180,79,8829,6,0,L|77:69,1,96,0|0,0:2|0:2,0:0:0:0:
40,90,9399,1,0,0:2:0:0:
56,232,9968,1,0,0:2:0:0:
127,296,10348,2,0,P|181:293|224:276,1,96,0|0,0:2|0:2,0:0:0:0:
305,243,11107,6,0,L|505:237,1,192,2|0,0:2|0:0,0:0:0:0:
416,117,12436,2,0,L|406:52,2,48,0|0|0,0:2|0:2|0:2,0:0:0:0:
59,93,14145,6,0,P|137:81|174:70,1,96,2|0,0:2|0:2,0:0:0:0:
236,28,14905,2,0,P|282:38|330:44,1,96,0|0,0:2|0:2,0:0:0:0:
376,30,15475,1,0,0:2:0:0:
410,169,16044,1,0,0:2:0:0:
359,250,16424,2,0,L|246:243,1,96,0|0,0:2|0:2,0:0:0:0:
199,316,17183,6,0,P|179:195|233:149,1,192,2|0,0:2|0:0,0:0:0:0:
30,176,18702,2,0,L|21:70,2,96,0|0|0,0:2|0:2|0:2,0:0:0:0:
42,272,19842,1,0,0:2:0:0:
111,337,20221,6,0,P|179:339|219:320,1,96,2|2,0:2|0:2,0:0:0:0:
213,233,20981,2,0,P|258:219|306:225,1,96,2|2,0:2|0:2,0:0:0:0:
345,253,21551,1,2,0:2:0:0:
483,227,22120,2,0,L|493:338,2,96,2|2|0,0:2|0:2|0:2,0:0:0:0:
471,131,23259,6,0,L|266:107,1,192,2|0,0:2|0:0,0:0:0:0:
220,33,24399,1,2,0:2:0:0:
220,33,24588,1,0,0:0:0:0:
98,110,25158,1,0,0:2:0:0:
149,191,25538,1,2,0:2:0:0:
115,280,25918,1,2,0:2:0:0:
192,335,26297,6,0,L|303:329,1,96,2|0,0:2|0:2,0:0:0:0:
335,324,26867,2,0,P|355:273|333:219,1,96,2|0,0:2|0:2,0:0:0:0:
309,202,27437,1,0,0:2:0:0:
219,167,27816,2,0,P|248:128|355:117,2,144,2|2|2,0:2|0:2|0:2,0:0:0:0:
187,257,29335,6,0,P|133:267|50:204,1,144,2|2,0:2|0:2,0:0:0:0:
39,128,30285,1,0,0:2:0:0:
39,128,30475,1,2,0:2:0:0:
97,52,30854,2,0,L|201:42,1,96,2|0,0:2|0:2,0:0:0:0:
284,72,31614,2,0,L|379:81,1,96,0|0,0:0|0:2,0:0:0:0:
464,166,32373,6,0,L|439:308,1,120,6|0,0:2|0:2,0:0:0:0:
425,341,32943,1,2,0:2:0:0:
425,341,33134,2,0,P|365:346|310:325,1,120,2|2,0:2|0:2,0:0:0:0:
262,289,33702,1,2,0:2:0:0:
154,230,34272,1,0,0:2:0:0:
154,230,34462,1,2,0:2:0:0:
154,230,34652,2,0,P|167:171|152:104,1,120,8|0,0:2|0:2,0:0:0:0:
90,12,35411,5,2,0:2:0:0:
90,12,35602,2,0,L|209:-1,1,120,2|2,0:2|0:2,0:0:0:0:
247,44,36171,2,0,L|366:57,1,120,2|2,0:2|0:2,0:0:0:0:
417,26,36740,1,2,0:2:0:0:
476,196,37310,1,0,0:2:0:0:
476,196,37500,1,2,0:2:0:0:
476,196,37690,2,0,P|421:203|389:202,1,60,8|0,0:2|0:2,0:0:0:0:
356,204,38070,2,0,P|326:202|296:196,1,60,8|0,0:2|0:2,0:0:0:0:
240,175,38449,5,2,0:2:0:0:
240,175,38639,1,2,0:2:0:0:
185,282,39019,1,2,0:2:0:0:
185,282,39209,1,2,0:2:0:0:
84,216,39588,1,2,0:2:0:0:
84,216,39778,2,0,P|75:168|102:86,1,120,2|0,0:2|0:2,0:0:0:0:
135,58,40348,2,0,L|12:42,2,120,0|8|0,0:2|0:2|0:2,0:0:0:0:
236,122,41487,6,0,P|310:118|354:77,1,120,2|0,0:2|0:2,0:0:0:0:
365,34,42057,1,2,0:2:0:0:
365,34,42247,1,8,0:2:0:0:
450,117,42626,1,2,0:2:0:0:
450,117,42816,2,0,L|415:244,1,120,2|0,0:2|0:0,0:0:0:0:
381,347,43576,1,2,0:2:0:0:
381,347,43766,2,0,P|327:336|246:344,1,120,8|8,0:2|0:2,0:0:0:0:
145,366,44525,6,0,L|127:246,1,120,6|0,0:2|0:2,0:0:0:0:
119,187,45095,1,2,0:2:0:0:
119,187,45285,1,2,0:0:0:0:
196,95,45664,1,2,0:2:0:0:
196,95,45853,1,2,0:2:0:0:
369,47,46423,1,0,0:2:0:0:
369,47,46614,1,2,0:2:0:0:
369,47,46804,2,0,L|381:189,1,120,8|0,0:2|0:2,0:0:0:0:
423,281,47563,5,2,0:2:0:0:
423,281,47753,1,2,0:2:0:0:
311,326,48133,1,2,0:2:0:0:
311,326,48323,1,2,0:2:0:0:
261,216,48702,1,2,0:2:0:0:
261,216,48892,1,2,0:2:0:0:
121,329,49462,2,0,L|42:323,1,60,0|2,0:2|0:2,0:0:0:0:
42,283,49842,2,0,L|31:153,1,120,8|8,0:2|0:2,0:0:0:0:
9,45,50601,6,0,L|154:59,1,120,6|2,0:2|0:2,0:0:0:0:
180,25,51171,1,0,0:2:0:0:
180,25,51361,1,2,0:2:0:0:
289,72,51740,2,0,P|296:181|279:210,1,120,2|2,0:2|0:2,0:0:0:0:
212,276,52500,1,2,0:2:0:0:
129,188,52880,1,2,0:2:0:0:
48,277,53259,1,2,0:2:0:0:
136,357,53639,5,2,0:2:0:0:
136,357,53829,1,2,0:2:0:0:
136,236,54209,1,2,0:2:0:0:
136,236,54399,1,2,0:2:0:0:
132,116,54778,1,2,0:2:0:0:
132,116,54968,1,6,0:2:0:0:
372,186,56677,6,0,P|285:162|231:172,1,120,6|10,0:2|0:2,0:0:0:0:
205,195,57232,1,0,0:2:0:0:
205,195,57417,2,0,L|192:52,1,120,2|10,0:2|0:2,0:0:0:0:
74,87,58158,2,0,L|84:206,1,120,2|8,0:2|0:2,0:0:0:0:
83,326,58899,2,0,P|40:353|-11:363,2,90,2|0|0,0:2|0:2|0:2,0:0:0:0:
131,290,59639,6,0,L|271:278,1,120,6|10,0:2|0:2,0:0:0:0:
289,325,60195,1,0,0:2:0:0:
289,325,60380,1,2,0:2:0:0:
405,297,60751,2,0,P|416:228|403:170,1,120,10|2,0:2|0:2,0:0:0:0:
384,123,61306,1,0,0:2:0:0:
384,123,61491,1,10,0:2:0:0:
317,22,61862,2,0,P|362:6|427:13,2,90,2|0|2,0:2|0:2|0:2,0:0:0:0:
274,64,62602,6,0,L|130:61,1,120,6|10,0:2|0:2,0:0:0:0:
93,59,63158,1,0,0:2:0:0:
93,59,63343,1,2,0:2:0:0:
137,170,63714,1,10,0:2:0:0:
75,272,64084,2,0,P|126:289|212:268,1,120,2|8,0:2|0:2,0:0:0:0:
310,267,64825,2,0,P|347:320|360:358,2,90,2|0|0,0:2|0:2|0:2,0:0:0:0:
285,212,65565,6,0,L|294:74,1,120,6|10,0:2|0:2,0:0:0:0:
303,32,66121,1,4,0:2:0:0:
302,32,66306,2,0,L|229:32,1,60,2|0,0:2|0:0,0:0:0:0:
183,31,66675,1,14,0:2:0:0:
62,38,67047,2,0,L|81:180,1,120,2|10,0:2|0:2,0:0:0:0:
76,214,67602,1,0,0:2:0:0:
76,214,67788,1,2,0:2:0:0:
123,324,68158,1,8,0:3:0:0:
212,243,68528,6,0,P|290:235|343:248,1,120,6|10,0:2|0:2,0:0:0:0:
332,303,69084,2,0,P|410:311|463:298,1,120,4|0,0:2|0:2,0:0:0:0:
454,239,69639,2,0,L|453:97,1,120,14|2,0:2|0:2,0:0:0:0:
333,130,70380,1,10,0:2:0:0:
257,37,70751,1,2,0:2:0:0:
186,134,71121,1,10,0:2:0:0:
129,241,71491,6,0,P|51:249|-2:236,1,120,6|10,0:2|0:2,0:0:0:0:
4,180,72047,2,0,L|14:54,1,120,4|0,0:2|0:2,0:0:0:0:
62,25,72602,2,0,P|121:15|180:24,2,120,14|2|10,0:2|0:2|0:2,0:0:0:0:
123,128,73714,1,2,0:2:0:0:
241,111,74084,1,8,0:3:0:0:
348,164,74454,6,0,L|317:290,1,120,6|10,0:2|0:2,0:0:0:0:
308,339,75010,1,4,0:2:0:0:
308,339,75195,1,2,0:2:0:0:
205,276,75565,2,0,P|133:255|81:279,2,120,14|2|10,0:2|0:2|0:2,0:0:0:0:
319,280,76676,2,0,L|348:164,1,120,2|8,0:2|0:3,0:0:0:0:
325,108,77232,1,2,0:2:0:0:
325,108,77417,6,0,L|192:100,1,120,6|10,0:2|0:2,0:0:0:0:
174,49,77973,2,0,L|97:52,1,60,4|2,0:2|0:2,0:0:0:0:
116,171,78528,2,0,P|164:207|175:288,2,120,14|2|10,0:2|0:2|0:2,0:0:0:0:
60,277,79639,1,2,0:2:0:0:
129,374,80010,1,8,0:3:0:0:
179,262,80380,6,0,P|251:230|304:239,1,120,6|10,0:2|0:2,0:0:0:0:
328,280,80936,2,0,L|349:141,1,120,4|8,0:2|0:2,0:0:0:0:
358,102,81491,1,14,0:2:0:0:
55,104,84093,6,0,P|164:91|194:98,1,120,6|0,0:2|0:2,0:0:0:0:
217,132,84663,2,0,P|326:145|356:138,1,120,2|0,0:2|0:2,0:0:0:0:
381,105,85232,2,0,L|360:303,1,180,2|6,0:2|0:2,0:0:0:0:
256,192,85897,12,0,88650,0:0:0:0:
