osu file format v14

[General]
AudioFilename: audio.mp3
AudioLeadIn: 0
PreviewTime: 56066
Countdown: 0
SampleSet: Soft
StackLeniency: 0.6
Mode: 0
LetterboxInBreaks: 0
WidescreenStoryboard: 1

[Editor]
Bookmarks: 8408,20559,32711,44863
DistanceSpacing: 1.9
BeatDivisor: 4
GridSize: 32
TimelineZoom: 2.5

[Metadata]
Title:Hoshi to Hana
TitleUnicode:ホシトハナ
Artist:Sanshuu Chuugaku Yuushabu
ArtistUnicode:讃州中学勇者部
Creator:Mir
Version:Hard
Source:結城友奈は勇者である
Tags:yuki yuna is a hero anime opening op haruka 春佳 terui 照井 suzuko すずこ mimori 三森 yumi 夕実 uchida uchiyama 内山 tomoyo ともよ kurosawa 黒沢 juri 樹里 nagatsuma 長妻 sange
BeatmapID:1532534
BeatmapSetID:725875

[Difficulty]
HPDrainRate:6
CircleSize:3.5
OverallDifficulty:5
ApproachRate:7
SliderMultiplier:1.6
SliderTickRate:1

[Events]
//Background and Video events
0,0,"bg.jpg",0,0
Video,0,"Hoshi to Hana (short+muted).mp4"
//Break Periods
//Storyboard Layer 0 (Background)
//Storyboard Layer 1 (Fail)
//Storyboard Layer 2 (Pass)
//Storyboard Layer 3 (Foreground)
//Storyboard Sound Samples

[TimingPoints]
854,379.746835443038,4,2,1,50,1,0
1993,-100,4,2,1,50,0,0
7689,-100,4,2,1,5,0,0
8069,379.746835443038,4,2,2,35,1,0
8069,-125,4,2,2,35,0,0
10727,-125,4,2,2,35,0,0
10821,-125,4,2,2,35,0,0
11200,-125,4,2,1,35,0,0
14144,-125,4,2,2,35,0,0
14238,-125,4,2,1,35,0,0
17182,-125,4,2,2,35,0,0
17276,-125,4,2,1,35,0,0
19367,-125,4,2,1,5,0,0
19462,-125,4,2,1,35,0,0
19746,-125,4,2,1,5,0,0
19841,-125,4,2,2,35,0,0
20126,-125,4,2,1,5,0,0
20220,-125,4,2,1,5,0,0
20221,-125,4,2,0,35,0,0
20314,-125,4,2,0,35,0,0
32372,-100,4,2,1,60,0,0
56676,370.37037037037,4,2,1,80,1,1
81490,-100,4,2,1,80,0,0
82602,-100,4,2,1,35,0,0
83713,-83.3333333333333,4,2,1,35,0,0
84093,379.746835443038,4,2,1,60,1,0
85801,-666.666666666667,4,2,1,60,0,0
85896,-666.666666666667,4,2,1,60,0,0
88649,-666.666666666667,4,2,1,5,0,0

[Colours]
Combo1 : 252,186,186
Combo2 : 255,202,255
Combo3 : 255,255,179
Combo4 : 211,250,254
Combo5 : 191,255,213

[HitObjects]
406,176,854,6,0,P|321:157|251:217,1,160,2|0,0:2|0:2,0:0:0:0:
222,281,1423,2,0,L|208:110,1,160,2|0,0:2|0:2,0:0:0:0:
203,25,1993,6,0,B|282:-10|389:-11|479:91|479:91|344:111|335:202,1,480,2|2,0:2|0:2,0:0:0:0:
339,179,3891,5,2,0:2:0:0:
256,192,3986,12,0,5410,0:0:0:0:
256,192,5505,12,0,7689,0:0:0:0:
339,167,8069,6,0,P|276:149|191:170,1,128,2|0,0:2|0:2,0:0:0:0:
88,266,8828,2,0,L|77:135,1,128,0|0,0:2|0:2,0:0:0:0:
102,58,9398,2,0,B|149:39|185:59|185:62|185:67|222:91|288:60,1,192,0|0,0:2|0:2,0:0:0:0:
287,60,10347,1,0,0:2:0:0:
287,60,10727,1,0,0:2:0:0:
367,203,11106,6,0,P|285:172|176:232,1,192,2|0,0:2|0:2,0:0:0:0:
128,265,11866,6,0,L|139:339,2,64,0|0|0,0:0|0:2|0:2,0:0:0:0:
37,213,12436,2,0,L|26:287,2,64,0|0|0,0:2|0:2|0:2,0:0:0:0:
124,53,14144,6,0,P|214:76|269:71,1,128,2|0,0:2|0:2,0:0:0:0:
412,41,14904,2,0,L|395:189,1,128,0|0,0:2|0:2,0:0:0:0:
385,251,15474,2,0,P|323:279|198:252,1,192,0|0,0:2|0:2,0:0:0:0:
204,256,16423,1,0,0:2:0:0:
204,256,16803,1,0,0:2:0:0:
65,347,17182,6,0,P|87:249|69:153,1,192,2|0,0:2|0:2,0:0:0:0:
36,72,17942,6,0,L|25:-2,2,64,0|0|0,0:0|0:2|0:2,0:0:0:0:
136,86,18512,2,0,L|147:12,2,64,0|0|0,0:2|0:2|0:2,0:0:0:0:
383,45,19461,2,0,L|364:181,1,128,0|0,0:2|0:2,0:0:0:0:
403,333,20220,6,0,P|332:292|263:313,1,128,2|2,0:2|0:2,0:0:0:0:
224,350,20790,1,0,0:2:0:0:
224,350,20980,2,0,L|82:333,1,128,2|2,0:2|0:2,0:0:0:0:
51,264,21550,2,0,P|51:207|116:153,1,128,2|0,0:2|0:2,0:0:0:0:
177,132,22119,1,2,0:2:0:0:
177,132,22499,1,2,0:2:0:0:
177,132,22879,1,0,0:2:0:0:
316,229,23258,6,0,P|402:230|468:150,1,192,2|2,0:2|0:2,0:0:0:0:
439,66,24018,6,0,L|450:-8,2,64,0|0|2,0:0|0:2|0:2,0:0:0:0:
359,137,24588,2,0,L|348:63,2,64,0|2|0,0:0|0:2|0:0,0:0:0:0:
193,272,25347,1,2,0:2:0:0:
229,178,25537,2,0,P|166:174|113:208,1,128,2|2,0:2|0:2,0:0:0:0:
113,208,26296,6,0,L|126:53,1,128,2|0,0:2|0:2,0:0:0:0:
206,65,26866,2,0,P|282:66|333:30,1,128,2|0,0:2|0:2,0:0:0:0:
397,79,27436,1,0,0:2:0:0:
476,224,27815,6,0,L|327:213,1,128,2|0,0:2|0:2,0:0:0:0:
265,205,28385,2,0,P|257:258|270:347,1,128,2|0,0:2|0:2,0:0:0:0:
339,369,28955,1,2,0:2:0:0:
178,328,29334,6,0,P|121:322|23:307,1,128,2|0,0:2|0:2,0:0:0:0:
48,228,29904,2,0,P|105:222|203:207,1,128,2|0,0:2|0:2,0:0:0:0:
235,154,30474,1,2,0:2:0:0:
99,57,30853,6,0,L|244:37,2,128,2|0|0,0:2|0:2|0:0,0:0:0:0:
52,217,31993,2,0,L|8:223,2,32,0|0|0,0:2|0:2|0:2,0:0:0:0:
120,295,32372,6,0,P|205:264|274:303,1,160,6|0,0:2|0:2,0:0:0:0:
324,367,32942,1,2,0:2:0:0:
324,367,33132,1,2,0:2:0:0:
264,184,33512,1,2,0:2:0:0:
348,228,33701,6,0,B|358:166|358:166|326:46,1,160,2|0,0:2|0:0,0:0:0:0:
259,9,34271,1,0,0:2:0:0:
176,58,34461,1,2,0:2:0:0:
176,58,34556,1,2,0:2:0:0:
176,58,34651,2,0,B|94:56|94:56|25:128,1,160,8|0,0:2|0:2,0:0:0:0:
90,193,35220,1,0,0:2:0:0:
47,278,35410,5,2,0:2:0:0:
142,273,35600,2,0,L|249:268,1,80,2|0,0:2|0:2,0:0:0:0:
318,264,35980,1,2,0:2:0:0:
318,264,36170,1,2,0:2:0:0:
280,75,36550,1,2,0:2:0:0:
299,168,36739,6,0,B|393:161|393:161|478:200,1,160,2|0,0:2|0:2,0:0:0:0:
448,284,37309,2,0,L|442:385,1,80,0|2,0:2|0:2,0:0:0:0:
353,327,37689,2,0,P|284:304|182:332,1,160,8|8,0:2|0:2,0:0:0:0:
125,380,38258,1,0,0:2:0:0:
101,286,38448,5,2,0:2:0:0:
101,286,38638,1,2,0:2:0:0:
199,120,39018,1,2,0:2:0:0:
199,120,39208,1,2,0:2:0:0:
29,30,39587,1,2,0:2:0:0:
105,88,39777,6,0,P|151:37|258:47,1,160,2|0,0:2|0:2,0:0:0:0:
317,89,40347,2,0,L|418:74,1,80,0|2,0:2|0:2,0:0:0:0:
430,167,40727,2,0,L|509:178,1,80,8|0,0:2|0:2,0:0:0:0:
512,275,41106,2,0,P|500:347|492:367,1,80,0|0,0:2|0:2,0:0:0:0:
414,303,41486,6,0,P|301:293|241:320,1,160,2|0,0:2|0:2,0:0:0:0:
183,368,42056,1,2,0:2:0:0:
156,275,42246,2,0,P|152:234|155:182,1,80,8|0,0:2|0:2,0:0:0:0:
170,100,42625,1,2,0:2:0:0:
170,100,42815,1,2,0:2:0:0:
486,63,43575,5,2,0:2:0:0:
415,128,43765,2,0,P|336:145|301:141,1,80,8|0,0:2|0:2,0:0:0:0:
241,148,44144,2,0,P|201:143|163:130,1,80,8|0,0:2|0:2,0:0:0:0:
147,118,44429,1,0,0:2:0:0:
130,106,44524,6,0,L|155:281,1,160,6|0,0:2|0:2,0:0:0:0:
171,359,45094,1,2,0:2:0:0:
246,298,45284,1,2,0:0:0:0:
91,185,45663,1,2,0:2:0:0:
186,176,45853,6,0,P|214:117|169:29,1,160,2|0,0:2|0:0,0:0:0:0:
81,26,46423,2,0,P|55:82|47:115,1,80,0|2,0:2|0:2,0:0:0:0:
91,185,46803,1,8,0:2:0:0:
41,370,47182,1,0,0:2:0:0:
41,370,47372,1,0,0:2:0:0:
114,307,47562,5,2,0:2:0:0:
202,344,47752,2,0,P|252:340|304:345,1,80,2|0,0:2|0:2,0:0:0:0:
370,304,48132,1,2,0:2:0:0:
370,304,48322,1,2,0:2:0:0:
360,112,48701,1,2,0:2:0:0:
424,182,48891,6,0,P|375:203|273:154,1,160,2|0,0:2|0:2,0:0:0:0:
204,106,49461,2,0,L|101:116,1,80,0|2,0:2|0:2,0:0:0:0:
28,125,49841,1,8,0:2:0:0:
181,239,50220,1,8,0:2:0:0:
30,358,50600,6,0,L|30:278,1,80,6|0,0:2|0:0,0:0:0:0:
36,181,50980,1,2,0:2:0:0:
36,181,51170,2,0,P|111:198|135:196,1,80,0|2,0:2|0:2,0:0:0:0:
209,200,51550,1,0,0:2:0:0:
209,200,51739,2,0,P|248:196|286:183,1,80,2|0,0:2|0:2,0:0:0:0:
376,147,52119,6,0,L|385:316,2,160,2|2|2,0:2|0:2|0:2,0:0:0:0:
245,5,53258,1,2,0:2:0:0:
131,159,53638,5,2,0:2:0:0:
226,148,53828,1,2,0:2:0:0:
316,317,54208,5,2,0:2:0:0:
214,248,54398,1,2,0:2:0:0:
380,71,54777,5,2,0:2:0:0:
301,213,54967,1,6,0:2:0:0:
64,83,56676,6,0,P|151:67|225:102,1,160,6|10,0:2|0:2,0:0:0:0:
286,157,57231,1,0,0:2:0:0:
363,100,57416,2,0,P|412:96|481:122,2,120,2|0|0,0:2|0:2|0:2,0:0:0:0:
286,157,58157,2,0,L|306:263,1,80,2|2,0:2|0:2,0:0:0:0:
338,323,58527,2,0,P|276:326|245:313,1,80,8|0,0:2|0:2,0:0:0:0:
180,266,58898,2,0,P|95:258|53:273,2,120,2|0|0,0:2|0:2|0:2,0:0:0:0:
261,215,59638,6,0,P|276:156|277:117,1,80,6|2,0:2|0:2,0:0:0:0:
273,117,59916,1,2,0:2:0:0:
267,97,60009,1,10,0:2:0:0:
178,60,60194,2,0,L|63:76,2,80,0|2|0,0:2|0:2|0:2,0:0:0:0:
267,97,60750,2,0,L|346:108,1,80,10|2,0:2|0:2,0:0:0:0:
422,49,61120,6,0,P|443:110|376:207,1,160,2|10,0:2|0:2,0:0:0:0:
323,245,61675,1,0,0:2:0:0:
372,327,61861,2,0,P|432:333|493:312,2,120,2|0|2,0:2|0:2|0:2,0:0:0:0:
323,245,62601,6,0,B|271:231|271:231|155:238,1,160,6|10,0:2|0:2,0:0:0:0:
82,188,63157,1,0,0:2:0:0:
21,262,63342,2,0,P|29:319|61:385,2,120,2|0|0,0:2|0:0|0:2,0:0:0:0:
82,188,64083,5,2,0:2:0:0:
21,113,64268,2,0,P|22:70|38:24,2,80,2|8|0,0:2|0:2|0:2,0:0:0:0:
82,188,64824,2,0,L|181:181,1,80,2|0,0:2|0:2,0:0:0:0:
206,198,65101,2,0,L|285:203,1,80,0|0,0:2|0:0,0:0:0:0:
328,181,65379,1,0,0:2:0:0:
390,107,65564,6,0,P|427:177|399:256,1,160,6|10,0:2|0:2,0:0:0:0:
327,308,66120,2,0,L|247:316,1,80,4|2,0:2|0:2,0:0:0:0:
141,348,66490,1,0,0:0:0:0:
141,348,66675,1,14,0:2:0:0:
93,262,66861,1,2,0:2:0:0:
93,262,66953,1,2,0:2:0:0:
93,262,67046,6,0,L|116:154,1,80,2|0,0:2|0:2,0:0:0:0:
102,88,67416,1,10,0:2:0:0:
283,25,67787,2,0,L|306:133,1,80,2|0,0:2|0:2,0:0:0:0:
278,196,68157,2,0,L|421:176,1,120,8|0,0:3|0:0,0:0:0:0:
415,134,68527,6,0,P|431:191|421:238,1,80,6|0,0:2|0:2,0:0:0:0:
369,286,68898,1,10,0:2:0:0:
304,357,69083,2,0,L|204:352,1,80,4|2,0:2|0:2,0:0:0:0:
128,352,69453,1,0,0:2:0:0:
76,271,69638,6,0,P|59:192|143:149,1,160,14|2,0:2|0:2,0:0:0:0:
210,155,70194,1,0,0:2:0:0:
297,116,70379,2,0,P|330:82|342:23,1,80,10|0,0:2|0:2,0:0:0:0:
417,110,70750,2,0,P|432:146|461:174,1,80,2|0,0:2|0:2,0:0:0:0:
374,215,71120,2,0,P|334:209|296:221,1,80,10|0,0:2|0:2,0:0:0:0:
270,378,71490,6,0,L|297:216,1,160,6|10,0:2|0:2,0:0:0:0:
214,169,72046,2,0,P|261:209|301:219,1,80,4|2,0:2|0:2,0:0:0:0:
304,123,72416,1,0,0:2:0:0:
223,70,72601,6,0,P|138:105|117:182,1,160,14|2,0:2|0:2,0:0:0:0:
162,248,73157,1,0,0:2:0:0:
123,335,73342,2,0,P|60:338|30:326,1,80,10|0,0:2|0:2,0:0:0:0:
7,244,73713,1,2,0:2:0:0:
117,87,74083,1,8,0:3:0:0:
289,171,74453,6,0,L|386:159,1,80,6|0,0:2|0:2,0:0:0:0:
449,213,74824,1,10,0:2:0:0:
375,274,75009,2,0,L|278:262,1,80,4|2,0:2|0:2,0:0:0:0:
215,316,75380,1,0,0:2:0:0:
144,251,75564,6,0,P|111:173|152:94,1,160,14|2,0:2|0:2,0:0:0:0:
207,40,76120,1,0,0:2:0:0:
284,96,76305,1,10,0:2:0:0:
467,39,76675,2,0,L|439:151,1,80,2|2,0:2|0:2,0:0:0:0:
481,206,77046,1,8,0:3:0:0:
406,266,77231,1,2,0:2:0:0:
331,205,77416,6,0,P|266:184|175:223,1,160,6|10,0:2|0:2,0:0:0:0:
114,255,77972,1,4,0:2:0:0:
114,255,78157,2,0,L|-9:261,1,80,2|2,0:2|0:2,0:0:0:0:
47,348,78527,2,0,B|115:344|115:344|142:357|142:357|248:351,1,160,14|0,0:2|0:0,0:0:0:0:
276,299,79083,2,0,P|335:274|379:285,2,80,0|10|0,0:2|0:2|0:2,0:0:0:0:
193,264,79638,6,0,L|107:254,1,80,2|2,0:2|0:2,0:0:0:0:
0,183,80009,2,0,L|86:173,1,80,8|0,0:3|0:0,0:0:0:0:
151,118,80379,6,0,P|139:62|103:25,1,80,6|0,0:2|0:0,0:0:0:0:
222,50,80750,1,10,0:2:0:0:
277,128,80935,2,0,P|308:79|308:28,1,80,4|2,0:2|0:2,0:0:0:0:
375,130,81306,1,8,0:2:0:0:
348,290,81490,5,14,0:2:0:0:
167,97,83713,6,0,L|161:44,3,47.9999985351563,0|0|0|0,0:2|0:2|0:2|0:2,0:0:0:0:
201,118,84093,6,0,P|266:98|367:131,1,160,6|0,0:2|0:2,0:0:0:0:
428,181,84662,2,0,L|399:342,1,160,2|0,0:2|0:2,0:0:0:0:
311,376,85231,1,2,0:2:0:0:
138,170,85801,5,6,0:2:0:0:
256,192,85896,12,0,88649,0:0:0:0:
