osu file format v14

[General]
AudioFilename: audio.mp3
AudioLeadIn: 0
PreviewTime: 56066
Countdown: 0
SampleSet: Soft
StackLeniency: 0.6
Mode: 0
LetterboxInBreaks: 0
WidescreenStoryboard: 1

[Editor]
Bookmarks: 8408,20559,32711,44863
DistanceSpacing: 1
BeatDivisor: 4
GridSize: 32
TimelineZoom: 2.5

[Metadata]
Title:Hoshi to Hana
TitleUnicode:ホシトハナ
Artist:Sanshuu Chuugaku Yuushabu
ArtistUnicode:讃州中学勇者部
Creator:Mir
Version:Easy
Source:結城友奈は勇者である
Tags:yuki yuna is a hero anime opening op haruka 春佳 terui 照井 suzuko すずこ mimori 三森 yumi 夕実 uchida uchiyama 内山 tomoyo ともよ kurosawa 黒沢 juri 樹里 nagatsuma 長妻 sange
BeatmapID:1532533
BeatmapSetID:725875

[Difficulty]
HPDrainRate:2
CircleSize:2.5
OverallDifficulty:2
ApproachRate:3
SliderMultiplier:1
SliderTickRate:1

[Events]
//Background and Video events
0,0,"bg.jpg",0,0
Video,0,"Hoshi to Hana (short+muted).mp4"
//Break Periods
//Storyboard Layer 0 (Background)
//Storyboard Layer 1 (Fail)
//Storyboard Layer 2 (Pass)
//Storyboard Layer 3 (Foreground)
//Storyboard Sound Samples

[TimingPoints]
854,379.746835443038,4,2,1,50,1,0
1993,-100,4,2,1,50,0,0
7689,-100,4,2,1,5,0,0
8069,379.746835443038,4,2,2,35,1,0
8069,-100,4,2,2,35,0,0
11106,-100,4,2,2,35,0,0
11200,-100,4,2,1,35,0,0
14144,-100,4,2,2,35,0,0
14238,-100,4,2,1,35,0,0
17182,-100,4,2,2,35,0,0
17276,-100,4,2,1,35,0,0
19367,-100,4,2,1,5,0,0
19462,-100,4,2,1,35,0,0
19746,-100,4,2,1,5,0,0
19841,-100,4,2,2,35,0,0
20126,-100,4,2,1,5,0,0
20220,-100,4,2,1,5,0,0
20221,-100,4,2,0,35,0,0
20314,-100,4,2,0,35,0,0
31993,-100,4,2,0,35,0,0
32372,-100,4,2,1,60,0,0
56676,370.37037037037,4,2,1,80,1,1
81490,-100,4,2,1,80,0,0
82602,-100,4,2,1,35,0,0
84093,379.746835443038,4,2,1,60,1,0
85801,-100,4,2,1,60,0,0
88649,-100,4,2,1,5,0,0

[Colours]
Combo1 : 252,186,186
Combo2 : 255,202,255
Combo3 : 255,255,179
Combo4 : 211,250,254
Combo5 : 191,255,213

[HitObjects]
100,78,854,6,0,L|261:70,2,150,2|2|2,0:2|0:2|0:2,0:0:0:0:
42,276,3132,1,2,0:2:0:0:
235,324,3891,6,0,L|447:301,1,200,2|0,0:2|0:0,0:0:0:0:
465,104,5410,1,2,0:2:0:0:
256,192,5790,12,0,8069,0:0:0:0:
263,259,9398,6,0,L|423:249,1,150,0|0,0:2|0:2,0:0:0:0:
476,172,10347,2,0,P|479:133|448:73,1,100,0|0,0:2|0:2,0:0:0:0:
359,44,11106,6,0,L|139:57,1,200,2|0,0:2|0:0,0:0:0:0:
9,68,12436,2,0,L|21:184,1,100,0|0,0:2|0:2,0:0:0:0:
41,308,14144,6,0,P|135:280|248:299,1,200,2|0,0:2|0:2,0:0:0:0:
367,364,15474,2,0,L|377:201,1,150,0|0,0:2|0:2,0:0:0:0:
384,114,16423,1,0,0:2:0:0:
312,43,16803,1,0,0:2:0:0:
225,92,17182,6,0,P|140:106|44:46,1,200,2|0,0:2|0:0,0:0:0:0:
67,248,18701,1,0,0:2:0:0:
141,314,19081,1,0,0:2:0:0:
233,276,19461,2,0,P|290:271|347:292,1,100,0|0,0:2|0:2,0:0:0:0:
422,322,20220,6,0,L|433:165,2,150,2|0|0,0:2|0:2|0:2,0:0:0:0:
248,222,22119,2,0,P|178:225|139:240,2,100,2|2|0,0:2|0:2|0:2,0:0:0:0:
333,169,23258,2,0,L|322:12,2,150,2|2|0,0:2|0:2|0:2,0:0:0:0:
238,345,25157,1,0,0:2:0:0:
140,324,25537,2,0,P|112:260|114:220,1,100,2|2,0:2|0:2,0:0:0:0:
171,150,26296,6,0,P|99:129|28:181,2,150,2|2|0,0:2|0:2|0:2,0:0:0:0:
249,211,27815,2,0,L|406:193,1,150,2|2,0:2|0:2,0:0:0:0:
457,112,28765,1,0,0:2:0:0:
332,28,29334,6,0,B|267:47|267:47|171:42,1,150,2|2,0:2|0:2,0:0:0:0:
35,45,30474,1,2,0:2:0:0:
92,126,30853,2,0,P|101:185|91:230,1,100,2|0,0:2|0:2,0:0:0:0:
3,269,31613,2,0,P|-6:328|4:373,1,100,0|0,0:0|0:2,0:0:0:0:
101,357,32372,5,6,0:2:0:0:
253,348,32942,1,2,0:2:0:0:
175,219,33512,1,2,0:2:0:0:
373,241,34271,2,0,L|474:245,2,100,0|8|0,0:2|0:2|0:2,0:0:0:0:
307,315,35410,5,2,0:2:0:0:
232,184,35980,1,2,0:2:0:0:
320,63,36550,1,2,0:2:0:0:
123,27,37309,2,0,P|73:23|25:36,1,100,0|8,0:2|0:2,0:0:0:0:
4,133,38069,1,8,0:2:0:0:
94,174,38448,5,2,0:2:0:0:
175,299,39018,1,2,0:2:0:0:
271,190,39587,1,2,0:2:0:0:
461,251,40347,2,0,P|478:309|466:356,2,100,0|8|0,0:2|0:2|0:2,0:0:0:0:
381,190,41486,5,2,0:2:0:0:
231,195,42056,1,2,0:2:0:0:
81,194,42625,1,2,0:2:0:0:
342,45,43765,2,0,L|358:154,1,100,8|8,0:2|0:2,0:0:0:0:
373,243,44524,6,0,P|408:307|392:383,2,150,6|2|2,0:2|0:2|0:2,0:0:0:0:
324,230,45853,2,0,L|162:215,1,150,2|0,0:2|0:2,0:0:0:0:
109,139,46803,1,8,0:2:0:0:
161,53,47182,1,0,0:2:0:0:
258,83,47562,6,0,L|411:76,2,150,2|2|2,0:2|0:2|0:2,0:0:0:0:
241,130,48891,2,0,P|194:155|93:137,1,150,2|0,0:2|0:2,0:0:0:0:
24,207,49841,1,8,0:2:0:0:
78,290,50220,1,8,0:2:0:0:
144,364,50600,6,0,P|188:333|245:320,1,100,6|2,0:2|0:2,0:0:0:0:
332,322,51360,2,0,P|379:335|420:365,1,100,2|2,0:2|0:2,0:0:0:0:
468,277,52119,2,0,L|485:167,1,100,2|2,0:2|0:2,0:0:0:0:
390,140,52879,2,0,L|373:30,1,100,2|2,0:2|0:2,0:0:0:0:
275,25,53638,5,2,0:2:0:0:
136,83,54208,1,2,0:2:0:0:
203,216,54777,2,0,L|192:288,1,50,2|6,0:2|0:2,0:0:0:0:
83,87,56676,6,0,P|155:73|257:154,1,200,6|2,0:2|0:2,0:0:0:0:
190,221,57787,1,10,0:2:0:0:
254,297,58157,2,0,L|363:291,2,100,2|8|2,0:2|0:2|0:2,0:0:0:0:
190,221,59268,1,10,0:2:0:0:
122,298,59638,6,0,P|89:232|103:160,1,150,6|0,0:2|0:2,0:0:0:0:
128,116,60379,2,0,L|122:10,1,100,2|10,0:2|0:2,0:0:0:0:
217,47,61120,2,0,P|289:56|337:42,1,100,2|10,0:2|0:2,0:0:0:0:
408,14,61861,1,2,0:2:0:0:
403,113,62231,1,8,0:3:0:0:
405,212,62601,6,0,B|358:243|358:243|193:228,1,200,6|2,0:2|0:2,0:0:0:0:
114,219,63713,1,10,0:2:0:0:
136,316,64083,2,0,L|257:328,2,100,2|8|2,0:2|0:2|0:2,0:0:0:0:
114,219,65194,1,10,0:2:0:0:
91,121,65564,6,0,B|124:60|124:60|218:57,2,150,6|4|14,0:2|0:2|0:2,0:0:0:0:
114,219,67046,2,0,L|106:334,1,100,2|10,0:2|0:2,0:0:0:0:
200,354,67787,1,2,0:2:0:0:
279,293,68157,1,8,0:3:0:0:
359,351,68527,6,0,P|372:278|324:205,1,150,6|4,0:2|0:2,0:0:0:0:
259,153,69453,1,0,0:2:0:0:
259,153,69638,2,0,L|264:34,1,100,14|2,0:2|0:2,0:0:0:0:
172,95,70379,2,0,P|102:108|76:99,2,100,10|2|10,0:2|0:2|0:2,0:0:0:0:
263,53,71490,6,0,P|360:49|426:73,1,150,6|4,0:2|0:2,0:0:0:0:
401,168,72416,1,0,0:2:0:0:
401,168,72601,2,0,L|414:286,1,100,14|2,0:2|0:2,0:0:0:0:
351,347,73342,1,10,0:2:0:0:
265,294,73713,2,0,P|176:293|158:296,1,100,2|8,0:2|0:3,0:0:0:0:
74,335,74453,6,0,P|47:264|62:183,2,150,6|4|14,0:2|0:2|0:2,0:0:0:0:
180,165,76305,1,10,0:2:0:0:
126,80,76675,1,2,0:2:0:0:
194,7,77046,1,8,0:3:0:0:
275,64,77416,6,0,P|346:68|429:31,2,150,6|4|14,0:2|0:2|0:2,0:0:0:0:
194,7,78898,2,0,P|179:80|193:120,1,100,2|10,0:2|0:2,0:0:0:0:
255,174,79638,1,2,0:2:0:0:
215,266,80009,1,8,0:3:0:0:
117,243,80379,6,0,P|28:248|10:263,1,100,6|10,0:2|0:2,0:0:0:0:
3,298,80935,1,4,0:2:0:0:
82,359,81305,2,0,L|141:353,1,50,8|14,0:2|0:2,0:0:0:0:
361,151,84093,6,0,P|279:137|200:154,2,150,6|2|2,0:2|0:2|0:2,0:0:0:0:
256,192,85801,12,6,88649,0:2:0:0:
