osu file format v14

[General]
AudioFilename: audio.mp3
AudioLeadIn: 0
PreviewTime: 54055
Countdown: 0
SampleSet: Normal
StackLeniency: 0.3
Mode: 0
LetterboxInBreaks: 0
WidescreenStoryboard: 0

[Editor]
DistanceSpacing: 1
BeatDivisor: 4
GridSize: 32
TimelineZoom: 2.4

[Metadata]
Title:Hanakotoba (TV Size)
TitleUnicode:ハナコトバ (TV Size)
Artist:Sanshuu Chuugaku Yuusha-bu
ArtistUnicode:讃州中学勇者部
Creator:_Meep_
Version:Insane
Source:結城友奈は勇者である-勇者の章-
Tags:yuuki yuuna wa yuusha de aru no shou yuki yuna is a hero op opening terui haruka mimori suzuko hanazawa kana nagatsuma juri uchiyama yumi kurosawa tomoyo anime japanese 照井春佳 三森すずこ 内山夕実 黒沢ともよ 長妻樹里 花澤香菜
BeatmapID:2177799
BeatmapSetID:1039404

[Difficulty]
HPDrainRate:5.5
CircleSize:3
OverallDifficulty:8
ApproachRate:9
SliderMultiplier:1.6
SliderTickRate:1

[Events]
//Background and Video events
0,0,"hanakotoba.jpg",0,0
Video,0,"opening.avi"
//Break Periods
//Storyboard Layer 0 (Background)
//Storyboard Layer 1 (Fail)
//Storyboard Layer 2 (Pass)
//Storyboard Layer 3 (Foreground)
//Storyboard Layer 4 (Overlay)
//Storyboard Sound Samples

[TimingPoints]
-686,340.909090909091,4,2,1,57,1,0
507,-100,4,2,1,57,0,0
6132,-125,4,2,1,57,0,0
7410,-125,4,2,1,5,0,0
7495,-333.333333333333,4,2,1,57,0,0
7836,-333.333333333333,4,2,1,43,0,0
8177,-333.333333333333,4,2,1,21,0,0
8518,-333.333333333333,4,2,1,9,0,0
8859,-333.333333333333,4,2,1,5,0,0
9200,-200,4,2,1,20,0,0
10223,-200,4,2,1,25,0,0
21132,-181.818181818182,4,2,1,25,0,0
29314,-166.666666666667,4,2,1,25,0,0
30677,-500,4,2,1,25,0,0
31615,-500,4,2,1,5,0,0
31700,-125,4,2,1,35,0,0
31870,-76.9230769230769,4,2,1,45,0,0
32041,-90.9090909090909,4,1,1,45,0,0
34342,-90.9090909090909,4,1,1,5,0,0
34427,-76.9230769230769,4,1,1,45,0,0
34683,-90.9090909090909,4,1,1,5,0,0
34769,-90.9090909090909,4,1,1,45,0,0
37069,-90.9090909090909,4,1,1,5,0,0
37154,-76.9230769230769,4,1,1,45,0,0
37410,-90.9090909090909,4,1,1,5,0,0
37496,-90.9090909090909,4,1,1,45,0,0
39796,-90.9090909090909,4,1,1,5,0,0
39882,-76.9230769230769,4,1,1,45,0,0
40137,-90.9090909090909,4,1,1,5,0,0
40223,-90.9090909090909,4,1,1,45,0,0
42524,-90.9090909090909,4,1,1,5,0,0
42609,-76.9230769230769,4,1,1,45,0,0
42865,-90.9090909090909,4,1,1,5,0,0
42951,-90.9090909090909,4,1,1,45,0,0
45251,-90.9090909090909,4,1,1,5,0,0
45336,-76.9230769230769,4,1,1,45,0,0
45592,-90.9090909090909,4,1,1,5,0,0
45678,-90.9090909090909,4,1,1,45,0,0
47637,-90.9090909090909,4,1,1,5,0,0
47723,-90.9090909090909,4,1,1,45,0,0
48319,-90.9090909090909,4,1,1,5,0,0
48404,-76.9230769230769,4,1,1,45,0,0
51046,-76.9230769230769,4,1,1,5,0,0
51132,-66.6666666666667,4,1,1,55,0,0
51387,-66.6666666666667,4,1,1,5,0,0
51472,-66.6666666666667,4,1,1,55,0,0
51558,-66.6666666666667,4,1,1,5,0,0
51643,-66.6666666666667,4,1,1,55,0,0
52410,-66.6666666666667,4,1,1,5,0,0
52495,-66.6666666666667,4,1,1,55,0,0
52581,-66.6666666666667,4,1,1,5,0,0
52666,-66.6666666666667,4,1,1,55,0,0
53859,-58.8235294117647,4,1,1,78,0,1
55137,-58.8235294117647,4,1,1,5,0,1
55223,-58.8235294117647,4,1,1,78,0,1
57865,-58.8235294117647,4,1,1,5,0,1
57951,-58.8235294117647,4,1,1,78,0,1
60592,-58.8235294117647,4,1,1,5,0,1
60678,-58.8235294117647,4,1,1,78,0,1
63319,-58.8235294117647,4,1,1,5,0,1
63405,-58.8235294117647,4,1,1,78,0,1
65620,-58.8235294117647,4,1,1,5,0,1
65706,-58.8235294117647,4,1,1,78,0,1
65876,-58.8235294117647,4,1,1,5,0,1
65962,-58.8235294117647,4,1,1,78,0,1
66302,-58.8235294117647,4,1,1,5,0,1
66388,-58.8235294117647,4,1,1,78,0,1
66558,-58.8235294117647,4,1,1,5,0,1
66644,-58.8235294117647,4,1,1,78,0,1
66984,-58.8235294117647,4,1,1,5,0,1
67070,-58.8235294117647,4,1,1,78,0,1
67240,-58.8235294117647,4,1,1,5,0,1
67326,-58.8235294117647,4,1,1,78,0,1
67410,-58.8235294117647,4,1,1,5,0,1
67496,-58.8235294117647,4,1,1,78,0,1
68774,-58.8235294117647,4,1,1,5,0,1
68860,-58.8235294117647,4,1,1,78,0,1
69456,-58.8235294117647,4,1,1,5,0,1
69542,-58.8235294117647,4,1,1,78,0,1
72183,-58.8235294117647,4,1,1,5,0,1
72269,-58.8235294117647,4,1,1,78,0,1
74228,-58.8235294117647,4,1,1,5,0,1
74314,-58.8235294117647,4,1,1,78,0,1
75251,-58.8235294117647,4,1,1,5,0,1
75337,-58.8235294117647,4,1,1,78,0,1
82495,-58.8235294117647,4,1,1,63,0,0
83177,-83.3333333333333,4,1,1,63,0,0
83518,-111.111111111111,4,1,1,63,0,0

[Colours]
Combo1 : 255,55,55
Combo2 : 255,157,255
Combo3 : 230,251,40
Combo4 : 98,176,255

[HitObjects]
98,195,507,5,0,1:0:0:0:
117,232,592,1,0,1:0:0:0:
154,251,677,2,0,P|220:248|288:286,2,120,2|2|2,1:2|0:0|0:0,0:0:0:0:
291,262,1359,2,0,P|244:235|122:240,1,160,2|0,1:2|0:0,0:0:0:0:
370,211,2041,6,0,L|384:66,2,120,2|2|2,1:2|0:0|0:2,0:0:0:0:
406,66,2723,5,2,0:2:0:0:
412,60,2978,6,0,L|424:192,1,120,2|2,0:0|0:0,0:0:0:0:
379,302,3404,6,0,P|436:281|511:301,2,120,2|2|2,1:2|0:0|0:0,0:0:0:0:
502,274,4086,2,0,B|435:249|373:283|373:283|309:315|250:292,1,240,2|0,0:0|0:0,0:0:0:0:
170,233,4768,5,2,0:0:0:0:
329,384,5024,1,2,0:0:0:0:
338,119,5279,1,2,0:0:0:0:
148,99,5450,5,2,0:0:0:0:
93,297,5706,1,2,0:0:0:0:
374,246,5961,2,0,P|379:282|389:306,1,40,2|0,1:2|1:0,0:0:0:0:
446,363,6132,5,6,3:2:0:0:
256,192,6217,12,0,7410,0:0:0:0:
256,192,7495,12,0,8859,0:0:0:0:
134,235,9200,5,0,0:0:0:0:
226,180,9541,1,0,0:0:0:0:
225,289,9882,1,0,0:0:0:0:
225,289,10223,6,0,P|278:282|316:285,1,80,2|0,0:0|0:0,0:0:0:0:
384,337,10734,2,0,P|344:337|304:331,1,80,2|0,0:0|0:0,0:0:0:0:
224,241,11245,2,0,P|277:234|315:237,1,80,2|0,0:0|0:0,0:0:0:0:
383,286,11757,2,0,P|343:286|303:280,1,80,2|0,0:0|0:0,0:0:0:0:
224,241,12268,2,0,L|214:187,1,40,2|0,0:0|0:0,0:0:0:0:
252,122,12609,2,0,L|242:68,1,40,2|0,0:0|0:0,0:0:0:0:
258,0,12950,6,0,P|298:0|343:14,1,80,2|2,0:0|0:0,0:0:0:0:
352,115,13461,1,2,0:0:0:0:
258,150,13632,2,0,L|164:132,2,80,0|0|2,0:0|0:0|0:0,0:0:0:0:
291,264,14654,5,0,0:0:0:0:
291,264,14995,2,0,P|352:253|386:258,1,80,2|0,0:0|0:0,0:0:0:0:
279,354,15677,6,0,L|197:342,1,80,2|0,0:0|0:0,0:0:0:0:
88,326,16189,2,0,L|170:314,1,80,2|0,0:0|0:0,0:0:0:0:
358,342,16700,2,0,L|276:330,1,80,2|0,0:0|0:0,0:0:0:0:
167,314,17212,2,0,L|249:302,1,80,2|0,0:0|0:0,0:0:0:0:
306,236,17723,2,0,P|292:201|278:189,1,40,2|0,0:0|0:0,0:0:0:0:
215,156,18064,2,0,P|183:152|158:156,1,40,2|0,0:0|0:0,0:0:0:0:
85,146,18404,6,0,P|138:131|173:130,1,80,2|2,0:0|0:0,0:0:0:0:
239,168,18916,1,2,0:0:0:0:
301,108,19086,2,0,P|317:61|317:18,2,80,0|0|2,0:0|0:0|0:0,0:0:0:0:
175,224,20109,5,2,0:0:0:0:
175,224,20450,2,0,L|268:231,1,80,2|2,0:0|0:0,0:0:0:0:
474,238,21132,6,0,P|436:262|377:271,1,88.000002685547,6|0,0:0|0:0,0:0:0:0:
401,185,21643,2,0,P|390:231|394:273,1,88.000002685547,2|0,0:0|0:0,0:0:0:0:
429,353,22154,2,0,P|384:354|328:333,1,88.000002685547,2|0,0:0|0:0,0:0:0:0:
393,271,22666,2,0,P|360:305|342:343,1,88.000002685547,2|0,0:0|0:0,0:0:0:0:
257,375,23177,2,0,P|229:354|212:348,1,44.0000013427735,2|0,0:0|0:0,0:0:0:0:
133,324,23518,2,0,P|109:320|87:322,1,44.0000013427735,2|0,0:0|0:0,0:0:0:0:
1,359,23859,6,0,L|10:258,1,88.000002685547,2|2,0:0|0:0,0:0:0:0:
56,196,24370,1,2,0:0:0:0:
56,196,24541,2,0,L|65:296,2,88.000002685547,0|0|2,0:0|0:0|0:0,0:0:0:0:
133,110,25564,1,0,0:0:0:0:
206,202,25904,2,0,P|238:204|267:198,2,44.0000013427735,2|0|0,0:0|0:0|0:0,0:0:0:0:
272,214,26586,6,0,P|218:221|167:208,1,88.000002685547,6|0,0:0|0:0,0:0:0:0:
91,166,27098,2,0,B|98:330|98:330|133:296|154:289,1,220.000006713867,2|0,0:0|0:0,0:0:0:0:
252,354,28632,2,0,P|269:327|279:299,2,44.0000013427735,2|2|0,0:0|0:0|0:0,0:0:0:0:
293,294,29314,6,0,P|276:346|239:386,1,95.9999970703126,6|2,0:0|0:0,0:0:0:0:
151,377,29825,1,2,0:0:0:0:
87,305,29995,2,0,P|90:267|120:210,2,95.9999970703126,0|2|0,0:0|0:0|0:0,0:0:0:0:
256,192,30762,12,0,31529,0:0:0:0:
328,330,31700,5,2,1:2:0:0:
348,305,31785,1,0,1:0:0:0:
314,276,31870,1,2,1:2:0:0:
342,243,31956,1,0,1:0:0:0:
326,189,32041,5,6,1:2:0:0:
172,155,32211,1,2,0:2:0:0:
277,44,32382,1,2,0:2:0:0:
326,189,32552,2,0,P|284:149|168:158,1,176.000005371094,2|0,0:2|0:0,0:0:0:0:
75,253,33064,5,2,0:2:0:0:
234,243,33234,1,2,0:2:0:0:
162,384,33404,1,2,0:2:0:0:
75,253,33575,2,0,P|156:280|234:243,1,176.000005371094,2|0,0:2|1:0,0:0:0:0:
253,115,34086,6,0,P|272:68|347:23,1,132.00000402832,10|0,3:2|0:0,0:0:0:0:
253,115,34427,2,0,P|321:93|402:116,1,155.999992858887,10|0,3:2|0:0,0:0:0:0:
418,139,34768,6,0,B|394:194|394:194|404:333,1,176.000005371094,2|2,3:2|3:2,0:0:0:0:
309,208,35279,1,2,0:2:0:0:
311,250,35365,1,0,0:0:0:0:
312,288,35450,6,0,B|212:292|212:292|157:266,2,132.00000402832,2|2|2,3:2|3:2|0:2,0:0:0:0:
183,193,36132,2,0,P|136:208|106:252,1,88.000002685547,2|2,3:2|3:2,0:0:0:0:
256,112,36473,1,8,1:2:0:0:
256,112,36814,6,0,L|93:106,1,132.00000402832,10|0,3:2|0:0,0:0:0:0:
256,112,37154,2,0,L|75:47,1,155.999992858887,10|0,3:2|0:0,0:0:0:0:
26,41,37495,5,6,3:2:0:0:
6,215,37666,1,2,0:2:0:0:
132,152,37836,1,2,0:2:0:0:
26,41,38007,2,0,L|3:252,1,176.000005371094,2|0,0:2|0:0,0:0:0:0:
80,321,38518,5,2,0:2:0:0:
254,340,38689,1,2,0:2:0:0:
186,214,38859,1,2,0:2:0:0:
80,321,39030,2,0,L|291:344,1,176.000005371094,2|0,0:2|0:0,0:0:0:0:
401,351,39541,6,0,P|394:308|332:233,1,132.00000402832,8|0,3:2|0:0,0:0:0:0:
401,351,39882,2,0,P|416:289|383:172,1,155.999992858887,8|0,3:2|0:0,0:0:0:0:
376,169,40223,6,0,P|354:115|446:75,1,176.000005371094,2|2,3:2|0:2,0:0:0:0:
365,252,40734,1,2,0:2:0:0:
350,208,40819,1,0,0:0:0:0:
376,169,40904,6,0,L|518:153,2,132.00000402832,2|2|2,3:2|3:2|0:2,0:0:0:0:
293,235,41586,2,0,P|245:226|193:245,1,88.000002685547,2|2,3:2|3:2,0:0:0:0:
60,346,41927,1,8,1:2:0:0:
60,346,42268,6,0,L|17:208,1,132.00000402832,10|0,3:2|0:0,0:0:0:0:
60,346,42609,2,0,L|70:154,1,155.999992858887,10|0,3:2|0:0,0:0:0:0:
73,99,42950,5,6,3:2:0:0:
225,56,43120,1,2,0:2:0:0:
181,194,43291,1,2,0:2:0:0:
73,99,43461,2,0,B|144:39|144:39|243:60,1,176.000005371094,2|0,0:2|0:0,0:0:0:0:
271,229,43973,5,2,0:2:0:0:
423,272,44143,1,2,0:2:0:0:
379,134,44314,1,2,0:2:0:0:
271,229,44484,2,0,B|342:289|342:289|441:268,1,176.000005371094,2|0,0:2|0:0,0:0:0:0:
501,170,44995,6,0,P|480:99|433:43,1,132.00000402832,10|0,3:2|0:0,0:0:0:0:
501,170,45336,2,0,P|430:124|354:125,1,155.999992858887,10|0,3:2|0:0,0:0:0:0:
323,132,45677,6,0,B|252:138|252:138|214:122|214:122|122:133,1,176.000005371094,2|2,3:2|0:2,0:0:0:0:
37,235,46189,1,2,0:2:0:0:
35,278,46274,1,0,3:0:0:0:
47,319,46359,6,0,P|101:283|166:287,2,132.00000402832,2|2|2,3:2|0:2|0:2,0:0:0:0:
245,375,47041,2,0,P|298:334|331:329,1,88.000002685547,2|2,3:2|3:2,0:0:0:0:
482,328,47382,2,0,L|462:189,1,132.00000402832,8|0,1:2|0:0,0:0:0:0:
453,160,47723,5,2,0:2:0:0:
230,210,47893,1,0,0:2:0:0:
306,5,48064,2,0,L|334:158,1,132.00000402832,2|0,0:2|0:0,0:0:0:0:
338,170,48404,6,0,P|260:133|124:180,1,207.999990478516,6|10,3:2|0:0,0:0:0:0:
12,320,48916,2,0,P|34:267|41:205,1,103.999995239258,2|0,0:2|0:0,0:0:0:0:
116,61,49257,2,0,P|138:114|145:176,1,103.999995239258,2|8,0:2|0:0,0:0:0:0:
142,309,49598,1,2,0:2:0:0:
245,319,49768,6,0,L|126:307,1,103.999995239258,6|0,3:2|0:0,0:0:0:0:
306,190,50109,2,0,L|409:200,1,103.999995239258,8|0,0:0|0:0,0:0:0:0:
190,175,50450,5,10,1:0:0:0:
435,203,50620,1,2,0:0:0:0:
272,45,50791,2,0,P|305:88|397:47,1,155.999992858887,10|0,1:0|0:0,0:0:0:0:
340,0,51132,6,0,L|316:212,1,180.000006866455,6|0,3:2|0:0,0:0:0:0:
314,209,51473,6,0,P|280:198|223:195,1,60.0000022888184,8|0,1:2|0:0,0:0:0:0:
57,226,51643,2,0,P|113:248|82:127,1,240.000009155274,14|0,3:2|0:0,0:0:0:0:
64,332,52154,6,0,B|112:343|155:330|155:330|199:316|247:339,1,180.000006866455,6|0,3:2|0:0,0:0:0:0:
265,350,52495,6,0,L|349:343,1,60.0000022888184,8|0,1:2|0:0,0:0:0:0:
315,171,52666,2,0,P|379:183|406:344,1,240.000009155274,14|0,3:2|0:0,0:0:0:0:
208,253,53177,6,0,L|202:178,3,60.0000022888184,2|0|0|0,0:0|0:0|0:0|0:0,0:0:0:0:
107,196,53518,6,0,L|120:136,4,40.000001525879,2|0|0|0|0,0:0|0:0|0:0|0:0|3:0,0:0:0:0:
34,106,53859,6,0,P|113:45|259:82,2,204.000003890991,6|2|2,1:2|1:2|1:2,0:0:0:0:
298,90,54541,1,10,3:2:0:0:
154,189,54711,1,8,0:2:0:0:
315,273,54882,2,0,B|324:326|324:326|175:270,1,204.000003890991,0|0,3:0|0:0,0:0:0:0:
154,189,55223,6,0,P|104:233|111:323,1,136.000002593994,2|0,1:2|0:0,0:0:0:0:
294,179,55564,2,0,P|304:113|240:48,1,136.000002593994,2|0,3:2|0:0,0:0:0:0:
97,120,55904,2,0,P|161:102|220:134,1,136.000002593994,2|0,0:2|0:0,0:0:0:0:
383,246,56245,1,2,3:2:0:0:
341,239,56330,1,8,1:2:0:0:
317,265,56415,1,8,1:2:0:0:
295,247,56500,1,8,1:2:0:0:
272,258,56586,6,0,B|222:261|187:240|187:240|143:236|113:271|113:271|59:242|1:245,2,272.000005187988,6|0|0,1:2|3:2|0:2,0:0:0:0:
460,178,57439,1,0,0:0:0:0:
300,58,57609,2,0,B|264:208|264:208|276:283,1,204.000003890991,2|0,3:2|0:0,0:0:0:0:
296,292,57950,6,0,L|450:283,1,136.000002593994
458,290,58206,1,0,0:0:0:0:
458,290,58291,1,2,3:2:0:0:
275,384,58461,5,0,0:0:0:0:
70,339,58632,2,0,P|61:275|61:189,1,136.000002593994
4,22,58973,1,0,3:0:0:0:
56,7,59058,1,8,0:2:0:0:
86,42,59143,1,8,0:2:0:0:
115,25,59228,1,8,0:2:0:0:
132,40,59314,6,0,P|198:55|350:21,2,204.000003890991,6|2|2,1:2|0:2|0:2,0:0:0:0:
2,193,59995,1,2,3:2:0:0:
167,143,60166,1,0,0:0:0:0:
137,328,60336,2,0,B|73:268|90:187|90:187|113:221|160:232,1,204.000003890991,0|0,3:0|0:0,0:0:0:0:
167,143,60677,6,0,B|214:116|214:116|297:129,1,136.000002593994,2|0,0:2|0:0,0:0:0:0:
500,224,61018,2,0,B|453:197|453:197|361:211,1,136.000002593994,2|0,3:2|0:0,0:0:0:0:
129,269,61359,2,0,B|176:242|176:242|268:256,1,136.000002593994,2|0,0:2|0:0,0:0:0:0:
461,346,61700,1,2,3:2:0:0:
412,319,61785,1,8,0:2:0:0:
378,333,61870,1,8,0:2:0:0:
346,317,61956,1,8,0:2:0:0:
330,321,62041,6,0,P|282:254|313:63,2,272.000005187988,6|0|0,1:2|3:0|0:0,0:0:0:0:
444,184,62893,1,0,0:0:0:0:
304,74,63064,2,0,B|225:54|225:54|90:83,1,204.000003890991,2|0,3:2|0:0,0:0:0:0:
23,119,63404,6,0,P|81:120|158:211,1,136.000002593994
152,207,63660,1,0,0:0:0:0:
152,207,63745,1,2,3:2:0:0:
27,377,63916,5,0,1:0:0:0:
147,357,64086,2,0,L|296:335,1,136.000002593994,0|0,0:0|0:0,0:0:0:0:
512,161,64427,1,8,3:2:0:0:
495,191,64512,1,8,0:2:0:0:
456,171,64598,1,8,0:2:0:0:
449,196,64683,1,8,0:2:0:0:
429,196,64768,6,0,B|362:293|411:384|411:384|432:337|405:297,1,272.000005187988,6|0,1:2|3:0,0:0:0:0:
296,87,65279,1,0,0:0:0:0:
319,220,65450,6,0,P|300:152|296:76,1,136.000002593994,2|0,0:2|0:0,0:0:0:0:
192,173,65706,2,0,P|252:202|318:219,1,136.000002593994,2|0,0:2|0:0,0:0:0:0:
398,169,65961,1,2,0:2:0:0:
398,169,66132,6,0,B|367:228|367:228|377:312,1,136.000002593994,2|0,0:2|0:0,0:0:0:0:
503,321,66387,2,0,B|447:291|447:291|369:297,1,136.000002593994,2|0,0:2|0:0,0:0:0:0:
296,343,66643,1,2,0:2:0:0:
296,343,66814,6,0,P|211:320|149:320,1,136.000002593994,2|0,0:2|0:0,0:0:0:0:
221,233,67069,2,0,P|263:315|333:360,1,136.000002593994,2|0,0:2|0:0,0:0:0:0:
374,296,67325,2,0,L|365:199,1,68.0000012969971,2|0,0:2|0:0,0:0:0:0:
352,96,67495,6,0,P|288:56|162:180,1,272.000005187988,2|0,1:2|3:0,0:0:0:0:
3,36,68007,2,0,P|0:111|170:158,1,272.000005187988,2|0,0:2|0:0,0:0:0:0:
125,319,68518,2,0,P|177:291|142:157,1,204.000003890991,2|0,3:2|0:0,0:0:0:0:
110,234,68859,5,0,3:0:0:0:
309,209,69029,1,0,0:0:0:0:
215,370,69200,2,0,P|208:300|238:370,1,204.000003890991,2|0,3:0|0:0,0:0:0:0:
225,333,69541,6,0,P|266:308|370:328,1,136.000002593994,2|2,0:2|0:2,0:0:0:0:
485,363,69882,2,0,P|470:270|487:217,1,136.000002593994,2|0,0:2|0:0,0:0:0:0:
507,152,70137,1,0,0:0:0:0:
507,152,70223,6,0,B|405:129|405:129|337:158|337:158|243:137,1,272.000005187988,6|2,3:2|0:2,0:0:0:0:
125,0,70734,2,0,B|160:194|160:194|109:310,1,272.000005187988,2|0,3:2|0:0,0:0:0:0:
0,384,71245,1,0,0:0:0:0:
20,356,71331,1,0,0:0:0:0:
62,368,71416,1,0,0:0:0:0:
89,331,71501,1,0,0:0:0:0:
143,327,71586,6,0,P|200:307|288:333,1,136.000002593994,0|0,3:0|0:0,0:0:0:0:
391,379,71927,2,0,P|382:274|442:174,1,204.000003890991,0|0,3:0|0:0,0:0:0:0:
442,169,72268,6,0,P|362:159|307:116,1,136.000002593994,2|2,0:2|0:2,0:0:0:0:
214,18,72609,2,0,P|155:64|85:74,1,136.000002593994,2|0,0:2|0:0,0:0:0:0:
7,57,72865,1,0,0:0:0:0:
7,57,72950,6,0,B|0:106|33:147|33:147|-7:236|5:338,1,272.000005187988,6|0,3:2|0:0,0:0:0:0:
144,376,73461,2,0,B|248:389|307:377|383:331|326:210|234:201|190:259|191:344|242:371,1,408.000007781983,2|0,3:2|0:2,0:0:0:0:
391,372,74143,1,0,0:0:0:0:
391,372,74314,6,0,P|403:278|369:210,1,136.000002593994,2|0,0:1|0:0,0:0:0:0:
302,171,74654,2,0,L|143:188,1,136.000002593994,2|0,1:2|0:0,0:0:0:0:
2,255,74995,2,0,L|222:282,1,204.000003890991,2|0,1:2|0:0,0:0:0:0:
240,284,75336,2,0,P|258:212|315:166,1,136.000002593994,2|0,1:2|0:0,0:0:0:0:
468,152,75677,6,0,B|484:306|484:306|445:388,2,204.000003890991,6|0|0,1:2|0:0|0:0,0:0:0:0:
379,22,76359,2,0,P|336:109|478:139,1,272.000005187988,2|0,0:2|0:0,0:0:0:0:
314,250,77041,6,0,B|259:254|259:254|222:288|222:288|180:260|180:260|122:265,2,204.000003890991,2|2|2,0:2|0:2|0:2,0:0:0:0:
154,355,77723,1,2,0:2:0:0:
214,175,77978,1,2,0:2:0:0:
303,344,78234,1,2,0:2:0:0:
132,264,78404,6,0,B|86:227|79:184|79:184|103:133|107:33,2,204.000003890991,2|2|2,0:2|0:2|0:2,0:0:0:0:
60,361,79086,2,0,P|127:312|311:351,1,272.000005187988,2|0,0:2|0:2,0:0:0:0:
302,343,79768,5,2,0:2:0:0:
442,248,80024,1,2,0:2:0:0:
184,186,80279,1,2,0:2:0:0:
299,247,80449,5,2,0:2:0:0:
135,117,80706,1,2,0:2:0:0:
445,65,80961,1,2,3:2:0:0:
247,0,81132,5,6,0:2:0:0:
256,192,81217,12,0,82495,0:0:0:0:
225,187,83177,5,2,3:2:0:0:
254,288,83348,1,0,0:3:0:0:
347,242,83518,2,0,P|286:189|210:193,1,143.999995605469,2|4,3:0|0:2,0:0:0:0:
