osu file format v14

[General]
AudioFilename: audio.mp3
AudioLeadIn: 0
PreviewTime: 54055
Countdown: 0
SampleSet: Normal
StackLeniency: 0.3
Mode: 0
LetterboxInBreaks: 0
WidescreenStoryboard: 1

[Editor]
DistanceSpacing: 1
BeatDivisor: 4
GridSize: 32
TimelineZoom: 2.4

[Metadata]
Title:Hanakotoba (TV Size)
TitleUnicode:ハナコトバ (TV Size)
Artist:Sanshuu Chuugaku Yuusha-bu
ArtistUnicode:讃州中学勇者部
Creator:_Meep_
Version:Hard
Source:結城友奈は勇者である-勇者の章-
Tags:yuuki yuuna wa yuusha de aru no shou yuki yuna is a hero op opening terui haruka mimori suzuko hanazawa kana nagatsuma juri uchiyama yumi kurosawa tomoyo anime japanese 照井春佳 三森すずこ 内山夕実 黒沢ともよ 長妻樹里 花澤香菜
BeatmapID:2176993
BeatmapSetID:1039404

[Difficulty]
HPDrainRate:5
CircleSize:3
OverallDifficulty:6.5
ApproachRate:8
SliderMultiplier:1.5
SliderTickRate:1

[Events]
//Background and Video events
0,0,"hanakotoba.jpg",0,0
Video,0,"opening.avi"
//Break Periods
//Storyboard Layer 0 (Background)
//Storyboard Layer 1 (Fail)
//Storyboard Layer 2 (Pass)
//Storyboard Layer 3 (Foreground)
//Storyboard Layer 4 (Overlay)
//Storyboard Sound Samples

[TimingPoints]
-686,340.909090909091,4,2,1,57,1,0
507,-100,4,2,1,57,0,0
6132,-125,4,2,1,57,0,0
7410,-125,4,2,1,5,0,0
7495,-333.333333333333,4,2,1,57,0,0
7836,-333.333333333333,4,2,1,43,0,0
8177,-333.333333333333,4,2,1,21,0,0
8518,-333.333333333333,4,2,1,9,0,0
8859,-333.333333333333,4,2,1,5,0,0
9200,-200,4,2,1,20,0,0
10223,-200,4,2,1,25,0,0
21132,-181.818181818182,4,2,1,25,0,0
29314,-166.666666666667,4,2,1,25,0,0
30677,-500,4,2,1,25,0,0
31615,-500,4,2,1,5,0,0
31700,-125,4,2,1,35,0,0
31870,-76.9230769230769,4,2,1,45,0,0
32041,-90.9090909090909,4,1,1,45,0,0
32296,-90.9090909090909,4,1,1,5,0,0
32382,-90.9090909090909,4,1,1,45,0,0
34769,-90.9090909090909,4,1,1,45,0,0
37496,-90.9090909090909,4,1,1,45,0,0
40223,-90.9090909090909,4,1,1,45,0,0
42951,-90.9090909090909,4,1,1,45,0,0
45678,-90.9090909090909,4,1,1,45,0,0
47637,-90.9090909090909,4,1,1,5,0,0
47723,-90.9090909090909,4,1,1,45,0,0
48319,-90.9090909090909,4,1,1,5,0,0
48404,-76.9230769230769,4,1,1,45,0,0
51046,-76.9230769230769,4,1,1,5,0,0
51132,-76.9230769230769,4,1,1,55,0,0
51387,-76.9230769230769,4,1,1,5,0,0
51472,-76.9230769230769,4,1,1,55,0,0
52410,-76.9230769230769,4,1,1,5,0,0
52495,-76.9230769230769,4,1,1,55,0,0
53859,-76.9230769230769,4,1,1,78,0,1
55137,-76.9230769230769,4,1,1,5,0,1
55223,-76.9230769230769,4,1,1,78,0,1
56160,-76.9230769230769,4,1,1,5,0,1
56246,-76.9230769230769,4,1,1,78,0,1
58292,-76.9230769230769,4,1,1,78,0,1
60592,-76.9230769230769,4,1,1,5,0,1
60678,-76.9230769230769,4,1,1,78,0,1
61615,-76.9230769230769,4,1,1,5,0,1
61701,-76.9230769230769,4,1,1,78,0,1
63405,-76.9230769230769,4,1,1,78,0,1
68774,-76.9230769230769,4,1,1,5,0,1
68860,-76.9230769230769,4,1,1,78,0,1
69456,-76.9230769230769,4,1,1,5,0,1
69542,-76.9230769230769,4,1,1,78,0,1
72183,-76.9230769230769,4,1,1,5,0,1
72269,-76.9230769230769,4,1,1,78,0,1
74228,-76.9230769230769,4,1,1,5,0,1
74314,-76.9230769230769,4,1,1,78,0,1
75251,-76.9230769230769,4,1,1,8,0,1
75337,-76.9230769230769,4,1,1,78,0,1
82495,-76.9230769230769,4,1,1,63,0,0
83177,-83.3333333333333,4,1,1,63,0,0
83518,-111.111111111111,4,1,1,63,0,0

[Colours]
Combo1 : 255,55,55
Combo2 : 255,157,255
Combo3 : 230,251,40
Combo4 : 98,176,255

[HitObjects]
71,253,507,5,0,1:0:0:0:
71,253,592,1,0,1:0:0:0:
71,253,677,2,0,P|53:195|64:128,2,112.5,2|2|2,1:2|0:0|0:0,0:0:0:0:
132,327,1359,2,0,P|112:257|153:180,1,150,2|0,1:2|0:0,0:0:0:0:
284,90,2041,6,0,P|339:65|383:7,2,112.5,2|2|2,1:2|0:0|0:2,0:0:0:0:
220,185,2723,2,0,P|174:173|115:128,2,112.5,2|2|2,0:0|0:0|0:0,0:0:0:0:
310,259,3404,6,0,P|365:251|415:224,2,112.5,2|2|2,1:2|0:0|0:0,0:0:0:0:
337,151,4086,1,2,0:0:0:0:
306,363,4768,6,0,L|418:352,2,112.5,2|2|0,0:0|0:0|0:0,0:0:0:0:
217,316,5450,2,0,P|225:260|208:187,2,112.5,2|2|2,0:0|0:0|3:2,0:0:0:0:
120,368,6132,5,6,3:2:0:0:
256,192,6217,12,0,7410,0:0:0:0:
256,192,7495,12,0,8859,0:0:0:0:
128,261,9200,5,0,0:0:0:0:
205,229,9541,1,0,0:0:0:0:
273,281,9882,1,0,0:0:0:0:
344,237,10223,6,0,L|339:153,1,75,2|0,0:0|0:0,0:0:0:0:
337,130,10734,1,2,0:0:0:0:
475,171,11245,6,0,L|480:87,1,75,2|0,0:0|0:0,0:0:0:0:
482,64,11756,1,2,0:0:0:0:
331,155,12268,6,0,P|299:156|279:155,3,37.5,2|0|2|0,0:0|0:0|0:0|0:0,0:0:0:0:
261,151,12950,2,0,P|229:121|208:89,1,75,2|2,0:0|0:0,0:0:0:0:
196,72,13461,1,2,0:0:0:0:
196,72,13632,2,0,P|151:103|119:111,2,75,0|0|2,0:0|0:0|0:0,0:0:0:0:
307,140,14654,5,0,0:0:0:0:
321,9,14995,1,2,0:0:0:0:
423,84,15336,1,0,0:0:0:0:
291,162,15677,6,0,L|202:158,1,75,2|0,0:0|0:0,0:0:0:0:
188,157,16189,1,2,0:0:0:0:
226,293,16700,6,0,L|137:297,1,75,2|0,0:0|0:0,0:0:0:0:
123,298,17212,1,2,0:0:0:0:
165,141,17723,6,0,L|116:137,3,37.5,2|0|2|0,0:0|0:0|0:0|0:0,0:0:0:0:
94,134,18404,2,0,P|51:153|24:185,1,75,2|2,0:0|0:0,0:0:0:0:
14,204,18916,1,2,0:0:0:0:
14,204,19086,2,0,L|24:296,2,75,0|0|2,0:0|0:0|0:0,0:0:0:0:
145,188,20109,5,2,0:0:0:0:
77,84,20450,1,2,0:0:0:0:
14,204,20791,1,2,0:0:0:0:
158,188,21132,6,0,P|212:208|233:235,1,82.5000025177003,6|0,0:0|0:0,0:0:0:0:
245,260,21643,1,2,0:0:0:0:
359,134,22154,6,0,P|368:190|355:222,1,82.5000025177003,2|0,0:0|0:0,0:0:0:0:
340,245,22666,1,2,0:0:0:0:
493,286,23177,6,0,P|472:290|452:291,1,41.2500012588501,2|0,0:0|0:0,0:0:0:0:
429,275,23518,2,0,P|408:271|388:270,1,41.2500012588501,2|0,0:0|0:0,0:0:0:0:
353,286,23859,2,0,P|303:293|273:318,1,82.5000025177003,2|0,0:0|0:0,0:0:0:0:
254,346,24370,1,2,0:0:0:0:
254,346,24541,2,0,P|203:319|161:319,2,82.5000025177003,2|0|2,0:0|0:0|0:0,0:0:0:0:
252,368,25904,2,0,L|300:384,2,41.2500012588501,2|0|0,0:0|0:0|0:0,0:0:0:0:
327,171,26586,6,0,L|333:72,1,82.5000025177003,6|0,0:0|0:0,0:0:0:0:
335,53,27098,2,0,B|188:90|278:3|120:37,1,206.250006294251,2|0,0:0|0:0,0:0:0:0:
118,38,28632,2,0,P|106:8|103:-13,2,41.2500012588501,2|2|0,0:0|0:0|0:0,0:0:0:0:
159,211,29314,6,0,P|205:197|254:204,1,89.9999972534181,6|0,0:0|0:0,0:0:0:0:
328,235,29825,2,0,B|384:248|452:224|452:224|439:274|386:309,1,224.999993133545,2|0,0:0|0:0,0:0:0:0:
256,192,30762,12,2,31700,1:2:0:0:
164,234,32041,6,0,L|157:150,2,82.5000025177003,6|2|2,1:2|0:2|0:2,0:0:0:0:
251,291,32552,2,0,B|365:282|365:282|308:236,1,165.000005035401,2|0,0:2|0:0,0:0:0:0:
247,186,33064,2,0,L|240:102,2,82.5000025177003,2|2|2,0:2|0:2|0:2,0:0:0:0:
325,250,33575,2,0,B|439:241|439:241|382:195,1,165.000005035401,2|0,0:2|1:0,0:0:0:0:
330,145,34086,6,0,P|318:103|332:47,1,82.5000025177003,10|0,3:2|0:0,0:0:0:0:
409,12,34427,2,0,P|421:54|407:110,1,82.5000025177003,10|0,3:2|0:0,0:0:0:0:
330,145,34768,6,0,B|270:135|270:135|236:150|236:150|153:136,1,165.000005035401,2|2,3:2|3:2,0:0:0:0:
67,118,35279,1,2,0:2:0:0:
135,44,35450,2,0,P|192:29|259:42,2,123.75000377655,2|2|2,3:2|3:2|0:2,0:0:0:0:
67,118,36132,6,0,P|67:159|76:212,1,82.5000025177003,2|2,3:2|3:2,0:0:0:0:
144,272,36473,1,8,1:2:0:0:
144,272,36814,6,0,B|186:255|186:255|237:264,1,82.5000025177003,10|0,3:2|0:0,0:0:0:0:
276,343,37154,2,0,B|234:360|234:360|183:351,1,82.5000025177003,10|0,3:2|0:0,0:0:0:0:
97,308,37495,6,0,L|93:203,2,82.5000025177003,6|2|2,3:2|0:2|0:2,0:0:0:0:
197,242,38007,2,0,B|231:232|257:240|257:240|239:180|190:135,1,165.000005035401,2|0,0:2|0:0,0:0:0:0:
103,205,38518,2,0,L|99:100,2,82.5000025177003,2|2|2,0:2|0:2|0:2,0:0:0:0:
206,150,39030,2,0,B|240:140|266:148|266:148|248:88|199:43,1,165.000005035401,2|0,0:2|0:0,0:0:0:0:
122,44,39541,6,0,B|98:104|98:104|101:145,1,82.5000025177003,8|0,3:2|0:0,0:0:0:0:
183,227,39882,2,0,B|207:167|207:167|204:126,1,82.5000025177003,8|0,3:2|0:0,0:0:0:0:
122,44,40223,6,0,P|185:18|292:45,1,165.000005035401,2|2,3:2|0:2,0:0:0:0:
332,126,40734,1,2,0:2:0:0:
401,47,40904,2,0,B|446:34|446:34|523:82,2,123.75000377655,2|2|2,3:2|3:2|0:2,0:0:0:0:
315,136,41586,6,0,P|313:175|327:242,1,82.5000025177003,2|2,3:2|3:2,0:0:0:0:
438,267,41927,1,8,1:2:0:0:
438,267,42268,6,0,P|391:271|351:307,1,82.5000025177003,10|0,3:2|0:0,0:0:0:0:
349,375,42609,2,0,P|396:371|436:335,1,82.5000025177003,10|0,3:2|0:0,0:0:0:0:
438,267,42950,6,0,L|428:169,2,82.5000025177003,6|2|2,3:2|0:2|0:2,0:0:0:0:
510,155,43461,2,0,P|482:117|364:130,1,165.000005035401,2|0,0:2|0:0,0:0:0:0:
301,232,43973,2,0,L|291:134,2,82.5000025177003,2|2|2,0:2|0:2|0:2,0:0:0:0:
373,120,44484,2,0,P|345:82|227:95,1,165.000005035401,2|0,0:2|0:0,0:0:0:0:
141,136,44995,6,0,B|81:144|32:117,1,82.5000025177003,10|0,3:2|0:0,0:0:0:0:
12,25,45336,2,0,B|80:15|127:45,1,82.5000025177003,10|0,3:2|0:0,0:0:0:0:
141,136,45677,6,0,P|125:201|205:288,1,165.000005035401,2|2,3:2|0:2,0:0:0:0:
280,237,46189,1,2,0:2:0:0:
367,287,46359,2,0,B|456:278|456:278|488:247,2,123.75000377655,2|2|2,3:2|0:2|0:2,0:0:0:0:
280,237,47041,6,0,L|280:123,1,82.5000025177003,2|2,3:2|3:2,0:0:0:0:
283,32,47382,1,8,1:2:0:0:
283,32,47723,6,0,L|375:26,1,82.5000025177003,2|0,0:2|0:2,0:0:0:0:
424,120,48064,2,0,L|282:129,1,123.75000377655,2|0,0:2|0:0,0:0:0:0:
263,131,48404,6,0,P|210:157|208:294,1,194.999991073609,6|10,3:2|0:0,0:0:0:0:
293,316,48916,2,0,P|298:254|270:212,1,97.4999955368044,2|0,0:2|0:0,0:0:0:0:
197,280,49257,2,0,P|162:311|110:327,1,97.4999955368044,2|8,0:2|0:0,0:0:0:0:
97,208,49598,1,2,0:2:0:0:
16,337,49768,6,0,P|80:355|138:355,1,97.4999955368044,6|0,3:2|0:0,0:0:0:0:
208,272,50109,2,0,P|260:259|315:266,1,97.4999955368044,8|0,0:0|0:0,0:0:0:0:
411,335,50450,1,10,1:0:0:0:
492,268,50620,1,2,0:0:0:0:
411,335,50791,2,0,P|389:270|416:188,1,146.249993305207,10|0,1:0|0:0,0:0:0:0:
421,176,51132,6,0,B|463:136|425:90|425:90|365:111|394:174,1,194.999991073609,6|8,3:2|1:2,0:0:0:0:
297,207,51643,1,14,3:2:0:0:
97,177,52154,6,0,B|54:137|90:89|90:89|150:111|133:187,1,194.999991073609,6|8,3:2|1:2,0:0:0:0:
212,210,52665,1,14,3:2:0:0:
317,362,53177,5,2,0:0:0:0:
323,367,53518,2,0,P|351:376|373:379,4,32.4999985122681,2|0|0|0|0,0:0|0:0|0:0|0:0|0:0,0:0:0:0:
351,340,53859,6,0,P|363:271|450:280,2,146.249993305207,6|2|2,1:2|1:2|1:2,0:0:0:0:
444,347,54541,1,10,3:2:0:0:
408,230,54711,1,8,0:2:0:0:
298,180,54882,1,0,3:0:0:0:
298,180,55223,6,0,B|167:165|167:165|229:228,1,194.999991073609,2|2,1:2|3:2,0:0:0:0:
312,289,55734,1,0,0:0:0:0:
400,204,55904,2,0,P|388:126|319:80,1,146.249993305207,2|0,0:2|0:0,0:0:0:0:
318,72,56245,2,0,P|286:100|207:109,1,97.4999955368044,2|8,3:2|1:2,0:0:0:0:
117,105,56586,6,0,B|114:158|143:193|143:193|104:233|96:283,2,194.999991073609,6|0|0,1:2|3:2|0:2,0:0:0:0:
222,36,57439,1,0,0:0:0:0:
309,122,57609,2,0,P|361:119|405:95,1,97.4999955368044,2|2,3:2|0:2,0:0:0:0:
434,75,57865,1,0,0:0:0:0:
450,39,57950,6,0,B|487:132|487:132|456:247,1,194.999991073609,0|0,0:0|3:0,0:0:0:0:
375,297,58461,1,0,0:0:0:0:
288,218,58632,2,0,P|237:206|174:234,1,97.4999955368044,0|0,0:0|0:0,0:0:0:0:
103,269,58973,2,0,P|80:260|58:249,3,48.7499977684022,0|8|8|8,3:0|0:2|0:2|0:2,0:0:0:0:
77,282,59314,6,0,B|75:183|75:183|24:130,2,146.249993305207,6|2|2,1:2|0:2|0:2,0:0:0:0:
166,360,59995,1,2,3:2:0:0:
277,317,60166,1,0,0:0:0:0:
294,199,60336,1,0,3:0:0:0:
294,199,60677,6,0,B|372:192|372:192|410:206|410:206|522:200,1,194.999991073609,2|2,0:2|3:2,0:0:0:0:
482,99,61189,1,0,0:0:0:0:
376,92,61359,2,0,P|340:107|297:221,1,146.249993305207,2|0,0:2|0:0,0:0:0:0:
300,234,61700,2,0,P|291:300|264:341,1,97.4999955368044,2|8,3:2|0:2,0:0:0:0:
146,314,62041,6,0,B|116:221|116:221|153:121,2,194.999991073609,6|0|0,1:2|3:0|0:0,0:0:0:0:
260,277,62893,1,0,0:0:0:0:
343,364,63064,2,0,L|465:358,1,97.4999955368044,2|0,3:2|0:0,0:0:0:0:
466,359,63319,1,0,0:0:0:0:
492,356,63404,6,0,P|513:262|458:178,1,194.999991073609,0|8,0:0|3:2,0:0:0:0:
348,141,63916,1,0,1:0:0:0:
262,234,64086,2,0,L|149:222,1,97.4999955368044,0|0,0:0|0:0,0:0:0:0:
47,278,64427,2,0,L|-8:290,3,48.7499977684022,8|8|8|8,3:2|0:2|0:2|0:2,0:0:0:0:
25,318,64768,6,0,L|36:97,1,194.999991073609,6|0,1:2|3:0,0:0:0:0:
142,76,65279,1,0,0:0:0:0:
234,146,65450,2,0,P|296:147|340:67,2,146.249993305207,2|2|2,0:2|0:2|0:2,0:0:0:0:
142,184,66132,2,0,P|111:129|20:131,2,146.249993305207,2|2|2,0:2|0:2|0:2,0:0:0:0:
221,245,66814,2,0,P|189:298|236:376,2,146.249993305207,2|2|2,0:2|0:2|0:2,0:0:0:0:
334,208,67495,6,0,L|120:200,1,194.999991073609,2|0,1:2|3:0,0:0:0:0:
80,300,68007,2,0,L|281:308,1,194.999991073609,2|0,0:2|0:0,0:0:0:0:
334,208,68518,2,0,L|312:35,1,146.249993305207,2|0,3:2|0:0,0:0:0:0:
308,30,68859,5,0,3:0:0:0:
235,120,69029,1,0,0:0:0:0:
170,25,69200,2,0,P|239:6|307:29,1,146.249993305207,2|0,3:0|0:0,0:0:0:0:
325,50,69541,6,0,P|371:72|439:67,1,97.4999955368044,2|2,0:2|0:2,0:0:0:0:
512,22,69882,2,0,B|527:63|528:97|502:152,1,97.4999955368044,2|0,0:2|0:0,0:0:0:0:
498,155,70137,1,0,0:0:0:0:
470,186,70223,6,0,B|423:200|384:161|384:161|329:147|279:193,1,194.999991073609,6|2,3:2|0:2,0:0:0:0:
217,292,70734,2,0,P|274:357|391:339,1,194.999991073609,2|0,3:2|0:0,0:0:0:0:
451,244,71245,2,0,P|449:220|444:197,3,48.7499977684022
478,234,71586,6,0,P|402:223|339:232,1,97.4999955368044,0|0,3:0|0:0,0:0:0:0:
290,290,71927,2,0,P|236:298|179:290,1,97.4999955368044,0|0,3:0|0:0,0:0:0:0:
91,251,72268,5,2,0:2:0:0:
71,145,72439,1,2,0:2:0:0:
97,267,72609,2,0,P|161:230|217:152,1,146.249993305207,2|0,0:2|0:0,0:0:0:0:
214,148,72950,6,0,B|205:10|205:10|264:63,1,194.999991073609,6|0,3:2|0:0,0:0:0:0:
360,168,73461,2,0,B|431:181|442:61|341:56|294:108|331:253,1,292.499986610413,2|0,3:2|0:2,0:0:0:0:
390,338,74143,1,0,0:0:0:0:
390,338,74314,6,0,P|453:314|510:317,1,97.4999955368044,2|0,0:1|0:0,0:0:0:0:
284,384,74654,2,0,P|226:369|180:336,1,97.4999955368044,2|0,1:2|0:0,0:0:0:0:
151,234,74995,2,0,P|179:160|233:118,1,146.249993305207,2|0,1:2|0:0,0:0:0:0:
272,121,75336,2,0,L|277:226,1,97.4999955368044,2|0,1:2|0:0,0:0:0:0:
325,341,75677,6,0,P|396:336|451:251,2,146.249993305207,6|0|0,1:2|0:0|0:0,0:0:0:0:
234,267,76359,2,0,P|159:221|60:261,1,194.999991073609,2|0,0:2|0:0,0:0:0:0:
64,255,77041,6,0,B|41:203|41:203|56:84,2,146.249993305207,2|2|2,0:2|0:2|0:2,0:0:0:0:
145,337,77723,2,0,B|93:360|93:360|-26:345,2,146.249993305207,2|2|2,0:2|0:2|0:2,0:0:0:0:
234,267,78404,6,0,P|213:200|234:91,2,146.249993305207,2|2|2,0:2|0:2|0:2,0:0:0:0:
327,328,79086,2,0,L|351:113,1,194.999991073609,2|0,0:2|0:2,0:0:0:0:
181,48,79768,6,0,P|100:42|5:77,2,146.249993305207,2|2|2,0:2|0:2|0:2,0:2:0:0:
124,155,80450,2,0,P|205:149|300:184,2,146.249993305207,2|2|2,0:2|0:2|3:2,0:2:0:0:
10,252,81132,5,6,0:2:0:0:
256,192,81217,12,0,82495,0:0:0:0:
255,126,83177,6,0,P|247:82|270:33,2,89.9999972534181,2|0|2,3:2|0:3|3:0,0:0:0:0:
256,296,83859,1,4,0:2:0:0:
