osu file format v14

[General]
AudioFilename: audio.mp3
AudioLeadIn: 0
PreviewTime: 53734
Countdown: 0
SampleSet: Soft
StackLeniency: 0.7
Mode: 0
LetterboxInBreaks: 0
WidescreenStoryboard: 1

[Editor]
DistanceSpacing: 1.9
BeatDivisor: 4
GridSize: 4
TimelineZoom: 2.599999

[Metadata]
Title:Hanakotoba (TV Size)
TitleUnicode:ハナコトバ (TV Size)
Artist:Sanshuu Chuugaku Yuusha-bu
ArtistUnicode:讃州中学勇者部
Creator:Rensia
Version:Victor's Insane
Source:結城友奈は勇者である -勇者の章-
Tags:Alexsander Ataraxia victorfernando Yuuki Yuuna Wa Yuusha De Aru no Shou Yuki Yuna is a Hero Chapter Japanese Anime Opening OP Theme MONACA Yūki Yūna 照井春佳 Terui Haruka 東郷美森 Tougou Mimori 三森すずこ Suzuko 乃木園子 Sonoko Nogi 花澤香菜 Hanazawa Kana 三好夏凜 Miyoshi Karin 長妻樹里 Nagatsuma Juri 犬吠埼風 Inubouzaki Fuu 内山夕実 Uchiyama Yumi 埼樹 Itsuki 黒沢ともよ Kurosawa Tomoyo
BeatmapID:1777338
BeatmapSetID:843145

[Difficulty]
HPDrainRate:6
CircleSize:4
OverallDifficulty:8
ApproachRate:9
SliderMultiplier:1.8
SliderTickRate:1

[Events]
//Background and Video events
Video,0,"video.avi"
0,0,"BG_Insane.jpg",0,0
//Break Periods
//Storyboard Layer 0 (Background)
//Storyboard Layer 1 (Fail)
//Storyboard Layer 2 (Pass)
//Storyboard Layer 3 (Foreground)
//Storyboard Layer 4 (Overlay)
//Storyboard Sound Samples

[TimingPoints]
666,340.909090909091,4,2,1,55,1,0
666,-100,4,2,1,50,0,0
6120,-200,4,2,1,50,0,0
10211,-142.857142857143,4,2,1,35,0,0
31347,-250.000000000001,4,2,1,45,0,0
32029,-111.111111111111,4,3,1,55,0,0
53847,-100,4,3,1,60,0,1
75666,-100,4,2,1,60,0,0

[Colours]
Combo1 : 242,104,121
Combo2 : 251,221,117
Combo3 : 174,94,255
Combo4 : 254,150,184
SliderBorder : 243,213,231
SliderTrackOverride : 93,4,70

[HitObjects]
136,88,666,6,0,B|208:64|200:120|288:88,2,135,6|2|0,0:0|0:0|0:0,0:0:0:0:
128,264,1347,2,0,B|160:296|160:296|192:232|168:144,1,180,2|0,0:0|0:0,0:0:0:0:
360,48,2029,6,0,B|424:24|424:24|494:55,2,135,2|0|0,0:0|0:0|0:0,0:0:0:0:
422,263,2711,2,0,B|422:128,2,135,2|0|0,0:0|0:0|0:0,0:0:0:0:
256,336,3393,6,0,B|256:200,2,135,6|0|0,0:0|0:0|0:0,0:0:0:0:
312,136,4075,2,0,B|216:88|216:168|120:128,1,180,2|0,0:0|0:0,0:0:0:0:
312,136,4756,6,0,P|352:104|440:120,2,135,2|0|0,0:0|0:0|0:0,0:0:0:0:
312,256,5438,2,0,P|376:280|440:248,2,135,2|0|0,0:0|0:0|0:0,0:0:0:0:
208,176,6120,5,4,0:0:0:0:
256,192,6205,12,0,8847,0:0:0:0:
152,192,9188,6,0,L|144:96,2,90
224,264,10211,6,0,P|264:248|304:248,1,62.9999980773926,2|0,0:0|0:0,0:0:0:0:
360,288,10552,1,0,0:0:0:0:
336,72,10722,2,0,L|352:200,1,125.999996154785,2|0,0:0|0:0,0:0:0:0:
488,160,11234,2,0,P|448:144|416:144,1,62.9999980773926,2|0,0:0|0:0,0:0:0:0:
336,72,11575,5,0,0:0:0:0:
224,144,11745,2,0,B|160:160|163:120|98:136,1,125.999996154785,2|0,0:0|0:0,0:0:0:0:
112,272,12256,2,0,P|115:240|129:212,1,62.9999980773926,2|0,0:0|0:0,0:0:0:0:
224,144,12597,1,2,0:0:0:0:
100,135,12768,1,0,0:0:0:0:
256,152,12938,6,0,L|336:144,1,62.9999980773926,2|0,0:0|0:0,0:0:0:0:
208,248,13279,1,0,0:0:0:0:
328,360,13450,2,0,L|320:216,1,125.999996154785,2|0,0:0|0:0,0:0:0:0:
256,152,13961,1,2,0:0:0:0:
400,192,14131,1,0,0:0:0:0:
336,32,14302,6,0,L|344:112,1,62.9999980773926,2|0,0:0|0:0,0:0:0:0:
321,234,14643,1,2,0:0:0:0:
256,152,14813,1,0,0:0:0:0:
400,192,14984,2,0,L|472:184,1,62.9999980773926,2|0,0:0|0:0,0:0:0:0:
304,264,15325,2,0,P|256:256|207:270,1,94.499997116089,2|0,0:0|0:0,0:0:0:0:
200,288,15666,6,0,L|192:368,1,62.9999980773926,2|0,0:0|0:0,0:0:0:0:
304,264,16006,1,0,0:0:0:0:
217,149,16177,2,0,B|153:165|153:117|89:141,1,125.999996154785,2|0,0:0|0:0,0:0:0:0:
32,256,16688,2,0,P|48:296|64:320,1,62.9999980773926,2|0,0:0|0:0,0:0:0:0:
152,368,17029,5,0,0:0:0:0:
256,256,17200,2,0,P|192:240|120:256,1,125.999996154785,2|0,0:0|0:0,0:0:0:0:
94,157,17711,1,2,0:0:0:0:
58,312,17881,1,0,0:0:0:0:
8,144,18052,2,0,P|16:184|16:232,1,62.9999980773926,2|0,0:0|0:0,0:0:0:0:
133,250,18393,6,0,P|173:210|237:202,1,94.499997116089,2|0,0:0|0:0,0:0:0:0:
232,200,18734,1,2,0:0:0:0:
128,56,18904,2,0,P|160:88|256:104,1,125.999996154785,2|0,0:0|0:0,0:0:0:0:
384,48,19416,2,0,P|344:40|304:56,1,62.9999980773926,2|0,0:0|0:0,0:0:0:0:
236,107,19756,5,2,0:0:0:0:
224,128,20097,2,0,L|232:208,1,62.9999980773926,2|0,0:0|0:0,0:0:0:0:
192,312,20438,2,0,P|128:280|88:288,1,94.499997116089,2|0,0:0|0:0,0:0:0:0:
80,288,20779,2,0,L|88:200,1,62.9999980773926,2|0,0:0|0:0,0:0:0:0:
56,32,21120,6,0,L|48:136,1,94.499997116089,2|0,0:2|0:0,0:0:0:0:
48,144,21461,1,2,0:0:0:0:
160,80,21631,2,0,B|200:96|200:96|296:88,1,125.999996154785,2|0,0:0|0:0,0:0:0:0:
424,208,22143,2,0,P|368:184|312:200,1,94.499997116089,2|0,0:0|0:0,0:0:0:0:
320,192,22484,5,2,0:0:0:0:
240,280,22654,2,0,P|192:304|120:264,1,125.999996154785,2|0,0:0|0:0,0:0:0:0:
72,128,23166,2,0,L|80:208,1,62.9999980773926,2|0,0:0|0:0,0:0:0:0:
128,277,23506,1,2,0:0:0:0:
8,256,23677,1,0,0:0:0:0:
168,184,23847,6,0,B|224:200|224:144|296:176,1,125.999996154785,2|0,0:0|0:0,0:0:0:0:
416,80,24359,2,0,P|352:96|288:56,1,125.999996154785,2|0,0:0|0:0,0:0:0:0:
288,173,24870,2,0,L|296:245,1,62.9999980773926,2|0,0:0|0:0,0:0:0:0:
192,336,25211,6,0,L|184:248,1,62.9999980773926,2|0,0:0|0:0,0:0:0:0:
128,168,25552,1,2,0:0:0:0:
294,235,25722,1,0,0:0:0:0:
216,120,25893,1,2,0:0:0:0:
216,120,26063,1,0,0:0:0:0:
104,280,26234,2,0,P|48:288|24:272,1,62.9999980773926,2|0,0:0|0:0,0:0:0:0:
64,104,26575,6,0,P|80:152|64:208,1,94.499997116089,2|0,0:0|0:0,0:0:0:0:
64,208,26916,1,2,0:0:0:0:
168,344,27086,2,0,B|232:320|232:376|304:344,1,125.999996154785,2|0,0:0|0:0,0:0:0:0:
432,248,27597,2,0,P|376:232|352:240,1,62.9999980773926,2|0,0:0|0:0,0:0:0:0:
272,272,27938,5,2,0:0:0:0:
384,328,28109,1,0,0:0:0:0:
366,169,28279,2,0,L|372:231,1,62.9999980773926,2|0,0:0|0:0,0:0:0:0:
256,160,28620,2,0,L|248:80,1,62.9999980773926,2|0,0:0|0:0,0:0:0:0:
152,48,28961,2,0,P|96:80|48:72,1,94.499997116089,2|0,0:0|0:0,0:0:0:0:
48,80,29302,6,0,L|56:160,1,62.9999980773926,2|0,0:0|0:0,0:0:0:0:
112,232,29643,1,2,0:0:0:0:
208,160,29813,2,0,B|272:176|272:128|344:160,1,125.999996154785,2|0,0:0|0:0,0:0:0:0:
304,296,30325,2,0,L|304:216,1,62.9999980773926,2|0,0:0|0:0,0:0:0:0:
192,296,30666,6,0,L|192:376,1,62.9999980773926,2|0,0:0|0:0,0:0:0:0:
104,320,31006,1,2,0:0:0:0:
304,296,31177,1,0,0:0:0:0:
208,192,31347,6,0,P|204:163|210:133,1,54,2|0,0:0|0:0,0:0:0:0:
197,106,31688,1,2,0:0:0:0:
172,81,31773,1,2,0:0:0:0:
139,71,31859,1,2,0:0:0:0:
105,76,31944,1,2,0:0:0:0:
80,100,32029,6,0,P|72:147|104:204,1,80.9999975280763,6|0,0:2|0:2,0:2:0:0:
152,296,32370,1,0,0:2:0:0:
288,184,32541,2,0,L|180:194,1,80.9999975280763,2|0,0:2|0:2,0:2:0:0:
64,256,32881,1,0,0:2:0:0:
248,296,33052,1,0,0:2:0:0:
176,104,33222,6,0,P|136:72|35:114,1,161.999995056153,2|0,0:2|0:2,0:2:0:0:
39,105,33648,1,0,0:2:0:0:
39,105,33734,1,2,0:2:0:0:
144,248,33904,1,0,0:2:0:0:
112,148,34075,1,8,0:2:0:0:
64,304,34245,1,0,0:2:0:0:
248,360,34416,2,0,P|208:336|168:336,1,80.9999975280763,2|0,0:2|0:2,0:2:0:0:
256,216,34756,6,0,B|328:224|328:152|424:192,1,161.999995056153,2|0,0:2|0:2,0:2:0:0:
480,336,35268,1,2,0:2:0:0:
480,336,35353,1,0,0:2:0:0:
480,336,35438,1,0,0:2:0:0:
372,258,35609,1,0,0:2:0:0:
488,120,35779,1,2,0:2:0:0:
473,244,35950,1,0,0:2:0:0:
341,167,36120,6,0,B|244:157,1,80.9999975280763,2|0,0:2|0:2,0:2:0:0:
173,211,36461,1,2,0:2:0:0:
159,75,36631,1,0,0:2:0:0:
52,219,36802,2,0,L|188:211,1,121.499996292114,10|0,0:2|0:2,0:2:0:0:
195,222,37143,2,0,L|187:302,1,80.9999975280763,2|0,0:2|0:2,0:2:0:0:
52,219,37484,5,2,0:2:0:0:
240,152,37654,1,0,0:2:0:0:
119,77,37825,1,0,0:2:0:0:
119,77,37910,1,0,0:2:0:0:
118,76,37995,2,0,L|126:238,1,161.999995056153,2|0,0:2|0:2,0:2:0:0:
30,136,38506,1,0,0:2:0:0:
200,80,38677,6,0,B|280:48|272:120|368:88,1,161.999995056153,2|0,0:2|0:2,0:2:0:0:
480,80,39188,1,2,0:2:0:0:
320,16,39359,1,0,0:2:0:0:
424,176,39529,2,0,L|430:256,1,80.9999975280763,8|0,0:2|0:2,0:2:0:0:
328,352,39870,2,0,L|321:271,1,80.9999975280763,2|0,0:2|0:2,0:2:0:0:
348,129,40211,6,0,P|292:103|220:145,1,121.499996292114,2|0,0:2|0:2,0:2:0:0:
216,144,40552,1,0,0:2:0:0:
96,224,40722,1,2,0:2:0:0:
96,224,40808,1,0,0:2:0:0:
96,224,40893,2,0,L|104:368,2,121.499996292114,0|2|0,0:2|0:2|0:2,0:2:0:0:
216,144,41575,6,0,B|270:116|334:148,1,121.499996292114,2|0,0:2|0:2,0:2:0:0:
352,160,41916,2,0,L|348:79,1,80.9999975280763,2|0,0:2|0:2,0:2:0:0:
216,144,42256,2,0,L|224:288,1,121.499996292114,10|0,0:2|0:2,0:2:0:0:
208,280,42597,2,0,L|112:280,1,80.9999975280763,2|0,0:2|0:2,0:2:0:0:
288,328,42938,6,0,P|328:352|424:296,1,161.999995056153,6|0,0:2|0:2,0:2:0:0:
488,192,43450,1,2,0:2:0:0:
488,192,43535,1,0,0:2:0:0:
488,192,43620,1,0,0:2:0:0:
347,277,43791,1,0,0:2:0:0:
488,352,43961,1,2,0:2:0:0:
384,200,44131,6,0,B|304:168|304:232|224:208,1,161.999995056153,2|2,0:2|0:2,0:2:0:0:
120,72,44643,2,0,B|136:112|136:112|112:168,1,80.9999975280763,2|0,0:2|0:2,0:2:0:0:
104,344,44984,2,0,P|152:296|232:304,1,121.499996292114,10|0,0:2|0:2,0:2:0:0:
234,289,45325,2,0,L|226:193,1,80.9999975280763,2|0,0:2|0:2,0:2:0:0:
384,32,45666,6,0,B|416:112|416:112|368:200,1,161.999995056153,2|2,0:2|0:2,0:2:0:0:
320,312,46177,1,0,0:2:0:0:
320,312,46262,1,0,0:2:0:0:
320,312,46347,2,0,B|376:328|376:280|448:312,2,121.499996292114,2|2|2,0:2|0:2|0:2,0:2:0:0:
104,216,47029,6,0,P|184:184|224:200,1,121.499996292114,2|0,0:2|0:2,0:2:0:0:
232,208,47370,2,0,L|224:120,1,80.9999975280763,2|0,0:2|0:2,0:2:0:0:
336,16,47711,2,0,L|344:112,1,80.9999975280763,10|0,0:2|0:2,0:2:0:0:
392,216,48052,1,2,0:2:0:0:
384,232,48393,6,0,L|296:224,1,80.9999975280763,6|0,0:2|0:2,0:2:0:0:
176,256,48734,1,2,0:2:0:0:
296,320,48904,1,0,0:2:0:0:
296,320,48989,1,0,0:2:0:0:
296,320,49075,1,2,0:2:0:0:
240,136,49245,1,0,0:2:0:0:
200,352,49416,1,2,0:2:0:0:
115,192,49586,1,0,0:2:0:0:
313,330,49757,6,0,P|389:313|421:243,1,161.999995056153,4|2,0:2|0:2,0:2:0:0:
401,117,50268,1,0,0:2:0:0:
341,253,50438,1,2,0:2:0:0:
253,107,50609,1,0,0:2:0:0:
222,288,50779,1,2,0:2:0:0:
144,211,50950,1,0,0:2:0:0:
328,136,51120,5,14,0:2:0:0:
296,296,51291,1,0,0:2:0:0:
296,296,51461,1,0,0:2:0:0:
264,48,51631,5,14,0:2:0:0:
376,240,51802,1,0,0:2:0:0:
376,240,51972,1,0,0:2:0:0:
184,192,52143,5,14,0:2:0:0:
328,136,52313,1,0,0:2:0:0:
328,136,52484,1,0,0:2:0:0:
296,296,52654,5,14,0:2:0:0:
192,88,52825,1,0,0:2:0:0:
192,88,52995,1,0,0:2:0:0:
80,232,53166,5,2,0:2:0:0:
112,272,53251,1,0,0:2:0:0:
144,288,53336,1,0,0:2:0:0:
184,296,53421,1,0,0:2:0:0:
224,280,53506,1,0,0:2:0:0:
264,248,53591,1,0,0:2:0:0:
312,232,53676,1,0,0:2:0:0:
360,240,53761,1,0,0:2:0:0:
406,228,53847,6,0,P|432:172|398:84,1,135,6|0,0:2|0:2,0:2:0:0:
392,80,54188,2,0,L|288:80,1,90,10|0,0:2|0:2,0:2:0:0:
104,176,54529,2,0,L|200:176,1,90,0|8,0:2|0:2,0:2:0:0:
216,176,54785,1,0,0:2:0:0:
240,176,54870,1,2,0:2:0:0:
302,80,55041,1,0,0:2:0:0:
352,304,55211,6,0,P|328:256|344:200,1,90,2|0,0:2|0:0,0:0:0:0:
432,128,55552,1,10,0:2:0:0:
416,248,55722,1,0,0:2:0:0:
240,176,55893,2,0,L|136:168,1,90,2|8,0:2|0:2,0:2:0:0:
432,128,56234,2,0,P|436:149|435:172,1,45,2|0,0:2|0:2,0:2:0:0:
296,72,56404,2,0,P|298:32|312:2,1,45,0|0,0:2|0:2,0:2:0:0:
240,176,56575,6,0,P|168:136|88:200,1,180,6|8,0:2|0:2,0:2:0:0:
24,328,57086,1,2,0:2:0:0:
24,328,57171,1,0,0:2:0:0:
24,328,57256,1,0,0:2:0:0:
176,216,57427,1,8,0:2:0:0:
136,336,57597,1,2,0:2:0:0:
11,150,57768,5,0,0:2:0:0:
35,110,57853,1,0,0:2:0:0:
75,94,57938,2,0,L|139:111,1,45
193,67,58109,2,0,L|256:57,1,45
318,86,58279,2,0,L|390:70,3,45,8|0|0|0,0:2|0:2|0:2|0:2,0:2:0:0:
336,208,58620,2,0,L|344:144,1,45,0|0,0:2|0:2,0:2:0:0:
440,90,58791,2,0,L|432:170,1,45,8|0,0:2|0:2,0:2:0:0:
312,232,58961,2,0,L|320:168,1,45,0|0,0:2|0:2,0:2:0:0:
464,82,59131,2,0,L|456:154,1,45,0|0,0:2|0:2,0:2:0:0:
240,96,59302,6,0,B|176:112|173:58|93:98,1,135,6|0,0:2|0:2,0:2:0:0:
80,104,59643,2,0,P|68:130|88:192,1,90,10|0,0:2|0:2,0:2:0:0:
248,344,59984,2,0,P|264:304|232:232,1,90,2|8,0:2|0:2,0:2:0:0:
255,259,60239,1,0,0:2:0:0:
255,259,60325,1,2,0:2:0:0:
288,128,60495,1,0,0:2:0:0:
288,128,60580,1,0,0:2:0:0:
288,128,60666,6,0,B|344:128|344:128|368:144|368:144|440:144,1,135,2|0,0:2|0:2,0:2:0:0:
448,144,61006,2,0,L|454:233,1,90,10|0,0:2|0:2,0:2:0:0:
480,344,61347,1,2,0:2:0:0:
352,272,61518,1,8,0:2:0:0:
248,344,61688,2,0,L|144:352,1,90,2|0,0:2|0:2,0:2:0:0:
104,96,62029,6,0,P|171:128|187:184,1,135,6|0,0:2|0:2,0:2:0:0:
192,200,62370,1,10,0:2:0:0:
40,264,62541,1,0,0:2:0:0:
40,264,62626,1,0,0:2:0:0:
40,264,62711,1,2,0:2:0:0:
109,176,62881,1,8,0:2:0:0:
218,306,63052,1,2,0:2:0:0:
317,150,63222,1,0,0:2:0:0:
477,297,63393,5,2,0:2:0:0:
440,323,63478,1,0,0:0:0:0:
394,323,63563,1,0,0:2:0:0:
352,312,63648,1,0,0:0:0:0:
321,280,63734,2,0,L|326:215,1,45,8|0,0:2|0:2,0:2:0:0:
235,187,63904,2,0,L|232:251,1,45,0|0,0:2|0:2,0:2:0:0:
163,302,64075,2,0,P|131:261|66:248,1,90,0|8,0:2|0:2,0:2:0:0:
96,247,64330,1,0,0:2:0:0:
96,247,64416,2,0,P|98:187|91:168,1,45,0|0,0:2|0:2,0:2:0:0:
61,132,64586,2,0,P|39:84|23:64,1,45,0|0,0:2|0:2,0:2:0:0:
137,30,64756,6,0,L|259:24,1,90,6|2,0:2|0:2,0:2:0:0:
312,128,65097,1,8,0:2:0:0:
216,248,65268,1,0,0:2:0:0:
216,248,65353,1,0,0:2:0:0:
216,248,65438,2,0,P|200:192|224:144,1,90,2|8,0:2|0:2,0:2:0:0:
312,40,65779,1,2,0:2:0:0:
288,208,65950,1,2,0:2:0:0:
160,80,66120,6,0,L|64:80,1,90,2|0,0:2|0:2,0:2:0:0:
70,80,66376,1,0,0:2:0:0:
70,80,66461,1,8,0:2:0:0:
160,184,66631,1,0,0:2:0:0:
72,328,66802,2,0,L|64:224,1,90,2|8,0:2|0:2,0:2:0:0:
224,120,67143,1,2,0:2:0:0:
160,272,67313,1,0,0:2:0:0:
144,136,67484,6,0,P|172:56|264:48,1,180,6|8,0:2|0:2,0:2:0:0:
397,117,67995,2,0,B|333:141|333:141|213:117,1,180,6|8,0:2|0:2,0:2:0:0:
411,205,68506,2,0,L|395:109,1,90,4|0,0:2|0:2,0:2:0:0:
288,248,68847,5,0,0:2:0:0:
288,248,68933,1,0,0:2:0:0:
288,248,69018,1,0,0:2:0:0:
432,296,69188,1,8,0:2:0:0:
360,144,69359,1,0,0:2:0:0:
328,336,69529,2,0,P|272:352|256:344,1,45,2|0,0:2|0:2,0:2:0:0:
200,304,69700,2,0,P|152:304|128:296,1,45,10|0,0:2|0:2,0:2:0:0:
88,232,69870,2,0,L|96:120,1,90,6|0,0:2|0:2,0:2:0:0:
320,72,70211,6,0,P|256:128|168:120,1,135,6|0,0:2|0:2,0:2:0:0:
192,128,70552,1,8,0:2:0:0:
296,240,70722,2,0,B|384:200|384:272|472:240,1,180,2|8,0:2|0:2,0:2:0:0:
399,61,71234,2,0,P|399:125|415:149,1,90,0|0,0:2|0:2,0:2:0:0:
418,157,71489,1,2,0:2:0:0:
426,172,71575,6,0,P|362:148|250:164,1,180,2|8,0:2|0:2,0:2:0:0:
72,176,72086,1,0,0:2:0:0:
272,256,72256,1,2,0:2:0:0:
136,288,72427,1,8,0:2:0:0:
200,80,72597,1,0,0:2:0:0:
200,80,72768,1,0,0:2:0:0:
296,272,72938,6,0,L|440:280,1,135,6|0,0:2|0:2,0:2:0:0:
456,280,73279,1,10,0:2:0:0:
352,368,73450,1,2,0:2:0:0:
224,176,73620,2,0,P|216:136|232:80,1,90,0|10,0:2|0:2,0:2:0:0:
408,32,73961,2,0,P|416:72|400:136,1,90,0|2,0:2|0:2,0:2:0:0:
400,128,74217,1,0,0:2:0:0:
392,136,74302,5,2,0:2:0:0:
224,176,74472,1,0,0:2:0:0:
312,288,74643,2,0,L|401:295,1,90,10|0,0:2|0:2,0:2:0:0:
416,296,74898,1,0,0:2:0:0:
432,296,74984,1,2,0:2:0:0:
392,136,75154,1,8,0:2:0:0:
224,208,75325,1,2,0:2:0:0:
224,208,75666,6,0,B|160:176|160:240|96:224,2,135,6|2|0,0:0|0:0|0:0,0:0:0:0:
264,304,76347,2,0,B|304:272|304:272|328:208|304:136,1,180,2|0,0:0|0:0,0:0:0:0:
224,40,76859,1,0,0:0:0:0:
144,120,77029,6,0,B|73:95|73:143|9:127,2,135,6|2|0,0:0|0:0|0:0,0:0:0:0:
320,120,77711,2,0,L|454:112,2,135,2|2|0,0:0|0:0|0:0,0:0:0:0:
232,224,78393,6,0,B|232:368,2,135,6|0|0,0:0|0:0|0:0,0:0:0:0:
176,48,79075,2,0,B|216:72|232:120|232:120|240:72|296:40,1,180,2|0,0:0|0:0,0:0:0:0:
320,120,79586,1,0,0:0:0:0:
232,224,79756,6,0,B|232:368,2,135,2|0|0,0:0|0:0|0:0,0:0:0:0:
136,144,80438,2,0,B|72:128|72:184|-8:160,2,135,2|2|0,0:0|0:0|0:0,0:0:0:0:
232,224,81120,5,6,0:0:0:0:
256,192,81205,12,4,82484,0:0:0:0:
168,228,83166,5,2,3:2:0:0:
80,264,83336,1,2,3:2:0:0:
256,192,83506,1,2,3:2:0:0:
256,192,83847,5,4,0:0:0:0:
