osu file format v14

[General]
AudioFilename: audio.mp3
AudioLeadIn: 0
PreviewTime: 53734
Countdown: 0
SampleSet: Soft
StackLeniency: 0.3
Mode: 0
LetterboxInBreaks: 0
WidescreenStoryboard: 1

[Editor]
DistanceSpacing: 0.6
BeatDivisor: 4
GridSize: 4
TimelineZoom: 2.4

[Metadata]
Title:Hanakotoba (TV Size)
TitleUnicode:ハナコトバ (TV Size)
Artist:Sanshuu Chuugaku Yuusha-bu
ArtistUnicode:讃州中学勇者部
Creator:Rensia
Version:Alex's Expert
Source:結城友奈は勇者である -勇者の章-
Tags:Alexsander Ataraxia victorfernando Yuuki Yuuna Wa Yuusha De Aru no Shou Yuki Yuna is a Hero Chapter Japanese Anime Opening OP Theme MONACA Yūki Yūna 照井春佳 Terui Haruka 東郷美森 Tougou Mimori 三森すずこ Suzuko 乃木園子 Sonoko Nogi 花澤香菜 Hanazawa Kana 三好夏凜 Miyoshi Karin 長妻樹里 Nagatsuma Juri 犬吠埼風 Inubouzaki Fuu 内山夕実 Uchiyama Yumi 埼樹 Itsuki 黒沢ともよ Kurosawa Tomoyo
BeatmapID:1780894
BeatmapSetID:843145

[Difficulty]
HPDrainRate:6.5
CircleSize:4.5
OverallDifficulty:8.2
ApproachRate:9.2
SliderMultiplier:1.9
SliderTickRate:1

[Events]
//Background and Video events
Video,0,"video.avi"
0,0,"BG_Extreme.jpg",0,0
//Break Periods
//Storyboard Layer 0 (Background)
//Storyboard Layer 1 (Fail)
//Storyboard Layer 2 (Pass)
//Storyboard Layer 3 (Foreground)
//Storyboard Layer 4 (Overlay)
//Storyboard Sound Samples

[TimingPoints]
666,340.909090909091,4,2,1,65,1,0
6120,-200,4,2,1,65,0,0
6798,-200,4,2,1,35,0,0
6802,-200,4,2,1,35,0,0
7484,-200,4,2,1,50,0,0
8165,-200,4,2,1,35,0,0
8166,-200,4,2,1,35,0,0
8847,-200,4,2,1,5,0,0
9188,-200,4,2,1,35,0,0
10211,-142.857142857143,4,2,1,35,0,0
10381,-100,4,3,0,35,0,0
10551,-142.857142857143,4,2,1,35,0,0
16177,-142.857142857143,4,3,0,35,0,0
16343,-142.857142857143,4,2,1,35,0,0
17200,-142.857142857143,4,3,0,35,0,0
17366,-142.857142857143,4,2,1,35,0,0
21290,-142.857142857143,4,3,0,35,0,0
21291,-142.857142857143,4,3,0,35,0,0
21461,-142.857142857143,4,2,1,35,0,0
22654,-142.857142857143,4,3,0,35,0,0
22820,-142.857142857143,4,2,1,35,0,0
23336,-142.857142857143,4,3,0,35,0,0
23506,-142.857142857143,4,2,1,35,0,0
23847,-142.857142857143,4,3,0,35,0,0
24013,-142.857142857143,4,2,1,35,0,0
24699,-142.857142857143,4,3,0,35,0,0
24700,-142.857142857143,4,3,0,35,0,0
24870,-142.857142857143,4,2,1,35,0,0
25040,-142.857142857143,4,3,0,35,0,0
25041,-142.857142857143,4,3,0,35,0,0
25211,-142.857142857143,4,2,1,35,0,0
25722,-142.857142857143,4,3,0,35,0,0
25892,-142.857142857143,4,2,1,35,0,0
26063,-142.857142857143,4,3,0,35,0,0
26234,-142.857142857143,4,3,0,35,0,0
26404,-142.857142857143,4,2,1,35,0,0
26916,-142.857142857143,4,3,0,35,0,0
27086,-142.857142857143,4,2,1,35,0,0
27597,-142.857142857143,4,3,0,35,0,0
27767,-142.857142857143,4,2,1,35,0,0
28279,-142.857142857143,4,3,0,35,0,0
28449,-142.857142857143,4,2,1,35,0,0
28705,-142.857142857143,4,3,0,35,0,0
28875,-142.857142857143,4,2,1,35,0,0
28961,-142.857142857143,4,3,0,35,0,0
29131,-142.857142857143,4,2,1,35,0,0
29302,-142.857142857143,4,3,0,35,0,0
29468,-142.857142857143,4,2,1,35,0,0
30325,-142.857142857143,4,3,0,35,0,0
30495,-142.857142857143,4,2,1,35,0,0
31006,-142.857142857143,4,3,0,35,0,0
31176,-100,4,2,1,35,0,0
31347,-200,4,2,1,35,0,0
31688,-200,4,2,1,55,0,0
32029,-111.111111111111,4,3,1,55,0,0
50438,-111.111111111111,4,3,1,55,0,0
51120,-100,4,3,1,55,0,0
53847,-90.9090909090909,4,2,1,75,0,1
55041,-90.9090909090909,4,3,0,75,0,1
55211,-90.9090909090909,4,2,1,75,0,1
57768,-90.9090909090909,4,2,1,75,0,1
59302,-90.9090909090909,4,2,1,75,0,1
60495,-90.9090909090909,4,3,0,75,0,1
60665,-90.9090909090909,4,2,1,75,0,1
63222,-90.9090909090909,4,2,1,75,0,1
64756,-90.9090909090909,4,2,1,75,0,1
67313,-90.9090909090909,4,3,0,75,0,1
67483,-90.9090909090909,4,2,1,75,0,1
75666,-100,4,2,1,60,0,0
83847,-200,4,2,1,70,0,0
83929,-200,4,2,1,5,0,0
86575,-200,4,2,1,5,0,0

[Colours]
Combo1 : 255,255,149
Combo2 : 251,221,117
Combo3 : 174,94,255
Combo4 : 205,160,222
Combo5 : 254,211,254
SliderBorder : 243,213,231
SliderTrackOverride : 93,4,70

[HitObjects]
46,66,666,6,0,L|59:162,1,95,6|0,1:2|0:0,0:0:0:0:
90,229,921,2,0,L|77:325,1,95,2|0,0:0|0:0,0:0:0:0:
142,363,1177,2,0,P|171:346|195:337,1,47.5,2|0,0:0|0:0,0:0:0:0:
301,375,1347,6,0,P|240:375|225:259,1,190,2|0,0:0|0:0,0:0:0:0:
381,141,2029,6,0,P|349:107|282:95,1,95,2|0,0:0|0:0,0:0:0:0:
236,129,2285,1,2,0:0:0:0:
236,129,2370,1,0,0:0:0:0:
361,24,2541,1,2,0:0:0:0:
386,229,2711,5,2,0:0:0:0:
236,49,2967,1,2,0:0:0:0:
145,264,3222,1,2,0:0:0:0:
227,182,3393,6,0,P|188:155|134:152,1,95,6|0,1:2|0:0,0:0:0:0:
75,103,3648,2,0,P|114:76|168:73,1,95,2|0,1:2|0:0,0:0:0:0:
233,30,3904,2,0,P|212:11|191:0,1,47.5,2|0,0:0|0:0,0:0:0:0:
141,150,4075,6,0,B|207:154|207:154|264:135|264:135|335:137,1,190,2|0,0:0|0:0,0:0:0:0:
317,338,4756,6,0,P|269:299|279:209,1,142.5,2|0,0:0|0:0,0:0:0:0:
278,209,5097,1,2,0:0:0:0:
213,351,5268,1,2,0:0:0:0:
337,262,5438,5,2,1:0:0:0:
122,262,5694,1,2,0:0:0:0:
122,47,5950,2,0,P|138:72|148:93,1,47.5,2|0,0:0|0:0,0:0:0:0:
89,151,6120,6,0,B|181:94|184:188|288:131,1,190,6|2,1:0|0:0,0:0:0:0:
479,263,7484,2,0,P|436:245|439:346,1,190,4|2,0:1|0:0,0:0:0:0:
270,139,9188,5,0,0:0:0:0:
282,130,9529,1,0,0:0:0:0:
293,119,9870,2,0,L|293:41,1,71.25
306,40,10211,6,0,P|338:55|387:53,1,66.4999979705811,2|0,0:0|3:0,0:0:0:0:
477,53,10552,1,2,0:0:0:0:
432,178,10722,2,0,L|478:53,1,132.999995941162,2|0,0:0|0:0,0:0:0:0:
409,116,11234,2,0,L|437:192,1,66.4999979705811,2|0,0:0|0:0,0:0:0:0:
387,331,11575,5,2,0:0:0:0:
346,238,11745,2,0,B|273:233|295:285|197:277,1,132.999995941162,2|0,0:0|0:0,0:0:0:0:
95,211,12256,1,2,0:0:0:0:
95,211,12427,1,0,0:0:0:0:
229,202,12597,1,2,0:0:0:0:
98,284,12768,1,2,0:0:0:0:
251,181,12938,6,0,P|281:128|290:72,1,99.7499969558717,2|0,0:0|0:0,0:0:0:0:
280,73,13279,1,2,0:0:0:0:
321,211,13450,1,2,0:0:0:0:
211,114,13620,2,0,P|169:106|134:104,1,66.4999979705811,2|0,0:0|0:0,0:0:0:0:
95,195,13961,2,0,P|137:187|172:185,1,66.4999979705811,2|0,0:0|0:0,0:0:0:0:
243,270,14302,6,0,P|197:263|121:261,1,99.7499969558717,2|0,0:0|0:0,0:0:0:0:
130,271,14643,2,0,L|149:354,1,66.4999979705811,2|0,0:0|0:0,0:0:0:0:
258,260,14984,2,0,L|277:177,1,66.4999979705811,2|0,0:0|0:0,0:0:0:0:
163,121,15325,2,0,L|182:204,1,66.4999979705811,2|0,0:0|0:0,0:0:0:0:
358,222,15666,6,0,L|331:107,1,99.7499969558717,2|0,0:0|0:0,0:0:0:0:
339,105,16006,1,2,0:0:0:0:
425,259,16177,2,0,P|373:254|284:249,1,132.999995941162,2|0,3:2|0:0,0:0:0:0:
210,335,16688,2,0,P|248:325|281:326,1,66.4999979705811,2|0,0:0|0:0,0:0:0:0:
146,213,17029,5,2,0:0:0:0:
226,159,17200,2,0,B|274:151|274:151|321:161|321:161|382:151,1,132.999995941162,0|0,3:0|0:0,0:0:0:0:
435,26,17711,1,2,0:0:0:0:
325,89,17881,1,0,0:0:0:0:
416,107,18052,1,2,0:0:0:0:
262,28,18222,1,2,0:0:0:0:
410,173,18393,6,0,L|416:107,1,66.4999979705811,2|0,0:0|0:0,0:0:0:0:
477,242,18734,1,2,0:0:0:0:
330,239,18904,2,0,B|267:210|267:268|183:232,1,132.999995941162,2|0,0:0|0:0,0:0:0:0:
217,103,19416,2,0,P|230:147|234:172,1,66.4999979705811,2|0,0:0|0:0,0:0:0:0:
340,253,19756,6,0,P|348:203|364:134,1,99.7499969558717,2|0,0:0|0:0,0:0:0:0:
371,143,20097,2,0,P|384:189|389:216,1,66.4999979705811,2|0,0:0|0:0,0:0:0:0:
460,315,20438,2,0,P|473:269|478:242,1,66.4999979705811,2|0,0:0|0:0,0:0:0:0:
327,274,20779,2,0,P|340:320|345:347,1,66.4999979705811,2|0,0:0|0:0,0:0:0:0:
371,143,21120,6,0,P|341:161|288:163,1,66.4999979705811,2|0,0:2|3:0,0:0:0:0:
185,143,21461,1,2,0:0:0:0:
221,271,21631,2,0,P|205:206|185:143,1,132.999995941162,2|0,0:0|0:0,0:0:0:0:
275,233,22143,2,0,P|249:253|220:270,1,66.4999979705811,2|0,0:0|0:0,0:0:0:0:
390,286,22484,5,2,0:0:0:0:
284,318,22654,2,0,P|232:311|137:312,1,132.999995941162,2|2,3:2|0:0,0:0:0:0:
14,372,23166,1,2,0:0:0:0:
14,372,23336,1,0,3:0:0:0:
145,291,23506,1,2,0:0:0:0:
0,261,23677,1,2,0:0:0:0:
157,172,23847,6,0,B|285:159,1,99.7499969558717,2|0,3:2|0:0,0:0:0:0:
277,177,24188,1,2,0:0:0:0:
147,97,24359,1,2,0:0:0:0:
122,247,24529,2,0,P|131:278|151:305,1,66.4999979705811,2|0,0:0|3:0,0:0:0:0:
268,362,24870,2,0,P|258:330|238:303,1,66.4999979705811,2|0,0:0|3:0,0:0:0:0:
256,161,25211,6,0,P|279:202|338:234,1,99.7499969558717,2|0,0:0|0:0,0:0:0:0:
341,236,25552,1,2,0:0:0:0:
199,246,25722,1,0,0:0:0:0:
333,155,25893,1,2,0:0:0:0:
183,125,26063,1,2,3:2:0:0:
263,227,26234,2,0,L|255:154,1,66.4999979705811,2|0,3:2|0:0,0:0:0:0:
366,286,26575,6,0,P|341:323|302:339,1,66.4999979705811,2|0,0:0|0:0,0:0:0:0:
202,328,26916,1,2,3:2:0:0:
373,265,27086,2,0,B|417:255|417:255|464:262|464:262|525:245,1,132.999995941162,2|0,3:2|0:0,0:0:0:0:
494,112,27597,2,0,L|463:170,1,66.4999979705811,2|0,3:2|0:0,0:0:0:0:
280,103,27938,6,0,L|262:25,1,66.4999979705811,2|0,0:0|0:0,0:0:0:0:
382,105,28279,2,0,L|364:183,1,66.4999979705811,2|0,3:2|0:0,0:0:0:0:
190,151,28620,1,2,3:2:0:0:
282,200,28791,1,2,3:2:0:0:
117,234,28961,2,0,L|197:231,1,66.4999979705811,2|0,3:2|0:0,0:0:0:0:
305,355,29302,6,0,P|256:345|194:307,1,99.7499969558717,2|0,3:2|0:0,0:0:0:0:
202,306,29643,1,2,3:2:0:0:
374,273,29813,2,0,P|430:255|503:187,1,132.999995941162,2|0,3:2|3:0,0:0:0:0:
331,188,30325,2,0,P|369:180|408:184,1,66.4999979705811,2|0,3:2|0:0,0:0:0:0:
252,89,30666,6,0,P|227:111|210:139,1,66.4999979705811,2|0,3:2|3:0,0:0:0:0:
249,267,31006,2,0,P|247:233|255:201,1,66.4999979705811,2|0,2:0|0:0,0:0:0:0:
329,326,31347,2,0,P|301:350|270:362,1,71.25,0|0,3:0|0:0,0:0:0:0:
191,357,31688,1,2,3:2:0:0:
162,348,31773,1,2,3:2:0:0:
138,329,31859,1,2,3:2:0:0:
123,303,31943,1,2,3:2:0:0:
115,270,32029,6,0,P|165:232|172:147,1,128.249996086121,4|0,0:2|0:0,0:0:0:0:
169,146,32370,1,0,0:2:0:0:
264,293,32541,2,0,L|268:207,1,85.4999973907472,8|0,0:2|0:2,0:0:0:0:
334,98,32881,1,0,2:2:0:0:
346,260,33052,1,0,0:2:0:0:
230,87,33222,5,0,0:2:0:0:
346,179,33393,2,0,P|390:184|439:173,1,85.4999973907472,0|8,0:2|0:2,0:0:0:0:
312,259,33734,1,0,2:2:0:0:
445,279,33904,2,0,P|479:282|500:278,1,42.7499986953736,2|0,2:2|3:0,0:0:0:0:
289,254,34075,2,0,P|245:249|196:260,1,85.4999973907472,8|0,0:2|0:2,0:0:0:0:
204,256,34416,2,0,P|235:224|256:179,1,85.4999973907472,0|0,0:2|0:2,0:0:0:0:
99,66,34756,6,0,L|137:149,1,85.4999973907472,2|0,0:2|0:2,0:0:0:0:
210,19,35097,1,0,2:2:0:0:
253,187,35268,1,0,1:2:0:0:
261,167,35353,1,0,1:2:0:0:
270,148,35438,1,0,3:2:0:0:
275,288,35609,1,0,0:2:0:0:
128,219,35779,1,0,0:2:0:0:
248,206,35950,1,0,0:2:0:0:
82,295,36120,5,0,0:2:0:0:
149,134,36291,1,8,0:2:0:0:
128,219,36461,2,0,P|81:214|44:184,1,85.4999973907472,0|0,0:2|2:2,0:0:0:0:
262,192,36802,2,0,P|309:197|346:227,1,85.4999973907472,8|0,0:2|0:0,0:0:0:0:
289,369,37143,1,0,1:2:0:0:
287,343,37228,1,0,1:0:0:0:
285,317,37313,1,0,0:2:0:0:
283,292,37398,1,0,0:2:0:0:
280,268,37484,6,0,P|236:286|215:321,1,85.4999973907472,2|0,0:2|0:2,0:0:0:0:
370,294,37825,1,0,2:2:0:0:
186,229,37995,1,8,0:2:0:0:
164,229,38080,1,0,1:2:0:0:
143,229,38166,1,0,0:2:0:0:
284,178,38336,1,0,2:2:0:0:
121,228,38506,2,0,P|83:213|63:202,1,42.7499986953736,0|0,1:2|2:0,0:0:0:0:
244,193,38677,2,0,P|282:178|302:167,1,42.7499986953736,0|0,0:2|2:0,0:0:0:0:
136,153,38847,5,0,0:2:0:0:
133,301,39018,1,8,0:2:0:0:
244,193,39188,1,0,3:2:0:0:
121,228,39359,1,0,0:2:0:0:
321,273,39529,2,0,P|368:281|424:285,1,85.4999973907472,8|8,0:2|0:2,0:0:0:0:
463,118,39870,2,0,P|426:148|379:179,1,85.4999973907472,0|0,3:3|0:2,0:0:0:0:
220,73,40211,6,0,P|256:103|303:134,1,85.4999973907472,2|2,2:2|0:2,0:0:0:0:
111,73,40552,1,0,0:2:0:0:
186,206,40722,1,8,0:2:0:0:
182,186,40808,1,0,1:2:0:0:
178,165,40893,1,0,0:2:0:0:
140,303,41063,1,0,0:2:0:0:
40,208,41234,1,8,0:2:0:0:
22,189,41319,1,0,0:2:0:0:
10,166,41404,1,0,0:2:0:0:
4,141,41489,1,0,1:2:0:0:
2,116,41575,6,0,P|38:94|93:95,1,85.4999973907472,2|0,3:2|0:2,0:0:0:0:
205,218,41916,2,0,P|169:196|114:197,1,85.4999973907472,8|0,0:2|0:2,0:0:0:0:
126,193,42256,2,0,P|168:193|214:164,1,85.4999973907472,8|0,0:2|0:2,0:0:0:0:
247,1,42597,2,0,P|227:38|179:65,1,85.4999973907472,8|8,0:2|0:2,0:0:0:0:
268,241,42938,5,4,1:1:0:0:
266,148,43109,1,0,0:0:0:0:
203,309,43279,1,0,0:2:0:0:
353,237,43450,2,0,L|268:241,1,85.4999973907472,8|0,0:2|2:2,0:0:0:0:
399,314,43791,1,0,2:2:0:0:
364,173,43961,2,0,L|354:234,1,42.7499986953736,0|0,0:2|0:0,0:0:0:0:
257,140,44131,2,0,L|247:79,1,42.7499986953736,0|0,0:2|0:2,0:0:0:0:
179,233,44302,5,0,1:2:0:0:
274,158,44472,1,8,0:2:0:0:
103,191,44643,2,0,P|67:215|50:267,1,85.4999973907472,0|0,0:2|0:2,0:0:0:0:
50,252,44984,2,0,L|32:145,1,85.4999973907472,8|0,0:2|0:2,0:0:0:0:
126,112,45325,1,0,1:2:0:0:
131,91,45410,1,0,1:2:0:0:
135,71,45495,1,0,3:2:0:0:
126,257,45666,6,0,P|176:277|228:270,1,85.4999973907472,0|0,0:2|0:2,0:0:0:0:
61,316,46006,1,0,0:2:0:0:
185,207,46177,2,0,P|235:187|287:194,1,85.4999973907472,8|0,0:2|0:2,0:0:0:0:
131,152,46518,1,0,0:2:0:0:
242,257,46688,2,0,P|292:277|344:270,1,85.4999973907472,0|0,1:2|0:2,0:0:0:0:
444,134,47029,5,2,0:2:0:0:
362,205,47200,1,0,1:2:0:0:
505,264,47370,2,0,P|460:256|413:279,1,85.4999973907472,0|0,1:2|0:2,0:0:0:0:
318,382,47711,1,8,0:2:0:0:
409,364,47881,1,0,0:2:0:0:
232,338,48052,1,2,1:2:0:0:
253,315,48393,6,0,P|281:284|291:242,1,85.4999973907472,4|0,0:2|0:2,0:0:0:0:
291,94,48734,1,8,0:2:0:0:
212,247,48904,2,0,P|184:216|174:174,1,85.4999973907472,0|0,0:2|0:2,0:0:0:0:
204,56,49245,1,8,0:2:0:0:
55,134,49416,2,0,P|94:109|140:111,1,85.4999973907472,0|0,0:2|0:2,0:0:0:0:
322,211,49756,5,8,0:2:0:0:
174,174,49927,1,0,0:2:0:0:
354,101,50097,1,0,0:2:0:0:
204,56,50268,1,0,0:2:0:0:
327,227,50438,5,8,0:2:0:0:
314,30,50609,1,0,0:2:0:0:
138,239,50779,1,8,0:2:0:0:
128,245,51120,6,0,P|165:216|212:211,1,95,14|0,0:2|0:0,0:0:0:0:
298,324,51461,1,0,0:2:0:0:
369,158,51631,6,0,P|304:223|213:212,1,190,10|0,0:2|0:2,0:0:0:0:
451,123,52143,6,0,P|405:128|369:158,1,95,10|0,0:2|0:0,0:0:0:0:
346,296,52484,1,0,0:2:0:0:
271,132,52654,6,0,B|268:234|347:184|345:296,1,190,10|0,0:2|0:2,0:0:0:0:
282,368,53080,1,0,1:0:0:0:
245,377,53165,1,0,1:2:0:0:
209,363,53251,1,0,1:2:0:0:
179,326,53336,5,0,1:2:0:0:
140,353,53421,1,0,1:2:0:0:
93,353,53506,1,0,1:2:0:0:
54,325,53592,1,0,1:2:0:0:
39,280,53677,1,0,1:2:0:0:
54,235,53762,1,0,1:2:0:0:
93,207,53847,6,0,P|143:228|208:204,1,104.500003189087,4|0,0:1|0:0,0:0:0:0:
321,81,54188,1,0,1:0:0:0:
148,158,54359,1,0,0:3:0:0:
274,269,54529,1,0,3:3:0:0:
228,90,54700,1,8,1:0:0:0:
210,70,54785,1,8,0:0:0:0:
192,51,54870,1,8,1:0:0:0:
111,231,55041,1,2,3:2:0:0:
111,231,55126,1,2,3:0:0:0:
111,231,55211,6,0,P|76:189|74:130,1,104.500003189087,4|0,3:3|0:0,0:0:0:0:
228,90,55552,2,0,L|136:169,1,104.500003189087,0|0,1:0|0:0,0:0:0:0:
161,317,55893,2,0,P|196:275|198:216,1,104.500003189087,0|0,3:0|1:0,0:0:0:0:
244,76,56234,1,0,1:0:0:0:
271,113,56319,1,0,1:0:0:0:
314,131,56404,1,0,1:0:0:0:
360,126,56489,1,0,1:0:0:0:
395,94,56575,6,0,L|365:266,1,156.750004783631,4|0,0:1|0:0,0:0:0:0:
376,273,56916,1,0,1:0:0:0:
476,153,57086,1,2,0:3:0:0:
315,58,57256,1,2,3:3:0:0:
446,226,57427,1,0,1:0:0:0:
504,79,57597,1,0,1:0:0:0:
307,191,57768,5,0,0:0:0:0:
263,208,57853,1,0,0:0:0:0:
216,209,57938,2,0,L|196:153,1,52.2500015945435,4|2,0:3|0:0,0:0:0:0:
292,49,58109,2,0,L|272:105,1,52.2500015945435,0|2,3:0|0:0,0:0:0:0:
200,235,58279,2,0,L|180:179,1,52.2500015945435,8|0,0:0|0:0,0:0:0:0:
276,23,58450,2,0,L|256:79,1,52.2500015945435,8|0,0:2|0:0,0:0:0:0:
324,240,58620,2,0,L|304:184,1,52.2500015945435,0|2,3:0|0:0,0:0:0:0:
419,278,58791,5,0,1:0:0:0:
419,278,58876,1,0,0:0:0:0:
419,278,58961,1,0,1:0:0:0:
398,314,59046,1,2,1:0:0:0:
364,337,59131,1,0,1:0:0:0:
323,344,59217,1,0,1:0:0:0:
284,329,59302,6,0,P|230:318|171:333,1,104.500003189087,4|0,0:0|0:0,0:0:0:0:
35,384,59643,1,0,1:0:0:0:
43,203,59813,1,0,3:0:0:0:
68,227,59898,1,0,3:0:0:0:
76,263,59984,1,0,3:3:0:0:
95,101,60154,1,8,1:0:0:0:
95,101,60239,1,8,0:0:0:0:
95,101,60325,1,8,1:0:0:0:
197,277,60495,1,2,3:2:0:0:
197,277,60580,1,0,3:0:0:0:
197,277,60666,6,0,P|232:232|228:175,1,104.500003189087,4|0,0:3|0:0,0:0:0:0:
43,203,61006,2,0,P|99:191|154:216,1,104.500003189087,0|0,1:0|0:0,0:0:0:0:
290,136,61347,2,0,P|234:148|179:123,1,104.500003189087,0|0,3:3|1:0,0:0:0:0:
308,0,61688,1,0,1:0:0:0:
302,46,61773,1,0,1:0:0:0:
296,93,61858,1,0,1:0:0:0:
289,139,61943,1,0,1:0:0:0:
285,183,62029,6,0,P|333:156|431:191,1,156.750004783631,4|0,1:0|0:0,0:0:0:0:
440,206,62370,1,0,1:0:0:0:
296,93,62541,1,0,3:2:0:0:
264,93,62626,1,0,3:2:0:0:
233,94,62711,1,0,3:2:0:0:
403,104,62881,1,8,0:0:0:0:
208,199,63052,1,8,0:0:0:0:
433,232,63222,5,0,3:2:0:0:
472,208,63307,1,2,3:2:0:0:
494,167,63393,2,0,P|458:156|438:158,1,52.2500015945435,4|0,1:3|3:0,0:0:0:0:
394,292,63563,2,0,P|430:303|450:301,1,52.2500015945435,0|2,3:0|3:2,0:0:0:0:
512,147,63734,2,0,P|476:136|456:138,1,52.2500015945435,8|2,0:0|0:2,0:0:0:0:
376,312,63904,2,0,P|412:323|432:321,1,52.2500015945435,8|0,0:0|0:0,0:0:0:0:
286,227,64075,5,0,1:3:0:0:
297,384,64245,1,0,3:0:0:0:
367,173,64416,1,0,1:0:0:0:
336,138,64501,1,2,1:2:0:0:
291,125,64586,1,0,1:0:0:0:
247,138,64671,1,0,1:0:0:0:
214,169,64756,6,0,P|141:195|90:86,1,209.000006378174,4|0,1:0|1:0,0:0:0:0:
43,241,65268,1,0,0:0:0:0:
43,241,65353,1,0,0:0:0:0:
43,241,65438,1,0,3:0:0:0:
160,124,65609,1,0,1:0:0:0:
156,304,65779,1,0,1:0:0:0:
222,208,65950,1,0,0:0:0:0:
80,324,66120,6,0,P|112:370|175:381,1,104.500003189087,4|0,0:3|0:0,0:0:0:0:
298,267,66461,2,0,P|266:221|203:210,1,104.500003189087,0|0,1:0|0:0,0:0:0:0:
391,217,66802,2,0,L|507:214,1,104.500003189087,4|0,0:3|0:0,0:0:0:0:
371,319,67143,1,0,1:0:0:0:
328,165,67313,1,0,3:3:0:0:
325,123,67398,1,0,3:3:0:0:
323,81,67484,6,0,B|255:73|255:73|191:94|191:94|108:78,1,209.000006378174,4|0,1:1|1:0,0:0:0:0:
206,233,67995,1,0,3:0:0:0:
221,212,68080,1,0,3:0:0:0:
237,191,68166,1,0,3:0:0:0:
223,364,68336,1,0,1:0:0:0:
101,243,68506,1,0,1:0:0:0:
308,271,68677,5,0,1:0:0:0:
329,286,68762,1,0,0:0:0:0:
350,302,68848,1,0,0:0:0:0:
326,130,69018,1,0,0:0:0:0:
225,350,69188,1,0,1:0:0:0:
215,333,69529,5,4,1:0:0:0:
132,163,69700,1,0,1:0:0:0:
281,281,69870,1,8,1:0:0:0:
240,257,69955,1,8,1:0:0:0:
194,258,70041,1,8,1:0:0:0:
154,281,70126,1,8,1:0:0:0:
143,320,70211,6,0,L|130:134,1,156.750004783631,4|0,1:0|0:0,0:0:0:0:
144,139,70552,1,0,1:0:0:0:
63,279,70722,1,0,0:0:0:0:
0,113,70893,1,0,1:0:0:0:
157,227,71063,1,2,0:0:0:0:
181,235,71148,1,2,0:0:0:0:
207,239,71234,2,0,P|241:219|257:203,1,52.2500015945435,0|2,1:0|0:0,0:0:0:0:
139,144,71404,2,0,P|105:164|89:180,1,52.2500015945435,0|2,0:0|0:0,0:0:0:0:
181,324,71575,5,4,0:3:0:0:
313,158,71745,1,0,0:0:0:0:
103,281,71916,1,0,1:0:0:0:
120,271,72256,5,0,1:0:0:0:
325,300,72427,1,0,1:0:0:0:
169,180,72597,1,0,1:0:0:0:
139,144,72682,1,0,1:0:0:0:
131,98,72767,1,0,1:0:0:0:
149,55,72852,1,2,1:0:0:0:
190,32,72938,6,0,B|276:10|269:66|356:43,1,156.750004783631,4|0,1:0|0:0,0:0:0:0:
368,35,73279,1,0,1:0:0:0:
231,119,73450,1,2,0:0:0:0:
407,157,73620,1,0,1:0:0:0:
264,214,73791,1,2,0:0:0:0:
457,253,73961,1,0,1:0:0:0:
277,336,74131,5,0,0:0:0:0:
250,330,74217,1,2,0:0:0:0:
228,315,74302,1,0,1:0:0:0:
382,232,74472,1,2,0:0:0:0:
145,198,74643,1,0,1:0:0:0:
287,143,74813,1,0,0:0:0:0:
32,80,74984,5,4,1:0:0:0:
190,255,75154,1,4,1:2:0:0:
186,24,75325,1,4,1:2:0:0:
340,208,75495,1,4,1:2:0:0:
340,208,75580,1,0,0:0:0:0:
340,208,75666,6,0,P|388:217|448:192,1,95,4|0,1:2|0:0,0:0:0:0:
380,131,75921,2,0,P|332:122|272:147,1,95,2|0,0:0|0:0,0:0:0:0:
217,165,76177,2,0,L|194:106,1,47.5,2|0,0:0|0:0,0:0:0:0:
183,243,76347,6,0,L|217:331,2,95,0|0|0,1:0|0:0|0:0,0:0:0:0:
307,54,77029,6,0,L|291:181,1,95,4|0,1:2|0:0,0:0:0:0:
302,232,77285,1,2,0:0:0:0:
302,232,77370,1,0,0:0:0:0:
449,142,77541,1,0,0:0:0:0:
433,345,77711,5,4,1:2:0:0:
368,191,77881,1,0,0:0:0:0:
374,168,77967,1,2,0:0:0:0:
381,145,78052,1,0,0:0:0:0:
442,262,78222,1,2,0:0:0:0:
268,218,78393,6,0,P|225:212|160:249,1,95,4|0,1:2|0:0,0:0:0:0:
115,282,78648,2,0,L|85:158,1,95,8|0,0:0|0:0,0:0:0:0:
120,108,78904,2,0,L|144:50,1,47.5,8|0,0:0|0:0,0:0:0:0:
224,49,79075,6,0,P|270:65|332:45,2,95,0|0|8,1:0|0:0|0:0,0:0:0:0:
207,268,79756,6,0,L|244:161,1,95,0|0,1:0|0:0,0:0:0:0:
309,134,80012,2,0,L|346:241,1,95,8|0,0:0|0:0,0:0:0:0:
398,287,80268,2,0,L|424:241,1,47.5,8|0,0:0|0:0,0:0:0:0:
400,161,80438,5,8,1:0:0:0:
246,335,80694,1,8,0:0:0:0:
478,361,80950,1,8,0:0:0:0:
331,304,81120,6,0,B|273:289|273:289|207:303|207:303|131:279,1,190,4|2,0:0|1:2,0:0:0:0:
5,110,81802,2,0,B|63:95|63:95|129:109|129:109|205:85,1,190,2|2,1:2|1:2,0:0:0:0:
134,265,82484,5,0,1:3:0:0:
189,91,82654,1,0,1:3:0:0:
208,197,82825,1,4,1:3:0:0:
196,185,83166,5,4,1:3:0:0:
293,291,83336,1,4,1:3:0:0:
341,146,83506,1,4,1:3:0:0:
412,374,83847,6,0,B|464:302|469:235|416:146|276:142|281:181|242:255|158:181|158:181|84:230|32:186|0:130|32:82|76:34|148:74,1,760,12|0,1:0|0:0,0:0:0:0:
