osu file format v14

[General]
AudioFilename: audio.mp3
AudioLeadIn: 0
PreviewTime: 49375
Countdown: 0
SampleSet: Normal
StackLeniency: 0.7
Mode: 1
LetterboxInBreaks: 0
WidescreenStoryboard: 1

[Editor]
Bookmarks: 28208,49781,79444,84837,106410,127983,157646,179219,190006,208882
DistanceSpacing: 0.9
BeatDivisor: 4
GridSize: 8
TimelineZoom: 1.3

[Metadata]
Title:Ashita no Hanatachi
TitleUnicode:アシタノハナタチ
Artist:Sanshuu Chuugaku Yuusha-bu
ArtistUnicode:讃州中学勇者部
Creator:_gt
Version:Muzukashii
Source:結城友奈は勇者である -大満開の章-
Tags:yuuki yuuna wa yuusha de aru dai mankai no shou yuki yuna is a hero the great full blossom chapter yuushabu anime op opening japanese terui haruka 照井春佳 mimori suzuko 三森すずこ tougou 東郷美森 uchiyama yumi 内山夕実 inubouzaki fuu 犬吠埼風 kurosawa tomoyo 黒沢ともよ itsuki 犬吠埼樹 nagatsuma juri 長妻樹里 miyoshi karin 三好夏凜 hanazawa kana 花澤香菜 nogi sonoko 乃木園子 pop jpop j-pop
BeatmapID:3257913
BeatmapSetID:1595061

[Difficulty]
HPDrainRate:6
CircleSize:5
OverallDifficulty:5
ApproachRate:9
SliderMultiplier:1.4
SliderTickRate:1

[Events]
//Background and Video events
0,0,"yuyuyu4.jpg",0,-150
//Break Periods
//Storyboard Layer 0 (Background)
//Storyboard Layer 1 (Fail)
//Storyboard Layer 2 (Pass)
//Storyboard Layer 3 (Foreground)
//Storyboard Layer 4 (Overlay)
//Storyboard Sound Samples

[TimingPoints]
1258,337.078651685393,4,1,0,80,1,0
1258,-100,4,1,0,80,0,0
3280,-108.108108108108,4,1,0,70,0,0
3952,-100,4,1,0,80,0,0
5975,-108.108108108108,4,1,0,70,0,0
6312,-112.359550561798,4,1,0,70,0,0
6649,-117.647058823529,4,1,0,70,0,0
28224,-111.111111111111,4,1,0,70,0,0
44066,-108.108108108108,4,1,0,70,0,0
44404,-105.263157894737,4,1,0,85,0,0
49123,-100,4,1,0,90,0,0
49797,-95.2380952380952,4,1,0,90,0,1
78786,-95.2380952380952,4,1,0,90,0,1
78870,-95.8083832335329,4,1,0,90,0,1
78954,-96.3855421686747,4,1,0,90,0,1
79038,-96.969696969697,4,1,0,90,0,1
79123,-97.5609756097561,4,1,0,90,0,1
79207,-98.159509202454,4,1,0,90,0,1
79291,-98.7654320987654,4,1,0,90,0,1
79375,-99.3788819875776,4,1,0,90,0,1
79460,-100,4,1,0,80,0,0
81480,-108.108108108108,4,1,0,70,0,0
82154,-100,4,1,0,80,0,0
84177,-108.108108108108,4,1,0,70,0,0
84514,-112.359550561798,4,1,0,70,0,0
84853,-117.647058823529,4,1,0,70,0,0
106426,-111.111111111111,4,1,0,70,0,0
122269,-108.108108108108,4,1,0,80,0,0
122606,-105.263157894737,4,1,0,85,0,0
127325,-100,4,1,0,90,0,0
127999,-95.2380952380952,4,1,0,90,0,1
157662,-95.2380952380952,4,1,0,80,0,0
157746,-100,4,1,0,80,0,0
179235,-111.111111111111,4,1,0,80,0,0
180583,-117.647058823529,4,1,0,80,0,0
181932,-125,4,1,0,80,0,0
189684,-117.647058823529,4,1,0,80,0,0
197437,-111.111111111111,4,1,0,80,0,0
202493,-111.111111111111,4,1,0,85,0,0
202577,-110.381817287012,4,1,0,85,0,0
202661,-109.619529761193,4,1,0,85,0,0
202746,-108.823317124647,4,1,0,85,0,0
202830,-107.992281425699,4,1,0,85,0,0
202914,-107.125565689623,4,1,0,85,0,0
202999,-106.222361897208,4,1,0,85,0,0
203083,-105.281919389032,4,1,0,85,0,0
203167,-104.303553651248,4,1,0,85,0,0
203252,-103.286655426977,4,1,0,85,0,0
203336,-102.230700084935,4,1,0,85,0,0
203420,-101.13525716409,4,1,0,85,0,0
203505,-100,4,1,0,85,0,0
207550,-100,4,1,0,85,0,0
207634,-99.5592137033852,4,1,0,85,0,0
207718,-99.1030408472681,4,1,0,85,0,0
207802,-98.6311122585107,4,1,0,85,0,0
207887,-98.1430634114392,4,1,0,85,0,0
207971,-97.6385357372529,4,1,0,85,0,0
208055,-97.1171780129668,4,1,0,85,0,0
208139,-96.5786478290881,4,1,0,85,0,0
208224,-96.0226131345178,4,1,0,85,0,0
208308,-95.4487538563928,4,1,0,85,0,0
208392,-94.8567635917397,4,1,0,85,0,0
208476,-94.2463513669014,4,1,0,85,0,0
208561,-93.6172434597288,4,1,0,85,0,0
208645,-92.969185278499,4,1,0,85,0,0
208729,-92.3019432904471,4,1,0,85,0,0
208813,-91.61530699168,4,1,0,85,0,0
208898,-90.9090909090909,4,1,0,95,0,1
238561,-90.9090909090909,4,1,0,90,0,0
240583,-97.5609756097561,4,1,0,80,0,0
241257,-90.9090909090909,4,1,0,90,0,0
243280,-97.5609756097561,4,1,0,80,0,0
243617,-98.7654320987654,4,1,0,75,0,0
243954,-100,4,1,0,70,0,0
244291,-111.111111111111,4,1,0,65,0,0
244628,-111.111111111111,4,1,0,60,0,0
244965,-111.111111111111,4,1,0,55,0,0
245302,-111.111111111111,4,1,0,50,0,0
245640,-111.111111111111,4,1,0,45,0,0
245977,-111.111111111111,4,1,0,40,0,0
246314,-111.111111111111,4,1,0,35,0,0
246651,-111.111111111111,4,1,0,30,0,0
246988,-111.111111111111,4,1,0,25,0,0
247326,-111.111111111111,4,1,0,20,0,0
247662,-111.111111111111,4,1,0,15,0,0
247999,-111.111111111111,4,1,0,10,0,0

[HitObjects]
161,208,1258,5,4,0:0:0:0:
161,208,1763,1,4,0:0:0:0:
161,208,2269,1,12,0:0:0:0:
161,208,2774,1,12,0:0:0:0:
161,208,3280,1,0,0:0:0:0:
161,208,3617,1,0,0:0:0:0:
161,208,3954,1,4,0:0:0:0:
161,208,4460,1,4,0:0:0:0:
161,208,4965,1,12,0:0:0:0:
161,208,5471,1,12,0:0:0:0:
161,208,5977,1,0,0:0:0:0:
161,208,6314,1,0,0:0:0:0:
257,180,6651,1,0,0:0:0:0:
257,180,6819,1,0,0:0:0:0:
257,180,6988,1,8,0:0:0:0:
257,180,7156,1,8,0:0:0:0:
257,180,7662,1,8,0:0:0:0:
257,180,7831,1,8,0:0:0:0:
257,180,8336,1,8,0:0:0:0:
257,180,8673,1,0,0:0:0:0:
257,180,9010,1,8,0:0:0:0:
257,180,9347,1,8,0:0:0:0:
257,180,9684,1,0,0:0:0:0:
257,180,9853,1,0,0:0:0:0:
257,180,10190,1,8,0:0:0:0:
257,180,10359,1,0,0:0:0:0:
251,179,11707,1,8,0:0:0:0:
251,179,11875,1,8,0:0:0:0:
251,179,12381,1,0,0:0:0:0:
251,179,12550,1,0,0:0:0:0:
251,179,12887,1,8,0:0:0:0:
251,179,13224,1,0,0:0:0:0:
251,179,13729,1,8,0:0:0:0:
251,179,14066,1,0,0:0:0:0:
251,179,14404,1,0,0:0:0:0:
251,179,14741,1,8,0:0:0:0:
251,179,15078,1,0,0:0:0:0:
251,179,15246,1,8,0:0:0:0:
251,179,16089,1,0,0:0:0:0:
251,179,16257,1,0,0:0:0:0:
251,179,16426,1,8,0:0:0:0:
251,179,16595,1,8,0:0:0:0:
251,179,16932,1,0,0:0:0:0:
251,179,17100,1,8,0:0:0:0:
251,179,17269,1,8,0:0:0:0:
251,179,17437,1,0,0:0:0:0:
233,168,18449,1,8,0:0:0:0:
233,168,18617,1,8,0:0:0:0:
233,168,19123,1,8,0:0:0:0:
233,168,19460,1,0,0:0:0:0:
233,168,19797,1,0,0:0:0:0:
233,168,20134,1,8,0:0:0:0:
233,168,20471,1,8,0:0:0:0:
233,168,20640,1,0,0:0:0:0:
233,168,20977,1,0,0:0:0:0:
233,168,21145,1,8,0:0:0:0:
233,168,22156,1,0,0:0:0:0:
233,168,22325,1,8,0:0:0:0:
233,168,22493,1,8,0:0:0:0:
233,168,22831,1,8,0:0:0:0:
233,168,23336,1,8,0:0:0:0:
233,168,23673,1,8,0:0:0:0:
233,168,24010,1,8,0:0:0:0:
233,168,24516,1,0,0:0:0:0:
233,168,24853,1,0,0:0:0:0:
233,168,25190,1,8,0:0:0:0:
233,168,25527,1,8,0:0:0:0:
288,159,26875,1,0,0:0:0:0:
256,192,27550,12,0,28055,0:0:0:0:
254,279,28224,5,8,0:0:0:0:
254,279,28392,1,0,0:0:0:0:
254,279,28561,1,8,0:0:0:0:
254,279,28898,1,8,0:0:0:0:
254,279,29066,1,0,0:0:0:0:
254,279,29235,1,8,0:0:0:0:
254,279,29572,1,0,0:0:0:0:
193,159,29909,1,8,0:0:0:0:
193,159,30078,1,0,0:0:0:0:
193,159,30246,1,8,0:0:0:0:
193,159,30583,1,8,0:0:0:0:
193,159,30920,1,0,0:0:0:0:
185,157,31595,1,0,0:0:0:0:
185,157,31932,1,8,0:0:0:0:
185,157,32269,1,8,0:0:0:0:
185,157,32606,1,8,0:0:0:0:
185,157,32943,1,0,0:0:0:0:
185,157,33280,1,0,0:0:0:0:
169,188,33617,1,8,0:0:0:0:
169,188,33786,1,0,0:0:0:0:
169,188,33954,1,0,0:0:0:0:
169,188,34291,1,8,0:0:0:0:
169,188,34460,1,0,0:0:0:0:
169,188,34628,1,0,0:0:0:0:
169,188,34965,1,0,0:0:0:0:
169,188,35302,1,8,0:0:0:0:
169,188,35471,1,0,0:0:0:0:
169,188,35640,1,8,0:0:0:0:
169,188,35977,1,8,0:0:0:0:
169,188,36314,1,8,0:0:0:0:
166,182,36988,1,0,0:0:0:0:
166,182,37325,1,8,0:0:0:0:
166,182,37662,1,8,0:0:0:0:
166,182,37999,1,8,0:0:0:0:
166,182,38336,1,0,0:0:0:0:
166,182,38673,1,0,0:0:0:0:
235,203,39010,1,0,0:0:0:0:
235,203,39179,1,8,0:0:0:0:
235,203,39347,5,0,0:0:0:0:
235,203,39684,1,0,0:0:0:0:
235,203,39853,1,8,0:0:0:0:
235,203,40022,1,0,0:0:0:0:
235,203,40359,1,0,0:0:0:0:
240,156,40696,1,8,0:0:0:0:
240,156,40864,1,0,0:0:0:0:
235,203,41033,1,0,0:0:0:0:
235,203,41370,1,8,0:0:0:0:
235,203,41707,1,0,0:0:0:0:
235,203,42381,1,0,0:0:0:0:
235,203,42718,1,8,0:0:0:0:
235,203,42887,1,8,0:0:0:0:
234,197,43055,1,8,0:0:0:0:
235,203,43392,1,8,0:0:0:0:
234,197,43477,1,8,0:0:0:0:
234,197,43561,1,8,0:0:0:0:
235,203,43729,1,8,0:0:0:0:
235,203,44066,1,8,0:0:0:0:
235,203,44404,1,4,0:0:0:0:
280,264,44741,1,0,0:0:0:0:
280,264,45078,1,0,0:0:0:0:
280,264,45415,1,0,0:0:0:0:
280,264,45583,1,0,0:0:0:0:
280,264,46089,1,0,0:0:0:0:
280,264,46426,1,8,0:0:0:0:
280,264,46763,1,8,0:0:0:0:
280,264,47100,1,8,0:0:0:0:
166,226,47437,1,0,0:0:0:0:
280,264,47774,1,0,0:0:0:0:
280,264,47943,1,0,0:0:0:0:
280,264,48111,1,8,0:0:0:0:
280,264,48280,1,8,0:0:0:0:
280,264,48786,1,0,0:0:0:0:
280,264,49123,1,12,0:0:0:0:
280,264,49291,1,12,0:0:0:0:
280,264,49460,1,0,0:0:0:0:
280,264,49628,1,0,0:0:0:0:
280,264,49797,1,12,0:0:0:0:
280,264,50134,1,8,0:0:0:0:
280,264,50302,1,0,0:0:0:0:
280,264,50640,1,0,0:0:0:0:
280,264,50808,1,12,0:0:0:0:
215,217,51314,1,0,0:0:0:0:
261,241,51482,1,8,0:0:0:0:
261,241,51566,1,8,0:0:0:0:
261,241,51651,1,8,0:0:0:0:
261,241,51819,1,0,0:0:0:0:
261,241,52156,1,8,0:0:0:0:
261,241,52325,1,8,0:0:0:0:
261,241,52493,1,4,0:0:0:0:
261,241,52831,1,0,0:0:0:0:
261,241,52999,1,0,0:0:0:0:
261,241,53336,1,0,0:0:0:0:
261,241,53505,1,12,0:0:0:0:
222,183,54010,1,0,0:0:0:0:
261,241,54179,1,8,0:0:0:0:
261,241,54263,1,8,0:0:0:0:
261,241,54347,1,8,0:0:0:0:
261,241,54516,1,0,0:0:0:0:
261,241,54853,1,8,0:0:0:0:
261,241,55022,1,8,0:0:0:0:
261,241,55190,1,0,0:0:0:0:
261,241,55527,1,0,0:0:0:0:
261,241,55696,1,8,0:0:0:0:
261,241,56033,1,8,0:0:0:0:
261,241,56201,1,0,0:0:0:0:
207,173,56875,1,8,0:0:0:0:
207,173,57213,1,0,0:0:0:0:
207,173,57465,1,0,0:0:0:0:
207,173,57718,1,8,0:0:0:0:
207,173,57887,1,8,0:0:0:0:
207,173,58224,1,0,0:0:0:0:
207,173,58392,1,8,0:0:0:0:
207,173,58729,1,8,0:0:0:0:
207,173,58898,1,0,0:0:0:0:
198,196,59235,1,0,0:0:0:0:
197,201,59404,1,0,0:0:0:0:
197,201,59572,1,8,0:0:0:0:
197,201,59741,1,0,0:0:0:0:
197,201,59825,1,0,0:0:0:0:
197,201,59909,1,0,0:0:0:0:
197,201,60078,1,0,0:0:0:0:
197,201,60246,1,8,0:0:0:0:
197,201,60415,1,0,0:0:0:0:
280,264,60583,1,12,0:0:0:0:
280,264,60920,1,8,0:0:0:0:
280,264,61089,1,0,0:0:0:0:
280,264,61426,1,0,0:0:0:0:
280,264,61595,1,12,0:0:0:0:
215,217,62100,1,0,0:0:0:0:
261,241,62269,1,8,0:0:0:0:
261,241,62353,1,8,0:0:0:0:
261,241,62437,1,8,0:0:0:0:
261,241,62606,1,0,0:0:0:0:
261,241,62943,1,8,0:0:0:0:
261,241,63111,1,8,0:0:0:0:
261,241,63280,1,4,0:0:0:0:
261,241,63617,1,0,0:0:0:0:
261,241,63786,1,0,0:0:0:0:
261,241,64123,1,0,0:0:0:0:
261,241,64291,1,12,0:0:0:0:
222,183,64797,1,0,0:0:0:0:
261,241,64965,1,8,0:0:0:0:
261,241,65050,1,8,0:0:0:0:
261,241,65134,1,8,0:0:0:0:
261,241,65302,1,0,0:0:0:0:
261,241,65640,1,0,0:0:0:0:
261,241,65808,1,8,0:0:0:0:
261,241,65977,1,0,0:0:0:0:
261,241,66314,1,0,0:0:0:0:
200,116,66482,1,8,0:0:0:0:
261,241,66819,1,0,0:0:0:0:
261,241,66988,1,8,0:0:0:0:
196,202,67662,1,8,0:0:0:0:
197,114,67999,1,0,0:0:0:0:
197,114,68252,1,8,0:0:0:0:
197,114,68505,1,0,0:0:0:0:
197,114,68673,1,8,0:0:0:0:
196,130,69179,1,0,0:0:0:0:
197,114,69347,1,0,0:0:0:0:
197,114,69600,1,0,0:0:0:0:
197,114,69853,1,0,0:0:0:0:
197,114,70022,1,8,0:0:0:0:
154,134,70359,1,0,0:0:0:0:
144,124,70527,1,0,0:0:0:0:
196,129,70696,1,0,0:0:0:0:
196,129,70949,1,8,0:0:0:0:
196,129,71201,1,8,0:0:0:0:
196,129,71370,1,8,0:0:0:0:
147,125,71875,1,0,0:0:0:0:
196,129,72044,1,0,0:0:0:0:
196,129,72297,1,0,0:0:0:0:
196,129,72550,1,8,0:0:0:0:
196,129,72718,1,8,0:0:0:0:
139,124,73055,1,8,0:0:0:0:
139,124,73224,1,0,0:0:0:0:
139,124,73392,1,8,0:0:0:0:
139,124,73645,1,8,0:0:0:0:
139,124,73898,1,0,0:0:0:0:
132,276,74066,1,12,0:0:0:0:
132,276,74404,1,0,0:0:0:0:
132,276,74572,1,8,0:0:0:0:
132,276,74909,1,0,0:0:0:0:
132,276,75078,1,12,0:0:0:0:
132,276,75415,1,0,0:0:0:0:
233,136,75668,1,0,0:0:0:0:
218,216,75920,1,8,0:0:0:0:
211,118,76089,1,0,0:0:0:0:
194,146,76342,1,8,0:0:0:0:
218,216,76595,1,0,0:0:0:0:
218,216,76763,1,12,0:0:0:0:
222,183,77100,1,0,0:0:0:0:
222,183,77269,1,8,0:0:0:0:
222,183,77606,1,0,0:0:0:0:
222,183,77774,1,12,0:0:0:0:
204,199,78111,1,0,0:0:0:0:
204,199,78364,1,8,0:0:0:0:
204,199,78617,1,0,0:0:0:0:
204,199,78786,1,8,0:0:0:0:
202,143,79038,1,0,0:0:0:0:
204,199,79291,1,8,0:0:0:0:
161,208,79460,1,4,0:0:0:0:
161,208,79965,1,4,0:0:0:0:
161,208,80471,1,12,0:0:0:0:
161,208,80977,1,12,0:0:0:0:
161,208,81482,1,0,0:0:0:0:
161,208,81819,1,0,0:0:0:0:
161,208,82156,1,4,0:0:0:0:
161,208,82662,1,4,0:0:0:0:
161,208,83168,1,12,0:0:0:0:
161,208,83673,1,12,0:0:0:0:
161,208,84179,1,0,0:0:0:0:
161,208,84516,1,0,0:0:0:0:
257,180,84853,1,0,0:0:0:0:
257,180,85022,1,0,0:0:0:0:
257,180,85190,1,8,0:0:0:0:
257,180,85359,1,8,0:0:0:0:
257,180,85864,1,8,0:0:0:0:
257,180,86033,1,8,0:0:0:0:
267,206,86201,1,0,0:0:0:0:
257,180,86538,1,8,0:0:0:0:
257,180,86875,1,0,0:0:0:0:
257,180,87213,1,8,0:0:0:0:
257,180,87550,1,8,0:0:0:0:
257,180,87887,1,0,0:0:0:0:
257,180,88055,1,0,0:0:0:0:
257,180,88392,1,8,0:0:0:0:
257,180,88561,1,0,0:0:0:0:
173,151,88898,1,0,0:0:0:0:
173,151,89572,1,0,0:0:0:0:
251,179,89909,1,8,0:0:0:0:
251,179,90078,1,8,0:0:0:0:
251,179,90246,1,0,0:0:0:0:
251,179,90583,1,0,0:0:0:0:
251,179,90752,1,0,0:0:0:0:
251,179,91089,1,8,0:0:0:0:
251,179,91426,1,0,0:0:0:0:
267,206,91595,1,0,0:0:0:0:
251,179,91932,1,8,0:0:0:0:
251,179,92269,1,0,0:0:0:0:
251,179,92606,1,0,0:0:0:0:
251,179,92943,1,8,0:0:0:0:
251,179,93280,1,0,0:0:0:0:
251,179,93449,1,8,0:0:0:0:
175,144,93617,1,0,0:0:0:0:
251,179,94291,1,0,0:0:0:0:
251,179,94628,1,8,0:0:0:0:
251,179,94797,1,0,0:0:0:0:
251,179,94965,1,8,0:0:0:0:
251,179,95302,1,8,0:0:0:0:
251,179,95471,1,8,0:0:0:0:
251,179,95640,1,0,0:0:0:0:
175,146,96314,1,0,0:0:0:0:
233,168,96651,1,8,0:0:0:0:
233,168,96819,1,8,0:0:0:0:
215,210,96988,1,0,0:0:0:0:
233,168,97325,1,8,0:0:0:0:
233,168,97662,1,0,0:0:0:0:
233,168,97999,1,0,0:0:0:0:
233,168,98336,1,8,0:0:0:0:
233,168,98673,1,8,0:0:0:0:
233,168,98842,1,0,0:0:0:0:
233,168,99179,1,0,0:0:0:0:
233,168,99347,1,8,0:0:0:0:
175,143,99684,1,0,0:0:0:0:
233,168,100359,1,0,0:0:0:0:
233,168,100527,1,8,0:0:0:0:
233,168,100696,1,8,0:0:0:0:
233,168,101033,1,8,0:0:0:0:
174,205,101370,1,8,0:0:0:0:
233,168,101538,1,8,0:0:0:0:
233,168,101875,1,8,0:0:0:0:
233,168,102213,1,8,0:0:0:0:
221,271,102381,1,0,0:0:0:0:
233,168,102718,1,0,0:0:0:0:
233,168,103055,1,0,0:0:0:0:
233,168,103392,1,8,0:0:0:0:
233,168,103729,1,8,0:0:0:0:
170,146,104235,1,8,0:0:0:0:
170,146,104404,1,0,0:0:0:0:
129,197,104741,1,0,0:0:0:0:
129,197,105078,1,8,0:0:0:0:
152,197,105415,1,0,0:0:0:0:
167,151,105583,1,0,0:0:0:0:
152,197,105752,1,8,0:0:0:0:
254,279,106426,5,8,0:0:0:0:
254,279,106595,1,0,0:0:0:0:
254,279,106763,1,8,0:0:0:0:
254,279,107100,1,8,0:0:0:0:
254,279,107269,1,0,0:0:0:0:
254,279,107437,1,8,0:0:0:0:
254,279,107774,1,0,0:0:0:0:
193,159,108111,1,8,0:0:0:0:
193,159,108280,1,0,0:0:0:0:
193,159,108449,1,8,0:0:0:0:
193,159,108786,1,8,0:0:0:0:
193,159,109123,1,0,0:0:0:0:
185,157,109797,1,0,0:0:0:0:
185,157,110134,1,8,0:0:0:0:
173,179,110302,1,0,0:0:0:0:
185,157,110471,1,8,0:0:0:0:
185,157,110808,1,8,0:0:0:0:
185,157,111145,1,0,0:0:0:0:
185,157,111482,1,0,0:0:0:0:
169,188,111819,1,8,0:0:0:0:
169,188,111988,1,0,0:0:0:0:
169,188,112156,1,0,0:0:0:0:
169,188,112493,1,8,0:0:0:0:
169,188,112662,1,0,0:0:0:0:
169,188,112831,1,0,0:0:0:0:
169,188,113168,1,0,0:0:0:0:
169,188,113505,1,8,0:0:0:0:
169,188,113673,1,0,0:0:0:0:
169,188,113842,1,8,0:0:0:0:
169,188,114179,1,8,0:0:0:0:
169,188,114516,1,8,0:0:0:0:
166,182,115190,1,0,0:0:0:0:
166,182,115527,1,8,0:0:0:0:
166,182,115864,1,8,0:0:0:0:
166,182,116201,1,8,0:0:0:0:
166,182,116538,1,0,0:0:0:0:
166,182,116875,1,0,0:0:0:0:
235,203,117213,1,0,0:0:0:0:
235,203,117381,1,8,0:0:0:0:
235,203,117550,1,0,0:0:0:0:
235,203,117887,1,0,0:0:0:0:
235,203,118055,1,8,0:0:0:0:
235,203,118224,1,0,0:0:0:0:
235,203,118561,1,0,0:0:0:0:
298,216,118898,1,8,0:0:0:0:
298,216,119066,1,0,0:0:0:0:
235,203,119235,1,0,0:0:0:0:
235,203,119572,1,8,0:0:0:0:
235,203,119909,1,0,0:0:0:0:
235,203,120583,1,0,0:0:0:0:
235,203,120920,1,8,0:0:0:0:
235,203,121089,1,8,0:0:0:0:
234,197,121257,1,8,0:0:0:0:
235,203,121595,1,8,0:0:0:0:
234,197,121679,1,8,0:0:0:0:
234,197,121763,1,8,0:0:0:0:
235,203,121932,1,8,0:0:0:0:
235,203,122269,1,8,0:0:0:0:
235,203,122606,1,4,0:0:0:0:
280,264,122943,1,0,0:0:0:0:
280,264,123280,1,0,0:0:0:0:
280,264,123617,1,0,0:0:0:0:
280,264,123786,1,0,0:0:0:0:
280,264,124291,1,0,0:0:0:0:
280,264,124628,1,8,0:0:0:0:
280,264,124965,1,8,0:0:0:0:
280,264,125302,1,8,0:0:0:0:
280,264,125640,1,0,0:0:0:0:
280,264,125977,1,0,0:0:0:0:
280,264,126145,1,0,0:0:0:0:
280,264,126314,1,8,0:0:0:0:
280,264,126482,1,8,0:0:0:0:
280,264,126988,1,0,0:0:0:0:
280,264,127325,1,12,0:0:0:0:
280,264,127493,1,12,0:0:0:0:
280,264,127662,1,0,0:0:0:0:
280,264,127831,1,0,0:0:0:0:
280,264,127999,1,12,0:0:0:0:
280,264,128336,1,8,0:0:0:0:
280,264,128505,1,0,0:0:0:0:
280,264,128842,1,0,0:0:0:0:
280,264,129010,1,12,0:0:0:0:
215,217,129516,1,0,0:0:0:0:
261,241,129684,1,8,0:0:0:0:
261,241,129769,1,8,0:0:0:0:
261,241,129853,1,8,0:0:0:0:
261,241,130022,1,0,0:0:0:0:
261,241,130359,1,8,0:0:0:0:
261,241,130527,1,8,0:0:0:0:
261,241,130696,1,4,0:0:0:0:
261,241,131033,1,0,0:0:0:0:
261,241,131201,1,0,0:0:0:0:
261,241,131538,1,0,0:0:0:0:
261,241,131707,1,12,0:0:0:0:
222,183,132213,1,0,0:0:0:0:
261,241,132381,1,8,0:0:0:0:
261,241,132465,1,8,0:0:0:0:
261,241,132550,1,8,0:0:0:0:
261,241,132718,1,0,0:0:0:0:
261,241,133055,1,8,0:0:0:0:
261,241,133224,1,8,0:0:0:0:
261,241,133392,1,0,0:0:0:0:
261,241,133729,1,0,0:0:0:0:
261,241,133898,1,8,0:0:0:0:
261,241,134235,1,8,0:0:0:0:
261,241,134404,1,0,0:0:0:0:
207,173,135078,1,8,0:0:0:0:
207,173,135415,1,0,0:0:0:0:
207,173,135668,1,0,0:0:0:0:
207,173,135920,1,8,0:0:0:0:
207,173,136089,1,8,0:0:0:0:
207,173,136426,1,0,0:0:0:0:
207,173,136595,1,8,0:0:0:0:
207,173,136932,1,8,0:0:0:0:
207,173,137100,1,0,0:0:0:0:
186,248,137437,1,0,0:0:0:0:
197,201,137606,1,0,0:0:0:0:
197,201,137774,1,8,0:0:0:0:
197,201,137943,1,0,0:0:0:0:
197,201,138027,1,0,0:0:0:0:
197,201,138111,1,0,0:0:0:0:
197,201,138280,1,0,0:0:0:0:
197,201,138449,1,8,0:0:0:0:
197,201,138617,1,0,0:0:0:0:
280,264,138786,1,12,0:0:0:0:
280,264,139123,1,8,0:0:0:0:
280,264,139291,1,0,0:0:0:0:
280,264,139628,1,0,0:0:0:0:
280,264,139797,1,12,0:0:0:0:
215,217,140302,1,0,0:0:0:0:
261,241,140471,1,8,0:0:0:0:
261,241,140555,1,8,0:0:0:0:
261,241,140640,1,8,0:0:0:0:
261,241,140808,1,0,0:0:0:0:
261,241,141145,1,8,0:0:0:0:
261,241,141314,1,8,0:0:0:0:
261,241,141482,1,4,0:0:0:0:
261,241,141819,1,0,0:0:0:0:
261,241,141988,1,0,0:0:0:0:
261,241,142325,1,0,0:0:0:0:
261,241,142493,1,12,0:0:0:0:
222,183,142999,1,0,0:0:0:0:
261,241,143168,1,8,0:0:0:0:
261,241,143252,1,8,0:0:0:0:
261,241,143336,1,8,0:0:0:0:
261,241,143505,1,0,0:0:0:0:
261,241,143842,1,0,0:0:0:0:
261,241,144010,1,8,0:0:0:0:
261,241,144179,1,0,0:0:0:0:
261,241,144516,1,0,0:0:0:0:
200,116,144684,1,8,0:0:0:0:
261,241,145022,1,0,0:0:0:0:
261,241,145190,1,8,0:0:0:0:
206,164,145864,1,8,0:0:0:0:
197,114,146201,1,0,0:0:0:0:
197,114,146454,1,8,0:0:0:0:
197,114,146707,1,0,0:0:0:0:
197,114,146875,1,8,0:0:0:0:
196,130,147381,1,0,0:0:0:0:
197,114,147550,1,0,0:0:0:0:
197,114,147802,1,0,0:0:0:0:
197,114,148055,1,0,0:0:0:0:
197,114,148224,1,8,0:0:0:0:
154,134,148561,1,0,0:0:0:0:
144,124,148729,1,0,0:0:0:0:
196,129,148898,1,0,0:0:0:0:
196,129,149151,1,8,0:0:0:0:
196,129,149404,1,8,0:0:0:0:
196,129,149572,1,8,0:0:0:0:
147,125,150078,1,0,0:0:0:0:
196,129,150246,1,0,0:0:0:0:
196,129,150499,1,0,0:0:0:0:
196,129,150752,1,8,0:0:0:0:
196,129,150920,1,8,0:0:0:0:
139,124,151257,1,8,0:0:0:0:
139,124,151426,1,0,0:0:0:0:
139,124,151595,1,8,0:0:0:0:
139,124,151847,1,8,0:0:0:0:
139,124,152100,1,0,0:0:0:0:
132,276,152269,1,12,0:0:0:0:
132,276,152606,1,0,0:0:0:0:
132,276,152774,1,8,0:0:0:0:
132,276,153111,1,0,0:0:0:0:
132,276,153280,1,12,0:0:0:0:
132,276,153617,1,0,0:0:0:0:
218,216,153870,1,0,0:0:0:0:
218,216,154123,1,8,0:0:0:0:
218,216,154291,1,0,0:0:0:0:
218,216,154544,1,8,0:0:0:0:
218,216,154797,1,0,0:0:0:0:
218,216,154965,1,12,0:0:0:0:
222,183,155302,1,0,0:0:0:0:
222,183,155471,1,8,0:0:0:0:
222,183,155808,1,0,0:0:0:0:
222,183,155977,1,12,0:0:0:0:
204,199,156314,1,0,0:0:0:0:
204,199,156566,1,8,0:0:0:0:
204,199,156819,1,0,0:0:0:0:
204,199,156988,1,8,0:0:0:0:
204,199,157241,1,0,0:0:0:0:
204,199,157493,1,0,0:0:0:0:
214,136,157662,1,12,0:0:0:0:
258,162,158168,1,0,0:0:0:0:
258,162,158673,1,8,0:0:0:0:
258,162,159179,1,0,0:0:0:0:
258,162,159684,1,8,0:0:0:0:
258,162,160022,1,0,0:0:0:0:
258,162,160359,1,0,0:0:0:0:
258,162,160696,1,0,0:0:0:0:
258,162,160864,1,8,0:0:0:0:
258,162,161201,1,0,0:0:0:0:
258,162,161370,1,8,0:0:0:0:
258,162,161538,1,8,0:0:0:0:
258,162,161707,1,0,0:0:0:0:
258,162,162213,1,0,0:0:0:0:
258,162,162381,1,8,0:0:0:0:
258,162,162550,1,0,0:0:0:0:
258,162,162718,1,8,0:0:0:0:
198,159,162887,1,8,0:0:0:0:
258,162,163055,1,0,0:0:0:0:
258,162,163561,1,0,0:0:0:0:
258,162,163729,1,0,0:0:0:0:
258,162,163982,1,0,0:0:0:0:
258,162,164235,1,8,0:0:0:0:
258,162,164404,1,0,0:0:0:0:
258,162,164656,1,8,0:0:0:0:
258,162,164909,1,8,0:0:0:0:
258,162,165078,1,0,0:0:0:0:
258,162,165331,1,8,0:0:0:0:
258,162,165583,1,0,0:0:0:0:
258,162,165752,1,8,0:0:0:0:
258,162,166257,1,8,0:0:0:0:
165,174,166763,1,8,0:0:0:0:
214,180,167437,1,8,0:0:0:0:
278,191,167774,1,0,0:0:0:0:
278,191,167943,1,0,0:0:0:0:
278,191,168111,1,8,0:0:0:0:
278,191,168280,1,0,0:0:0:0:
278,191,168449,1,8,0:0:0:0:
278,191,168954,1,8,0:0:0:0:
278,191,169291,1,0,0:0:0:0:
278,191,169460,1,8,0:0:0:0:
190,193,170134,1,8,0:0:0:0:
121,117,170302,1,0,0:0:0:0:
131,152,170471,1,8,0:0:0:0:
131,152,170555,1,8,0:0:0:0:
131,152,170640,1,8,0:0:0:0:
131,152,170808,1,0,0:0:0:0:
131,152,170892,1,0,0:0:0:0:
131,152,170977,1,0,0:0:0:0:
142,121,171145,1,8,0:0:0:0:
158,136,171651,1,0,0:0:0:0:
158,136,171988,1,0,0:0:0:0:
158,136,172156,1,8,0:0:0:0:
158,136,172831,1,0,0:0:0:0:
158,136,172999,1,0,0:0:0:0:
158,136,173168,1,8,0:0:0:0:
158,136,173420,1,0,0:0:0:0:
158,136,173673,1,8,0:0:0:0:
158,136,173842,1,0,0:0:0:0:
205,152,174347,1,0,0:0:0:0:
205,152,174516,1,0,0:0:0:0:
205,152,174853,1,8,0:0:0:0:
205,152,175022,1,8,0:0:0:0:
187,177,175190,1,0,0:0:0:0:
187,177,175527,1,8,0:0:0:0:
187,177,175696,1,0,0:0:0:0:
187,177,175864,1,8,0:0:0:0:
207,210,176370,1,0,0:0:0:0:
179,175,176538,1,8,0:0:0:0:
188,136,177213,2,8,L|230:118,8,35
326,212,178224,1,0,0:0:0:0:
137,156,178561,1,12,0:0:0:0:
137,156,178729,1,12,0:0:0:0:
139,196,179235,1,8,0:0:0:0:
139,196,181932,1,0,0:0:0:0:
139,196,184628,1,8,0:0:0:0:
139,196,187325,1,0,0:0:0:0:
138,196,189684,1,0,0:0:0:0:
138,196,189853,1,0,0:0:0:0:
138,196,190022,1,8,0:0:0:0:
138,196,190527,1,8,0:0:0:0:
138,196,191033,1,8,0:0:0:0:
189,160,192381,1,8,0:0:0:0:
189,160,192718,1,8,0:0:0:0:
189,160,193224,1,0,0:0:0:0:
189,160,193729,1,8,0:0:0:0:
146,173,195078,1,8,0:0:0:0:
146,173,195415,1,0,0:0:0:0:
146,173,195920,1,0,0:0:0:0:
146,173,196426,1,8,0:0:0:0:
197,114,197437,1,0,0:0:0:0:
197,114,197690,1,8,0:0:0:0:
197,114,197943,1,0,0:0:0:0:
197,114,198111,1,12,0:0:0:0:
196,130,198617,1,0,0:0:0:0:
197,114,198786,1,0,0:0:0:0:
197,114,199038,1,8,0:0:0:0:
197,114,199291,1,0,0:0:0:0:
197,114,199460,1,8,0:0:0:0:
154,134,199797,1,0,0:0:0:0:
144,124,199965,1,8,0:0:0:0:
196,129,200134,1,8,0:0:0:0:
196,129,200387,1,8,0:0:0:0:
196,129,200640,1,0,0:0:0:0:
196,129,200808,1,12,0:0:0:0:
147,125,201314,1,0,0:0:0:0:
196,129,201482,1,8,0:0:0:0:
196,129,201735,1,8,0:0:0:0:
196,129,201988,1,0,0:0:0:0:
196,129,202156,1,8,0:0:0:0:
139,124,202493,1,8,0:0:0:0:
139,124,202662,1,0,0:0:0:0:
139,124,202831,1,8,0:0:0:0:
139,124,203083,1,8,0:0:0:0:
139,124,203336,1,0,0:0:0:0:
132,276,203505,1,12,0:0:0:0:
132,276,203842,1,0,0:0:0:0:
132,276,204010,1,8,0:0:0:0:
132,276,204347,1,0,0:0:0:0:
132,276,204516,1,12,0:0:0:0:
132,276,204853,1,0,0:0:0:0:
233,136,205106,1,0,0:0:0:0:
218,216,205359,1,8,0:0:0:0:
211,118,205527,1,0,0:0:0:0:
194,146,205780,1,8,0:0:0:0:
218,216,206033,1,0,0:0:0:0:
218,216,206201,1,12,0:0:0:0:
222,183,206538,1,0,0:0:0:0:
222,183,206707,1,8,0:0:0:0:
222,183,207044,1,0,0:0:0:0:
222,183,207213,1,12,0:0:0:0:
204,199,207550,1,0,0:0:0:0:
204,199,207802,1,8,0:0:0:0:
204,199,208055,1,0,0:0:0:0:
204,199,208224,1,8,0:0:0:0:
202,143,208477,1,0,0:0:0:0:
204,199,208729,1,0,0:0:0:0:
280,264,208898,1,12,0:0:0:0:
280,264,209235,1,8,0:0:0:0:
280,264,209404,1,0,0:0:0:0:
280,264,209741,1,0,0:0:0:0:
280,264,209909,1,12,0:0:0:0:
215,217,210415,1,0,0:0:0:0:
261,241,210583,1,8,0:0:0:0:
261,241,210668,1,8,0:0:0:0:
261,241,210752,1,8,0:0:0:0:
206,144,210920,1,0,0:0:0:0:
199,142,211005,1,0,0:0:0:0:
206,144,211089,1,0,0:0:0:0:
261,241,211257,1,8,0:0:0:0:
261,241,211426,1,8,0:0:0:0:
261,241,211595,1,4,0:0:0:0:
261,241,211932,1,0,0:0:0:0:
261,241,212100,1,0,0:0:0:0:
261,241,212437,1,0,0:0:0:0:
261,241,212606,1,12,0:0:0:0:
222,183,213111,1,0,0:0:0:0:
261,241,213280,1,8,0:0:0:0:
261,241,213364,1,8,0:0:0:0:
261,241,213449,1,8,0:0:0:0:
261,241,213617,1,0,0:0:0:0:
241,118,213701,1,0,0:0:0:0:
241,118,213786,1,0,0:0:0:0:
261,241,213954,1,8,0:0:0:0:
261,241,214123,1,8,0:0:0:0:
261,241,214291,1,0,0:0:0:0:
261,241,214628,1,0,0:0:0:0:
261,241,214797,1,8,0:0:0:0:
261,241,215134,1,8,0:0:0:0:
261,241,215302,1,0,0:0:0:0:
207,173,215977,1,8,0:0:0:0:
207,173,216314,1,0,0:0:0:0:
207,173,216566,1,0,0:0:0:0:
207,173,216819,1,8,0:0:0:0:
207,173,216988,1,8,0:0:0:0:
207,173,217325,1,0,0:0:0:0:
207,173,217493,1,8,0:0:0:0:
207,173,217831,1,8,0:0:0:0:
207,173,217999,1,0,0:0:0:0:
171,183,218336,1,0,0:0:0:0:
197,201,218505,1,0,0:0:0:0:
197,201,218673,1,8,0:0:0:0:
197,201,218842,1,0,0:0:0:0:
197,201,218926,1,0,0:0:0:0:
197,201,219010,1,0,0:0:0:0:
197,201,219179,1,0,0:0:0:0:
197,201,219347,1,8,0:0:0:0:
197,201,219516,1,0,0:0:0:0:
280,264,219684,1,12,0:0:0:0:
280,264,220022,1,8,0:0:0:0:
280,264,220190,1,0,0:0:0:0:
280,264,220527,1,0,0:0:0:0:
280,264,220696,1,12,0:0:0:0:
215,217,221201,1,0,0:0:0:0:
261,241,221370,1,8,0:0:0:0:
261,241,221454,1,8,0:0:0:0:
261,241,221538,1,8,0:0:0:0:
261,241,221707,1,0,0:0:0:0:
200,72,221791,1,0,0:0:0:0:
200,72,221875,1,0,0:0:0:0:
261,241,222044,1,8,0:0:0:0:
261,241,222213,1,8,0:0:0:0:
261,241,222381,1,4,0:0:0:0:
261,241,222718,1,0,0:0:0:0:
261,241,222887,1,0,0:0:0:0:
261,241,223224,1,0,0:0:0:0:
261,241,223392,1,12,0:0:0:0:
222,183,223898,1,0,0:0:0:0:
261,241,224066,1,8,0:0:0:0:
261,241,224151,1,8,0:0:0:0:
261,241,224235,1,8,0:0:0:0:
261,241,224404,1,0,0:0:0:0:
149,116,224488,1,0,0:0:0:0:
149,116,224572,1,0,0:0:0:0:
261,241,224741,1,0,0:0:0:0:
261,241,224909,1,8,0:0:0:0:
261,241,225078,1,0,0:0:0:0:
261,241,225415,1,0,0:0:0:0:
200,116,225583,1,8,0:0:0:0:
261,241,225920,1,0,0:0:0:0:
261,241,226089,1,8,0:0:0:0:
196,202,226763,1,8,0:0:0:0:
197,114,227100,1,0,0:0:0:0:
197,114,227353,1,8,0:0:0:0:
197,114,227606,1,0,0:0:0:0:
197,114,227774,1,8,0:0:0:0:
196,130,228280,1,0,0:0:0:0:
197,114,228449,1,0,0:0:0:0:
197,114,228701,1,0,0:0:0:0:
197,114,228954,1,0,0:0:0:0:
197,114,229123,1,8,0:0:0:0:
154,134,229460,1,0,0:0:0:0:
144,124,229628,1,0,0:0:0:0:
196,129,229797,1,0,0:0:0:0:
196,129,230050,1,8,0:0:0:0:
196,129,230302,1,8,0:0:0:0:
196,129,230471,1,8,0:0:0:0:
147,125,230977,1,0,0:0:0:0:
196,129,231145,1,0,0:0:0:0:
196,129,231398,1,0,0:0:0:0:
196,129,231651,1,8,0:0:0:0:
196,129,231819,1,8,0:0:0:0:
139,124,232156,1,8,0:0:0:0:
139,124,232325,1,0,0:0:0:0:
139,124,232493,1,8,0:0:0:0:
139,124,232746,1,8,0:0:0:0:
139,124,232999,1,0,0:0:0:0:
132,276,233168,1,12,0:0:0:0:
132,276,233505,1,0,0:0:0:0:
132,276,233673,1,8,0:0:0:0:
132,276,234010,1,0,0:0:0:0:
132,276,234179,1,12,0:0:0:0:
132,276,234516,1,0,0:0:0:0:
233,136,234769,1,0,0:0:0:0:
218,216,235022,1,8,0:0:0:0:
211,118,235190,1,0,0:0:0:0:
194,146,235443,1,8,0:0:0:0:
218,216,235696,1,0,0:0:0:0:
218,216,235864,1,12,0:0:0:0:
222,183,236201,1,0,0:0:0:0:
222,183,236370,1,8,0:0:0:0:
222,183,236707,1,0,0:0:0:0:
222,183,236875,1,12,0:0:0:0:
204,199,237213,1,0,0:0:0:0:
204,199,237465,1,8,0:0:0:0:
204,199,237718,1,0,0:0:0:0:
204,199,237887,1,8,0:0:0:0:
202,143,238140,1,0,0:0:0:0:
204,199,238392,1,8,0:0:0:0:
161,208,238561,1,4,0:0:0:0:
161,208,239066,1,4,0:0:0:0:
161,208,239572,1,12,0:0:0:0:
161,208,240078,1,12,0:0:0:0:
161,208,240583,1,0,0:0:0:0:
161,208,240920,1,0,0:0:0:0:
161,208,241257,1,4,0:0:0:0:
161,208,241763,1,4,0:0:0:0:
161,208,242269,1,12,0:0:0:0:
161,208,242774,1,12,0:0:0:0:
161,208,243280,1,0,0:0:0:0:
161,208,243617,1,8,0:0:0:0:
257,180,243954,1,4,0:0:0:0:
256,192,244291,12,0,247999,0:0:0:0:
