osu file format v14

[General]
AudioFilename: audio.ogg
AudioLeadIn: 0
PreviewTime: 49392
Countdown: 0
SampleSet: Normal
StackLeniency: 0.7
Mode: 1
LetterboxInBreaks: 0
WidescreenStoryboard: 1

[Editor]
Bookmarks: 6625,17411,28198,38984,49771,60557,68647,74040,79434,84827
DistanceSpacing: 1
BeatDivisor: 2
GridSize: 32
TimelineZoom: 1.5

[Metadata]
Title:Ashita no Hanatachi (TV Size)
TitleUnicode:アシタノハナタチ (TV Size)
Artist:Sanshuu Chuugaku Yuusha-bu
ArtistUnicode:讃州中学勇者部
Creator:iRedi
Version:Aurorance's Futsuu
Source:結城友奈は勇者である -大満開の章-
Tags:aurorance diederich_olsen diederich olsen yuuki yuuna wa yuusha de aru dai mankai daimankai no shou yuki yuna is a hero the great mankai chapter ゆゆゆ yuyuyu tv anime op opening japanese pop jpop 照井春佳 terui haruka 三森すずこ mimori suzuko 東郷美森 tougou mimori 内山夕実 uchiyama yumi 犬吠埼風 inubouzaki fuu 黒沢ともよ kurosawa tomoyo 犬吠埼樹 inubouzaki itsuki 長妻樹里 nagatsuma juri 三好夏凛 miyoshi karin 花澤香菜 hanazawa kana 乃木園子 nogi sonoko 岡部啓一 okabe keiichi (MONACA)
BeatmapID:3986508
BeatmapSetID:1929890

[Difficulty]
HPDrainRate:7
CircleSize:2
OverallDifficulty:4
ApproachRate:10
SliderMultiplier:1.4
SliderTickRate:1

[Events]
//Background and Video events
0,0,"bg.jpg",0,10
//Break Periods
//Storyboard Layer 0 (Background)
//Storyboard Layer 1 (Fail)
//Storyboard Layer 2 (Pass)
//Storyboard Layer 3 (Foreground)
//Storyboard Layer 4 (Overlay)
//Storyboard Sound Samples

[TimingPoints]
1232,337.078651685393,4,1,0,80,1,0
6620,-100,4,1,0,60,0,0
28193,-100,4,1,0,70,0,0
49766,-100,4,1,0,85,0,0
49771,-100,4,1,0,85,0,1
79429,-100,4,1,0,80,0,1
79434,-100,4,1,0,80,0,0
84822,-100,4,1,0,70,0,0

[HitObjects]
256,192,1232,5,4,0:0:0:0:
256,192,1737,1,4,0:0:0:0:
256,192,2243,1,6,0:0:0:0:
256,192,2748,1,12,0:0:0:0:
256,192,3254,1,0,0:0:0:0:
256,192,3423,1,0,0:0:0:0:
256,192,3591,1,8,0:0:0:0:
256,192,3928,5,4,0:0:0:0:
256,192,4434,1,4,0:0:0:0:
256,192,4939,1,4,0:0:0:0:
256,192,5445,1,12,0:0:0:0:
256,192,5951,1,0,0:0:0:0:
256,192,6288,1,8,0:0:0:0:
256,192,6625,1,4,0:0:0:0:
256,192,7636,1,2,0:0:0:0:
256,192,7973,1,0,0:0:0:0:
256,192,8647,1,0,0:0:0:0:
256,192,8984,1,8,0:0:0:0:
256,192,9321,1,8,0:0:0:0:
256,192,9658,1,0,0:0:0:0:
256,192,9827,1,0,0:0:0:0:
256,192,10333,1,0,0:0:0:0:
256,192,10670,1,8,0:0:0:0:
256,192,11681,1,2,0:0:0:0:
256,192,12018,1,0,0:0:0:0:
256,192,12524,1,0,0:0:0:0:
256,192,12861,1,8,0:0:0:0:
256,192,13198,1,0,0:0:0:0:
256,192,13366,1,0,0:0:0:0:
256,192,13703,1,8,0:0:0:0:
256,192,14040,1,0,0:0:0:0:
256,192,14378,1,0,0:0:0:0:
256,192,14715,1,8,0:0:0:0:
256,192,15052,1,0,0:0:0:0:
256,192,15220,1,8,0:0:0:0:
256,192,15726,1,0,0:0:0:0:
256,192,16063,1,8,0:0:0:0:
256,192,16737,1,0,0:0:0:0:
256,192,17074,1,8,0:0:0:0:
256,192,17411,1,4,0:0:0:0:
256,192,18423,1,0,0:0:0:0:
256,192,18760,1,8,0:0:0:0:
256,192,19434,1,0,0:0:0:0:
256,192,19771,1,0,0:0:0:0:
256,192,20108,1,8,0:0:0:0:
256,192,20445,1,0,0:0:0:0:
256,192,20614,1,0,0:0:0:0:
256,192,21119,1,8,0:0:0:0:
256,192,21456,1,0,0:0:0:0:
256,192,22130,1,0,0:0:0:0:
256,192,22467,1,8,0:0:0:0:
256,192,22805,1,8,0:0:0:0:
256,192,23310,1,0,0:0:0:0:
256,192,23647,1,0,0:0:0:0:
256,192,23984,1,0,0:0:0:0:
256,192,24153,1,8,0:0:0:0:
256,192,24490,1,0,0:0:0:0:
256,192,24827,1,0,0:0:0:0:
256,192,25164,1,8,0:0:0:0:
256,192,25501,1,0,0:0:0:0:
256,192,26175,1,0,0:0:0:0:
256,192,26849,1,8,0:0:0:0:
256,192,27524,1,8,0:0:0:0:
256,192,28198,1,4,0:0:0:0:
256,192,28535,1,8,0:0:0:0:
256,192,28703,1,8,0:0:0:0:
256,192,28872,1,0,0:0:0:0:
256,192,29209,1,8,0:0:0:0:
256,192,29546,1,0,0:0:0:0:
256,192,29883,1,0,0:0:0:0:
256,192,30220,1,8,0:0:0:0:
256,192,30388,1,0,0:0:0:0:
256,192,30557,1,8,0:0:0:0:
256,192,30894,1,8,0:0:0:0:
256,192,31231,1,0,0:0:0:0:
256,192,31569,1,8,0:0:0:0:
256,192,31906,1,0,0:0:0:0:
256,192,32243,1,0,0:0:0:0:
256,192,32580,1,8,0:0:0:0:
256,192,32917,1,0,0:0:0:0:
256,192,33591,1,0,0:0:0:0:
256,192,33928,1,0,0:0:0:0:
256,192,34097,1,8,0:0:0:0:
256,192,34265,1,0,0:0:0:0:
256,192,34602,1,0,0:0:0:0:
256,192,34939,1,8,0:0:0:0:
256,192,35276,1,0,0:0:0:0:
256,192,35445,1,0,0:0:0:0:
256,192,35614,1,8,0:0:0:0:
256,192,35951,1,0,0:0:0:0:
256,192,36288,1,8,0:0:0:0:
256,192,36625,1,0,0:0:0:0:
256,192,36962,1,0,0:0:0:0:
256,192,37299,1,8,0:0:0:0:
256,192,37636,1,8,0:0:0:0:
256,192,37973,1,0,0:0:0:0:
256,192,38310,1,0,0:0:0:0:
256,192,38984,1,12,0:0:0:0:
256,192,39321,1,0,0:0:0:0:
256,192,39490,1,8,0:0:0:0:
256,192,39658,1,0,0:0:0:0:
256,192,39996,1,8,0:0:0:0:
256,192,40333,1,8,0:0:0:0:
256,192,40670,1,0,0:0:0:0:
256,192,41007,1,8,0:0:0:0:
256,192,41175,1,8,0:0:0:0:
256,192,41344,1,0,0:0:0:0:
256,192,41681,1,8,0:0:0:0:
256,192,42018,1,0,0:0:0:0:
256,192,42355,1,0,0:0:0:0:
256,192,42692,1,8,0:0:0:0:
256,192,42861,1,8,0:0:0:0:
256,192,43366,1,8,0:0:0:0:
256,192,43703,1,0,0:0:0:0:
256,192,44378,1,12,0:0:0:0:
256,192,44715,1,0,0:0:0:0:
256,192,44883,1,8,0:0:0:0:
256,192,45389,1,0,0:0:0:0:
256,192,45557,1,0,0:0:0:0:
256,192,46063,1,8,0:0:0:0:
256,192,46400,1,0,0:0:0:0:
256,192,46737,1,8,0:0:0:0:
256,192,47074,1,8,0:0:0:0:
256,192,47411,1,0,0:0:0:0:
256,192,47580,1,8,0:0:0:0:
256,192,47748,1,0,0:0:0:0:
256,192,48085,1,8,0:0:0:0:
256,192,48423,1,0,0:0:0:0:
256,192,48591,1,0,0:0:0:0:
256,192,48760,1,0,0:0:0:0:
256,192,49097,1,12,0:0:0:0:
256,192,49771,1,12,0:0:0:0:
256,192,50108,1,0,0:0:0:0:
256,192,50276,1,0,0:0:0:0:
256,192,50614,1,0,0:0:0:0:
256,192,50782,1,8,0:0:0:0:
256,192,51456,1,0,0:0:0:0:
256,192,51793,1,0,0:0:0:0:
256,192,52130,1,8,0:0:0:0:
256,192,52467,1,4,0:0:0:0:
256,192,52805,1,0,0:0:0:0:
256,192,52973,1,0,0:0:0:0:
256,192,53310,1,0,0:0:0:0:
256,192,53479,1,8,0:0:0:0:
256,192,54153,1,8,0:0:0:0:
256,192,54490,1,8,0:0:0:0:
256,192,54827,1,0,0:0:0:0:
256,192,54996,1,8,0:0:0:0:
256,192,55164,1,0,0:0:0:0:
256,192,55501,1,0,0:0:0:0:
256,192,55670,1,8,0:0:0:0:
256,192,56007,1,8,0:0:0:0:
256,192,56175,1,0,0:0:0:0:
256,192,56849,1,8,0:0:0:0:
256,192,57187,1,0,0:0:0:0:
256,192,57524,1,0,0:0:0:0:
256,192,57692,1,0,0:0:0:0:
256,192,57861,1,8,0:0:0:0:
256,192,58198,1,0,0:0:0:0:
256,192,58366,1,8,0:0:0:0:
256,192,58703,1,8,0:0:0:0:
256,192,58872,1,0,0:0:0:0:
256,192,59209,1,8,0:0:0:0:
256,192,59883,1,8,0:0:0:0:
256,192,60220,1,0,0:0:0:0:
256,192,60557,1,12,0:0:0:0:
256,192,60894,1,0,0:0:0:0:
256,192,61063,1,0,0:0:0:0:
256,192,61400,1,0,0:0:0:0:
256,192,61569,1,8,0:0:0:0:
256,192,62243,1,8,0:0:0:0:
256,192,62580,1,8,0:0:0:0:
256,192,62917,1,8,0:0:0:0:
256,192,63254,1,4,0:0:0:0:
256,192,63591,1,0,0:0:0:0:
256,192,63760,1,0,0:0:0:0:
256,192,64097,1,0,0:0:0:0:
256,192,64265,1,8,0:0:0:0:
256,192,64939,1,0,0:0:0:0:
256,192,65276,1,0,0:0:0:0:
256,192,65614,1,0,0:0:0:0:
256,192,65782,1,8,0:0:0:0:
256,192,65951,1,0,0:0:0:0:
256,192,66288,1,8,0:0:0:0:
256,192,66456,1,0,0:0:0:0:
256,192,66793,1,0,0:0:0:0:
256,192,66962,1,8,0:0:0:0:
256,192,67636,1,0,0:0:0:0:
256,192,67973,1,8,0:0:0:0:
256,192,68310,1,0,0:0:0:0:
256,192,68647,1,12,0:0:0:0:
256,192,69321,1,0,0:0:0:0:
256,192,69658,1,0,0:0:0:0:
256,192,69827,1,0,0:0:0:0:
256,192,69996,1,8,0:0:0:0:
256,192,70333,1,8,0:0:0:0:
256,192,70670,1,0,0:0:0:0:
256,192,71007,1,2,0:0:0:0:
256,192,71175,1,2,0:0:0:0:
256,192,71344,1,0,0:0:0:0:
256,192,72018,1,0,0:0:0:0:
256,192,72355,1,0,0:0:0:0:
256,192,72524,1,0,0:0:0:0:
256,192,72692,1,8,0:0:0:0:
256,192,73029,1,0,0:0:0:0:
256,192,73366,1,8,0:0:0:0:
256,192,74040,1,4,0:0:0:0:
256,192,74378,1,0,0:0:0:0:
256,192,74546,1,8,0:0:0:0:
256,192,74883,1,0,0:0:0:0:
256,192,75052,1,8,0:0:0:0:
256,192,75389,1,0,0:0:0:0:
256,192,75726,1,0,0:0:0:0:
256,192,75894,1,0,0:0:0:0:
256,192,76063,1,8,0:0:0:0:
256,192,76400,1,0,0:0:0:0:
256,192,76737,1,12,0:0:0:0:
256,192,77074,1,8,0:0:0:0:
256,192,77243,1,0,0:0:0:0:
256,192,77580,1,0,0:0:0:0:
256,192,77748,1,8,0:0:0:0:
256,192,78085,1,0,0:0:0:0:
256,192,78423,1,0,0:0:0:0:
256,192,78760,1,8,0:0:0:0:
256,192,79434,5,4,0:0:0:0:
256,192,79939,1,4,0:0:0:0:
256,192,80445,1,6,0:0:0:0:
256,192,80950,1,12,0:0:0:0:
256,192,81456,1,0,0:0:0:0:
256,192,81625,1,0,0:0:0:0:
256,192,81793,1,8,0:0:0:0:
256,192,82130,5,4,0:0:0:0:
256,192,82636,1,4,0:0:0:0:
256,192,83141,1,4,0:0:0:0:
256,192,83647,1,12,0:0:0:0:
256,192,84153,1,0,0:0:0:0:
256,192,84490,1,8,0:0:0:0:
256,192,84827,1,4,0:0:0:0:
256,192,84996,12,0,87524,0:0:0:0:
