osu file format v14

[General]
AudioFilename: audio.mp3
AudioLeadIn: 0
PreviewTime: 70264
Countdown: 0
SampleSet: Soft
StackLeniency: 0.2
Mode: 0
LetterboxInBreaks: 0
WidescreenStoryboard: 1

[Editor]
Bookmarks: 11696,22363,33029,39196,49029,57029,71696,89029,91696,102363,113029,118029
DistanceSpacing: 0.8
BeatDivisor: 4
GridSize: 4
TimelineZoom: 0.6

[Metadata]
Title:Duration
TitleUnicode:Duration
Artist:Sano Nobuyoshi
ArtistUnicode:佐野電磁
Creator:Acylica
Version:Sylas' Normal
Source:beatmania IIDX 27 HEROIC VERSE
Tags:dnb drum n bass electronic instrumental halgoh deviouspanda acyl shizuku- kazato asa sylas thekoala leader sanodg shikibe mayu
BeatmapID:2831917
BeatmapSetID:1369545

[Difficulty]
HPDrainRate:4
CircleSize:3.5
OverallDifficulty:5
ApproachRate:6
SliderMultiplier:1.2
SliderTickRate:1

[Events]
//Background and Video events
0,0,"resize.jpg",0,0
//Break Periods
2,91896,100798
//Storyboard Layer 0 (Background)
//Storyboard Layer 1 (Fail)
//Storyboard Layer 2 (Pass)
//Storyboard Layer 3 (Foreground)
//Storyboard Layer 4 (Overlay)
//Storyboard Sound Samples

[TimingPoints]
1015,333.333333333333,4,2,1,40,1,0
1015,-125,4,2,1,40,0,0
11681,-100,4,2,1,60,0,0
19681,-100,4,2,1,40,0,0
22348,-111.111111111111,4,2,1,50,0,0
27514,-111.111111111111,4,2,1,40,0,0
27681,-111.111111111111,4,2,1,60,0,0
46348,-100,4,2,1,60,0,0
70014,-100,4,2,1,80,0,0
71681,-100,4,2,1,90,0,0
92014,-100,4,2,1,60,0,0
97014,-100,4,2,1,70,0,0
102348,-100,4,2,1,80,0,0
110348,-100,4,2,1,40,0,0
112348,-100,4,2,1,70,0,0
113014,-111.111111111111,4,2,1,30,0,0
118014,-111.111111111111,4,2,1,25,0,0

[Colours]
Combo1 : 152,224,173
Combo2 : 247,134,168

[HitObjects]
42,251,1015,6,0,B|63:133|63:133|74:72|154:85|143:147|143:147|126:244|126:244|114:305|196:318|205:257|205:257|231:114,1,624,6|6,0:0|0:0,0:0:0:0:
197,60,3514,2,0,B|229:44|256:50|282:58|308:90|310:115|306:144|306:144|276:324,2,336,6|0|6,0:0|0:0|0:0,0:0:0:0:
161,128,6181,6,0,B|236:180|314:106|314:106|388:37|477:96,1,336,6|2,0:0|0:0,0:0:0:0:
511,151,7681,1,6,0:0:0:0:
465,256,8181,2,0,L|306:273,1,144,6|2,0:0|0:0,0:0:0:0:
266,324,9014,6,0,B|153:311|153:311|88:306|99:218|164:229|164:229|199:233,1,288,6|2,0:0|0:0,0:0:0:0:
270,230,10348,2,0,P|288:176|197:92,1,192,6|2,3:2|3:2,0:0:0:0:
167,102,11181,1,6,3:2:0:0:
167,102,11348,1,2,3:2:0:0:
82,146,11681,6,0,L|75:210,1,60,6|0,1:2|3:0,0:0:0:0:
69,253,12014,2,0,B|65:285|65:285|179:271,1,120,8|0,1:0|0:0,0:0:0:0:
203,269,12514,1,4,1:3:0:0:
203,269,12681,1,8,1:0:0:0:
271,337,13014,6,0,B|321:371|321:371|380:350,1,120,0|8,1:0|1:0,0:0:0:0:
420,329,13514,1,4,1:3:0:0:
363,258,13848,1,2,1:2:0:0:
363,258,14014,2,0,L|371:180,1,60,8|2,1:0|1:2,0:0:0:0:
412,176,14348,6,0,L|397:35,1,120,6|8,1:3|1:0,0:0:0:0:
387,9,14848,1,2,3:0:0:0:
310,65,15181,1,4,3:0:0:0:
310,65,15348,1,8,1:0:0:0:
226,18,15681,2,0,P|170:30|130:77,1,120,4|8,1:3|1:0,0:0:0:0:
118,122,16181,1,4,1:3:0:0:
22,111,16514,2,0,P|18:139|28:168,1,60,4|8,3:0|1:0,0:0:0:0:
59,212,16848,1,10,1:3:0:0:
59,212,17014,6,0,P|63:240|53:269,1,60,6|2,1:2|3:0,0:0:0:0:
28,311,17348,2,0,B|156:317,1,120,8|2,1:0|3:0,0:0:0:0:
199,324,17848,1,4,1:3:0:0:
199,324,18014,1,8,1:0:0:0:
291,297,18348,2,0,P|296:267|297:225,1,60,6|2,1:2|3:0,0:0:0:0:
290,194,18681,1,8,1:0:0:0:
290,194,18848,2,0,P|274:151|286:64,1,120,4|4,1:3|3:0,0:0:0:0:
310,40,19348,1,8,1:0:0:0:
391,88,19681,6,0,B|384:200|384:200|380:260|464:265|465:202|465:202|470:84,1,360,6|2,0:0|0:0,0:0:0:0:
417,11,21014,2,0,B|350:-8|315:55|315:55|270:122|193:86,1,240,6|2,0:0|3:2,0:0:0:0:
174,74,21848,1,2,3:2:0:0:
174,74,22014,1,2,3:2:0:0:
108,130,22348,5,6,1:2:0:0:
169,191,22681,2,0,L|140:356,2,161.999995056153,2|2|2,0:0|0:0|0:0,0:0:0:0:
257,96,24181,2,0,P|332:82|395:132,1,161.999995056153,2|2,0:0|0:0,0:0:0:0:
405,218,25014,5,2,0:0:0:0:
356,289,25348,2,0,P|278:302|217:252,2,161.999995056153,2|2|2,0:0|0:0|0:0,0:0:0:0:
471,230,26848,2,0,L|442:70,1,161.999995056153,2|2,0:0|0:0,0:0:0:0:
425,30,27514,1,2,3:0:0:0:
425,30,27681,5,14,0:0:0:0:
320,107,28181,2,0,P|263:126|207:109,1,107.999996704102,10|2,0:0|0:0,0:0:0:0:
181,91,28681,2,0,P|124:72|68:89,1,107.999996704102,10|2,0:0|0:0,0:0:0:0:
47,113,29181,1,10,0:0:0:0:
62,241,29681,2,0,P|111:259|164:249,1,107.999996704102,10|10,0:0|1:2,0:0:0:0:
206,233,30181,1,10,0:0:0:0:
206,233,30348,5,14,0:0:0:0:
325,284,30848,2,0,L|439:300,1,107.999996704102,10|2,0:0|0:0,0:0:0:0:
473,286,31348,2,0,L|457:172,1,107.999996704102,10|2,0:0|0:0,0:0:0:0:
450,136,31848,1,10,0:0:0:0:
334,195,32348,2,0,L|220:179,1,107.999996704102,10|10,0:0|0:0,0:0:0:0:
188,173,32848,1,10,0:0:0:0:
188,173,33014,6,0,P|163:119|169:66,1,107.999996704102,14|2,1:2|3:2,0:0:0:0:
187,33,33514,2,0,P|240:8|293:14,1,107.999996704102,10|2,3:2|3:0,0:0:0:0:
326,31,34014,1,10,3:2:0:0:
399,86,34348,1,6,3:2:0:0:
399,86,34514,2,0,L|391:193,1,107.999996704102,10|2,3:2|3:0,0:0:0:0:
384,236,35014,1,10,3:2:0:0:
375,322,35348,2,0,P|337:333|313:325,1,53.9999983520508,10|0,1:2|1:2,0:0:0:0:
290,302,35681,6,0,P|254:261|200:242,1,107.999996704102,10|2,3:2|3:2,0:0:0:0:
181,206,36181,2,0,P|126:202|74:227,1,107.999996704102,10|2,3:2|3:0,0:0:0:0:
46,252,36681,1,10,3:2:0:0:
13,177,37014,1,2,3:2:0:0:
13,177,37181,2,0,P|18:131|50:63,1,107.999996704102,10|2,3:2|3:0,0:0:0:0:
130,60,37848,1,2,3:2:0:0:
130,60,38014,2,0,L|183:54,1,53.9999983520508,10|2,1:2|1:2,0:0:0:0:
227,53,38348,5,14,1:2:0:0:
295,106,38681,2,0,B|296:148|267:175|267:175|230:200|236:257,2,161.999995056153,2|2|2,1:2|1:2|1:2,0:0:0:0:
322,73,39848,1,10,3:2:0:0:
322,73,40014,2,0,P|359:54|382:61,1,53.9999983520508,2|2,3:2|3:0,0:0:0:0:
446,95,40514,1,2,3:0:0:0:
483,178,40848,1,2,1:2:0:0:
483,178,41014,6,0,P|476:236|449:290,1,107.999996704102,10|2,3:2|3:2,0:0:0:0:
422,308,41514,2,0,B|379:322|351:296|351:296|316:264|265:282,1,161.999995056153,10|10,3:2|3:2,0:0:0:0:
160,348,42514,2,0,L|138:164,1,161.999995056153,10|10,3:2|3:2,0:0:0:0:
121,154,43181,1,2,1:2:0:0:
121,154,43348,2,0,L|131:75,1,53.9999983520508,10|2,3:2|1:2,0:0:0:0:
135,57,43681,5,10,3:2:0:0:
261,29,44181,2,0,P|287:75|279:127,1,107.999996704102,10|2,3:2|3:0,0:0:0:0:
260,166,44681,1,10,3:2:0:0:
314,239,45014,1,2,3:2:0:0:
314,239,45181,2,0,L|442:254,1,107.999996704102,10|2,3:2|3:0,0:0:0:0:
452,221,45681,2,0,P|478:174|470:122,1,107.999996704102,10|10,3:2|1:2,0:0:0:0:
445,93,46181,1,0,1:0:0:0:
445,93,46348,6,0,B|322:80|322:80|238:151|238:151|96:134,1,360,4|0,1:3|1:0,0:0:0:0:
17,144,47681,2,0,B|10:185|36:227|84:234|84:234|197:248,1,240,2|2,1:2|1:2,0:0:0:0:
241,277,48514,1,2,1:2:0:0:
241,277,48681,2,0,L|310:270,1,60,8|2,1:0|1:2,0:0:0:0:
348,269,49014,6,0,P|381:302|457:300,1,120,6|0,1:2|0:0,0:0:0:0:
490,275,49514,1,4,0:3:0:0:
507,180,49848,1,2,3:0:0:0:
417,67,50348,6,0,P|387:66|362:82,1,60,6|2,1:2|3:0,0:0:0:0:
331,119,50681,2,0,P|288:164|225:168,1,120,8|2,1:0|1:2,0:0:0:0:
187,154,51181,1,4,3:0:0:0:
103,117,51514,1,2,1:2:0:0:
103,117,51681,6,0,P|91:163|125:232,1,120,4|8,1:3|1:0,0:0:0:0:
168,309,52348,2,0,L|253:297,1,60,2|4,3:2|3:0,0:0:0:0:
259,264,52681,2,0,L|398:284,1,120,8|8,1:0|1:3,0:0:0:0:
425,288,53181,1,2,1:3:0:0:
498,226,53514,1,4,1:3:0:0:
452,147,53848,1,2,3:0:0:0:
452,147,54014,2,0,P|432:140|386:141,1,60,8|8,1:0|1:3,0:0:0:0:
352,165,54348,6,0,P|318:199|239:189,1,120,6|8,1:2|1:0,0:0:0:0:
212,166,54848,1,2,3:0:0:0:
166,81,55181,1,8,1:3:0:0:
166,81,55348,2,0,P|127:80|99:107,1,60,8|4,1:0|3:0,0:0:0:0:
85,133,55681,1,6,1:2:0:0:
85,133,55848,1,2,3:0:0:0:
70,227,56181,2,0,P|99:269|213:243,1,180,8|8,3:0|1:0,0:0:0:0:
238,209,56848,1,2,3:0:0:0:
238,209,57014,6,0,P|267:167|352:177,1,120,4|8,1:3|1:0,0:0:0:0:
372,187,57514,1,2,3:0:0:0:
449,244,57848,1,4,1:3:0:0:
421,338,58181,1,2,3:0:0:0:
421,338,58348,2,0,P|365:360|278:360,1,120,4|8,1:3|1:0,0:0:0:0:
258,353,58848,1,4,1:3:0:0:
204,273,59181,2,0,P|148:251|61:251,1,120,4|10,1:3|3:2,0:0:0:0:
41,256,59681,6,0,P|3:202|24:143,1,120,6|8,1:2|1:0,0:0:0:0:
45,115,60181,1,4,3:0:0:0:
121,57,60514,2,0,B|166:40|204:80|204:80|240:121|309:96,1,180,6|4,1:2|1:3,0:0:0:0:
326,81,61181,1,2,3:0:0:0:
326,81,61348,2,0,P|387:56|458:71,1,120,8|12,1:0|0:3,0:0:0:0:
480,86,61848,1,4,1:3:0:0:
509,177,62181,1,2,3:0:0:0:
509,177,62348,6,0,L|496:318,1,120,4|8,1:3|1:0,0:0:0:0:
426,359,63014,2,0,L|362:364,1,60,2|4,3:2|1:3,0:0:0:0:
321,367,63348,1,8,1:0:0:0:
321,367,63514,1,2,3:2:0:0:
265,288,63848,2,0,P|240:273|154:300,1,120,8|4,3:0|1:3,0:0:0:0:
78,251,64514,1,4,3:0:0:0:
78,251,64681,2,0,P|49:209|45:178,1,60,8|8,1:0|1:2,0:0:0:0:
40,153,65014,6,0,P|35:83|23:46,2,80,6|2|2,1:2|1:2|1:2,0:0:0:0:
116,166,65681,2,0,P|141:101|145:61,2,80,2|2|0,1:2|1:2|0:0,0:0:0:0:
167,224,66348,2,0,P|197:237|291:213,1,120,6|8,1:2|1:0,0:0:0:0:
319,194,66848,1,4,1:3:0:0:
404,147,67181,1,8,1:3:0:0:
404,147,67348,2,0,L|415:221,1,60,8|10,1:0|1:2,0:0:0:0:
425,252,67681,6,0,P|419:315|305:338,1,180,4|0,1:2|0:0,0:0:0:0:
257,273,68514,2,0,P|251:210|137:187,1,180,0|6,0:0|1:2,0:0:0:0:
60,197,69348,1,2,0:0:0:0:
60,197,69514,2,0,P|40:136|41:55,1,120,2|2,1:2|3:2,0:0:0:0:
49,37,70014,1,8,1:0:0:0:
49,37,70181,1,2,1:3:0:0:
439,222,71681,6,0,P|450:253|452:303,1,60,6|2,1:0|3:2,0:0:0:0:
454,331,72014,1,8,1:0:0:0:
454,331,72181,1,8,1:3:0:0:
360,309,72514,1,4,3:0:0:0:
275,350,72848,1,2,3:2:0:0:
275,350,73014,6,0,P|213:370|159:359,1,120,8|8,1:3|1:0,0:0:0:0:
117,337,73514,2,0,L|92:130,1,180,6|8,3:2|1:0,0:0:0:0:
88,110,74181,1,2,3:2:0:0:
158,44,74514,1,8,1:3:0:0:
245,84,74848,1,4,1:3:0:0:
339,70,75181,2,0,L|406:58,1,60,4|8,1:3|1:0,0:0:0:0:
445,51,75514,1,8,1:3:0:0:
445,51,75681,6,0,L|423:171,1,120,6|8,1:2|1:0,0:0:0:0:
379,186,76181,2,0,L|400:306,1,120,2|4,3:2|1:3,0:0:0:0:
413,350,76681,1,8,1:0:0:0:
318,368,77014,2,0,P|288:370|262:358,1,60,2|2,1:2|1:3,0:0:0:0:
232,326,77348,1,8,1:0:0:0:
232,326,77514,2,0,P|180:297|127:317,1,120,6|4,1:2|1:3,0:0:0:0:
92,351,78014,1,8,1:0:0:0:
0,321,78348,6,0,P|19:260|16:179,1,120,6|8,1:2|1:0,0:0:0:0:
58,174,78848,2,0,P|39:113|42:32,1,120,2|8,3:0|1:3,0:0:0:0:
54,12,79348,1,8,1:0:0:0:
149,24,79681,2,0,L|274:36,1,120,6|8,1:2|1:0,0:0:0:0:
299,72,80181,2,0,L|424:60,1,120,4|8,1:3|1:3,0:0:0:0:
462,78,80681,2,0,P|478:112|474:154,1,60,8|8,1:0|1:3,0:0:0:0:
475,181,81014,5,6,1:2:0:0:
466,276,81348,2,0,L|346:287,1,120,8|0,1:0|0:0,0:0:0:0:
299,274,81848,2,0,P|270:222|290:169,1,120,8|2,1:3|3:2,0:0:0:0:
327,138,82348,2,0,P|328:112|314:64,1,60,8|2,1:3|3:2,0:0:0:0:
292,47,82681,1,8,1:0:0:0:
292,47,82848,2,0,L|164:58,1,120,4|4,1:3|1:3,0:0:0:0:
92,14,83514,1,2,3:0:0:0:
92,14,83681,6,0,P|79:51|111:126,1,120,4|8,1:3|1:0,0:0:0:0:
142,156,84181,2,0,P|154:193|122:268,1,120,2|4,3:2|1:3,0:0:0:0:
90,297,84681,1,8,1:0:0:0:
168,352,85014,2,0,L|300:334,1,120,8|8,1:3|1:0,0:0:0:0:
334,328,85514,1,4,1:3:0:0:
421,284,85848,1,0,1:0:0:0:
421,284,86014,2,0,L|430:212,1,60,8|8,1:0|1:3,0:0:0:0:
391,193,86348,6,0,L|272:176,1,120,6|8,1:2|1:0,0:0:0:0:
224,173,86848,1,2,3:0:0:0:
184,91,87181,1,4,1:3:0:0:
184,91,87348,1,8,1:0:0:0:
258,30,87681,2,0,P|313:22|371:69,1,120,8|8,1:3|1:0,0:0:0:0:
388,97,88181,1,8,1:3:0:0:
406,195,88514,1,4,1:3:0:0:
406,195,88681,2,0,L|397:254,1,60,8|8,1:0|1:3,0:0:0:0:
386,301,89014,6,2,B|267:283|267:283|161:337|161:337|41:319,1,360,6|0,1:2|0:0,0:0:0:0:
21,224,90348,2,0,B|2:122|2:122|-10:56|73:40|85:108|85:108|94:159,1,300,4|8,0:3|0:3,0:0:0:0:
104,202,91348,2,0,L|117:277,2,60,8|8|14,1:0|1:3|1:0,0:0:0:0:
482,47,101848,6,0,P|488:76|485:105,1,60,2|8,3:2|1:0,0:0:0:0:
455,143,102180,1,2,1:2:0:0:
455,143,102348,2,0,P|395:114|332:114,1,120,6|8,1:2|1:0,0:0:0:0:
294,119,102848,1,4,3:0:0:0:
237,197,103181,1,8,1:3:0:0:
237,197,103348,6,0,L|253:319,1,120,8|2,1:0|1:2,0:0:0:0:
224,355,103848,1,2,3:0:0:0:
224,355,104014,1,8,1:0:0:0:
128,348,104348,1,2,1:2:0:0:
128,348,104514,1,4,1:3:0:0:
55,292,104848,1,2,3:0:0:0:
55,292,105014,6,0,P|34:241|52:156,1,120,4|8,1:3|1:0,0:0:0:0:
113,113,105681,1,2,1:2:0:0:
113,113,105848,2,0,P|148:111|179:123,1,60,4|8,1:3|1:0,0:0:0:0:
211,146,106181,5,2,3:0:0:0:
306,153,106514,2,0,L|321:34,1,120,2|4,3:0|1:3,0:0:0:0:
420,25,107181,1,4,1:3:0:0:
420,25,107348,2,0,L|410:96,1,60,8|8,1:0|1:2,0:0:0:0:
427,126,107681,6,0,P|462:130|510:104,2,80,6|2|2,1:2|1:2|1:2,0:0:0:0:
405,199,108348,2,0,P|435:217|489:214,2,80,2|0|0,1:2|1:0|0:0,0:0:0:0:
331,218,109014,6,0,L|202:228,1,120,2|8,1:2|1:0,0:0:0:0:
163,234,109514,1,2,1:2:0:0:
77,203,109848,1,2,1:2:0:0:
77,203,110014,2,0,B|60:173|60:173|67:138,1,60,0|0,1:0|1:0,0:0:0:0:
80,102,110348,5,6,1:2:0:0:
80,102,112348,2,0,B|98:57|98:57|91:9,2,90,4|4|4,3:3|3:3|3:3,0:0:0:0:
100,139,113014,6,0,P|136:164|203:153,1,107.999996704102,6|0,1:2|0:0,0:0:0:0:
235,136,113514,1,2,0:0:0:0:
251,51,113848,1,2,0:0:0:0:
419,12,114514,2,0,L|439:132,1,107.999996704102,2|0,0:0|0:0,0:0:0:0:
450,164,115014,1,2,0:0:0:0:
450,164,115181,1,2,0:0:0:0:
412,241,115514,5,6,0:0:0:0:
329,216,115848,2,0,L|326:150,1,53.9999983520508,2|2,0:0|0:0,0:0:0:0:
253,114,116348,2,0,P|205:109|155:153,1,107.999996704102,2|2,0:0|0:0,0:0:0:0:
132,177,116848,1,2,0:0:0:0:
185,244,117181,2,0,P|187:304|175:361,2,107.999996704102,2|2|2,0:0|0:0|0:0,0:0:0:0:
