osu file format v14

[General]
AudioFilename: audio.mp3
AudioLeadIn: 0
PreviewTime: 70264
Countdown: 0
SampleSet: Soft
StackLeniency: 0.2
Mode: 0
LetterboxInBreaks: 0
WidescreenStoryboard: 1

[Editor]
DistanceSpacing: 2
BeatDivisor: 3
GridSize: 4
TimelineZoom: 2.5

[Metadata]
Title:Duration
TitleUnicode:Duration
Artist:Sano Nobuyoshi
ArtistUnicode:佐野電磁
Creator:Acylica
Version:Leader's Insane
Source:beatmania IIDX 27 HEROIC VERSE
Tags:dnb drum n bass electronic instrumental halgoh deviouspanda acyl shizuku- kazato asa sylas thekoala leader sanodg shikibe mayu
BeatmapID:2831916
BeatmapSetID:1369545

[Difficulty]
HPDrainRate:6
CircleSize:4
OverallDifficulty:8
ApproachRate:9
SliderMultiplier:1.7
SliderTickRate:1

[Events]
//Background and Video events
0,0,"resize.jpg",0,0
//Break Periods
//Storyboard Layer 0 (Background)
//Storyboard Layer 1 (Fail)
//Storyboard Layer 2 (Pass)
//Storyboard Layer 3 (Foreground)
//Storyboard Layer 4 (Overlay)
//Storyboard Sound Samples

[TimingPoints]
1015,333.333333333333,4,2,1,40,1,0
2348,-200,4,2,1,40,0,0
3181,-100,4,2,1,40,0,0
5014,-200,4,2,1,40,0,0
5848,-100,4,2,1,40,0,0
8181,-200,4,2,1,40,0,0
9014,-100,4,2,1,40,0,0
11681,-100,4,2,1,60,0,0
19681,-100,4,2,1,40,0,0
22348,-133.333333333333,4,2,1,50,0,0
27514,-133.333333333333,4,2,1,40,0,0
27681,-133.333333333333,4,2,1,60,0,0
33014,-100,4,2,1,60,0,0
70014,-100,4,2,1,80,0,0
71681,-100,4,2,1,90,0,0
91681,-133.333333333333,4,2,1,90,0,0
92014,-133.333333333333,4,2,1,60,0,0
97014,-100,4,2,1,70,0,0
102348,-100,4,2,1,80,0,0
110348,-200,4,2,1,40,0,0
112348,-100,4,2,1,70,0,0
113014,-100,4,2,1,30,0,0
118014,-100,4,2,1,25,0,0

[Colours]
Combo1 : 147,214,227
Combo2 : 247,134,168
Combo3 : 152,224,173
Combo4 : 237,197,137

[HitObjects]
98,43,1015,6,0,P|107:82|115:144,1,85,6|0,0:0|0:0,0:0:0:0:
122,218,1348,1,2,0:0:0:0:
202,183,1514,1,2,0:0:0:0:
122,218,1681,1,2,0:0:0:0:
193,277,1848,1,2,0:0:0:0:
122,218,2014,1,2,0:0:0:0:
103,306,2181,1,2,0:0:0:0:
278,232,2348,6,0,P|303:227|333:222,4,42.5,2|2|2|2|2,0:0|0:0|0:0|0:0|0:0,0:0:0:0:
394,357,3181,2,0,P|393:303|407:221,1,127.5,6|0,0:0|0:0,0:0:0:0:
417,193,3514,6,0,L|304:183,1,85,6|0,0:0|0:0,0:0:0:0:
231,176,3848,1,2,0:0:0:0:
276,94,4014,1,2,0:0:0:0:
231,176,4181,1,2,0:0:0:0:
169,100,4348,1,2,0:0:0:0:
231,176,4514,1,2,0:0:0:0:
133,203,4681,1,2,0:0:0:0:
231,176,4848,1,2,0:0:0:0:
310,236,5014,6,0,P|321:268|325:300,4,42.5,2|2|2|2|2,0:0|0:0|0:0|0:0|0:0,0:0:0:0:
252,322,5848,2,0,L|389:332,1,127.5,6|0,0:0|0:0,0:0:0:0:
407,376,6181,6,0,L|414:268,1,85,6|2,0:0|0:0,0:0:0:0:
418,202,6514,1,2,0:0:0:0:
427,107,6681,1,2,0:0:0:0:
418,202,6848,1,2,0:0:0:0:
345,135,7014,1,2,0:0:0:0:
418,202,7181,1,2,0:0:0:0:
327,219,7348,1,2,0:0:0:0:
418,202,7514,1,2,0:0:0:0:
195,101,7681,6,0,P|184:141|178:194,1,85,6|2,0:0|0:0,0:0:0:0:
166,277,8014,1,2,0:0:0:0:
88,237,8181,6,0,P|61:232|39:231,4,42.5,6|2|2|2|2,0:0|0:0|0:0|0:0|0:0,0:0:0:0:
238,333,9014,6,0,L|334:341,1,85,6|2,0:0|0:0,0:0:0:0:
410,348,9348,1,2,0:0:0:0:
494,317,9514,1,2,0:0:0:0:
410,348,9681,1,2,0:0:0:0:
430,255,9848,1,2,0:0:0:0:
410,348,10014,1,2,0:0:0:0:
348,269,10181,1,2,0:0:0:0:
410,348,10348,1,6,3:2:0:0:
256,192,10514,12,0,11348,3:2:0:0:
113,171,11681,6,0,P|98:251|127:329,1,127.5,6|0,1:2|0:0,0:0:0:0:
123,329,12014,2,0,L|215:338,1,85,8|2,1:0|3:2,0:0:0:0:
358,180,12348,1,0,0:0:0:0:
178,240,12514,1,4,1:3:0:0:
178,240,12681,1,8,1:0:0:0:
383,328,12848,6,0,L|378:397,1,42.5,2|0,3:2|0:0,0:0:0:0:
441,279,13014,6,0,L|302:291,1,127.5,0|2,1:0|3:2,0:0:0:0:
286,293,13348,1,8,1:0:0:0:
373,199,13514,1,4,1:3:0:0:
465,364,13681,1,0,0:0:0:0:
465,364,13848,1,2,1:2:0:0:
478,186,14014,2,0,P|481:136|462:79,1,85,8|2,1:0|1:2,0:0:0:0:
459,77,14264,1,2,3:2:0:0:
434,62,14348,6,0,L|326:57,1,85,6|0,1:3|3:0,0:0:0:0:
208,96,14681,1,8,1:0:0:0:
350,148,14848,1,2,3:0:0:0:
265,23,15014,1,0,0:0:0:0:
264,180,15181,1,4,3:0:0:0:
421,79,15348,2,0,P|443:144|421:220,1,127.5,8|0,1:0|0:0,0:0:0:0:
415,226,15681,6,0,L|322:237,1,85,4|2,1:3|3:2,0:0:0:0:
212,305,16014,1,8,1:0:0:0:
212,151,16181,1,4,1:3:0:0:
301,305,16348,1,0,0:0:0:0:
302,152,16514,1,4,3:0:0:0:
111,288,16681,6,0,L|105:233,1,42.5,8|0,1:0|0:0,0:0:0:0:
116,109,16848,2,0,L|111:151,1,42.5,10|0,1:3|0:0,0:0:0:0:
39,191,17014,6,0,L|177:202,1,127.5,6|2,1:2|0:0,0:0:0:0:
213,246,17348,2,0,P|205:204|216:138,1,85,8|2,1:0|3:0,0:0:0:0:
298,60,17681,1,2,3:0:0:0:
286,195,17848,1,4,1:3:0:0:
413,157,18014,1,8,1:0:0:0:
299,278,18181,6,0,L|310:341,1,42.5,2|2,3:0|0:0,0:0:0:0:
375,358,18348,6,0,L|231:369,1,127.5,6|2,1:2|0:0,0:0:0:0:
215,373,18681,1,8,1:0:0:0:
220,271,18848,1,4,1:3:0:0:
132,319,19014,1,0,0:0:0:0:
150,208,19181,1,4,3:0:0:0:
58,256,19348,2,0,P|51:213|56:162,1,85,8|2,1:0|3:2,0:0:0:0:
135,57,19681,5,6,0:0:0:0:
135,57,19848,1,2,0:0:0:0:
135,57,20014,1,2,0:0:0:0:
135,57,20181,1,2,0:0:0:0:
135,57,20348,1,2,0:0:0:0:
135,57,20514,1,2,0:0:0:0:
135,57,20681,1,2,0:0:0:0:
135,57,20848,1,2,0:0:0:0:
204,141,21014,5,6,0:0:0:0:
204,141,21181,1,2,0:0:0:0:
204,141,21348,1,2,0:0:0:0:
204,141,21514,1,2,0:0:0:0:
299,85,21681,5,2,3:2:0:0:
299,85,21764,1,2,3:2:0:0:
299,85,21848,1,2,3:2:0:0:
180,225,22014,1,2,3:2:0:0:
351,243,22181,1,2,3:2:0:0:
265,218,22348,6,0,L|272:295,1,63.7500024318696,6|2,1:2|0:0,0:0:0:0:
339,328,22681,2,0,P|284:330|204:349,1,127.500004863739,2|2,0:0|0:0,0:0:0:0:
213,345,23181,2,0,P|158:343|78:324,1,127.500004863739,2|2,0:0|0:0,0:0:0:0:
87,327,23681,2,0,L|71:172,1,127.500004863739,2|2,0:0|0:0,0:0:0:0:
154,99,24181,2,0,L|170:254,1,127.500004863739,2|2,0:0|0:0,0:0:0:0:
259,289,24681,2,0,L|251:213,1,63.7500024318696,2|0,0:0|0:0,0:0:0:0:
306,105,25014,2,0,L|314:181,1,63.7500024318696,2|0,0:0|0:0,0:0:0:0:
386,284,25348,6,0,P|331:286|251:305,1,127.500004863739,2|2,0:0|0:0,0:0:0:0:
260,301,25848,2,0,P|205:299|125:280,1,127.500004863739,2|2,0:0|0:0,0:0:0:0:
134,283,26348,2,0,L|117:127,1,127.500004863739,2|2,0:0|0:0,0:0:0:0:
201,55,26848,2,0,L|217:210,1,127.500004863739,2|2,0:0|0:0,0:0:0:0:
228,275,27348,1,2,0:0:0:0:
228,275,27514,1,2,3:0:0:0:
305,217,27681,6,0,P|364:210|435:249,1,127.500004863739,14|2,0:0|0:0,0:0:0:0:
407,362,28181,2,0,P|348:369|277:330,1,127.500004863739,10|2,0:0|0:0,0:0:0:0:
223,304,28681,2,0,L|354:314,1,127.500004863739,10|2,0:0|0:0,0:0:0:0:
473,245,29181,2,0,L|345:235,1,127.500004863739,10|2,0:0|0:0,0:0:0:0:
318,143,29681,1,10,0:0:0:0:
397,147,29848,1,2,0:0:0:0:
475,155,30014,2,0,L|477:131,2,15.9375006079674,10|0|0,1:2|1:0|1:0,0:0:0:0:
474,165,30181,1,10,0:0:0:0:
397,237,30348,6,0,P|337:240|265:263,1,127.500004863739,14|2,0:0|0:0,0:0:0:0:
235,332,30848,2,0,P|233:292|213:197,1,127.500004863739,10|2,0:0|0:0,0:0:0:0:
132,174,31348,2,0,P|193:179|260:136,1,127.500004863739,10|2,0:0|0:0,0:0:0:0:
308,78,31848,2,0,L|299:215,1,127.500004863739,10|2,0:0|0:0,0:0:0:0:
291,346,32348,1,10,0:0:0:0:
375,278,32514,2,0,P|413:269|457:266,2,63.7500024318696,2|10|10,3:2|0:0|0:0,0:0:0:0:
199,347,33014,6,0,P|195:294|163:153,1,170,14|2,1:2|3:2,0:0:0:0:
70,150,33514,2,0,P|135:158|229:105,1,170,10|2,3:2|3:0,0:0:0:0:
333,13,34014,2,0,L|327:105,1,85,10|2,3:2|3:0,0:0:0:0:
212,276,34348,6,0,L|125:265,1,85,6|10,3:2|3:2,0:0:0:0:
255,366,34681,1,2,3:2:0:0:
300,276,34848,2,0,L|387:265,1,85,2|10,3:0|3:2,0:0:0:0:
255,366,35181,1,2,3:2:0:0:
455,273,35348,1,10,1:2:0:0:
475,276,35431,1,0,1:0:0:0:
496,279,35514,1,0,1:2:0:0:
487,130,35681,6,0,P|428:115|363:206,1,170,10|2,3:2|3:2,0:0:0:0:
455,273,36181,2,0,L|256:298,1,170,10|2,3:2|3:0,0:0:0:0:
171,189,36681,2,0,L|275:200,1,85,10|2,3:2|3:0,0:0:0:0:
405,44,37014,6,0,L|400:99,1,42.5,2|0,3:2|0:0,0:0:0:0:
388,56,37181,2,0,L|383:111,1,42.5,10|0,3:2|0:0,0:0:0:0:
348,222,37348,6,0,L|344:179,1,42.5,2|0,3:2|0:0,0:0:0:0:
331,210,37515,2,0,L|327:167,1,42.5,2|0,3:0|0:0,0:0:0:0:
271,47,37681,6,0,L|266:102,1,42.5,10|2,1:2|3:2,0:0:0:0:
254,59,37848,2,0,L|249:114,1,42.5,2|2,3:2|3:2,0:0:0:0:
201,188,38014,5,10,1:2:0:0:
201,188,38098,1,2,1:2:0:0:
201,188,38181,1,2,1:2:0:0:
201,188,38264,1,2,1:2:0:0:
201,188,38348,2,0,L|110:202,1,85,14|2,1:2|3:0,0:0:0:0:
19,34,38681,2,0,P|63:27|149:110,1,170,2|2,1:2|3:2,0:0:0:0:
170,265,39181,2,0,P|250:271|350:286,1,170,2|2,1:2|3:0,0:0:0:0:
298,193,39681,5,2,1:2:0:0:
259,355,39848,1,10,3:2:0:0:
215,192,40014,1,2,3:2:0:0:
259,365,40181,1,2,3:0:0:0:
302,174,40348,2,0,L|311:90,1,85,10|2,3:2|3:0,0:0:0:0:
210,174,40681,2,0,L|207:142,2,21.25,10|0|0,1:2|1:0|1:0,0:0:0:0:
211,185,40848,1,2,1:2:0:0:
298,267,41014,6,0,P|223:264|122:299,1,170,10|2,3:2|3:2,0:0:0:0:
85,368,41514,2,0,P|94:307|66:177,1,170,10|2,3:2|3:2,0:0:0:0:
28,120,42014,1,10,3:2:0:0:
28,120,42181,2,0,L|139:105,1,85,2|2,3:0|3:2,0:0:0:0:
153,183,42514,1,10,3:2:0:0:
153,183,42681,2,0,L|264:168,1,85,2|2,3:2|3:0,0:0:0:0:
196,96,43014,1,10,3:2:0:0:
247,254,43181,1,2,1:2:0:0:
342,176,43348,5,10,3:2:0:0:
342,176,43431,1,2,3:2:0:0:
342,176,43514,1,2,1:2:0:0:
342,176,43598,1,2,3:2:0:0:
342,176,43681,6,0,B|268:162|268:211|171:182,1,170,10|2,3:2|3:2,0:0:0:0:
132,96,44181,2,0,P|145:156|128:272,1,170,10|2,3:2|3:0,0:0:0:0:
62,347,44681,2,0,L|171:361,1,85,10|2,3:2|3:2,0:0:0:0:
231,289,45014,6,0,L|240:348,1,42.5,2|0,3:2|0:0,0:0:0:0:
262,360,45181,2,0,L|268:317,1,42.5,10|0,3:2|0:0,0:0:0:0:
299,282,45348,6,0,L|308:341,1,42.5,2|0,3:2|0:0,0:0:0:0:
330,353,45515,2,0,L|336:310,1,42.5,2|0,3:0|0:0,0:0:0:0:
365,281,45681,6,0,L|374:340,1,42.5,10|0,3:2|0:0,0:0:0:0:
396,352,45848,2,0,L|402:309,1,42.5,2|0,3:0|0:0,0:0:0:0:
478,343,46014,5,10,1:2:0:0:
479,321,46097,1,0,1:0:0:0:
481,300,46180,1,0,1:0:0:0:
483,279,46264,1,0,1:0:0:0:
485,258,46347,5,4,1:3:0:0:
485,258,46514,1,0,1:0:0:0:
485,258,46681,1,0,1:0:0:0:
485,258,46848,1,0,1:0:0:0:
485,258,47014,1,0,1:0:0:0:
485,258,47181,1,0,1:0:0:0:
485,259,47348,1,0,1:0:0:0:
485,258,47514,1,0,1:0:0:0:
394,298,47681,6,0,L|335:307,3,42.5,2|2|2|2,1:2|1:2|1:2|1:2,0:0:0:0:
331,285,48014,2,0,L|288:278,3,42.5,2|2|2|2,1:2|1:2|1:2|1:2,0:0:0:0:
285,309,48348,2,0,L|226:318,3,42.5,2|2|2|2,1:2|1:2|1:2|3:2,0:0:0:0:
222,296,48681,2,0,L|179:289,3,42.5,8|0|2|2,1:0|0:0|1:2|1:2,0:0:0:0:
166,311,49014,5,6,1:2:0:0:
151,313,49181,1,0,0:0:0:0:
137,315,49348,1,0,0:0:0:0:
122,317,49514,2,0,L|114:228,1,85,4|0,0:3|0:0,0:0:0:0:
106,122,49848,1,2,3:0:0:0:
249,241,50014,6,0,P|253:210|259:183,1,42.5,10|0,3:2|0:0,0:0:0:0:
248,79,50181,2,0,P|251:99|254:121,1,42.5,2|0,3:2|0:0,0:0:0:0:
210,161,50348,6,0,P|258:159|310:186,1,85,6|2,1:2|3:0,0:0:0:0:
472,114,50681,2,0,P|424:116|372:89,1,85,8|4,1:0|1:3,0:0:0:0:
325,32,51014,1,2,1:2:0:0:
500,188,51181,1,4,3:0:0:0:
441,32,51348,1,8,1:0:0:0:
366,184,51514,5,2,1:2:0:0:
366,184,51598,1,2,3:2:0:0:
366,184,51681,2,0,P|357:231|354:289,1,85,4|0,1:3|0:0,0:0:0:0:
280,208,52014,1,8,1:0:0:0:
440,240,52181,1,2,3:2:0:0:
272,300,52348,1,2,3:2:0:0:
420,328,52514,1,4,3:0:0:0:
188,359,52681,2,0,P|183:321|178:288,1,42.5,8|0,1:0|0:0,0:0:0:0:
179,165,52848,2,0,P|176:186|173:207,1,42.5,12|0,3:0|0:0,0:0:0:0:
116,275,53014,5,8,1:3:0:0:
116,275,53181,2,0,L|10:284,1,85,2|8,1:3|1:0,0:0:0:0:
71,195,53514,1,4,1:3:0:0:
112,359,53681,1,0,0:0:0:0:
173,207,53848,1,2,3:0:0:0:
207,326,54014,6,0,L|262:335,1,42.5,8|0,1:0|0:0,0:0:0:0:
325,296,54181,2,0,L|372:289,1,42.5,8|0,1:3|0:0,0:0:0:0:
444,376,54348,6,0,P|466:289|432:202,1,170,6|8,1:2|1:0,0:0:0:0:
304,144,54848,1,2,3:0:0:0:
367,289,55014,1,0,3:0:0:0:
397,130,55181,1,8,1:3:0:0:
238,276,55348,6,0,P|233:245|221:211,1,42.5,8|0,1:0|0:0,0:0:0:0:
231,98,55514,2,0,P|225:118|223:139,1,42.5,4|0,3:0|0:0,0:0:0:0:
157,202,55681,5,6,1:2:0:0:
157,202,55848,2,0,L|62:211,1,85,2|8,3:0|1:0,0:0:0:0:
223,139,56181,2,0,P|243:202|225:276,1,127.5,8|0,3:0|0:0,0:0:0:0:
227,290,56514,1,4,1:3:0:0:
329,173,56681,1,8,1:0:0:0:
235,298,56848,5,2,3:0:0:0:
235,298,56931,1,2,3:2:0:0:
235,298,57014,2,0,L|137:307,1,85,4|0,1:3|0:0,0:0:0:0:
70,191,57348,1,8,1:0:0:0:
70,191,57514,2,0,P|57:124|79:60,1,127.5,2|0,3:0|0:0,0:0:0:0:
90,51,57848,2,0,L|184:43,1,85,4|8,1:3|1:0,0:0:0:0:
365,158,58181,5,2,3:0:0:0:
365,158,58348,2,0,L|186:175,1,170,4|8,1:3|1:0,0:0:0:0:
263,81,58848,1,4,1:3:0:0:
263,81,59014,1,2,3:2:0:0:
366,251,59180,1,4,1:3:0:0:
387,253,59264,1,2,3:2:0:0:
408,255,59347,1,8,1:0:0:0:
324,343,59514,5,10,3:2:0:0:
301,337,59598,1,2,3:2:0:0:
278,334,59681,2,0,B|200:311|194:368|97:340,1,170,6|8,1:2|1:0,0:0:0:0:
62,244,60181,2,0,L|159:255,1,85,4|2,3:0|3:2,0:0:0:0:
251,170,60514,2,0,L|154:159,1,85,2|8,1:2|1:0,0:0:0:0:
81,19,60848,6,0,L|92:87,1,42.5,2|0,3:0|0:0,0:0:0:0:
54,105,61014,6,0,P|95:90|155:98,1,85,4|2,1:3|3:0,0:0:0:0:
146,253,61348,2,0,P|103:254|64:239,1,85,8|8,1:0|1:3,0:0:0:0:
93,364,61681,1,12,0:3:0:0:
214,200,61848,1,4,1:3:0:0:
299,362,62014,6,0,L|305:304,1,42.5,8|0,1:0|0:0,0:0:0:0:
357,272,62181,5,2,3:0:0:0:
357,272,62264,1,2,0:3:0:0:
357,272,62348,2,0,P|314:274|271:255,1,85,4|2,1:3|3:0,0:0:0:0:
275,125,62681,2,0,P|314:109|357:112,1,85,8|2,1:0|3:0,0:0:0:0:
485,196,63014,1,2,3:2:0:0:
485,196,63181,2,0,L|400:196,1,85,4|8,1:3|1:0,0:0:0:0:
379,196,63431,1,2,3:2:0:0:
354,195,63514,2,0,P|348:151|358:104,1,85,2|8,3:2|1:3,0:0:0:0:
412,43,63848,5,8,3:0:0:0:
287,161,64014,1,8,1:0:0:0:
432,130,64181,1,4,1:3:0:0:
283,81,64348,2,0,P|289:50|291:21,2,42.5,0|0|4,0:0|0:0|3:0,0:0:0:0:
323,264,64681,6,0,L|264:269,1,42.5,8|0,1:0|0:0,0:0:0:0:
237,329,64848,2,0,L|194:325,1,42.5,8|0,1:2|0:0,0:0:0:0:
117,289,65014,6,0,P|74:292|2:317,2,113.333333333333,2|0|0,1:2|1:0|1:0,0:0:0:0:
168,217,65681,2,0,P|221:236|277:241,2,113.333333333333,2|0|0,1:2|1:0|1:0,0:0:0:0:
49,82,66348,6,0,P|93:84|145:64,1,85,6|2,1:2|3:2,0:0:0:0:
131,71,66598,1,2,3:3:0:0:
131,71,66681,1,8,1:0:0:0:
83,4,66848,1,4,1:3:0:0:
264,185,67014,5,2,3:2:0:0:
175,158,67181,1,8,1:3:0:0:
243,93,67348,1,8,1:0:0:0:
264,185,67514,2,0,L|270:233,1,42.5,10|0,1:2|0:0,0:0:0:0:
282,315,67681,5,4,1:2:0:0:
282,315,67848,1,2,0:0:0:0:
282,315,68014,1,2,0:0:0:0:
282,315,68181,2,0,L|183:333,1,85,2|0,0:0|0:0,0:0:0:0:
65,256,68514,2,0,L|161:240,1,85,2|0,0:0|0:0,0:0:0:0:
193,144,68848,1,2,0:0:0:0:
283,211,69014,6,0,P|291:156|268:63,1,127.5,6|0,1:2|0:0,0:0:0:0:
266,58,69348,1,2,0:0:0:0:
193,144,69514,2,0,L|100:151,1,85,2|2,1:2|3:2,0:0:0:0:
90,153,69764,1,2,3:2:0:0:
75,154,69848,1,2,3:2:0:0:
59,156,69931,1,2,3:2:0:0:
37,158,70014,6,0,L|46:208,1,42.5,8|0,1:0|0:0,0:0:0:0:
57,278,70181,1,2,1:3:0:0:
75,360,70348,1,4,0:0:0:0:
75,360,71348,6,0,L|138:369,1,42.5,8|0,1:0|0:0,0:0:0:0:
192,341,71514,2,0,L|238:335,1,42.5,2|0,3:2|0:0,0:0:0:0:
306,378,71681,6,0,P|311:339|322:289,1,85,6|2,1:0|3:2,0:0:0:0:
357,201,72014,1,8,1:0:0:0:
357,201,72181,2,0,L|254:217,1,85,8|2,1:3|1:3,0:0:0:0:
166,230,72514,1,4,3:0:0:0:
234,35,72681,2,0,L|230:85,1,42.5,8|0,1:0|0:0,0:0:0:0:
182,135,72848,5,2,3:2:0:0:
182,135,72931,1,0,3:0:0:0:
182,135,73014,2,0,P|223:128|264:140,1,85,8|2,1:3|1:3,0:0:0:0:
270,313,73348,2,0,P|229:324|187:318,1,85,8|6,1:0|3:2,0:0:0:0:
221,228,73682,1,0,0:0:0:0:
326,205,73848,1,4,1:3:0:0:
437,228,74015,2,0,L|448:129,1,85,8|2,1:0|3:2,0:0:0:0:
332,42,74348,6,0,L|328:95,1,42.5,4|0,1:3|0:0,0:0:0:0:
310,65,74514,2,0,L|313:107,1,42.5,8|0,1:3|0:0,0:0:0:0:
240,200,74681,6,0,L|243:157,1,42.5,8|2,1:0|3:2,0:0:0:0:
224,177,74847,2,0,L|220:134,1,42.5,4|0,1:3|0:0,0:0:0:0:
158,32,75014,6,0,L|154:85,1,42.5
136,55,75180,2,0,L|139:97,1,42.5,4|0,1:3|0:0,0:0:0:0:
73,194,75348,6,0,L|76:151,1,42.5,8|0,1:0|0:0,0:0:0:0:
57,171,75514,2,0,L|53:128,1,42.5,8|0,1:3|0:0,0:0:0:0:
29,44,75681,6,0,P|34:104|35:220,1,170,6|8,1:2|1:0,0:0:0:0:
23,343,76181,1,2,3:2:0:0:
112,279,76348,2,0,L|227:267,1,85,2|4,1:2|1:3,0:0:0:0:
144,185,76681,1,8,1:0:0:0:
282,287,76848,6,0,L|276:330,1,42.5,2|2,1:2|3:2,0:0:0:0:
226,365,77014,6,0,P|273:358|316:360,1,85,2|2,1:2|1:3,0:0:0:0:
472,264,77348,2,0,P|429:264|387:258,1,85,8|6,1:0|1:2,0:0:0:0:
299,206,77681,1,0,0:0:0:0:
394,344,77848,1,4,1:3:0:0:
394,179,78014,2,0,L|399:133,1,42.5,8|0,1:0|0:0,0:0:0:0:
389,52,78181,5,8,3:0:0:0:
389,52,78264,1,2,3:2:0:0:
389,52,78348,2,0,L|399:143,1,85,6|2,1:2|3:0,0:0:0:0:
420,273,78681,1,8,1:0:0:0:
474,98,78848,1,2,3:0:0:0:
420,273,79014,1,0,0:0:0:0:
314,122,79181,1,8,1:3:0:0:
204,273,79348,6,0,L|208:328,1,42.5,8|0,1:0|0:0,0:0:0:0:
287,351,79514,1,8,3:0:0:0:
287,351,79681,2,0,P|209:355|99:368,1,170,6|8,1:2|1:0,0:0:0:0:
57,189,80181,1,4,1:3:0:0:
57,189,80348,2,0,L|150:198,1,85,8|8,1:3|1:3,0:0:0:0:
292,55,80681,6,0,L|240:62,1,42.5,8|8,1:0|1:3,0:0:0:0:
192,110,80848,1,8,1:3:0:0:
192,110,80931,1,8,1:3:0:0:
192,110,81014,6,0,L|287:119,1,85,6|2,1:2|3:0,0:0:0:0:
455,217,81348,2,0,L|277:235,1,170,8|0,1:0|0:0,0:0:0:0:
377,140,81848,1,8,1:3:0:0:
359,344,82014,1,8,1:0:0:0:
185,245,82181,6,0,L|192:321,1,42.5,2|2,3:2|3:2,0:0:0:0:
238,327,82348,6,0,P|189:324|142:347,1,85,8|2,1:3|3:2,0:0:0:0:
58,378,82681,1,8,1:0:0:0:
76,275,82848,2,0,L|64:178,2,85,4|0|4,1:3|0:0|1:3,0:0:0:0:
192,171,83348,2,0,L|198:122,1,42.5,8|0,1:0|0:0,0:0:0:0:
155,60,83514,5,2,3:0:0:0:
155,60,83598,1,2,3:2:0:0:
155,59,83681,2,0,P|195:49|236:60,1,85,4|2,1:3|3:0,0:0:0:0:
266,261,84014,1,8,1:0:0:0:
197,128,84181,1,2,3:2:0:0:
266,278,84348,1,2,3:2:0:0:
330,125,84514,1,4,1:3:0:0:
189,327,84681,2,0,L|88:335,1,85,8|8,1:0|3:0,0:0:0:0:
39,81,85014,6,0,L|43:134,1,42.5,8|0,1:3|0:0,0:0:0:0:
61,104,85180,2,0,L|58:146,1,42.5,2|0,3:0|0:0,0:0:0:0:
131,239,85347,6,0,L|128:196,1,42.5,8|2,1:0|3:2,0:0:0:0:
147,216,85514,2,0,L|152:168,1,42.5,4|0,1:3|0:0,0:0:0:0:
213,71,85680,6,0,L|217:124,1,42.5
235,94,85848,2,0,L|232:136,1,42.5,0|0,1:0|0:0,0:0:0:0:
309,239,86014,6,0,L|306:196,1,42.5,8|0,1:0|0:0,0:0:0:0:
325,216,86180,2,0,L|329:173,1,42.5,8|0,1:3|0:0,0:0:0:0:
444,82,86348,6,0,L|436:187,1,85,6|2,1:2|3:0,0:0:0:0:
429,271,86681,1,8,1:0:0:0:
405,358,86848,1,2,3:0:0:0:
429,271,87014,2,0,P|377:277|319:297,1,85,0|4,0:0|1:3,0:0:0:0:
240,200,87348,2,0,L|232:254,1,42.5,8|2,1:0|3:2,0:0:0:0:
240,367,87514,2,0,L|233:324,1,42.5,2|2,1:2|3:2,0:0:0:0:
167,280,87681,6,0,L|74:293,1,85,8|4,1:3|1:3,0:0:0:0:
40,196,88014,1,8,1:0:0:0:
137,366,88181,1,8,1:3:0:0:
240,200,88348,2,0,L|333:213,1,85,0|4,0:0|1:3,0:0:0:0:
339,127,88681,1,8,1:0:0:0:
260,291,88848,1,8,1:3:0:0:
184,98,89014,5,6,1:2:0:0:
184,98,89181,1,0,0:0:0:0:
184,98,89347,1,0,0:0:0:0:
184,98,89514,1,0,0:0:0:0:
184,98,89681,1,0,0:0:0:0:
184,98,89847,1,0,0:0:0:0:
184,98,90014,1,0,0:0:0:0:
184,98,90181,1,0,0:0:0:0:
253,182,90347,5,4,0:3:0:0:
253,182,90514,1,4,0:3:0:0:
253,182,90681,1,4,0:3:0:0:
253,182,90847,1,4,0:3:0:0:
299,85,91014,5,8,0:3:0:0:
299,85,91097,1,8,0:3:0:0:
299,85,91181,1,8,0:3:0:0:
188,244,91348,2,0,P|158:264|125:268,1,42.5,8|4,1:0|1:3,0:0:0:0:
324,244,91514,2,0,P|354:264|387:268,1,42.5,8|12,1:3|1:3,0:0:0:0:
256,288,91681,5,14,1:0:0:0:
256,288,91848,2,0,L|256:352,1,63.7500024318696,0|2,0:0|3:2,0:0:0:0:
359,265,92181,2,0,P|377:211|346:134,1,127.500004863739,10|2,1:2|0:0,0:0:0:0:
153,148,92681,2,0,P|132:207|151:268,1,127.500004863739,10|2,2:2|0:0,0:0:0:0:
257,358,93181,2,0,L|257:227,1,127.500004863739,10|2,2:2|0:0,0:0:0:0:
259,58,93681,2,0,L|258:127,1,63.7500024318696,10|0,2:2|0:0,0:0:0:0:
171,186,94014,2,0,L|145:187,2,15.9375006079674,10|0|0,1:2|1:0|1:0,0:0:0:0:
184,186,94181,1,10,1:2:0:0:
258,266,94348,5,10,0:0:0:0:
258,266,94514,1,0,0:0:0:0:
332,337,94681,2,0,L|401:342,2,63.7500024318696,2|10|0,0:0|0:0|0:0,0:0:0:0:
180,337,95181,2,0,L|111:342,2,63.7500024318696,2|10|0,0:0|0:0|0:0,0:0:0:0:
335,222,95681,2,0,L|405:212,2,63.7500024318696,2|10|0,0:0|0:0|0:0,0:0:0:0:
177,222,96181,2,0,L|107:212,2,63.7500024318696,2|10|2,0:0|0:0|3:2,0:0:0:0:
254,348,96681,1,10,0:0:0:0:
254,348,96848,1,10,0:0:0:0:
369,307,97014,6,0,L|464:293,1,85,10|2,3:2|3:0,0:0:0:0:
143,307,97348,1,2,3:2:0:0:
143,307,97514,2,0,L|58:294,1,85,10|2,3:2|3:2,0:0:0:0:
254,348,97848,1,2,3:0:0:0:
254,348,98014,1,10,3:2:0:0:
254,348,98181,1,2,3:0:0:0:
206,238,98348,6,0,P|190:184|216:49,1,170,2|2,3:2|3:2,0:0:0:0:
307,72,98848,2,0,P|324:155|306:238,1,170,2|2,3:0|3:0,0:0:0:0:
130,357,99348,1,10,1:2:0:0:
129,335,99431,1,0,1:0:0:0:
127,314,99514,1,0,1:0:0:0:
125,293,99598,1,0,0:0:0:0:
123,272,99681,5,14,1:2:0:0:
123,272,99848,1,2,3:0:0:0:
123,272,100015,1,2,3:2:0:0:
123,272,100182,1,10,3:2:0:0:
123,272,100348,1,2,3:2:0:0:
123,272,100515,1,2,3:0:0:0:
123,273,100682,1,10,3:2:0:0:
123,272,100848,1,2,3:0:0:0:
255,360,101014,5,2,1:2:0:0:
255,360,101181,1,10,3:2:0:0:
255,360,101348,1,0,0:0:0:0:
255,360,101514,1,2,3:0:0:0:
355,322,101681,1,2,3:2:0:0:
356,300,101764,1,2,3:2:0:0:
358,279,101847,1,2,3:2:0:0:
360,258,101930,1,2,3:2:0:0:
363,239,102014,2,0,L|369:181,3,42.5,8|2|2|2,1:0|1:2|1:2|1:2,0:0:0:0:
266,267,102348,5,6,1:2:0:0:
251,269,102515,1,0,0:0:0:0:
237,271,102682,1,8,1:0:0:0:
222,273,102848,2,0,L|214:184,1,85,4|0,3:0|0:0,0:0:0:0:
193,58,103181,1,8,1:3:0:0:
351,198,103348,6,0,P|355:167|361:140,1,42.5,8|0,1:0|0:0,0:0:0:0:
345,24,103515,2,0,P|348:44|351:66,1,42.5,2|2,3:0|3:2,0:0:0:0:
411,112,103681,6,0,L|298:128,1,85,2|2,1:2|3:0,0:0:0:0:
193,58,104014,1,8,1:0:0:0:
258,264,104181,1,4,3:0:0:0:
123,168,104348,2,0,L|207:179,1,85,2|4,1:2|1:3,0:0:0:0:
391,362,104681,2,0,L|396:309,1,42.5,8|0,1:0|0:0,0:0:0:0:
442,276,104848,5,2,3:0:0:0:
442,276,104931,1,2,3:2:0:0:
442,276,105014,2,0,L|351:265,1,85,4|0,1:3|0:0,0:0:0:0:
161,167,105348,2,0,P|139:234|161:314,1,127.5,8|0,1:0|0:0,0:0:0:0:
162,320,105681,2,0,L|274:333,1,85,2|4,1:2|1:3,0:0:0:0:
445,298,106014,1,8,1:0:0:0:
317,145,106181,6,0,L|310:86,1,42.5,2|0,3:0|0:0,0:0:0:0:
344,31,106348,6,0,P|296:28|254:46,1,85,4|2,3:3|3:0,0:0:0:0:
331,257,106681,1,8,1:0:0:0:
312,103,106848,1,4,1:3:0:0:
299,343,107014,2,0,P|347:346|389:328,1,85,2|4,1:2|1:3,0:0:0:0:
454,190,107348,6,0,L|400:201,1,42.5,8|0,1:0|0:0,0:0:0:0:
401,230,107514,2,0,L|359:221,1,42.5,8|0,1:2|0:0,0:0:0:0:
339,120,107681,2,0,L|454:100,2,113.333333333333,2|0|0,1:2|1:0|1:0,0:0:0:0:
261,63,108348,2,0,L|148:44,2,113.333333333333,2|0|0,1:2|1:0|1:0,0:0:0:0:
385,309,109014,2,0,P|331:313|205:326,1,170,2|8,1:2|1:0,0:0:0:0:
81,217,109514,1,2,1:2:0:0:
239,238,109681,1,0,0:0:0:0:
107,346,109848,1,2,1:2:0:0:
170,191,110014,2,0,P|174:168|182:141,1,42.5,0|0,1:0|1:0,0:0:0:0:
169,27,110181,2,0,P|173:50|181:77,1,42.5,0|0,1:0|1:0,0:0:0:0:
253,119,110348,6,0,L|391:133,1,127.5,6|2,1:2|0:0,0:0:0:0:
302,209,111181,2,0,L|396:220,1,85,2|0,0:0|0:0,0:0:0:0:
330,296,111681,6,0,L|392:305,1,42.5,6|0,1:2|0:0,0:0:0:0:
386,218,112014,1,2,0:0:0:0:
434,373,112181,1,2,0:0:0:0:
224,289,112348,6,0,P|177:297|132:311,1,85,4|2,3:3|0:0,0:0:0:0:
112,365,112598,2,0,P|105:317|90:268,1,85,4|2,3:3|0:0,0:0:0:0:
84,253,112848,1,4,3:3:0:0:
24,340,113014,5,6,1:2:0:0:
