osu file format v14

[General]
AudioFilename: audio.mp3
AudioLeadIn: 0
PreviewTime:70264
Countdown: 0
SampleSet: Soft
StackLeniency: 0
Mode: 0
LetterboxInBreaks: 0
WidescreenStoryboard: 1

[Editor]
Bookmarks:6363,11696,19696,22363,27696,33029,38696,46363,49029,50363,59696,70363,70529,71696,81029,91696,102363,113029,117863
DistanceSpacing: 2
BeatDivisor: 4
GridSize: 32
TimelineZoom: 2.5

[Metadata]
Title:Duration
TitleUnicode:Duration
Artist:Sano Nobuyoshi
ArtistUnicode:佐野電磁
Creator:Acylica
Version:Halgoh's Galaxy
Source:beatmania IIDX 27 HEROIC VERSE
Tags:dnb drum n bass electronic instrumental halgoh deviouspanda acyl shizuku- kazato asa sylas thekoala leader sanodg shikibe mayu
BeatmapID:2831915
BeatmapSetID:1369545

[Difficulty]
HPDrainRate:5.6
CircleSize:4
OverallDifficulty:8.6
ApproachRate:9.3
SliderMultiplier:1.8
SliderTickRate:1

[Events]
//Background and Video events
0,0,"resize.jpg",0,0
//Break Periods
//Storyboard Layer 0 (Background)
//Storyboard Layer 1 (Fail)
//Storyboard Layer 2 (Pass)
//Storyboard Layer 3 (Foreground)
//Storyboard Layer 4 (Overlay)
//Storyboard Sound Samples

[TimingPoints]
1015,333.333333333333,4,2,1,40,1,0
3514,-66.6666666666667,4,2,1,40,0,0
10348,-55.5555555555556,4,2,1,40,0,0
11181,-55.5555555555556,4,2,1,40,0,0
11348,-166.666666666666,4,2,1,40,0,0
11514,-111.111111111111,4,2,1,40,0,0
11681,-76.9230769230769,4,2,1,60,0,0
12181,-62.5,4,2,1,60,0,0
12848,-41.6666666666667,4,2,1,60,0,0
13014,-62.5,4,2,1,60,0,0
13514,-52.6315789473684,4,2,1,60,0,0
13848,-62.5,4,2,1,60,0,0
14848,-100,4,2,1,60,0,0
15181,-76.9230769230769,4,2,1,60,0,0
15514,-100,4,2,1,60,0,0
15681,-52.6315789473684,4,2,1,60,0,0
16514,-45.4545454545455,4,2,1,60,0,0
16848,-76.9230769230769,4,2,1,60,0,0
17014,-52.6315789473684,4,2,1,60,0,0
17681,-76.9230769230769,4,2,1,60,0,0
17848,-57.1428571428571,4,2,1,60,0,0
18014,-52.6315789473684,4,2,1,60,0,0
18348,-45.4545454545455,4,2,1,60,0,0
19181,-76.9230769230769,4,2,1,60,0,0
19348,-62.5,4,2,1,60,0,0
19681,-83.3333333333333,4,2,1,40,0,0
20348,-71.4285714285714,4,2,1,40,0,0
21014,-142.857142857143,4,2,1,40,0,0
21514,-285.714285714284,4,2,1,40,0,0
21848,-71.4285714285714,4,2,1,40,0,0
22014,-142.857142857143,4,2,1,40,0,0
22348,-142.857142857143,4,2,1,50,0,0
22681,-100,4,2,1,50,0,0
23181,-90.9090909090909,4,2,1,50,0,0
23681,-76.9230769230769,4,2,1,50,0,0
24181,-111.111111111111,4,2,1,50,0,0
24681,-90.9090909090909,4,2,1,50,0,0
25014,-76.9230769230769,4,2,1,50,0,0
25348,-90.9090909090909,4,2,1,50,0,0
25848,-111.111111111111,4,2,1,50,0,0
26348,-66.6666666666667,4,2,1,50,0,0
26848,-90.9090909090908,4,2,1,50,0,0
27348,-76.9230769230769,4,2,1,50,0,0
27514,-76.9230769230769,4,2,1,40,0,0
27681,-76.9230769230769,4,2,1,60,0,0
28014,-769.230769230769,4,2,1,60,0,0
30014,-256.410256410256,4,2,1,60,0,0
30348,-384.615384615385,4,2,1,60,0,0
30681,-769.230769230769,4,2,1,60,0,0
35014,-128.205128205128,4,2,1,60,0,0
38681,-125,4,2,1,60,0,0
40681,-128.205128205128,4,2,1,60,0,0
41014,-100,4,2,1,60,0,0
42348,-71.4285714285714,4,2,1,60,0,0
42514,-83.3333333333333,4,2,1,60,0,0
42681,-62.5,4,2,1,60,0,0
43014,-100,4,2,1,60,0,0
48681,-50,4,2,1,60,0,0
48848,-41.6666666666667,4,2,1,60,0,0
49014,-55.5555555555556,4,2,1,60,0,0
49514,-166.666666666667,4,2,1,60,0,0
49848,-47.6190476190476,4,2,1,60,0,0
50181,-41.6666666666667,4,2,1,60,0,0
50348,-111.111111111111,4,2,1,60,0,0
50514,-74.0740740740741,4,2,1,60,0,0
50681,-37.037037037037,4,2,1,60,0,0
51014,-33.3333333333333,4,2,1,60,0,0
51181,-31.25,4,2,1,60,0,0
51348,-83.3333333333333,4,2,1,60,0,0
51681,-27.7777777777778,4,2,1,60,0,0
52014,-83.3333333333333,4,2,1,60,0,0
52181,-50,4,2,1,60,0,0
52348,-38.4615384615385,4,2,1,60,0,0
52514,-50,4,2,1,60,0,0
52681,-55.5555555555556,4,2,1,60,0,0
53014,-57.1428571428571,4,2,1,60,0,0
53348,-44.4444444444445,4,2,1,60,0,0
53514,-36.3636363636364,4,2,1,60,0,0
53848,-66.6666666666667,4,2,1,60,0,0
54014,-133.333333333333,4,2,1,60,0,0
54348,-42.5531914893617,4,2,1,60,0,0
54848,-57.1428571428571,4,2,1,60,0,0
55181,-47.6190476190476,4,2,1,60,0,0
55348,-40,4,2,1,60,0,0
55681,-66.6666666666667,4,2,1,60,0,0
55848,-200,4,2,1,60,0,0
56181,-51.2820512820513,4,2,1,60,0,0
56514,-133.333333333333,4,2,1,60,0,0
56681,-50,4,2,1,60,0,0
57014,-33.3333333333333,4,2,1,60,0,0
57348,-36.3636363636364,4,2,1,60,0,0
57514,-50,4,2,1,60,0,0
57681,-100,4,2,1,60,0,0
57847,-57.1428571428571,4,2,1,60,0,0
58181,-50,4,2,1,60,0,0
58348,-30.7692307692308,4,2,1,60,0,0
58681,-80,4,2,1,60,0,0
58848,-500,4,2,1,60,0,0
59181,-66.6666666666667,4,2,1,60,0,0
59348,-62.5,4,2,1,60,0,0
59514,-57.1428571428571,4,2,1,60,0,0
59681,-40,4,2,1,60,0,0
60014,-50,4,2,1,60,0,0
60181,-62.5,4,2,1,60,0,0
60514,-125,4,2,1,60,0,0
60848,-41.6666666666667,4,2,1,60,0,0
61014,-83.3333333333333,4,2,1,60,0,0
61181,-66.6666666666667,4,2,1,60,0,0
61348,-55.5555555555556,4,2,1,60,0,0
61681,-62.5,4,2,1,60,0,0
61848,-45.4545454545455,4,2,1,60,0,0
62348,-41.6666666666667,4,2,1,60,0,0
62681,-55.5555555555556,4,2,1,60,0,0
62848,-62.5,4,2,1,60,0,0
63014,-41.6666666666667,4,2,1,60,0,0
63181,-38.4615384615385,4,2,1,60,0,0
63348,-83.3333333333333,4,2,1,60,0,0
63514,-41.6666666666667,4,2,1,60,0,0
63681,-416.666666666667,4,2,1,60,0,0
63848,-71.4285714285714,4,2,1,60,0,0
64014,-35.7142857142857,4,2,1,60,0,0
64181,-50,4,2,1,60,0,0
64348,-34.4827586206897,4,2,1,60,0,0
64681,-133.333333333333,4,2,1,60,0,0
65237,-100,4,2,1,60,0,0
65459,-80,4,2,1,60,0,0
65681,-66.6666666666667,4,2,1,60,0,0
65903,-57.1428571428571,4,2,1,60,0,0
66181,-66.6666666666667,4,2,1,60,0,0
66348,-34.4827586206897,4,2,1,60,0,0
66681,-68.9655172413793,4,2,1,60,0,0
66848,-50,4,2,1,60,0,0
67181,-33.3333333333333,4,2,1,60,0,0
67348,-100,4,2,1,60,0,0
67514,-76.9230769230769,4,2,1,60,0,0
67681,-153.846153846154,4,2,1,60,0,0
68181,-100,4,2,1,60,0,0
68514,-66.6666666666667,4,2,1,60,0,0
69014,-100,4,2,1,60,0,0
69348,-399.999999999997,4,2,1,60,0,0
69514,-66.6666666666667,4,2,1,60,0,0
70014,-66.6666666666667,4,2,1,80,0,0
70181,-133.333333333333,4,2,1,80,0,0
70514,-44.4444444444445,4,2,1,80,0,0
70848,-50,4,2,1,80,0,0
71181,-57.1428571428571,4,2,1,80,0,0
71514,-44.4444444444445,4,2,1,80,0,0
71681,-133.333333333333,4,2,1,90,0,1
72014,-57.1428571428571,4,2,1,90,0,1
72181,-44.4444444444445,4,2,1,90,0,1
72514,-62.5,4,2,1,90,0,1
73014,-41.6666666666667,4,2,1,90,0,1
73348,-55.5555555555556,4,2,1,90,0,1
73514,-34.4827586206897,4,2,1,90,0,1
73681,-55.5555555555556,4,2,1,90,0,1
73848,-45.4545454545455,4,2,1,90,0,1
74014,-90.9090909090909,4,2,1,90,0,1
74181,-45.4545454545455,4,2,1,90,0,1
74848,-90.9090909090909,4,2,1,90,0,1
75181,-45.4545454545455,4,2,1,90,0,1
75348,-76.9230769230769,4,2,1,90,0,1
75514,-51.2820512820513,4,2,1,90,0,1
76514,-80,4,2,1,90,0,1
76681,-66.6666666666667,4,2,1,90,0,1
77014,-30.7692307692308,4,2,1,90,0,1
77348,-44.4444444444445,4,2,1,90,0,1
77514,-36.3636363636364,4,2,1,90,0,1
77848,-66.6666666666667,4,2,1,90,0,1
78014,-57.1428571428571,4,2,1,90,0,1
78348,-36.3636363636364,4,2,1,90,0,1
78681,-57.1428571428571,4,2,1,90,0,1
79181,-44.4444444444445,4,2,1,90,0,1
79348,-54.054054054054,4,2,1,90,0,1
79681,-200,4,2,1,90,0,0
80014,-44.4444444444445,4,2,1,90,0,0
80181,-33.3333333333333,4,2,1,90,0,0
80514,-153.846153846153,4,2,1,90,0,0
80598,-100,4,2,1,90,0,0
80681,-80,4,2,1,90,0,0
80764,-66.6666666666667,4,2,1,90,0,0
80848,-57.1428571428571,4,2,1,90,0,0
80931,-50,4,2,1,90,0,0
81014,-36.3636363636364,4,2,1,90,0,1
81181,-50,4,2,1,90,0,1
81348,-44.4444444444445,4,2,1,90,0,1
81848,-40,4,2,1,90,0,1
82014,-50,4,2,1,90,0,1
82181,-38.4615384615385,4,2,1,90,0,1
82848,-76.9230769230769,4,2,1,90,0,1
83181,-45.4545454545455,4,2,1,90,0,1
83348,-41.6666666666667,4,2,1,90,0,1
83681,-31.25,4,2,1,90,0,1
84014,-133.333333333333,4,2,1,90,0,1
84181,-399.999999999997,4,2,1,90,0,1
84514,-50,4,2,1,90,0,1
84848,-36.3636363636364,4,2,1,90,0,1
85181,-57.1428571428571,4,2,1,90,0,1
85514,-40,4,2,1,90,0,1
85848,-36.3636363636364,4,2,1,90,0,1
86014,-133.333333333333,4,2,1,90,0,1
86348,-44.4444444444445,4,2,1,90,0,1
86681,-33.3333333333333,4,2,1,90,0,1
87181,-44.4444444444445,4,2,1,90,0,1
87348,-52.6315789473684,4,2,1,90,0,1
87681,-35.0877192982456,4,2,1,90,0,1
87848,-74.0740740740741,4,2,1,90,0,1
88014,-37.037037037037,4,2,1,90,0,1
88181,-55.5555555555556,4,2,1,90,0,1
88681,-133.333333333333,4,2,1,90,0,1
89014,-133.333333333333,4,2,1,90,0,0
89681,-200,4,2,1,90,0,0
90014,-100,4,2,1,90,0,0
90348,-111.111111111111,4,2,1,90,0,0
91014,-125,4,2,1,90,0,1
91348,-83.3333333333333,4,2,1,90,0,1
91514,-166.666666666667,4,2,1,90,0,1
91681,-166.666666666667,4,2,1,90,0,0
92014,-83.3333333333333,4,2,1,60,0,0
92181,-250,4,2,1,60,0,0
92514,-66.6666666666667,4,2,1,60,0,0
92681,-200,4,2,1,60,0,0
93014,-55.5555555555556,4,2,1,60,0,0
93181,-166.666666666667,4,2,1,60,0,0
93514,-50,4,2,1,60,0,0
93848,-66.6666666666667,4,2,1,60,0,0
94014,-200,4,2,1,60,0,0
94681,-399.999999999997,4,2,1,60,0,0
95681,-399.999999999997,4,2,1,60,0,0
96514,-83.3333333333333,4,2,1,60,0,0
96848,-76.9230769230769,4,2,1,60,0,0
97014,-76.9230769230769,4,2,1,70,0,0
99014,-153.846153846153,4,2,1,70,0,0
99681,-133.333333333333,4,2,1,70,0,0
101014,-80,4,2,1,70,0,0
101348,-133.333333333333,4,2,1,70,0,0
101514,-50,4,2,1,70,0,0
102014,-40,4,2,1,70,0,0
102348,-399.999999999997,4,2,1,80,0,0
102681,-50,4,2,1,80,0,0
102848,-66.6666666666667,4,2,1,80,0,0
103181,-76.9230769230769,4,2,1,80,0,0
103348,-50,4,2,1,80,0,0
103514,-66.6666666666667,4,2,1,80,0,0
103848,-50,4,2,1,80,0,0
104014,-100,4,2,1,80,0,0
104348,-66.6666666666667,4,2,1,80,0,0
104681,-50,4,2,1,80,0,0
105014,-500,4,2,1,80,0,0
105348,-50,4,2,1,80,0,0
105681,-66.6666666666667,4,2,1,80,0,0
105848,-33.3333333333333,4,2,1,80,0,0
106014,-50,4,2,1,80,0,0
106181,-200,4,2,1,80,0,0
106514,-76.9230769230769,4,2,1,80,0,0
106681,-50,4,2,1,80,0,0
106848,-100,4,2,1,80,0,0
107181,-66.6666666666667,4,2,1,80,0,0
107348,-133.333333333333,4,2,1,80,0,0
107681,-200,4,2,1,80,0,0
107903,-133.333333333333,4,2,1,80,0,0
108126,-100,4,2,1,80,0,0
108348,-80,4,2,1,80,0,0
108570,-100,4,2,1,80,0,0
108792,-133.333333333333,4,2,1,80,0,0
109014,-36.3636363636364,4,2,1,80,0,0
109348,-42.5531914893617,4,2,1,80,0,0
109514,-43.4782608695652,4,2,1,80,0,0
109848,-33.3333333333333,4,2,1,80,0,0
110181,-100,4,2,1,80,0,0
110348,-105.263157894737,4,2,1,40,0,0
111348,-80,4,2,1,40,0,0
111681,-100,4,2,1,40,0,0
112181,-66.6666666666667,4,2,1,40,0,0
112348,-83.3333333333334,4,2,1,70,0,0
112598,-55.5555555555556,4,2,1,70,0,0
112848,-83.3333333333333,4,2,1,70,0,0
113014,-50,4,2,1,30,0,0
113514,-71.4285714285714,4,2,1,30,0,0
113848,-62.5,4,2,1,30,0,0
114598,-142.857142857143,4,2,1,30,0,0
115014,-100,4,2,1,30,0,0
115181,-200,4,2,1,30,0,0
115514,-80,4,2,1,30,0,0
115848,-100,4,2,1,30,0,0
116014,-80,4,2,1,30,0,0
116681,-133.333333333333,4,2,1,30,0,0
116848,-100,4,2,1,30,0,0
117181,-71.4285714285714,4,2,1,30,0,0
118014,-71.4285714285714,4,2,1,25,0,0

[Colours]
Combo1 : 152,224,173
Combo2 : 247,134,168

[HitObjects]
85,8,1015,5,6,0:0:0:0:
153,49,1181,5,2,0:0:0:0:
203,82,1348,5,2,0:0:0:0:
236,104,1514,5,2,0:0:0:0:
261,120,1681,5,2,0:0:0:0:
286,136,1848,5,2,0:0:0:0:
311,152,2015,5,2,0:0:0:0:
329,164,2181,5,2,0:0:0:0:
342,172,2348,5,2,0:0:0:0:
341,165,2514,5,2,0:0:0:0:
326,185,2681,5,2,0:0:0:0:
353,170,2848,5,2,0:0:0:0:
327,155,3014,5,2,0:0:0:0:
65,359,3181,6,0,B|49:347|49:347|41:307|1:291,1,90,6|2,0:0|0:0,0:0:0:0:
140,363,3514,6,0,B|152:353|154:339|154:339|209:326,1,67.5000025749208,6|0,0:0|0:0,0:0:0:0:
324,330,3681,5,2,0:0:0:0:
257,286,3847,5,2,0:0:0:0:
207,253,4014,5,2,0:0:0:0:
174,231,4180,5,2,0:0:0:0:
149,215,4347,5,2,0:0:0:0:
124,199,4514,5,2,0:0:0:0:
99,183,4681,5,2,0:0:0:0:
81,171,4847,5,2,0:0:0:0:
68,163,5014,5,2,0:0:0:0:
69,170,5180,5,2,0:0:0:0:
84,150,5347,5,2,0:0:0:0:
57,165,5514,5,2,0:0:0:0:
57,134,5681,5,2,0:0:0:0:
373,88,5848,6,0,B|381:64|381:64|389:40|367:33|367:33|341:24|337:56|361:52|373:68|373:88,1,135.000005149842,6|2,0:0|0:0,0:0:0:0:
455,148,6181,6,0,P|417:164|395:188,1,67.5000025749208,6|0,0:0|0:0,0:0:0:0:
256,384,6348,5,2,0:0:0:0:
304,329,6514,1,2,0:0:0:0:
299,254,6681,1,2,0:0:0:0:
256,192,6848,1,2,0:0:0:0:
223,309,7014,5,2,0:0:0:0:
298,291,7181,1,2,0:0:0:0:
373,273,7348,1,2,0:0:0:0:
448,255,7514,1,2,0:0:0:0:
213,131,7681,6,0,P|185:162|179:189,1,67.5000025749208,6|0,0:0|0:0,0:0:0:0:
150,366,7848,2,0,L|113:217,1,135.000005149842,2|2,0:0|0:0,0:0:0:0:
105,93,8181,6,0,P|110:134|99:160,1,67.5000025749208,6|0,0:0|0:0,0:0:0:0:
17,302,8348,5,2,0:0:0:0:
117,234,8514,1,2,0:0:0:0:
215,267,8681,1,2,0:0:0:0:
256,328,8848,1,2,0:0:0:0:
346,54,9014,6,0,L|320:136,1,67.5000025749208,6|0,0:0|0:0,0:0:0:0:
256,328,9181,5,2,0:0:0:0:
117,234,9348,5,2,0:0:0:0:
215,267,9515,5,2,0:0:0:0:
17,302,9681,5,2,0:0:0:0:
188,182,9848,1,2,0:0:0:0:
184,173,10014,1,2,0:0:0:0:
213,152,10181,1,2,0:0:0:0:
355,381,10348,6,0,P|391:367|413:327,1,80.9999975280763,6|0,3:2|0:0,0:0:0:0:
483,157,10514,5,2,3:2:0:0:
408,178,10680,1,2,3:2:0:0:
477,143,10848,5,2,3:2:0:0:
404,187,11014,1,2,3:2:0:0:
497,298,11181,6,0,B|477:294|477:294|461:265|429:258,1,80.9999975280763,6|2,3:2|3:2,0:0:0:0:
326,186,11348,6,0,L|334:230,1,26.9999991760254,2|2,3:2|3:2,0:0:0:0:
303,70,11514,2,0,L|311:114,1,40.4999987640381,2|2,3:2|3:2,0:0:0:0:
256,328,11681,6,0,B|276:316|272:360|248:368|212:350|236:296|200:264|152:264,1,175.499991966248,6|0,1:2|0:0,0:0:0:0:
88,224,12014,2,0,B|69:248|79:293,1,58.4999973220826,8|0,1:0|0:0,0:0:0:0:
104,352,12181,2,0,B|132:272|216:244|216:244|204:173,1,216,2|0,3:2|0:0,0:0:0:0:
132,154,12514,5,4,1:3:0:0:
174,377,12681,1,8,1:0:0:0:
339,238,12848,6,0,B|346:218|333:196|308:194|308:194|329:211|333:239,1,107.999996704102,2|0,3:2|0:0,0:0:0:0:
311,371,13014,2,0,P|280:339|242:324,1,72,0|0,1:0|0:0,0:0:0:0:
260,252,13181,2,0,P|223:258|191:288,1,72,2|2,3:0|3:2,0:0:0:0:
104,352,13348,5,8,1:0:0:0:
0,190,13514,6,0,B|-33:176|-51:122|9:84|53:120|47:163,1,170.999995433807,4|0,1:3|0:0,0:0:0:0:
47,162,13848,6,0,B|64:59|122:110|140:37,1,144,2|8,1:2|1:0,0:0:0:0:
74,3,14181,6,0,L|136:38,1,72,2|2,1:2|3:2,0:0:0:0:
182,129,14348,2,0,B|73:114|89:160|37:163,1,144,6|0,1:3|3:0,0:0:0:0:
248,68,14681,5,8,1:0:0:0:
256,192,14848,6,0,B|274:175|276:152|276:152|288:172|318:179,1,90,2|0,3:0|0:0,0:0:0:0:
387,165,15181,2,0,B|411:158|433:130|433:130|425:165|437:195,1,116.999994644165,4|8,3:0|1:0,0:0:0:0:
471,305,15514,6,0,L|457:347,1,45,2|0,3:0|0:0,0:0:0:0:
453,358,15681,2,0,B|276:284|272:376|208:364,1,256.499993150711,4|2,1:3|0:0,0:0:0:0:
136,345,16014,5,8,1:0:0:0:
73,240,16181,1,4,1:3:0:0:
73,247,16348,2,0,B|67:253|73:281|91:261|83:245|103:225|135:225,1,85.4999977169037,2|0,3:0|0:0,0:0:0:0:
225,83,16514,6,0,B|212:75|240:29|275:94|246:127|212:106|185:129|178:168,1,148.50000453186,4|0,3:0|0:0,0:0:0:0:
203,262,16681,1,8,1:0:0:0:
153,48,16848,6,0,L|102:19,1,58.4999973220826,10|0,1:3|0:0,0:0:0:0:
200,270,17014,6,0,B|272:242|288:346|188:386|133:299|202:275|164:235|120:222,1,256.499993150711,6|2,1:2|0:0,0:0:0:0:
106,137,17348,5,8,1:0:0:0:
110,129,17514,1,2,3:0:0:0:
43,309,17681,6,0,B|59:313|59:313|75:297|99:293,1,58.4999973220826,2|2,3:0|0:0,0:0:0:0:
126,224,17848,6,0,B|130:262|98:259|95:293,1,78.7500007510185,4|2,1:3|3:2,0:0:0:0:
114,367,18014,2,0,B|124:373|90:408|103:361|114:367,4,42.7499988584519,8|0|2|0|2,1:0|0:0|0:0|0:0|3:0,0:0:0:0:
263,224,18348,6,0,B|322:165|315:50|186:31|166:156|235:183,1,297.000009063721,6|2,1:2|0:0,0:0:0:0:
304,310,18681,2,0,B|326:294|326:268|326:268|305:284|304:310,1,99.0000030212403,8|0,1:0|0:0,0:0:0:0:
200,270,18848,2,0,B|182:294|185:324|185:324|276:220|400:260,1,297.000009063721,4|0,1:3|0:0,0:0:0:0:
447,199,19181,2,0,P|468:222|475:260,1,58.4999973220826,4|0,3:0|0:0,0:0:0:0:
506,366,19348,2,0,B|481:358|473:343|473:343|373:366,1,144,8|2,1:0|3:2,0:0:0:0:
374,40,19681,6,0,B|414:32|414:32|426:43,1,53.9999983520508,6|0,0:0|0:0,0:0:0:0:
445,52,19848,2,0,B|453:92|453:92|442:104,1,53.9999983520508,2|0,0:0|0:0,0:0:0:0:
433,123,20014,2,0,B|393:131|393:131|381:120,1,53.9999983520508,2|0,0:0|0:0,0:0:0:0:
362,111,20181,2,0,B|354:71|354:71|365:59,1,53.9999983520508,2|0,0:0|0:0,0:0:0:0:
193,150,20348,6,0,B|154:158|154:158|148:135,1,62.9999980773926,2|0,0:0|0:0,0:0:0:0:
215,0,20514,2,0,B|253:-8|253:-8|259:14,1,62.9999980773926,2|0,0:0|0:0,0:0:0:0:
129,64,20681,6,0,B|120:25|120:25|143:19,1,62.9999980773926,2|0,0:0|0:0,0:0:0:0:
279,86,20848,2,0,B|287:124|287:124|264:130,1,62.9999980773926,2|0,0:0|0:0,0:0:0:0:
54,88,21014,6,0,L|25:71,1,31.4999990386963,6|0,0:0|0:0,0:0:0:0:
182,234,21181,6,0,L|211:251,1,31.4999990386963,2|0,0:0|0:0,0:0:0:0:
129,64,21348,6,0,L|136:31,1,31.4999990386963,2|0,0:0|0:0,0:0:0:0:
107,258,21515,6,0,L|100:291,1,31.4999990386963,2|2,0:0|3:2,0:0:0:0:
131,362,21848,6,0,P|156:346|171:317,1,62.9999980773926,2|2,3:2|3:2,0:0:0:0:
22,285,22014,6,0,P|23:315|40:342,1,62.9999980773926,2|2,3:2|3:2,0:0:0:0:
359,292,22348,6,0,B|419:306|405:337|431:350,1,94.499997116089,6|0,1:2|0:0,0:0:0:0:
499,317,22681,6,0,B|476:280|434:289|434:289|287:320,1,225,2|0,0:0|0:0,0:0:0:0:
195,225,23181,2,0,B|213:154|213:154|222:123|292:141|284:173|284:173|264:247,1,247.500007553101,2|0,0:0|0:0,0:0:0:0:
234,367,23681,2,0,B|207:341|216:301|216:301|115:237|115:237|81:215|62:241|92:261|92:261|118:278,1,292.499986610413,2|0,0:0|0:0,0:0:0:0:
105,354,24181,2,0,B|136:343|137:303|137:303|277:241,1,202.499993820191,2|0,0:0|0:0,0:0:0:0:
310,183,24681,2,0,B|331:131|331:131|330:99|310:122|310:122|288:174,1,148.50000453186,2|0,0:0|0:0,0:0:0:0:
263,247,25014,2,0,B|229:244|218:205|218:205|206:159|206:159|195:120|158:118,1,175.499991966248,2|0,0:0|0:0,0:0:0:0:
114,60,25348,6,0,B|134:18|134:18|143:-1|162:6|153:26|153:26|128:78|128:78|105:115|98:102|67:122|71:159,1,247.500007553101,2|0,0:0|0:0,0:0:0:0:
25,224,25848,2,0,B|6:232|6:232|-9:244|11:242|11:242|94:203|94:203|121:198|99:214|99:214|56:234,1,202.499993820191,2|0,0:0|0:0,0:0:0:0:
95,310,26348,2,0,B|87:279|57:264|57:264|22:108|22:108|15:82|49:74|56:100|56:100|71:157,1,337.500012874604,2|0,0:0|0:0,0:0:0:0:
18,337,26848,2,0,B|38:329|49:307|35:280|105:261|105:261|240:223,1,247.500007553101,2|0,0:0|0:0,0:0:0:0:
302,247,27348,2,0,B|335:255|335:255|359:262|352:285|329:279|329:279|295:270|259:288|257:318,1,175.499991966248,2|0,0:0|0:0,0:0:0:0:
218,383,27681,5,14,0:0:0:0:
337,362,27848,1,0,0:0:0:0:
456,341,28014,2,0,L|469:346,1,11.6999999285889,2|10,0:0|0:0,0:0:0:0:
466,345,28348,5,0,0:0:0:0:
479,259,28514,1,2,0:0:0:0:
337,362,28681,1,10,0:0:0:0:
346,369,28848,5,0,0:0:0:0:
346,144,29014,2,0,L|358:150,1,11.6999999285889,2|10,0:0|0:0,0:0:0:0:
356,149,29348,5,0,0:0:0:0:
379,67,29514,1,2,0:0:0:0:
293,88,29681,1,10,0:0:0:0:
311,219,29848,1,0,0:0:0:0:
429,138,30014,6,0,L|441:144,2,8.77500029457093,10|0|0,1:2|1:0|1:0,0:0:0:0:
293,88,30181,2,0,L|287:68,1,17.5500005891419,10|0,0:0|0:0,0:0:0:0:
379,67,30348,2,0,L|386:43,1,23.3999998571777,14|0,0:0|0:0,0:0:0:0:
215,257,30681,6,0,L|204:261,1,11.6999999285889,2|10,0:0|0:0,0:0:0:0:
204,260,31014,5,0,0:0:0:0:
140,365,31181,1,2,0:0:0:0:
224,331,31348,1,10,0:0:0:0:
103,274,31514,1,0,0:0:0:0:
142,42,31681,6,0,L|153:48,1,11.6999999285889,2|10,0:0|0:0,0:0:0:0:
152,47,32014,5,0,0:0:0:0:
50,137,32181,1,2,0:0:0:0:
66,63,32348,5,10,0:0:0:0:
171,121,32514,1,2,3:2:0:0:
47,222,32681,5,10,0:0:0:0:
152,207,32848,1,10,0:0:0:0:
256,192,33014,5,14,1:2:0:0:
306,246,33181,1,2,3:0:0:0:
234,262,33348,1,2,3:2:0:0:
328,176,33514,5,10,3:2:0:0:
306,246,33681,1,0,3:0:0:0:
339,311,33848,1,2,3:0:0:0:
408,333,34014,1,10,3:2:0:0:
354,381,34181,1,2,3:0:0:0:
448,192,34348,5,6,3:2:0:0:
473,240,34514,1,10,3:2:0:0:
485,211,34681,1,2,3:2:0:0:
436,221,34847,1,2,3:0:0:0:
408,25,35014,2,0,L|381:89,1,70.2000023565675,10|2,3:2|3:2,0:0:0:0:
311,144,35348,5,10,1:2:0:0:
268,117,35432,1,0,1:0:0:0:
226,92,35515,1,0,1:2:0:0:
284,36,35681,5,10,3:2:0:0:
268,117,35848,1,2,3:0:0:0:
252,198,36014,1,2,3:2:0:0:
236,279,36181,1,10,3:2:0:0:
173,224,36348,5,2,3:2:0:0:
312,247,36514,1,2,3:0:0:0:
136,345,36681,5,10,3:2:0:0:
301,328,36848,1,2,3:0:0:0:
34,201,37014,5,2,3:2:0:0:
43,185,37181,1,10,3:2:0:0:
112,139,37348,5,2,3:2:0:0:
103,123,37515,1,2,3:0:0:0:
15,373,37681,6,0,L|-8:326,1,35.1000011782837,10|2,1:2|3:2,0:0:0:0:
85,269,37848,2,0,L|108:222,1,35.1000011782837,2|2,3:2|3:2,0:0:0:0:
61,40,38014,5,10,1:2:0:0:
54,50,38098,1,2,1:2:0:0:
67,54,38181,1,2,1:2:0:0:
74,42,38264,1,2,1:2:0:0:
61,40,38348,5,14,1:2:0:0:
103,123,38681,6,0,B|95:171|41:186|41:186|64:173|73:154|70:146|78:130|103:123,1,180,2|0,1:2|0:0,0:0:0:0:
67,54,39181,2,0,P|164:76|224:-4,1,180,2|2,1:2|3:2,0:0:0:0:
291,9,39681,5,2,1:2:0:0:
256,128,39848,1,10,3:2:0:0:
216,25,40014,5,2,3:2:0:0:
329,146,40181,2,0,P|358:113|386:94,1,72,2|10,3:0|3:2,0:0:0:0:
380,96,40514,2,0,P|393:113|386:148,1,36,2|0,3:0|0:0,0:0:0:0:
391,204,40681,2,0,L|370:211,2,17.5500005891419,10|0|0,1:2|1:0|1:0,0:0:0:0:
487,171,40848,5,2,1:2:0:0:
436,342,41014,2,0,B|409:333|401:301|401:301|285:269|285:269|305:289|301:317,1,225,10|0,3:2|0:0,0:0:0:0:
278,384,41514,2,0,B|338:407|411:339|339:327|416:240|496:284,1,270,10|10,3:2|3:2,0:0:0:0:
210,303,42348,6,0,B|188:308|194:244|231:297|210:303,1,62.9999980773926,2|0,3:2|0:0,0:0:0:0:
133,236,42514,2,0,B|116:226|158:191|149:245|133:236,1,53.9999983520508,10|0,3:2|0:0,0:0:0:0:
74,287,42681,6,0,P|53:259|46:214,1,72,2|0,3:2|0:0,0:0:0:0:
24,233,42848,2,0,P|44:260|52:306,1,72,2|0,3:0|0:0,0:0:0:0:
45,370,43014,6,0,B|33:375|33:375|2:354,3,45,10|2|2|2,3:2|3:2|1:2|3:2,0:0:0:0:
54,143,43348,2,0,B|66:138|66:138|97:159,3,45,10|2|2|2,3:2|3:2|1:2|3:2,0:0:0:0:
133,236,43681,5,10,3:2:0:0:
203,50,43848,1,2,3:0:0:0:
168,143,44014,1,2,3:2:0:0:
231,219,44181,5,10,3:2:0:0:
117,79,44348,5,2,3:2:0:0:
121,68,44514,1,2,3:0:0:0:
136,345,44681,6,0,P|168:317|225:308,1,90,10|2,3:2|3:2,0:0:0:0:
375,332,45014,5,2,3:2:0:0:
325,273,45181,1,10,3:2:0:0:
332,198,45348,1,2,3:2:0:0:
299,346,45514,5,2,3:0:0:0:
401,259,45681,1,10,3:2:0:0:
511,334,45848,1,2,3:0:0:0:
412,143,46014,5,10,1:2:0:0:
435,137,46098,1,0,1:0:0:0:
438,161,46181,1,0,1:0:0:0:
36,372,46348,6,0,P|29:345|33:315,1,45,4|0,1:3|0:0,0:0:0:0:
2,248,46514,6,0,P|8:221|27:197,1,45,0|0,1:0|0:0,0:0:0:0:
35,124,46681,6,0,P|54:104|82:93,1,45,0|0,1:0|0:0,0:0:0:0:
125,34,46848,6,0,P|151:27|181:31,1,45,0|0,1:0|0:0,0:0:0:0:
249,0,47015,6,0,P|275:6|299:25,1,45,0|0,1:0|0:0,0:0:0:0:
371,33,47181,6,0,P|390:52|401:80,1,45,0|0,1:0|0:0,0:0:0:0:
463,122,47348,6,0,P|469:148|465:178,1,45,0|0,1:0|0:0,0:0:0:0:
498,245,47514,6,0,P|491:271|472:295,1,45,0|0,1:0|0:0,0:0:0:0:
242,324,47681,5,2,1:2:0:0:
232,302,47764,1,2,1:2:0:0:
243,280,47848,1,2,1:2:0:0:
254,259,47931,1,2,1:2:0:0:
265,238,48014,5,2,1:2:0:0:
245,213,48097,1,2,1:2:0:0:
225,189,48181,1,2,1:2:0:0:
205,164,48264,1,2,1:2:0:0:
185,139,48348,5,2,1:2:0:0:
206,104,48432,1,2,1:2:0:0:
226,69,48515,5,2,1:2:0:0:
151,37,48598,5,2,3:2:0:0:
76,4,48681,6,0,L|156:50,1,90,8|0,1:0|0:0,0:0:0:0:
315,25,48848,2,0,B|299:49|299:49|256:41|226:68,1,107.999996704102,2|2,1:2|1:2,0:0:0:0:
28,272,49014,6,0,B|55:259|56:226|56:226|93:211|68:164|68:164|77:137|59:113|59:113|65:143|54:172|54:172|72:209|72:209|113:194|138:208|130:226|145:251|181:246,1,404.999987640381,6|0,1:2|0:0,0:0:0:0:
225,189,49514,6,0,P|257:175|261:213,1,80.9999975280763,4|0,0:3|0:0,0:0:0:0:
356,326,49848,6,0,B|326:292|336:238|336:238|325:266|295:278,1,141.749995674133,2|0,3:0|0:0,0:0:0:0:
229,313,50014,5,10,3:2:0:0:
229,313,50181,6,0,B|222:333|235:355|260:357|260:357|239:340|235:312,1,107.999996704102,2|0,3:2|0:0,0:0:0:0:
416,218,50348,6,0,L|455:209,1,40.4999987640381,6|0,1:2|0:0,0:0:0:0:
273,24,50514,6,0,B|276:85,1,60.7500002317429,2|2,3:0|3:2,0:0:0:0:
174,246,50681,6,0,B|157:246|140:259|140:259|137:173|137:173|195:108|195:108|200:127|217:142,1,243.000000926971,8|4,1:0|1:3,0:0:0:0:
212,137,51014,6,0,B|248:160|232:208|232:208|200:216|192:248,1,135.000005149842,2|0,1:2|0:0,0:0:0:0:
190,335,51181,2,0,B|174:342|174:342|130:278|50:286,1,144,4|2,3:0|3:2,0:0:0:0:
2,192,51348,2,0,B|-10:211|-10:211|3:225|4:249,1,53.9999983520508,8|0,1:0|0:0,0:0:0:0:
25,364,51514,5,2,1:2:0:0:
31,364,51598,1,2,3:2:0:0:
35,366,51681,2,0,B|35:306|103:262|139:322|167:230|167:230|187:158|59:138|59:138|79:163|79:194|79:194|113:192|135:217,1,485.999985168458,4|0,1:3|0:0,0:0:0:0:
342,318,52014,6,0,L|358:264,1,53.9999983520508,8|0,1:0|0:0,0:0:0:0:
376,190,52181,2,0,B|362:175|360:147|360:147|346:168|322:174,1,90,2|0,3:2|0:0,0:0:0:0:
244,363,52348,6,0,B|253:352|256:337|256:337|375:312,1,116.999994644165,2|0,3:2|0:0,0:0:0:0:
296,105,52514,2,0,B|276:103|254:85|254:85|259:111|247:131,1,90,4|0,3:0|0:0,0:0:0:0:
466,232,52681,6,0,B|402:238|378:310|378:310|338:319,1,161.999995056153,8|12,1:0|3:0,0:0:0:0:
80,148,53014,6,0,B|65:112|65:112|88:126|88:126|89:149,1,78.7500007510185,8|0,1:3|0:0,0:0:0:0:
114,289,53181,2,0,L|127:212,1,78.7500007510185,2|0,1:3|0:0,0:0:0:0:
152,47,53348,6,0,B|153:14|205:-24|182:36|152:47,1,101.250003862381,8|0,1:0|0:0,0:0:0:0:
28,274,53514,6,0,B|24:300|0:320|0:320|63:307|67:247|67:247|126:226|126:226|131:229|131:229|207:201|207:201|219:233|247:241,1,371.250003540516,4|0,1:3|0:0,0:0:0:0:
319,210,53848,2,0,B|332:193|332:193|311:137,1,67.5000025749208,2|0,3:0|0:0,0:0:0:0:
481,14,54014,6,0,L|488:48,1,33.7500012874604,8|0,1:0|0:0,0:0:0:0:
496,24,54181,2,0,L|485:55,1,33.7500012874604,8|0,1:3|0:0,0:0:0:0:
393,364,54348,6,0,B|428:352|432:336|424:320|432:292|464:272|464:272|456:232|421:209|421:209|362:55|362:55|383:82|412:88|412:88|436:152|436:152|432:172|440:192,1,528.749991931915,6|0,1:2|0:0,0:0:0:0:
502,336,54848,6,0,B|479:323|456:333|456:333|402:303|402:303|398:276|373:264,1,157.500001502037,2|4,3:0|3:0,0:0:0:0:
151,46,55181,6,0,L|178:150,1,94.499997116089,8|0,1:3|0:0,0:0:0:0:
246,240,55348,2,0,B|290:204|262:156|262:156|94:216|94:216|110:256|78:284,1,337.5,8|0,1:0|0:0,0:0:0:0:
19,304,55681,6,0,B|21:330|44:335|56:358,1,67.5000025749208,6|0,1:2|0:0,0:0:0:0:
85,276,55848,2,0,B|69:290|78:308|70:327,1,45,2|8,3:0|1:0,0:0:0:0:
130,372,56181,6,0,B|171:267|294:281|294:281|297:318|326:335,1,263.250001004219,8|0,3:0|0:0,0:0:0:0:
257,378,56514,2,0,L|216:365,1,33.7500012874604,4|0,1:3|0:0,0:0:0:0:
453,136,56681,2,0,B|477:162|461:186|461:186|437:198|433:222,1,90,8|0,1:0|0:0,0:0:0:0:
435,341,56848,5,2,3:0:0:0:
427,344,56931,1,2,3:2:0:0:
420,342,57014,2,0,B|393:319|397:288|397:288|314:241|314:241|306:240|306:240|211:185|211:185|242:121|242:121|238:154|262:177,1,405.000015449525,4|0,1:3|0:0,0:0:0:0:
296,328,57348,6,0,B|296:308|288:292|288:292|328:208,1,123.750001180172,8|0,1:0|0:0,0:0:0:0:
343,135,57514,2,0,B|368:128|378:107|378:107|369:127|377:153,1,90,2|0,3:0|0:0,0:0:0:0:
224,367,57681,2,0,L|205:314,1,45,8|0,3:0|0:0,0:0:0:0:
181,253,57848,2,0,B|157:251|145:234|145:234|157:250|154:274,1,78.7500007510185,4|0,1:3|0:0,0:0:0:0:
136,345,58014,5,8,1:0:0:0:
511,43,58181,6,0,B|460:16|460:16|456:8|456:8|428:-8,1,90,2|0,3:0|0:0,0:0:0:0:
115,51,58348,6,0,B|84:78|87:158|233:163|278:66|178:59|238:-43|352:-17|352:-17|317:1|317:38,1,438.750012552739,4|2,1:3|3:2,0:0:0:0:
260,175,58681,6,0,B|253:176|254:183|256:190|258:197|265:195|272:193|279:191|277:185|275:178|273:171|266:173,1,56.25,8|0,1:0|0:0,0:0:0:0:
511,43,58848,6,0,L|483:54,1,27,4|0,1:3|3:0,0:0:0:0:
407,87,59181,6,0,B|410:107|410:107|436:122|439:151,1,67.5000025749208,4|2,1:3|3:2,0:0:0:0:
439,144,59348,6,0,P|438:185|418:217,1,72,8|0,1:0|0:0,0:0:0:0:
511,192,59514,2,0,P|497:231|476:261,1,78.7500007510185,10|2,3:3|3:2,0:0:0:0:
508,335,59681,6,0,B|469:346|458:384|458:384|370:360|365:246|413:286|422:197|365:164,1,337.5,6|0,1:2|0:0,0:0:0:0:
223,27,60014,6,0,P|221:77|191:111,1,90,8|0,1:0|0:0,0:0:0:0:
48,222,60181,6,0,B|141:207|141:207|158:184|186:180,1,144,4|2,3:0|3:2,0:0:0:0:
181,180,60514,6,0,L|169:226,1,36,6|2,1:2|3:2,0:0:0:0:
137,345,60681,5,8,1:0:0:0:
142,353,60848,2,0,B|140:374|158:392|183:387|183:387|158:376|147:350,1,107.999996704102,2|0,3:0|0:0,0:0:0:0:
58,144,61014,6,0,P|44:124|9:103,1,53.9999983520508,4|0,1:3|0:0,0:0:0:0:
119,93,61181,2,0,P|109:71|75:37,1,67.5000025749208,2|2,3:0|3:2,0:0:0:0:
234,6,61348,6,0,B|200:61|248:105|248:105|282:102|298:126,1,161.999995056153,8|2,1:0|1:3,0:0:0:0:
147,265,61681,6,0,B|104:272|104:272|96:286|82:294,1,72,0|0,3:3|0:0,0:0:0:0:
48,222,61848,2,0,B|40:206|23:196|23:196|141:185|148:269,1,198.000006042481,4|8,1:3|1:0,0:0:0:0:
315,317,62181,5,2,3:0:0:0:
321,315,62264,1,2,0:3:0:0:
327,313,62348,2,0,B|343:345|371:353|371:353|179:301|179:301|169:337|135:345,1,323.999990112305,4|0,1:3|0:0,0:0:0:0:
17,331,62681,6,0,B|4:316|6:293|6:293|20:312|17:331,1,80.9999975280763,8|0,1:0|0:0,0:0:0:0:
201,123,62848,2,0,L|177:190,1,72,2|0,3:0|0:2,0:0:0:0:
79,223,63014,6,0,B|71:267|113:275|113:275|131:263|161:265,1,107.999996704102,2|0,3:2|0:0,0:0:0:0:
294,121,63181,2,0,L|271:0,1,116.999994644165,4|0,1:3|0:0,0:0:0:0:
379,20,63348,2,0,L|363:78,1,53.9999983520508,8|0,1:0|0:0,0:0:0:0:
419,159,63514,2,0,B|386:166|366:150|366:150|358:174|332:187,1,107.999996704102,2|0,3:2|0:0,0:0:0:0:
139,355,63681,6,0,L|136:345,1,10.8000002636719,8|0,1:3|0:0,0:0:0:0:
89,107,63848,2,0,L|103:177,1,62.9999980773926,8|0,3:0|0:0,0:0:0:0:
295,335,64014,6,0,B|298:360|298:360|263:316|211:312,1,125.999996154785,8|0,1:0|0:0,0:0:0:0:
18,216,64181,6,0,B|32:182|83:205|66:241,1,90,4|0,1:3|0:0,0:0:0:0:
2,375,64348,2,0,P|96:258|226:229,1,261.000007965088,0|4,0:0|3:0,0:0:0:0:
449,357,64681,6,0,L|449:322,1,33.7500012874604,8|0,1:0|0:0,0:0:0:0:
456,349,64848,2,0,L|439:320,1,33.7500012874604,8|0,1:2|0:0,0:0:0:0:
448,241,65014,6,0,B|450:217|473:207|472:178,1,67.5000025749208,6|0,1:2|0:0,0:0:0:0:
377,272,65237,2,0,B|354:235|382:212|362:177,1,90,2|0,1:2|0:0,0:0:0:0:
336,337,65459,2,0,B|291:312|305:272|266:251,1,112.5,2|0,1:2|0:0,0:0:0:0:
247,381,65681,2,0,B|234:328|288:308|264:244,1,135.000005149842,2|4,1:2|1:3,0:0:0:0:
225,147,65903,6,0,B|222:185|184:232|197:172|223:149,2,105.000001001358,2|8|0,1:2|1:0|0:0,0:0:0:0:
150,48,66181,6,0,P|160:35|154:57,1,67.5000025749208,2|2,3:0|0:0,0:0:0:0:
121,189,66348,6,0,B|115:215|134:243|134:243|71:193|111:79|194:65|186:142|293:69|269:5,1,391.500011947632,6|0,1:2|0:0,0:0:0:0:
73,33,66681,6,0,L|16:0,1,65.250001991272,8|0,1:0|0:0,0:0:0:0:
48,272,66848,6,0,B|76:260|84:232|84:232|304:180,1,270,4|0,1:3|0:0,0:0:0:0:
377,140,67181,6,0,B|384:129|395:124|395:124|393:57|349:108|349:108|358:122|356:135,1,135.000005149842,8|0,1:3|0:0,0:0:0:0:
336,337,67348,6,0,L|349:384,1,45,8|0,1:0|0:0,0:0:0:0:
423,242,67514,2,0,L|407:298,1,58.4999973220826,10|0,1:2|0:0,0:0:0:0:
474,342,67681,6,0,B|458:347|444:360|444:360|320:333,1,146.249993305207,4|0,1:2|0:0,0:0:0:0:
262,318,68181,6,0,L|236:312,1,22.5,2|0,0:0|0:0,0:0:0:0:
189,227,68514,6,0,B|195:263|171:260|165:289,1,67.5000025749208,2|0,0:0|0:0,0:0:0:0:
148,365,68681,2,0,P|119:290|72:250,1,135,2|0,0:0|0:0,0:0:0:0:
262,318,69014,6,0,P|273:277|310:242,1,90,6|0,1:2|0:0,0:0:0:0:
377,198,69348,6,0,L|371:217,1,11.25,2|0,0:0|0:0,0:0:0:0:
275,102,69514,2,0,L|290:170,1,67.5000025749208,2|0,1:2|0:0,0:0:0:0:
343,324,69681,5,2,3:2:0:0:
349,337,69764,1,2,3:2:0:0:
335,336,69848,1,2,3:2:0:0:
354,327,69931,1,2,3:2:0:0:
425,347,70014,6,0,L|484:382,1,67.5000025749208,8|0,1:0|0:0,0:0:0:0:
496,359,70181,2,0,L|429:385,1,67.5000025749208,2|0,1:3|0:0,0:0:0:0:
366,111,70514,6,0,B|375:89|369:69|360:72|344:23|389:7|459:-15|471:18|444:26|444:26|399:42|399:80|408:95|366:111,1,303.750011587143,8|0,1:3|0:0,0:0:0:0:
275,102,70848,2,0,B|261:83|234:75|232:82|210:45|217:0|244:-12|244:-12|231:16|237:45|251:58|276:65|275:102,1,270,4|0,1:3|0:0,0:0:0:0:
204,159,71181,6,0,B|153:150|149:174|129:178,1,78.7500007510185,4|0,0:3|0:0,0:0:0:0:
130,177,71348,1,8,1:0:0:0:
69,48,71514,6,0,B|86:16|147:51|130:86,1,101.250003862381,2|0,3:2|0:0,0:0:0:0:
87,331,71681,6,0,P|78:311|64:294,1,33.7500012874604,6|0,1:0|0:0,0:0:0:0:
154,290,71848,2,0,P|148:265|158:248,1,33.7500012874604,2|0,3:2|0:0,0:0:0:0:
312,199,72014,6,0,B|298:150|280:155|293:202|311:198,1,78.7500007510185,8|0,1:0|0:0,0:0:0:0:
369,353,72181,6,0,B|383:345|395:393|311:397|272:312|321:285|392:292|344:176|240:160|212:260|288:272,1,303.750011587143,8|0,1:3|0:0,0:0:0:0:
184,363,72514,2,0,L|262:336,1,72,4|0,3:0|0:0,0:0:0:0:
454,267,72681,5,8,1:0:0:0:
458,26,72848,5,2,3:2:0:0:
451,30,72932,1,0,3:0:0:0:
444,34,73014,2,0,B|392:97|422:188|422:188|380:99|281:88,1,323.999990112305,8|0,1:3|0:0,0:0:0:0:
234,21,73348,6,0,B|232:5|224:-9|224:-9|262:45,1,80.9999975280763,8|0,1:0|0:0,0:0:0:0:
305,195,73514,2,0,B|288:196|280:210|280:210|255:187|255:187|220:180|220:180|228:166|216:149,1,130.500003982544,6|0,3:2|0:0,0:0:0:0:
234,21,73681,6,0,B|262:0|255:-31|228:-12|234:21,1,80.9999975280763
146,173,73848,2,0,B|138:182|141:194|141:194|115:195|115:195|93:209|93:209|90:198|74:195,1,99.0000030212403,4|0,1:3|0:0,0:0:0:0:
74,64,74014,6,0,L|92:120,1,49.5000015106202,8|0,1:0|0:0,0:0:0:0:
159,343,74181,6,0,B|173:294|91:249|29:291|70:338|19:347,1,198.000006042481,2|4,3:2|1:3,0:0:0:0:
159,343,74514,2,0,B|119:310|162:227|237:227|229:289|277:268,1,198.000006042481,8|8,1:3|1:0,0:0:0:0:
273,270,74848,6,0,P|270:299|258:318,1,49.5000015106202,4|0,1:3|0:0,0:0:0:0:
338,333,75014,2,0,P|322:359|306:375,1,49.5000015106202,2|0,0:0|0:0,0:0:0:0:
146,173,75181,6,0,B|171:72|151:176|179:73,1,99.0000030212403,4|0,1:3|0:0,0:0:0:0:
148,7,75348,2,0,P|123:7|135:17,1,58.4999973220826,8|0,1:0|0:0,0:0:0:0:
298,129,75514,2,0,B|240:145|240:145|234:160|224:168,1,87.7500003347397,8|0,1:3|0:0,0:0:0:0:
68,225,75681,6,0,B|53:206|28:201|28:201|100:161|176:209|144:249|156:277|188:293,1,263.250001004219,6|0,1:2|0:0,0:0:0:0:
60,384,76014,2,0,B|70:377|72:367|72:367|137:349,1,87.7500003347397,8|0,1:0|0:0,0:0:0:0:
316,216,76181,6,0,B|315:200|344:185|373:219|321:273|309:228|250:262|259:317,1,175.500000669479,2|2,3:2|1:2,0:0:0:0:
277,50,76514,6,0,L|253:106,1,56.25,4|2,1:3|3:2,0:0:0:0:
209,163,76681,2,0,B|211:81|159:95|146:48,1,135.000005149842,8|2,1:0|1:2,0:0:0:0:
247,241,76931,5,2,3:2:0:0:
316,216,77014,2,0,B|346:207|356:175|347:169|354:142|385:121|385:121|264:159|264:159|260:155|260:155|146:193|146:193|147:231|119:250,1,438.750012552739,6|0,1:2|0:0,0:0:0:0:
60,384,77348,2,0,B|49:348|4:336|4:336|0:308,1,101.250003862381,8|0,1:0|0:0,0:0:0:0:
41,243,77514,6,0,B|206:203|366:291|226:347|390:395,1,371.250003540516,6|0,1:2|0:0,0:0:0:0:
422,352,77848,6,0,P|435:321|431:288,1,67.5000025749208,4|0,1:3|0:0,0:0:0:0:
512,321,78014,2,0,P|509:283|494:242,1,78.7500007510185,8|0,1:0|0:0,0:0:0:0:
209,364,78181,5,8,3:0:0:0:
202,368,78264,1,2,3:2:0:0:
195,372,78348,2,0,B|218:354|209:320|209:320|309:283|309:283|312:278|312:278|419:240|419:240|425:191|469:172,1,371.250003540516,6|0,1:2|0:0,0:0:0:0:
492,97,78681,6,0,B|500:77|500:77|444:48,1,78.7500007510185,8|0,1:0|0:0,0:0:0:0:
364,10,78848,2,0,B|424:26|420:94|420:94|398:105|389:127,1,157.500001502037,2|0,3:0|0:0,0:0:0:0:
309,283,79181,6,0,L|265:140,1,101.250003862381,8|0,1:3|0:0,0:0:0:0:
226,83,79348,2,0,B|224:97|213:110|213:110|234:200|234:200|307:137|307:137|302:121|307:107,1,249.749999047279,8|0,1:0|0:0,0:0:0:0:
157,244,79681,6,0,L|161:258,1,11.25,6|0,1:2|0:0,0:0:0:0:
139,252,79764,2,0,L|143:266,1,11.25,4|0,3:0|0:0,0:0:0:0:
122,261,79848,2,0,L|126:275,1,11.25,4|0,1:3|0:0,0:0:0:0:
105,270,79931,2,0,L|109:284,1,11.25,4|0,3:0|0:0,0:0:0:0:
43,314,80014,6,0,L|58:203,1,101.250003862381,8|4,1:0|3:0,0:0:0:0:
82,48,80181,6,0,B|75:36|76:19|76:19|60:19|42:13|42:13|44:31|36:47|36:47|52:53|61:63|61:63|82:48,3,135.000005149842,4|4|8|8,1:3|3:0|1:3|3:0,0:0:0:0:
97,148,80514,6,0,L|92:134,1,14.6249993305207,8|0,1:3|0:0,0:0:0:0:
167,128,80598,6,0,L|158:108,1,22.5,8|0,3:0|0:0,0:0:0:0:
237,109,80681,6,0,L|226:83,1,28.125,8|0,1:0|0:0,0:0:0:0:
308,89,80764,6,0,L|294:58,1,33.7500012874604,8|0,1:3|0:0,0:0:0:0:
379,68,80848,6,0,L|363:33,1,39.3750003755093,8|0,1:3|0:0,0:0:0:0:
449,48,80931,6,0,L|431:8,1,45,8|0,1:3|0:0,0:0:0:0:
508,91,81014,6,0,B|502:120|502:120|464:147|464:147|456:196,1,123.750001180172,6|0,1:2|0:0,0:0:0:0:
506,315,81181,6,0,B|500:285|471:268|471:268|457:279|438:281,1,90,2|0,3:0|0:0,0:0:0:0:
283,245,81348,6,0,B|262:252|255:278|262:279|257:307|226:326|226:326|334:302|352:182|299:190|290:109|381:79|381:79|401:118|441:122,1,506.250019311906,8|0,1:0|0:0,0:0:0:0:
186,261,81848,6,0,P|173:207|190:152,1,112.5,8|0,1:3|0:0,0:0:0:0:
226,83,82014,2,0,B|229:60|248:45|248:45|246:68|228:84,1,90,8|0,1:0|0:0,0:0:0:0:
7,88,82181,6,0,B|25:80|25:80|87:116|87:116|91:141,1,116.999994644165,2|2,3:2|3:2,0:0:0:0:
136,345,82348,5,8,1:3:0:0:
47,222,82514,5,2,3:2:0:0:
152,47,82681,5,8,1:0:0:0:
211,288,82848,6,0,B|141:299|141:299|126:279|96:275,1,116.999994644165,4|0,1:3|0:0,0:0:0:0:
211,288,83181,6,0,B|277:279|277:279|287:298|305:308,1,99.0000030212403,4|2,1:3|3:2,0:0:0:0:
422,146,83348,2,0,B|422:127|422:127|386:170|386:170|399:180|403:198,1,107.999996704102,8|0,1:0|0:0,0:0:0:0:
405,331,83514,5,2,3:0:0:0:
400,333,83598,1,2,3:2:0:0:
395,336,83681,2,0,B|384:357|390:382|390:382|329:369|290:302|337:242|425:269|343:143|264:200|264:200|314:196|338:234,1,432,4|0,1:3|0:0,0:0:0:0:
479,362,84014,6,0,L|509:378,1,33.7500012874604,8|0,1:0|0:0,0:0:0:0:
446,39,84181,6,0,L|437:76,1,33.75,2|0,3:2|3:0,0:0:0:0:
478,202,84514,6,0,B|472:190|477:176|477:176|399:133,1,90,4|0,1:3|0:0,0:0:0:0:
254,60,84681,2,0,B|262:106|262:106|304:99,1,90,8|0,1:0|0:0,0:0:0:0:
421,145,84848,6,0,B|440:50|216:-34|177:202|287:231,1,371.250003540516,8|0,3:0|0:0,0:0:0:0:
335,253,85181,6,0,B|279:261|295:289|267:297,1,78.7500007510185,2|0,3:0|0:0,0:0:0:0:
136,345,85348,6,0,L|147:247,1,78.7500007510185,8|2,1:0|3:2,0:0:0:0:
19,43,85514,6,0,B|6:87|65:219|41:62|124:118|177:239|92:262|78:131|118:34|178:178|159:54|127:13,1,337.5,4|0,1:3|0:0,0:0:0:0:
20,245,85848,6,0,B|47:234|47:234|64:181|111:172,1,123.750001180172,0|0,1:0|0:0,0:0:0:0:
333,15,86014,6,0,L|342:53,1,33.7500012874604,8|0,1:0|0:0,0:0:0:0:
344,17,86181,2,0,L|316:41,1,33.7500012874604,8|0,1:3|0:0,0:0:0:0:
309,189,86348,6,0,B|325:213|317:237|317:237|285:125|177:109|177:109|198:130|197:156,1,303.750011587143,6|2,1:2|3:2,0:0:0:0:
44,318,86681,2,0,B|24:338|33:369|33:369|42:325|79:301,1,135.000005149842,8|0,1:0|0:0,0:0:0:0:
374,313,86848,6,0,B|332:324|284:277|319:257|314:218|176:192|209:248|179:273|128:264,1,270.000010299683,2|0,3:0|0:0,0:0:0:0:
441,95,87181,2,0,L|408:210,1,101.250003862381,4|2,1:3|3:2,0:0:0:0:
436,357,87348,6,0,B|429:366|475:384|443:346|436:357,4,42.7499988584519,8|0|2|0|2,1:0|0:0|3:2|0:0|1:2,0:0:0:0:
487,246,87681,6,0,B|494:248|508:272|468:282|442:238|459:238|450:202|414:192,1,128.250001223087,8|0,1:3|0:0,0:0:0:0:
318,38,87848,2,0,L|334:96,1,60.7500002317429,4|0,1:3|0:0,0:0:0:0:
281,306,88014,6,0,B|332:312|352:260|352:260|341:250|335:237,1,121.500000463486,8|0,1:0|0:0,0:0:0:0:
153,48,88181,6,0,L|83:7,1,80.9999975280763,8|0,1:3|0:0,0:0:0:0:
181,168,88348,6,0,L|258:143,1,80.9999975280763,10|0,3:0|0:0,0:0:0:0:
334,96,88514,2,0,B|366:124|366:124|345:160,1,80.9999975280763,4|0,1:3|0:0,0:0:0:0:
136,345,88681,6,0,L|127:287,1,33.7500012874604,8|0,1:0|0:0,0:0:0:0:
128,338,88848,2,0,L|151:284,1,33.7500012874604,8|0,1:3|0:0,0:0:0:0:
47,222,89014,5,6,1:2:0:0:
126,224,89181,1,2,0:0:0:0:
181,168,89348,1,2,0:0:0:0:
160,92,89514,1,2,0:0:0:0:
98,153,89681,6,0,L|90:131,1,22.5,2|0,0:0|0:0,0:0:0:0:
74,82,89848,2,0,L|66:60,1,22.5,2|0,0:0|0:0,0:0:0:0:
110,3,90014,2,0,B|109:-10|141:-22|126:7|110:3,3,45,2|0|0|0,0:0|0:0|0:0|0:0,0:0:0:0:
298,243,90348,5,4,0:3:0:0:
308,246,90431,1,4,0:3:0:0:
311,236,90514,1,4,0:3:0:0:
301,233,90598,1,4,0:3:0:0:
227,225,90681,5,4,0:3:0:0:
219,246,90764,1,4,0:3:0:0:
205,265,90848,1,4,0:3:0:0:
212,286,90931,1,4,0:3:0:0:
275,330,91014,5,8,0:3:0:0:
287,291,91097,1,8,0:3:0:0:
352,251,91181,1,8,0:3:0:0:
427,265,91264,1,8,0:3:0:0:
481,341,91348,6,0,L|484:313,1,26.9999991760254,8|0,1:0|0:0,0:0:0:0:
495,234,91431,2,0,L|498:206,1,26.9999991760254,4|0,1:3|0:0,0:0:0:0:
508,129,91514,5,8,1:3:0:0:
503,125,91598,1,12,1:3:0:0:
511,120,91681,1,14,1:0:0:0:
153,48,92014,6,0,L|201:76,1,53.9999983520508,2|0,3:2|0:0,0:0:0:0:
326,96,92181,6,0,L|270:96,1,53.9999983520508,10|0,1:2|0:0,0:0:0:0:
128,122,92514,6,0,P|158:144|169:172,1,67.5000025749208,2|0,0:0|0:0,0:0:0:0:
309,172,92681,6,0,P|272:175|248:194,1,67.5000025749208,10|0,2:2|0:0,0:0:0:0:
96,189,93014,6,0,B|101:232|126:224|134:265,1,80.9999975280763,2|0,0:0|0:0,0:0:0:0:
303,246,93181,6,0,B|276:281|259:262|232:292,1,80.9999975280763,10|0,2:2|0:0,0:0:0:0:
167,332,93514,6,0,B|191:359|145:397|132:341|167:332,1,90,2|0,0:0|0:0,0:0:0:0:
228,113,93681,5,10,2:2:0:0:
153,48,93848,6,0,L|211:82,1,67.5000025749208
286,63,94014,2,0,L|301:56,2,11.25,10|0|0,1:2|1:0|1:0,0:0:0:0:
211,82,94181,1,10,1:2:0:0:
400,188,94348,5,10,0:0:0:0:
303,246,94514,1,0,0:0:0:0:
339,328,94681,2,0,L|361:334,1,22.5,2|10,0:0|0:0,0:0:0:0:
136,345,95014,5,0,0:0:0:0:
105,280,95181,1,2,0:0:0:0:
225,369,95348,1,10,0:0:0:0:
265,309,95515,1,0,0:0:0:0:
65,340,95681,6,0,L|37:344,1,22.5,2|10,0:0|0:0,0:0:0:0:
124,137,96014,5,0,0:0:0:0:
215,117,96181,1,2,0:0:0:0:
153,48,96348,1,10,0:0:0:0:
235,0,96514,6,0,B|221:9|221:9|284:44|284:44|290:77,1,107.999996704102,2|10,3:2|0:0,0:0:0:0:
288,62,96848,6,0,L|303:136,1,58.4999973220826,10|0,0:0|0:0,0:0:0:0:
358,171,97014,5,10,3:2:0:0:
429,139,97181,1,2,3:0:0:0:
390,242,97348,1,2,3:2:0:0:
358,171,97515,1,10,3:2:0:0:
461,210,97681,5,2,3:2:0:0:
471,215,97848,1,2,3:0:0:0:
339,348,98014,5,10,3:2:0:0:
422,313,98181,1,2,3:0:0:0:
256,384,98348,6,0,B|256:360|256:360|239:353|239:353|224:320,1,58.4999973220826,2|0,3:2|0:0,0:0:0:0:
113,276,98514,2,0,L|184:280,1,58.4999973220826,10|0,3:2|0:0,0:0:0:0:
279,211,98681,2,0,P|269:242|241:262,1,58.4999973220826,2|0,3:2|0:0,0:0:0:0:
171,279,98848,6,0,B|171:255|171:255|154:248|154:248|139:215,1,58.4999973220826,2|0,3:0|0:0,0:0:0:0:
170,158,99014,2,0,B|158:137|158:137|140:140|140:140|126:132,1,58.4999973220826,10|2,3:2|3:0,0:0:0:0:
367,27,99348,5,10,1:2:0:0:
407,13,99431,1,0,1:0:0:0:
447,0,99514,2,0,L|440:36,1,29.2499986610413,0|0,1:0|0:0,0:0:0:0:
339,348,99681,6,0,L|332:301,1,33.7500012874604,14|0,1:2|0:0,0:0:0:0:
339,348,99848,2,0,L|332:301,1,33.7500012874604,2|0,3:0|0:0,0:0:0:0:
403,276,100014,6,0,L|410:229,1,33.7500012874604,2|0,3:2|0:0,0:0:0:0:
403,276,100181,2,0,L|410:229,1,33.7500012874604,10|0,3:2|0:0,0:0:0:0:
279,211,100348,6,0,L|272:164,1,33.7500012874604,2|0,3:2|0:0,0:0:0:0:
279,211,100515,2,0,L|272:164,1,33.7500012874604,2|0,3:0|0:0,0:0:0:0:
427,139,100681,6,0,L|434:92,1,33.7500012874604,10|0,3:2|0:0,0:0:0:0:
427,139,100848,2,0,L|434:92,1,33.7500012874604,2|0,3:0|0:0,0:0:0:0:
512,384,101014,6,0,L|455:350,1,56.25,2|0,1:2|0:0,0:0:0:0:
356,100,101181,6,0,L|346:166,1,56.25,10|0,3:2|0:0,0:0:0:0:
320,314,101348,2,0,L|314:351,1,33.7500012874604
480,233,101514,6,0,B|428:240|425:269|403:275,1,90,2|0,3:2|0:0,0:0:0:0:
136,345,101681,5,10,3:2:0:0:
108,331,101764,1,2,3:2:0:0:
94,359,101848,1,2,3:2:0:0:
279,211,102014,6,0,B|292:226|314:233|314:233|230:263,1,112.5,8|2,1:2|1:2,0:0:0:0:
82,259,102181,5,2,1:2:0:0:
58,189,102264,1,2,1:2:0:0:
34,118,102348,6,0,L|64:137,1,33.75,6|0,1:2|0:0,0:0:0:0:
131,168,102681,2,0,P|167:140|178:92,1,90,8|0,1:0|0:0,0:0:0:0:
232,42,102848,2,0,P|162:44|107:77,1,135.000005149842,4|0,3:0|0:0,0:0:0:0:
454,29,103181,6,0,P|440:55|434:84,1,58.4999973220826,8|0,1:3|0:0,0:0:0:0:
369,146,103348,2,0,P|337:101|287:69,1,90,8|0,1:0|0:0,0:0:0:0:
299,2,103514,2,0,B|306:-15|326:-20|326:-20|311:-11|307:1,1,67.5000025749208,2|2,3:0|3:2,0:0:0:0:
279,211,103681,5,2,1:2:0:0:
279,211,103848,6,0,B|302:218|314:238|314:238|335:226|361:234,1,90,2|0,3:0|0:0,0:0:0:0:
326,340,104014,2,0,B|303:333|291:313|291:313|270:325|244:317,1,90,8|4,1:0|3:0,0:0:0:0:
494,187,104348,6,0,P|499:164|482:185,1,67.5000025749208,2|0,1:2|0:0,0:0:0:0:
504,384,104514,6,0,P|492:350|451:322,1,67.5000025749208,4|0,1:3|0:0,0:0:0:0:
396,310,104681,2,0,P|444:285|462:225,1,90,8|0,1:0|0:0,0:0:0:0:
512,71,104848,5,2,3:0:0:0:
446,35,104931,1,2,3:2:0:0:
380,0,105014,2,0,B|371:9|377:16|371:26,1,27,4|0,1:3|0:0,0:0:0:0:
305,57,105348,6,0,B|313:79|336:93|336:93|273:57|208:61,1,180,8|2,1:0|3:0,0:0:0:0:
47,222,105681,6,0,P|71:196|71:160,1,67.5000025749208,2|0,1:2|0:0,0:0:0:0:
69,85,105848,2,0,B|89:161|133:141|151:186,1,135.000005149842,4|0,1:3|0:0,0:0:0:0:
151,261,106014,2,0,P|102:273|72:305,1,90,8|0,1:0|0:0,0:0:0:0:
136,345,106181,6,0,P|160:338|184:325,1,45,2|4,3:0|3:3,0:0:0:0:
285,197,106514,6,0,B|290:194|296:191|292:185|289:179|285:173|279:176|273:180|267:183|271:189|274:195|278:201|285:198,1,58.4999973220826,2|0,3:0|0:0,0:0:0:0:
369,237,106681,6,0,B|358:237|348:237|348:247|348:258|348:268|358:268|369:268|379:268|379:258|379:247|379:237|368:237,1,90,8|0,1:0|0:0,0:0:0:0:
499,222,106848,6,0,B|488:211|476:199|465:211|454:222|443:233|454:244|465:255|476:266|488:255|499:244|510:233|498:221,1,135,4|2,1:3|3:2,0:0:0:0:
457,123,107181,6,0,B|463:127|470:132|474:125|479:119|483:112|477:108|470:103|464:99|459:105|455:112|450:118|457:123,1,67.5000025749208,4|0,1:3|0:0,0:0:0:0:
424,365,107348,6,0,L|454:321,1,33.7500012874604,8|0,1:0|0:0,0:0:0:0:
435,359,107514,2,0,L|426:317,1,33.7500012874604,8|0,1:2|0:0,0:0:0:0:
152,47,107681,6,0,B|195:71,1,45,6|0,1:2|0:0,0:0:0:0:
162,172,107903,2,0,B|199:163|224:134,1,67.5000025749208,2|0,1:2|0:0,0:0:0:0:
258,256,108126,2,0,P|282:219|284:164,1,90,2|0,1:2|0:0,0:0:0:0:
386,248,108348,2,0,P|399:206|356:156,1,112.5,2|0,1:2|0:3,0:0:0:0:
414,66,108570,2,0,P|384:52|344:97,1,90,0|0,1:0|0:0,0:0:0:0:
295,63,108792,2,0,P|301:80|345:85,1,67.5000025749208,0|0,1:0|0:0,0:0:0:0:
464,0,109014,6,0,B|509:26|509:26|525:35|516:52|496:41|496:41|450:15|450:15|368:-33|310:24|341:50|292:64,1,330.000003147125,2|0,1:2|0:0,0:0:0:0:
254,157,109348,6,0,B|244:175|258:203|295:203|295:203|287:188|286:173,1,105.749998386383,8|0,1:0|0:0,0:0:0:0:
356,280,109514,6,0,B|344:136|223:70|223:70|231:43|220:17,1,310.500005922318,2|2,1:2|0:0,0:0:0:0:
152,46,109848,6,0,B|94:91|126:114|126:114|151:131|155:160,1,135.000005149842,2|0,1:2|0:0,0:0:0:0:
136,345,110014,5,0,1:0:0:0:
68,373,110098,1,0,1:0:0:0:
6,335,110181,2,0,P|11:312|33:295,1,45,0|0,1:0|1:0,0:0:0:0:
47,222,110348,6,0,B|187:252|140:330|216:353,1,213.749994292259,6|0,1:2|0:0,0:0:0:0:
210,357,110848,5,2,0:0:0:0:
344,270,111181,6,0,L|316:332,1,42.7499988584519,2|0,0:0|0:0,0:0:0:0:
293,376,111348,2,0,L|258:249,1,112.5,2|0,0:0|0:0,0:0:0:0:
400,358,111681,6,0,P|437:380|489:364,1,90,6|0,1:2|0:0,0:0:0:0:
512,192,112014,5,2,0:0:0:0:
449,146,112181,2,0,B|435:121|435:121|443:159,1,67.5000025749208,2|0,0:0|0:0,0:0:0:0:
372,201,112348,6,0,P|371:220|394:195,1,53.9999983520508,4|2,3:3|3:2,0:0:0:0:
472,279,112514,5,2,0:0:0:0:
478,275,112598,2,0,P|396:274|319:314,1,161.999995056153,4|2,3:3|0:0,0:0:0:0:
372,201,112848,6,0,P|396:197|400:221,1,53.9999983520508,4|2,3:3|3:2,0:0:0:0:
250,178,113014,6,0,B|255:125|205:100|205:100|297:65|236:-20|317:-73|356:11|268:57|324:132|324:132|271:129|250:178,1,450,6|0,1:2|0:0,0:0:0:0:
286,248,113514,6,0,B|199:218|199:218|187:238|167:246,1,125.999996154785,2|0,0:0|0:0,0:0:0:0:
29,284,113848,2,0,B|76:250|72:203|72:203|80:229|106:243,1,144,2|0,0:0|0:0,0:0:0:0:
101,240,114514,5,2,0:0:0:0:
135,306,114598,2,0,B|136:332|136:332|126:337|126:337|117:385,1,62.9999980773926
121,362,115014,6,0,L|172:354,1,45,2|0,0:0|0:0,0:0:0:0:
235,326,115181,2,0,L|284:343,1,45,2|0,0:0|0:0,0:0:0:0:
277,340,115514,6,0,B|286:313|286:313|338:297|338:297|352:244|352:244|332:216,1,168.75,6|0,0:0|0:0,0:0:0:0:
423,267,115848,2,0,L|409:323,1,45,2|0,0:0|0:0,0:0:0:0:
462,367,116014,1,2,0:0:0:0:
404,138,116348,6,0,B|364:146|348:178|348:178|228:150,1,168.75,2|0,0:0|0:0,0:0:0:0:
218,85,116681,2,0,L|267:75,1,33.7500012874604,2|0,0:0|0:0,0:0:0:0:
330,22,116848,2,0,L|281:12,1,45,2|0,0:0|0:0,0:0:0:0:
67,240,117181,6,0,B|51:221|51:221|79:155|79:155|137:200|137:200|133:221,1,188.999994232178,2|0,0:0|0:0,0:0:0:0:
204,242,117514,2,0,B|212:219|212:219|283:210|283:210|273:283|273:283|252:290,1,188.999994232178,2|0,0:0|0:0,0:0:0:0:
136,345,117848,1,2,0:0:0:0:
