osu file format v14

[General]
AudioFilename: audio.mp3
AudioLeadIn: 0
PreviewTime:70264
Countdown: 0
SampleSet: Soft
StackLeniency: 0.2
Mode: 0
LetterboxInBreaks: 0
WidescreenStoryboard: 1

[Editor]
Bookmarks: 1030,118029
DistanceSpacing: 1
BeatDivisor: 4
GridSize: 32
TimelineZoom: 2.5

[Metadata]
Title:Duration
TitleUnicode:Duration
Artist:Sano Nobuyoshi
ArtistUnicode:佐野電磁
Creator:Acylica
Version:DeviousPanda's Ouroboros
Source:beatmania IIDX 27 HEROIC VERSE
Tags:dnb drum n bass electronic instrumental halgoh deviouspanda acyl shizuku- kazato asa sylas thekoala leader sanodg shikibe mayu
BeatmapID:3004748
BeatmapSetID:1369545

[Difficulty]
HPDrainRate:5
CircleSize:4.9
OverallDifficulty:9.4
ApproachRate:9.6
SliderMultiplier:1.8
SliderTickRate:1

[Events]
//Background and Video events
0,0,"resize.jpg",0,0
//Break Periods
//Storyboard Layer 0 (Background)
//Storyboard Layer 1 (Fail)
//Storyboard Layer 2 (Pass)
//Storyboard Layer 3 (Foreground)
//Storyboard Layer 4 (Overlay)
//Storyboard Sound Samples

[TimingPoints]
1015,333.333333333333,4,2,1,40,1,0
1015,-1000,4,2,1,40,0,0
3181,-133.333333333333,4,2,1,40,0,0
3514,-1000,4,2,1,40,0,0
5848,-133.333333333333,4,2,1,40,0,0
11681,-66.6666666666667,4,2,1,60,0,0
18348,-55.5555555555556,4,2,1,60,0,0
18848,-50,4,2,1,60,0,0
19181,-55.5555555555556,4,2,1,60,0,0
19681,-133.333333333333,4,2,1,40,0,0
21014,-100,4,2,1,40,0,0
22348,-200,4,2,1,50,0,0
27514,-133.333333333333,4,2,1,40,0,0
27681,-100,4,2,1,60,0,0
33014,-76.9230769230769,4,2,1,60,0,0
38681,-66.6666666666667,4,2,1,60,0,0
46348,-133.333333333333,4,2,1,60,0,0
47681,-100,4,2,1,60,0,0
48681,-66.6666666666667,4,2,1,60,0,0
49014,-133.333333333333,4,2,1,60,0,0
50348,-66.6666666666667,4,2,1,60,0,0
61014,-58.8235294117647,4,2,1,60,0,0
62348,-66.6666666666667,4,2,1,60,0,0
67681,-1000,4,2,1,60,0,0
69014,-285.714285714286,4,2,1,60,0,0
70014,-100,4,2,1,80,0,0
70514,-50,4,2,1,80,0,1
70764,-50,4,2,1,80,0,0
70848,-40,4,2,1,80,0,1
71098,-40,4,2,1,80,0,0
71181,-40,4,2,1,80,0,1
71431,-40,4,2,1,80,0,0
71514,-40,4,2,1,80,0,1
71598,-40,4,2,1,80,0,0
71681,-40,4,2,1,90,0,1
72348,-50,4,2,1,90,0,1
73014,-66.6666666666667,4,2,1,90,0,1
74014,-55.5555555555556,4,2,1,90,0,1
74348,-50,4,2,1,90,0,1
74514,-40,4,2,1,90,0,1
75681,-55.5555555555556,4,2,1,90,0,1
77848,-50,4,2,1,90,0,1
78348,-40,4,2,1,90,0,1
79181,-50,4,2,1,90,0,1
79348,-66.6666666666667,4,2,1,90,0,1
79514,-100,4,2,1,90,0,1
80931,-100,4,2,1,90,0,0
81014,-50,4,2,1,90,0,1
82348,-43.4782608695652,4,2,1,90,0,1
84848,-35.7142857142857,4,2,1,90,0,1
86348,-50,4,2,1,90,0,1
86848,-43.4782608695652,4,2,1,90,0,1
88681,-40,4,2,1,90,0,1
88848,-35.7142857142857,4,2,1,90,0,1
89014,-83.3333333333333,4,2,1,90,0,0
92014,-83.3333333333333,4,2,1,60,0,0
97014,-66.6666666666667,4,2,1,70,0,0
99681,-133.333333333333,4,2,1,70,0,0
102348,-55.5555555555556,4,2,1,80,0,0
110348,-1000,4,2,1,40,0,0
111681,-500,4,2,1,40,0,0
112348,-66.6666666666667,4,2,1,70,0,0
113014,-86.9565217391304,4,2,1,30,0,0
117181,-100,4,2,1,30,0,0
117514,-133.333333333333,4,2,1,30,0,0
117848,-200,4,2,1,30,0,0
118014,-100,4,2,1,25,0,0

[Colours]
Combo1 : 152,224,173
Combo2 : 247,134,168

[HitObjects]
21,383,1015,6,0,P|18:359|0:278,1,108,6|2,0:0|0:0,0:0:0:0:
115,238,3181,6,0,P|104:281|101:308,1,67.5000025749208,6|2,0:0|0:0,0:0:0:0:
489,384,3514,6,0,P|492:360|513:269,1,117,6|2,0:0|0:0,0:0:0:0:
397,238,5848,6,0,P|408:281|411:308,1,67.5000025749208,6|2,0:0|0:0,0:0:0:0:
113,169,6181,5,6,0:0:0:0:
176,199,6348,2,0,P|219:182|253:154,1,67.5000025749208,2|2,0:0|0:0,0:0:0:0:
180,69,6681,2,0,P|137:86|103:114,1,67.5000025749208,2|2,0:0|0:0,0:0:0:0:
225,326,7014,5,2,0:0:0:0:
280,283,7181,2,0,P|285:243|307:188,1,67.5000025749208,2|2,0:0|0:0,0:0:0:0:
116,0,7514,5,2,0:0:0:0:
38,57,7681,2,0,P|47:89|50:122,1,67.5000025749208,6|2,0:0|0:0,0:0:0:0:
368,169,8014,5,2,0:0:0:0:
303,132,8181,2,0,P|301:86|294:48,2,67.5000025749208,6|2|2,0:0|0:0|0:0,0:0:0:0:
421,59,8681,2,0,P|421:92|426:126,1,67.5000025749208,2|2,0:0|0:0,0:0:0:0:
124,269,9014,5,6,0:0:0:0:
68,316,9181,2,0,P|7:305|-22:306,1,67.5000025749208,2|2,0:0|0:0,0:0:0:0:
24,193,9514,2,0,P|85:204|114:203,1,67.5000025749208,2|2,0:0|0:0,0:0:0:0:
219,252,9848,6,0,P|211:300|208:335,2,67.5000025749208,2|2|2,0:0|0:0|0:0,0:0:0:0:
299,13,10348,5,6,3:2:0:0:
300,18,10514,1,2,3:2:0:0:
301,23,10681,1,2,3:2:0:0:
302,28,10848,1,2,3:2:0:0:
348,83,11014,5,2,3:2:0:0:
347,90,11098,1,2,3:2:0:0:
346,97,11181,1,6,3:2:0:0:
345,104,11264,1,2,3:2:0:0:
344,110,11348,1,2,3:2:0:0:
343,117,11431,1,2,3:2:0:0:
341,124,11514,1,2,3:2:0:0:
340,131,11598,1,2,3:2:0:0:
404,159,11681,6,0,P|342:171|219:209,1,135.000005149842,6|0,1:2|3:0,0:0:0:0:
484,76,12014,2,0,P|451:83|412:88,1,67.5000025749208,8|0,1:0|0:0,0:0:0:0:
222,249,12181,6,0,P|245:151|259:51,1,202.500007724762,2|0,3:2|0:0,0:0:0:0:
407,162,12514,6,0,P|397:209|392:248,1,67.5000025749208,4|0,1:3|0:0,0:0:0:0:
185,111,12681,2,0,P|179:144|172:177,1,67.5000025749208,8|0,1:0|0:0,0:0:0:0:
305,0,12848,5,2,3:2:0:0:
305,0,13014,2,0,P|230:19|138:31,1,135.000005149842,0|2,1:0|3:0,0:0:0:0:
48,81,13264,1,2,3:2:0:0:
48,81,13348,2,0,P|101:69|139:63,1,67.5000025749208,8|0,1:0|0:0,0:0:0:0:
368,30,13514,6,0,P|382:141|407:283,1,202.500007724762,4|0,1:3|0:0,0:0:0:0:
263,120,13848,2,0,P|273:171|278:214,1,67.5000025749208,2|0,1:2|0:0,0:0:0:0:
467,24,14014,2,0,P|472:57|479:90,1,67.5000025749208,8|0,1:0|0:0,0:0:0:0:
464,279,14181,5,2,1:2:0:0:
464,279,14264,1,2,3:2:0:0:
464,279,14348,2,0,P|400:263|294:251,1,135.000005149842,6|0,1:3|3:0,0:0:0:0:
512,206,14681,2,0,P|475:199|440:189,1,67.5000025749208,8|0,1:0|0:0,0:0:0:0:
198,144,14848,6,0,P|222:290|231:382,1,202.500007724762,2|0,3:0|0:0,0:0:0:0:
330,247,15181,6,0,P|336:193|354:128,1,67.5000025749208,4|0,3:0|0:0,0:0:0:0:
275,50,15348,2,0,P|268:103|250:168,1,67.5000025749208,8|0,1:0|0:0,0:0:0:0:
151,348,15514,5,2,3:0:0:0:
151,348,15681,2,0,P|81:307|100:220,1,135.000005149842,4|2,1:3|3:2,0:0:0:0:
123,209,15931,1,2,0:0:0:0:
123,209,16014,1,8,1:0:0:0:
214,384,16181,6,0,P|289:347|241:216,1,202.500007724762,4|0,1:3|0:0,0:0:0:0:
242,182,16514,2,0,P|254:117|274:71,1,67.5000025749208,4|0,3:0|0:0,0:0:0:0:
45,195,16681,2,0,P|53:162|57:128,1,67.5000025749208,8|0,1:0|0:0,0:0:0:0:
245,185,16848,2,0,P|257:120|277:74,1,67.5000025749208,10|0,1:3|0:0,0:0:0:0:
407,15,17014,6,0,P|333:29|231:34,1,135.000005149842,6|2,1:2|3:0,0:0:0:0:
469,81,17264,1,2,0:0:0:0:
469,81,17348,2,0,P|415:90|384:98,1,67.5000025749208,8|0,1:0|0:0,0:0:0:0:
165,7,17514,5,2,3:0:0:0:
108,45,17681,5,2,3:0:0:0:
107,51,17764,1,2,0:0:0:0:
105,58,17848,1,4,1:3:0:0:
104,65,17931,1,2,3:2:0:0:
152,117,18014,5,8,1:0:0:0:
153,123,18097,1,2,0:0:0:0:
155,130,18181,1,2,3:0:0:0:
156,137,18264,1,2,0:0:0:0:
90,167,18348,6,0,P|175:181|284:210,1,161.999995056153,6|2,1:2|3:0,0:0:0:0:
308,243,18598,1,2,0:0:0:0:
308,243,18681,2,0,P|287:283|228:287,1,80.9999975280763,8|0,1:0|0:0,0:0:0:0:
42,221,18848,6,0,P|168:183|307:146,1,270,4|0,1:3|0:0,0:0:0:0:
117,123,19181,2,0,P|161:112|211:95,1,80.9999975280763,4|0,3:0|0:0,0:0:0:0:
112,277,19348,2,0,P|150:264|189:255,1,80.9999975280763,8|0,1:0|0:0,0:0:0:0:
383,116,19514,5,2,3:2:0:0:
383,116,19598,1,2,3:2:0:0:
383,116,19681,2,0,P|371:164|367:198,7,67.5000025749208,6|2|2|2|2|2|2|2,0:0|0:0|0:0|0:0|0:0|0:0|0:0|0:0,0:0:0:0:
347,50,21014,6,0,P|299:39|238:13,1,90,6|2,0:0|0:0,0:0:0:0:
415,239,21348,2,0,P|463:250|524:276,1,90,2|2,0:0|0:0,0:0:0:0:
301,159,21681,5,2,3:2:0:0:
292,160,21764,1,2,3:2:0:0:
283,161,21848,1,2,3:2:0:0:
274,162,21931,1,2,3:2:0:0:
231,233,22014,5,2,3:2:0:0:
217,231,22097,1,2,3:2:0:0:
203,229,22181,1,2,3:2:0:0:
190,228,22264,1,2,3:2:0:0:
139,154,22348,6,0,P|132:129|128:97,1,45,6|2,1:2|0:0,0:0:0:0:
76,315,22681,2,0,P|69:271|60:227,1,90,2|2,0:0|0:0,0:0:0:0:
142,157,23181,2,0,P|132:109|125:61,1,90,2|2,0:0|0:0,0:0:0:0:
395,329,23681,6,0,P|401:284|411:240,1,90,2|2,0:0|0:0,0:0:0:0:
266,163,24181,2,0,P|276:115|283:67,1,90,2|2,0:0|0:0,0:0:0:0:
211,0,24681,5,2,0:0:0:0:
211,0,25014,1,2,0:0:0:0:
138,346,25348,6,0,P|181:333|238:321,1,90,2|2,0:0|0:0,0:0:0:0:
269,168,25848,2,0,P|312:155|369:143,1,90,2|2,0:0|0:0,0:0:0:0:
368,384,26348,6,0,P|325:371|268:359,1,90,2|2,0:0|0:0,0:0:0:0:
212,118,26848,2,0,P|169:105|112:93,1,90,2|2,0:0|0:0,0:0:0:0:
248,264,27348,5,2,0:0:0:0:
248,264,27514,2,0,P|251:233|257:209,1,33.7500012874604,2|0,3:0|0:0,0:0:0:0:
327,152,27681,6,0,P|382:141|508:113,1,180,14|2,0:0|0:0,0:0:0:0:
285,354,28181,2,0,P|372:334|460:316,1,180,10|2,0:0|0:0,0:0:0:0:
322,147,28681,2,0,P|377:136|503:108,1,180,10|2,0:0|0:0,0:0:0:0:
291,360,29181,2,0,P|378:340|466:322,1,180,10|2,0:0|0:0,0:0:0:0:
316,141,29681,2,0,P|371:130|467:108,1,135,10|2,0:0|0:0,0:0:0:0:
496,162,30014,6,0,P|493:176|492:189,2,22.5,10|0|0,1:2|1:0|1:0,0:0:0:0:
490,61,30181,2,0,P|492:39|497:9,1,45,10|0,0:0|0:0,0:0:0:0:
287,70,30348,6,0,P|277:156|260:259,1,180,14|2,0:0|0:0,0:0:0:0:
502,168,30848,2,0,P|487:256|477:346,1,180,10|2,0:0|0:0,0:0:0:0:
281,64,31348,2,0,P|271:150|254:253,1,180,10|2,0:0|0:0,0:0:0:0:
508,174,31848,2,0,P|493:262|483:352,1,180,10|2,0:0|0:0,0:0:0:0:
275,58,32348,6,0,P|272:96|268:119,1,45,10|0,0:0|0:0,0:0:0:0:
270,102,32514,1,2,3:2:0:0:
417,285,32681,6,0,P|420:256|423:235,1,45,10|0,0:0|0:0,0:0:0:0:
348,275,32848,2,0,P|351:246|354:225,1,45,10|0,0:0|0:0,0:0:0:0:
134,207,33014,6,0,P|141:252|149:336,1,116.999994644165,14|2,1:2|3:0,0:0:0:0:
197,137,33348,1,2,3:2:0:0:
65,242,33514,2,0,P|70:272|72:302,1,58.4999973220826,10|0,3:2|0:0,0:0:0:0:
189,384,33681,1,0,3:0:0:0:
189,384,33848,1,2,3:0:0:0:
200,140,34014,6,0,P|231:131|264:124,1,58.4999973220826,10|0,3:2|0:0,0:0:0:0:
285,57,34181,2,0,P|313:50|341:42,1,58.4999973220826,2|0,3:0|0:0,0:0:0:0:
403,116,34348,1,6,3:2:0:0:
214,13,34514,1,10,3:2:0:0:
455,65,34681,2,0,P|443:123|432:193,1,116.999994644165,2|2,3:2|3:0,0:0:0:0:
283,62,35014,6,0,P|296:131|297:143,1,58.4999973220826,10|0,3:2|0:0,0:0:0:0:
262,187,35181,2,0,P|275:256|276:268,1,58.4999973220826,2|0,3:2|0:0,0:0:0:0:
382,315,35348,5,10,1:2:0:0:
427,307,35431,1,0,1:0:0:0:
472,298,35514,2,0,P|477:261|482:236,1,58.4999973220826,0|2,1:2|0:0,0:0:0:0:
258,183,35681,6,0,P|197:194|137:208,1,116.999994644165,10|2,3:2|3:0,0:0:0:0:
297,122,36014,1,2,3:2:0:0:
238,254,36181,2,0,P|195:262|155:273,1,58.4999973220826,10|0,3:2|0:0,0:0:0:0:
83,173,36348,1,2,3:2:0:0:
83,173,36514,1,2,3:0:0:0:
301,119,36681,6,0,P|305:83|314:46,1,58.4999973220826,10|0,3:2|0:0,0:0:0:0:
274,5,36848,1,2,3:0:0:0:
355,177,37014,6,0,P|386:182|417:191,1,58.4999973220826,2|0,3:2|0:0,0:0:0:0:
227,89,37181,2,0,P|196:84|165:75,1,58.4999973220826,10|0,3:2|0:0,0:0:0:0:
397,115,37348,6,0,P|402:84|411:53,1,58.4999973220826,2|0,3:2|0:0,0:0:0:0:
187,155,37515,2,0,P|182:186|173:217,1,58.4999973220826,2|0,3:0|0:0,0:0:0:0:
339,324,37681,5,10,1:2:0:0:
362,317,37764,1,2,3:2:0:0:
333,319,37848,1,2,3:2:0:0:
364,310,37931,1,2,3:2:0:0:
322,251,38014,5,10,1:2:0:0:
285,241,38097,1,2,1:2:0:0:
330,243,38181,1,2,1:2:0:0:
282,230,38264,1,2,1:2:0:0:
358,180,38348,6,0,P|409:199|433:260,1,116.999994644165,14|2,1:2|3:0,0:0:0:0:
467,318,38598,1,2,3:2:0:0:
467,318,38681,2,0,P|472:252|489:157,2,135.000005149842,2|10|2,1:2|3:2|3:2,0:0:0:0:
193,157,39181,2,0,P|188:223|171:318,2,135.000005149842,2|10|2,1:2|3:2|3:0,0:0:0:0:
247,110,39598,1,2,3:2:0:0:
247,110,39681,1,2,1:2:0:0:
161,369,39848,6,0,P|198:359|241:350,1,67.5000025749208,10|0,3:2|0:0,0:0:0:0:
55,228,40014,2,0,P|87:220|120:211,1,67.5000025749208,2|0,3:2|0:0,0:0:0:0:
164,372,40181,2,0,P|201:362|244:353,1,67.5000025749208,2|0,3:0|0:0,0:0:0:0:
309,155,40348,6,0,P|301:205|299:234,1,67.5000025749208,10|0,3:2|0:0,0:0:0:0:
245,271,40514,1,2,3:0:0:0:
365,110,40681,6,0,P|389:106|418:96,2,33.7500012874604,10|0|0,1:2|1:0|1:0,0:0:0:0:
250,113,40848,2,0,P|200:122|169:129,1,67.5000025749208,2|0,1:2|0:0,0:0:0:0:
292,324,41014,6,0,P|367:332|444:347,1,135.000005149842,10|2,3:2|3:0,0:0:0:0:
485,310,41264,1,2,0:2:0:0:
485,310,41348,1,2,3:2:0:0:
180,257,41514,6,0,P|213:264|247:267,1,67.5000025749208,10|0,3:2|0:0,0:0:0:0:
91,355,41681,2,0,P|124:359|158:366,1,67.5000025749208,2|0,3:2|0:0,0:0:0:0:
183,254,41848,2,0,P|216:260|249:264,1,67.5000025749208,2|0,3:2|0:0,0:0:0:0:
21,352,42014,6,0,P|88:356|155:369,1,135.000005149842,10|2,3:2|3:0,0:0:0:0:
219,338,42264,1,2,0:0:0:0:
219,338,42348,1,2,3:2:0:0:
104,213,42514,6,0,P|98:168|89:124,1,67.5000025749208,10|0,3:2|0:0,0:0:0:0:
123,84,42681,1,2,3:2:0:0:
357,299,42848,6,0,P|363:254|372:210,1,67.5000025749208,2|0,3:0|0:0,0:0:0:0:
338,170,43015,1,10,3:2:0:0:
330,171,43098,1,2,3:2:0:0:
322,173,43181,1,2,1:2:0:0:
314,174,43264,1,2,3:2:0:0:
285,253,43348,5,10,3:2:0:0:
268,249,43431,1,2,3:2:0:0:
252,245,43514,1,2,1:2:0:0:
236,242,43597,1,2,3:2:0:0:
189,162,43681,6,0,P|198:104|207:14,2,135.000005149842,10|2|2,3:2|3:0|3:2,0:0:0:0:
440,251,44181,2,0,P|431:309|422:399,2,135.000005149842,10|2|2,3:2|3:2|3:0,0:0:0:0:
350,175,44681,5,10,3:2:0:0:
335,177,44764,1,2,3:2:0:0:
321,180,44848,1,2,3:2:0:0:
308,182,44931,1,2,3:2:0:0:
257,232,45014,6,0,P|264:271|268:317,1,67.5000025749208,2|0,3:2|0:0,0:0:0:0:
403,79,45181,2,0,P|406:112|412:145,1,67.5000025749208,10|0,3:2|0:0,0:0:0:0:
254,235,45348,2,0,P|261:274|265:320,1,67.5000025749208,2|0,3:2|0:0,0:0:0:0:
420,381,45514,5,2,3:0:0:0:
192,165,45681,6,0,P|150:155|102:148,1,67.5000025749208,10|0,3:2|0:0,0:0:0:0:
443,248,45848,2,0,P|485:258|533:265,1,67.5000025749208,2|0,3:0|0:0,0:0:0:0:
337,111,46014,5,10,1:2:0:0:
332,67,46098,1,0,1:0:0:0:
326,23,46181,1,0,1:0:0:0:
260,304,46348,6,0,P|254:337|250:370,7,67.5000025749208,4|0|0|0|0|0|0|0,1:3|1:0|1:0|1:0|1:0|1:0|1:0|1:0,0:0:0:0:
490,175,47681,5,2,1:2:0:0:
439,185,47764,1,2,1:2:0:0:
387,196,47848,1,2,1:2:0:0:
338,205,47931,1,2,1:2:0:0:
286,214,48014,1,2,1:2:0:0:
237,225,48098,1,2,1:2:0:0:
185,237,48181,1,2,1:2:0:0:
134,246,48264,1,2,1:2:0:0:
91,302,48348,5,2,1:2:0:0:
91,302,48431,1,2,1:2:0:0:
91,302,48514,2,0,P|86:331|82:379,1,45,2|2,1:2|3:2,0:0:0:0:
0,178,48681,2,0,P|8:136|11:95,1,67.5000025749208,8|0,1:0|0:0,0:0:0:0:
142,0,48848,5,2,1:2:0:0:
142,0,48931,1,2,1:2:0:0:
142,0,49014,2,0,P|235:15|245:127,1,202.500007724762,6|4,1:2|0:3,0:0:0:0:
255,109,49848,1,2,3:0:0:0:
191,144,50014,2,0,P|167:130|158:100,1,33.7500012874604,10|0,3:2|0:0,0:0:0:0:
262,0,50181,5,2,3:2:0:0:
375,154,50348,6,0,P|288:198|287:272,1,135.000005149842,6|2,1:2|3:0,0:0:0:0:
303,296,50598,1,2,3:2:0:0:
303,296,50681,2,0,P|350:298|377:254,1,67.5000025749208,8|0,1:0|0:0,0:0:0:0:
451,131,50848,6,0,P|440:188|437:245,1,67.5000025749208,4|0,1:3|0:0,0:0:0:0:
249,351,51014,2,0,P|168:326|173:239,1,135.000005149842,2|4,1:2|3:0,0:0:0:0:
167,219,51264,1,2,3:2:0:0:
167,219,51348,2,0,P|205:188|251:205,1,67.5000025749208,8|0,1:0|0:0,0:0:0:0:
422,351,51514,5,2,1:2:0:0:
422,351,51598,1,2,3:2:0:0:
422,351,51681,2,0,P|417:245|381:35,1,270.000010299683,4|8,1:3|1:0,0:0:0:0:
495,318,52181,2,0,P|501:263|516:206,1,67.5000025749208,2|0,3:2|0:0,0:0:0:0:
389,80,52348,5,2,3:2:0:0:
428,144,52514,2,0,P|483:121|494:91,1,67.5000025749208,4|0,3:0|0:0,0:0:0:0:
389,236,52681,6,0,P|357:204|299:202,1,67.5000025749208,8|0,1:0|0:0,0:0:0:0:
285,118,52848,2,0,P|241:129|210:178,1,67.5000025749208,12|0,3:0|0:0,0:0:0:0:
303,314,53014,5,8,1:3:0:0:
512,48,53181,6,0,P|464:42|420:19,1,67.5000025749208,2|0,1:3|0:0,0:0:0:0:
272,239,53348,2,0,P|234:229|172:224,1,67.5000025749208,8|0,1:0|0:0,0:0:0:0:
13,83,53514,6,0,P|150:74|272:57,1,202.500007724762,4|0,1:3|0:0,0:0:0:0:
44,165,53848,2,0,P|100:170|163:190,1,67.5000025749208,2|0,3:0|0:0,0:0:0:0:
261,384,54014,5,8,1:0:0:0:
261,384,54181,1,8,1:3:0:0:
245,0,54348,6,0,P|308:10|302:122,1,135.000005149842,6|2,1:2|3:0,0:0:0:0:
298,130,54598,1,2,3:2:0:0:
298,130,54681,1,8,1:0:0:0:
378,264,54848,6,0,P|420:244|432:207,1,67.5000025749208,2|0,3:0|0:0,0:0:0:0:
413,161,55014,1,4,3:0:0:0:
206,263,55181,6,0,P|215:316|217:373,1,67.5000025749208,8|0,1:3|0:0,0:0:0:0:
405,91,55348,2,0,P|408:124|415:157,1,67.5000025749208,8|0,1:0|0:0,0:0:0:0:
203,260,55514,2,0,P|212:313|214:370,1,67.5000025749208,4|0,3:0|0:0,0:0:0:0:
47,168,55681,6,0,P|92:184|143:91,1,135.000005149842,6|2,1:2|3:0,0:0:0:0:
132,63,55931,1,2,0:0:0:0:
132,63,56014,1,8,1:0:0:0:
422,26,56181,6,0,P|505:37|492:143,1,202.500007724762,8|0,3:0|0:0,0:0:0:0:
499,213,56514,2,0,P|444:221|398:238,1,67.5000025749208,4|0,1:3|0:0,0:0:0:0:
292,11,56681,2,0,P|347:3|393:-14,1,67.5000025749208,8|0,1:0|0:0,0:0:0:0:
333,186,56848,5,2,3:0:0:0:
333,186,56931,1,2,3:2:0:0:
333,186,57014,2,0,P|228:168|80:163,1,202.500007724762,4|0,1:3|0:0,0:0:0:0:
362,85,57348,2,0,P|325:93|266:101,1,67.5000025749208,8|0,1:0|0:0,0:0:0:0:
68,197,57514,5,2,3:0:0:0:
7,162,57681,2,0,P|12:122|57:96,1,67.5000025749208,8|0,3:0|0:0,0:0:0:0:
20,35,57848,2,0,P|56:19|101:45,1,67.5000025749208,4|0,1:3|0:0,0:0:0:0:
171,245,58014,6,0,P|133:260|88:234,1,67.5000025749208,8|0,1:0|0:0,0:0:0:0:
54,297,58181,2,0,P|22:273|22:221,1,67.5000025749208,2|0,3:0|0:0,0:0:0:0:
225,1,58348,6,0,P|207:95|200:184,1,135.000005149842,4|2,1:3|3:0,0:0:0:0:
237,198,58598,1,2,3:2:0:0:
237,198,58681,1,8,1:0:0:0:
332,246,58848,6,0,P|372:197|344:147,1,67.5000025749208,4|0,1:3|0:0,0:0:0:0:
174,248,59014,1,2,3:2:0:0:
178,264,59098,1,0,3:0:0:0:
181,280,59181,1,4,1:3:0:0:
185,295,59264,1,2,3:2:0:0:
137,346,59348,6,0,P|96:330|88:286,1,67.5000025749208,8|0,1:0|0:0,0:0:0:0:
284,341,59514,5,10,3:2:0:0:
284,341,59598,1,2,3:2:0:0:
284,341,59681,2,0,P|377:351|448:371,1,135.000005149842,6|2,1:2|3:0,0:0:0:0:
263,263,60014,2,0,P|296:258|328:249,1,67.5000025749208,8|0,1:0|0:0,0:0:0:0:
374,38,60181,6,0,P|448:64|442:133,2,135.000005149842,4|2|6,3:0|3:2|1:2,0:0:0:0:
337,100,60598,1,2,3:2:0:0:
337,100,60681,2,0,P|345:147|349:202,1,67.5000025749208,8|0,1:0|0:0,0:0:0:0:
502,194,60848,2,0,P|505:227|512:260,1,67.5000025749208,2|0,3:0|0:0,0:0:0:0:
182,298,61014,6,0,P|115:258|160:167,1,153.000002918243,4|2,1:3|3:0,0:0:0:0:
176,149,61264,1,2,3:2:0:0:
176,149,61348,2,0,P|218:166|216:221,1,76.5000014591217,8|0,1:0|0:0,0:0:0:0:
165,378,61514,6,0,P|226:364|280:360,1,76.5000014591217,8|0,1:3|0:0,0:0:0:0:
274,281,61681,2,0,P|311:274|348:265,1,76.5000014591217,12|0,0:3|0:0,0:0:0:0:
474,365,61848,5,4,1:3:0:0:
381,40,62014,6,0,P|288:54|292:147,1,153.000002918243,8|2,1:0|3:0,0:0:0:0:
313,159,62264,1,2,0:3:0:0:
313,159,62348,2,0,P|361:163|409:175,1,67.5000025749208,4|0,1:3|0:0,0:0:0:0:
446,1,62514,2,0,P|483:8|517:11,1,67.5000025749208,2|0,3:0|0:0,0:0:0:0:
507,244,62681,6,0,P|407:261|359:272,1,135.000005149842,8|2,1:0|3:0,0:0:0:0:
320,321,62931,1,2,3:2:0:0:
320,321,63014,2,0,P|280:294|284:251,1,67.5000025749208,2|0,3:2|0:0,0:0:0:0:
217,240,63181,2,0,P|220:191|259:173,1,67.5000025749208,4|0,1:3|0:0,0:0:0:0:
509,13,63348,6,0,P|505:61|466:79,1,67.5000025749208,8|0,1:0|0:0,0:0:0:0:
512,161,63515,2,0,P|468:182|433:157,1,67.5000025749208,2|0,3:2|0:0,0:0:0:0:
255,55,63681,6,0,P|298:65|370:73,1,67.5000025749208,8|0,1:3|0:0,0:0:0:0:
184,349,63848,2,0,P|217:354|250:362,1,67.5000025749208,8|0,3:0|0:0,0:0:0:0:
258,52,64014,2,0,P|301:62|373:70,1,67.5000025749208,8|0,1:0|0:0,0:0:0:0:
371,192,64181,6,0,P|261:202|126:220,1,202.500007724762,4|0,1:3|0:0,0:0:0:0:
104,227,64514,1,4,3:0:0:0:
509,164,64681,5,8,1:0:0:0:
509,164,64848,1,8,1:2:0:0:
37,178,65014,6,0,B|24:133|24:133|69:83,1,90.0000034332277,6|0,1:2|0:0,0:0:0:0:
155,307,65237,6,0,B|122:340|122:340|56:326,1,90.0000034332277,2|8,1:2|1:0,0:0:0:0:
207,141,65459,6,0,B|252:152|252:152|273:216,1,90.0000034332277,2|0,1:2|0:0,0:0:0:0:
138,179,65681,6,0,L|126:49,1,90.0000034332277,2|2,1:2|3:2,0:0:0:0:
136,86,65848,1,4,1:3:0:0:
142,82,65903,2,0,L|148:18,1,45.0000017166138,2|0,1:2|0:0,0:0:0:0:
87,0,66014,6,0,P|47:10|35:52,1,67.5000025749208,8|2,1:0|0:0,0:0:0:0:
212,138,66181,2,0,P|251:127|263:85,1,67.5000025749208,2|2,3:0|0:0,0:0:0:0:
0,279,66348,6,0,P|101:254|258:230,1,202.500007724762,6|0,1:2|0:0,0:0:0:0:
0,193,66681,2,0,P|37:185|81:173,1,67.5000025749208,8|0,1:0|0:0,0:0:0:0:
257,0,66848,6,0,P|289:15|298:67,1,67.5000025749208,4|0,1:3|0:0,0:0:0:0:
365,74,67014,2,0,P|367:109|327:144,1,67.5000025749208,2|0,3:2|0:0,0:0:0:0:
274,380,67181,6,0,P|281:322|291:285,1,67.5000025749208,8|0,1:3|0:0,0:0:0:0:
69,356,67348,2,0,P|75:322|77:289,1,67.5000025749208,8|0,1:0|0:0,0:0:0:0:
277,383,67514,2,0,P|284:325|294:288,1,67.5000025749208,10|0,1:2|0:0,0:0:0:0:
168,251,67681,6,0,P|171:280|173:313,1,63,4|2,1:2|0:0,0:0:0:0:
382,349,69014,6,0,P|379:320|377:282,1,62.9999980773926,6|2,1:2|0:0,0:0:0:0:
158,38,69514,5,2,1:2:0:0:
368,132,69681,5,2,3:2:0:0:
360,135,69764,1,2,3:2:0:0:
352,140,69848,1,2,3:2:0:0:
344,144,69931,1,2,3:2:0:0:
279,117,70014,6,0,P|274:138|270:163,1,45,8|0,1:0|0:0,0:0:0:0:
66,5,70181,5,2,1:3:0:0:
0,89,70264,2,0,P|5:68|9:43,1,45,2|0,3:0|0:0,0:0:0:0:
122,177,70514,6,0,P|85:129|178:166,1,270,8|0,1:3|0:0,0:0:0:0:
47,227,70848,6,0,P|-8:274|110:247,1,337.5,4|0,1:3|0:0,0:0:0:0:
268,165,71181,6,0,P|269:212|211:168,1,112.5,4|0,0:3|0:0,0:0:0:0:
73,72,71348,5,8,1:0:0:0:
76,75,71514,1,2,3:2:0:0:
350,101,71681,6,0,P|325:36|259:48,1,112.5,6|0,1:0|0:0,0:0:0:0:
231,75,71848,2,0,P|231:143|297:155,1,112.5,2|0,3:2|0:0,0:0:0:0:
474,99,72014,6,0,B|443:102|443:102|349:230|349:230|263:239,1,225,8|8,1:0|1:3,0:0:0:0:
220,348,72264,1,2,3:2:0:0:
220,348,72348,2,0,P|219:298|267:268,1,90,2|0,1:3|0:0,0:0:0:0:
316,303,72514,2,0,P|316:352|268:382,1,90,4|0,3:0|0:0,0:0:0:0:
321,103,72681,6,0,B|357:110|357:110|404:205|404:205|468:221,1,180,8|2,1:0|3:2,0:0:0:0:
512,216,72931,1,0,3:0:0:0:
512,216,73014,2,0,P|514:252|478:272,1,67.5000025749208,8|0,1:3|0:0,0:0:0:0:
247,99,73181,2,0,P|245:63|281:43,1,67.5000025749208,2|0,1:3|0:0,0:0:0:0:
447,384,73348,6,0,P|438:336|434:272,1,67.5000025749208,8|0,1:0|0:0,0:0:0:0:
353,11,73514,6,0,P|344:113|327:223,1,202.500007724762,6|0,3:2|0:0,0:0:0:0:
256,255,73848,6,0,P|208:217|225:179,1,67.5000025749208,4|0,1:3|0:0,0:0:0:0:
374,77,74014,2,0,P|449:108|405:203,1,161.999995056153,8|2,1:0|3:2,0:0:0:0:
372,278,74264,5,2,3:2:0:0:
372,278,74348,2,0,P|334:257|333:214,1,90,4|0,1:3|0:0,0:0:0:0:
347,11,74514,6,0,P|256:-2|260:130,1,225,8|8,1:3|1:0,0:0:0:0:
176,303,74764,5,2,3:2:0:0:
176,303,74848,2,0,P|37:257|176:234,1,337.5,4|0,1:3|0:0,0:0:0:0:
341,357,75181,6,0,P|426:340|490:331,1,112.5,4|0,1:3|0:0,0:0:0:0:
287,158,75348,2,0,P|342:148|397:137,1,112.5,8|0,1:0|0:0,0:0:0:0:
346,363,75514,2,0,P|431:346|495:337,1,112.5,8|0,1:3|0:0,0:0:0:0:
219,183,75681,6,0,P|215:144|235:109,1,80.9999975280763,6|0,1:2|0:0,0:0:0:0:
204,45,75848,2,0,P|236:21|276:22,1,80.9999975280763,2|0,3:2|0:0,0:0:0:0:
409,260,76014,6,0,P|358:250|292:240,1,80.9999975280763,8|0,1:0|0:0,0:0:0:0:
223,187,76181,1,2,3:2:0:0:
437,28,76348,5,2,1:2:0:0:
440,39,76431,1,2,3:2:0:0:
442,51,76514,1,4,1:3:0:0:
445,63,76598,1,2,3:2:0:0:
384,101,76681,5,8,1:0:0:0:
389,112,76764,1,2,3:2:0:0:
395,122,76847,1,2,1:2:0:0:
400,133,76931,1,2,3:2:0:0:
503,113,77014,6,0,P|490:176|485:215,1,80.9999975280763,2|0,1:2|0:0,0:0:0:0:
200,41,77181,2,0,P|193:81|185:121,1,80.9999975280763,2|0,1:3|0:0,0:0:0:0:
506,116,77348,2,0,P|493:179|488:218,1,80.9999975280763,8|0,1:0|0:0,0:0:0:0:
302,250,77514,6,0,P|205:284|246:186,1,242.999992584229,6|0,1:2|0:0,0:0:0:0:
420,195,77848,6,0,P|411:244|350:227,1,90,4|0,1:3|0:0,0:0:0:0:
259,97,78014,2,0,P|317:108|284:155,1,90,8|0,1:0|0:0,0:0:0:0:
337,369,78181,5,8,3:0:0:0:
337,369,78264,1,2,3:2:0:0:
337,369,78348,2,0,P|362:269|412:346,2,225,6|2|8,1:2|3:0|1:0,0:0:0:0:
504,124,78848,6,0,P|438:51|443:196,1,337.5,2|0,3:0|0:0,0:0:0:0:
496,308,79181,6,0,P|482:372|429:329,1,90,8|0,1:3|0:0,0:0:0:0:
375,230,79348,6,0,P|401:200|429:202,1,67.5000025749208,8|0,1:0|0:0,0:0:0:0:
340,372,79514,6,0,P|305:364|291:339,1,45,8|0,3:0|0:0,0:0:0:0:
403,316,79681,5,6,1:2:0:0:
402,311,79764,1,4,3:0:0:0:
403,307,79848,1,4,1:3:0:0:
408,305,79931,1,4,3:0:0:0:
412,307,80014,1,8,1:0:0:0:
414,311,80098,1,4,3:0:0:0:
412,316,80181,1,4,1:3:0:0:
408,317,80264,1,4,3:0:0:0:
328,289,80348,5,8,1:3:0:0:
286,293,80431,1,8,3:0:0:0:
331,283,80514,1,8,1:3:0:0:
281,287,80598,1,8,3:0:0:0:
330,210,80681,5,8,1:0:0:0:
258,203,80764,1,8,1:3:0:0:
334,204,80847,1,8,1:3:0:0:
256,194,80931,1,8,1:3:0:0:
367,132,81014,6,0,P|357:87|348:32,1,90,6|0,1:2|0:0,0:0:0:0:
155,273,81181,2,0,P|147:228|137:184,1,90,2|0,3:0|0:0,0:0:0:0:
373,130,81348,2,0,P|363:85|354:30,1,90,8|0,1:0|0:0,0:0:0:0:
138,35,81514,6,0,P|14:28|55:121,1,270,4|0,3:0|0:0,0:0:0:0:
209,11,81848,6,0,P|261:34|242:83,1,90,8|0,1:3|0:0,0:0:0:0:
56,211,82014,6,0,B|94:201|94:201|143:110|143:110|188:98,1,180,8|2,1:0|3:2,0:0:0:0:
254,142,82264,5,2,3:2:0:0:
254,142,82348,2,0,P|270:196|331:187,1,103.500001974106,8|0,1:3|0:0,0:0:0:0:
486,73,82514,2,0,P|469:18|408:27,1,103.500001974106,2|0,3:2|0:0,0:0:0:0:
371,249,82681,6,0,P|431:219|426:163,1,103.500001974106,8|0,1:0|0:0,0:0:0:0:
318,14,82848,2,0,P|342:193|351:349,1,310.500005922318,4|0,1:3|0:0,0:0:0:0:
293,384,83181,5,4,1:3:0:0:
293,384,83264,1,2,3:2:0:0:
293,384,83348,2,0,B|230:386|213:338|215:329|218:319|208:264|126:270,1,207.000003948212,8|2,1:0|3:0,0:0:0:0:
27,221,83598,1,2,3:2:0:0:
27,221,83681,2,0,P|18:276|76:287,1,103.500001974106,4|0,1:3|0:0,0:0:0:0:
256,225,83848,2,0,P|265:170|207:159,1,103.500001974106,2|0,3:0|0:0,0:0:0:0:
149,375,84014,6,0,P|141:321|136:238,1,103.500001974106,8|0,1:0|0:0,0:0:0:0:
57,28,84181,2,0,P|140:0|143:103,1,207.000003948212,2|2,3:2|3:2,0:0:0:0:
124,159,84431,5,0,3:0:0:0:
124,159,84514,2,0,P|73:134|92:88,1,103.500001974106,4|0,1:3|0:0,0:0:0:0:
237,9,84681,2,0,P|288:34|269:80,1,103.500001974106,8|0,1:0|0:0,0:0:0:0:
30,224,84848,6,0,P|115:235|180:249,1,125.999996154785,8|0,3:0|0:0,0:0:0:0:
337,289,85014,2,0,P|239:324|260:223,2,251.999992309571,8|2|8,1:3|3:0|1:0,0:0:0:0:
410,89,85431,5,2,3:2:0:0:
410,89,85514,2,0,P|512:152|354:168,1,377.999988464356,4|0,1:3|0:0,0:0:0:0:
316,26,85848,6,0,P|248:43|160:54,1,125.999996154785,0|0,1:0|0:0,0:0:0:0:
263,225,86014,2,0,P|200:234|139:250,1,125.999996154785,8|0,1:0|0:0,0:0:0:0:
314,22,86181,2,0,P|246:39|158:50,1,125.999996154785,8|0,1:3|0:0,0:0:0:0:
80,291,86348,6,0,P|80:366|146:327,1,180,6|2,1:2|3:0,0:0:0:0:
257,67,86598,5,2,3:2:0:0:
257,67,86681,2,0,P|245:115|238:170,1,90,8|0,1:0|0:0,0:0:0:0:
47,228,86848,6,0,P|14:103|137:136,1,310.500005922318,2|0,3:0|0:0,0:0:0:0:
194,229,87181,5,4,1:3:0:0:
183,225,87264,1,2,3:2:0:0:
173,222,87348,1,8,1:0:0:0:
162,218,87431,1,2,3:2:0:0:
152,215,87514,1,2,1:2:0:0:
142,212,87598,1,2,3:2:0:0:
64,154,87681,6,0,P|60:108|48:32,1,103.500001974106,8|0,1:3|0:0,0:0:0:0:
271,157,87848,2,0,P|263:105|258:54,1,103.500001974106,4|0,1:3|0:0,0:0:0:0:
61,157,88014,2,0,P|57:111|45:35,1,103.500001974106,8|0,1:0|0:0,0:0:0:0:
323,15,88181,6,0,P|444:5|356:127,1,310.500005922318,8|0,1:3|0:0,0:0:0:0:
185,92,88514,6,0,P|210:46|270:73,1,103.500001974106,4|0,1:3|0:0,0:0:0:0:
346,218,88681,6,0,P|293:209|266:161,1,112.5,8|0,1:0|0:0,0:0:0:0:
455,0,88848,6,0,P|477:59|450:118,1,125.999996154785,8|0,1:3|0:0,0:0:0:0:
88,56,89014,6,2,B|73:44|31:35|2:52|-26:80|-27:119|-24:157|-5:179|23:197|57:201|125:191|118:164|113:147|121:126|106:99|113:24|222:49|282:89|300:172|283:214|237:233|216:223|213:219|208:214|173:204|91:218|85:319|165:413|226:395|252:349|289:332|284:308|273:304|289:269|323:261|353:272|374:295|381:317|370:346,1,809.999975280762,6|0,1:2|0:0,0:0:0:0:
426,378,90348,5,4,0:3:0:0:
437,374,90431,1,4,0:3:0:0:
447,368,90514,1,4,0:3:0:0:
456,361,90598,1,4,0:3:0:0:
462,353,90681,1,4,0:3:0:0:
468,344,90764,1,4,0:3:0:0:
472,333,90848,1,4,0:3:0:0:
473,322,90931,1,4,0:3:0:0:
512,266,91014,5,8,0:3:0:0:
462,248,91098,1,8,0:3:0:0:
427,212,91181,1,8,0:3:0:0:
402,164,91264,1,8,0:3:0:0:
365,102,91348,5,8,1:0:0:0:
456,122,91431,1,4,1:3:0:0:
360,94,91514,1,8,1:3:0:0:
463,117,91598,1,12,1:3:0:0:
428,0,91681,5,14,1:0:0:0:
431,5,92014,6,0,P|424:50|423:75,1,53.9999983520508,2|0,3:2|0:0,0:0:0:0:
298,232,92181,6,0,P|295:156|279:10,1,215.999993408203,10|2,1:2|0:0,0:0:0:0:
488,327,92681,2,0,P|475:219|470:111,1,215.999993408203,10|2,2:2|0:0,0:0:0:0:
292,226,93181,2,0,P|289:150|273:4,1,215.999993408203,10|2,2:2|0:0,0:0:0:0:
494,333,93681,2,0,P|481:225|476:148,1,161.999995056153,10|0,2:2|0:0,0:0:0:0:
425,125,94014,6,0,P|406:123|375:117,2,26.9999991760254,10|0|0,1:2|1:0|1:0,0:0:0:0:
349,264,94181,2,0,P|375:260|402:257,1,53.9999983520508,10|0,1:2|0:0,0:0:0:0:
393,17,94348,6,0,P|316:31|159:47,1,215.999993408203,10|2,0:0|0:0,0:0:0:0:
343,270,94848,2,0,P|235:280|129:298,1,215.999993408203,10|2,0:0|0:0,0:0:0:0:
387,11,95348,2,0,P|310:25|153:41,1,215.999993408203,10|2,0:0|0:0,0:0:0:0:
337,276,95848,2,0,P|229:286|123:304,1,215.999993408203,10|2,0:0|0:0,0:0:0:0:
381,5,96348,6,0,P|348:12|308:18,1,53.9999983520508,10|0,0:0|0:0,0:0:0:0:
328,15,96514,1,2,3:2:0:0:
287,198,96681,6,0,P|291:165|299:132,1,53.9999983520508,10|0,0:0|0:0,0:0:0:0:
217,188,96848,2,0,P|222:161|225:134,1,53.9999983520508,10|0,0:0|0:0,0:0:0:0:
342,93,97014,6,0,P|390:98|483:116,1,135.000005149842,10|2,3:2|3:0,0:0:0:0:
263,0,97348,1,2,3:2:0:0:
369,163,97514,2,0,P|409:169|451:178,1,67.5000025749208,10|0,3:2|0:0,0:0:0:0:
512,57,97681,1,2,3:2:0:0:
512,57,97848,1,2,3:0:0:0:
290,203,98014,6,0,P|296:238|300:276,1,67.5000025749208,10|0,3:2|0:0,0:0:0:0:
299,269,98181,1,2,3:0:0:0:
501,371,98348,6,0,P|505:336|511:298,1,67.5000025749208,2|0,3:2|0:0,0:0:0:0:
363,344,98514,2,0,P|368:310|371:277,1,67.5000025749208,10|0,3:2|0:0,0:0:0:0:
504,374,98681,2,0,P|508:339|514:301,1,67.5000025749208,2|0,3:2|0:0,0:0:0:0:
475,245,98848,1,2,3:0:0:0:
277,359,99014,6,0,P|221:365|129:379,1,135.000005149842,10|2,3:2|3:0,0:0:0:0:
48,207,99348,1,10,1:2:0:0:
98,212,99431,1,0,1:0:0:0:
148,220,99514,1,0,1:0:0:0:
317,29,99681,6,0,P|359:49|367:90,1,67.5000025749208,14|2,1:2|3:0,0:0:0:0:
349,137,100014,1,2,3:2:0:0:
462,167,100181,6,0,P|423:193|384:179,1,67.5000025749208,10|2,3:2|3:2,0:0:0:0:
352,140,100514,1,2,3:0:0:0:
277,225,100681,6,0,P|273:178|304:151,1,67.5000025749208,10|2,3:2|3:0,0:0:0:0:
355,143,101014,1,2,1:2:0:0:
228,46,101181,6,0,P|136:63|85:70,1,135.000005149842,10|2,3:2|3:0,0:0:0:0:
53,132,101681,5,2,3:2:0:0:
91,138,101764,1,2,3:2:0:0:
50,137,101848,1,2,3:2:0:0:
94,143,101931,1,2,3:2:0:0:
119,210,102014,5,8,1:0:0:0:
55,219,102097,1,2,1:2:0:0:
124,214,102181,1,2,1:2:0:0:
51,224,102264,1,2,1:2:0:0:
117,309,102348,6,0,P|223:319|376:349,1,242.999992584229,6|0,1:2|0:0,0:0:0:0:
187,246,102681,2,0,P|230:240|283:228,1,80.9999975280763,8|0,1:0|0:0,0:0:0:0:
404,289,102848,6,0,P|480:269|455:111,1,242.999992584229,4|0,3:0|0:0,0:0:0:0:
459,59,103181,2,0,P|417:68|363:75,1,80.9999975280763,8|0,1:3|0:0,0:0:0:0:
191,250,103348,6,0,P|285:233|378:220,1,161.999995056153,8|2,1:0|3:0,0:0:0:0:
387,168,103598,1,2,3:2:0:0:
387,168,103681,1,2,1:2:0:0:
216,0,103848,6,0,P|172:15|158:54,1,80.9999975280763,2|0,3:0|0:0,0:0:0:0:
261,323,104014,2,0,P|268:229|283:137,1,161.999995056153,8|4,1:0|3:0,0:0:0:0:
318,105,104264,1,2,3:2:0:0:
318,105,104348,2,0,P|298:60|255:54,1,80.9999975280763,2|0,1:2|0:0,0:0:0:0:
127,156,104514,6,0,P|171:148|228:141,1,80.9999975280763,4|0,1:3|0:0,0:0:0:0:
355,12,104681,2,0,P|395:6|434:0,1,80.9999975280763,8|0,1:0|0:0,0:0:0:0:
428,277,104848,5,2,3:0:0:0:
428,277,104931,1,2,3:2:0:0:
428,277,105014,2,0,P|286:255|165:245,1,242.999992584229,4|0,1:3|0:0,0:0:0:0:
469,156,105348,2,0,P|415:167|373:173,1,80.9999975280763,8|0,1:0|0:0,0:0:0:0:
130,159,105514,5,2,3:0:0:0:
184,243,105681,2,0,P|234:214|238:163,1,80.9999975280763,2|0,1:2|0:0,0:0:0:0:
305,162,105848,2,0,P|304:104|262:75,1,80.9999975280763,4|0,1:3|0:0,0:0:0:0:
23,54,106014,6,0,P|23:111|65:140,1,80.9999975280763,8|0,1:0|0:0,0:0:0:0:
32,199,106181,2,0,P|82:227|128:205,1,80.9999975280763,2|0,3:0|0:0,0:0:0:0:
167,0,106348,5,4,3:3:0:0:
124,75,106514,6,0,P|130:115|133:168,1,80.9999975280763,2|0,3:0|0:0,0:0:0:0:
381,37,106681,2,0,P|383:77|389:117,1,80.9999975280763,8|0,1:0|0:0,0:0:0:0:
121,72,106848,2,0,P|127:112|130:165,1,80.9999975280763,4|0,1:3|0:0,0:0:0:0:
262,384,107014,5,2,1:2:0:0:
262,384,107098,1,2,3:2:0:0:
262,384,107181,2,0,P|265:337|266:277,1,80.9999975280763,4|0,1:3|0:0,0:0:0:0:
245,0,107348,5,8,1:0:0:0:
245,0,107514,1,8,1:2:0:0:
368,337,107681,6,0,B|421:329|421:329|445:245,1,107.999996704102,6|0,1:2|0:0,0:0:0:0:
219,149,107903,6,0,B|199:198|199:198|260:261,1,107.999996704102,2|8,1:2|1:0,0:0:0:0:
456,113,108126,6,0,B|422:71|422:71|337:92,1,107.999996704102,2|0,1:2|0:0,0:0:0:0:
280,315,108348,6,0,L|137:302,1,107.999996704102,2|2,1:2|3:2,0:0:0:0:
167,310,108514,1,4,1:3:0:0:
160,316,108570,2,0,L|91:322,1,53.9999983520508,0|0,1:0|0:0,0:0:0:0:
56,365,108681,6,0,P|14:350|0:302,1,80.9999975280763,8|2,1:0|0:0,0:0:0:0:
95,190,108848,2,0,P|137:205|151:253,1,80.9999975280763,2|2,3:0|0:0,0:0:0:0:
12,246,109014,6,0,P|26:140|33:29,1,161.999995056153,2|2,1:2|3:0,0:0:0:0:
0,22,109264,1,2,3:2:0:0:
0,22,109348,1,8,1:0:0:0:
271,3,109514,6,0,P|252:123|240:243,1,242.999992584229,2|2,1:2|0:0,0:0:0:0:
270,307,109848,1,2,1:2:0:0:
116,119,110014,5,0,1:0:0:0:
165,111,110098,1,0,1:0:0:0:
112,114,110181,1,0,1:0:0:0:
167,106,110264,1,0,1:0:0:0:
134,46,110348,6,0,P|136:29|137:19,1,27,6|2,1:2|0:0,0:0:0:0:
203,0,111181,1,2,0:0:0:0:
203,0,111348,1,2,0:0:0:0:
387,155,111681,6,0,P|385:138|383:117,1,36,6|2,1:2|0:0,0:0:0:0:
337,67,112181,1,2,0:0:0:0:
200,170,112348,5,4,3:3:0:0:
200,177,112431,2,0,P|230:201|286:176,1,67.5000025749208,2|2,3:2|0:0,0:0:0:0:
398,255,112598,5,4,3:3:0:0:
391,251,112681,2,0,P|354:265|348:326,1,67.5000025749208,2|2,3:2|0:0,0:0:0:0:
232,379,112848,6,0,P|238:340|188:304,1,67.5000025749208,4|2,3:3|3:2,0:0:0:0:
141,256,113014,6,0,P|297:228|489:205,1,310.500005922318,6|2,1:2|0:0,0:0:0:0:
447,208,113848,1,2,0:0:0:0:
485,153,114514,5,2,0:0:0:0:
485,153,114681,1,2,0:0:0:0:
462,89,115014,5,2,0:0:0:0:
462,89,115181,1,2,0:0:0:0:
512,328,115514,6,0,P|405:312|262:299,1,207.000003948212,6|2,0:0|0:0,0:0:0:0:
306,302,116014,1,2,0:0:0:0:
255,257,116348,5,2,0:0:0:0:
265,190,116681,5,2,0:0:0:0:
265,190,116848,1,2,0:0:0:0:
350,8,117181,6,0,P|360:74|362:117,1,90,2|0,0:0|0:0,0:0:0:0:
427,82,117514,6,0,P|424:49|420:15,1,67.5000025749208,2|2,0:0|0:0,0:0:0:0:
487,10,117848,6,0,P|491:40|494:68,1,45,2|0,0:0|0:0,0:0:0:0:
