osu file format v14

[General]
AudioFilename: audio.mp3
AudioLeadIn: 0
PreviewTime: 70264
Countdown: 0
SampleSet: Soft
StackLeniency: 0.7
Mode: 0
LetterboxInBreaks: 0
WidescreenStoryboard: 1

[Editor]
Bookmarks: 22363,33029,49029,71696,91696,102363,113029
DistanceSpacing: 0.3
BeatDivisor: 4
GridSize: 32
TimelineZoom: 1.3

[Metadata]
Title:Duration
TitleUnicode:Duration
Artist:Sano Nobuyoshi
ArtistUnicode:佐野電磁
Creator:Acylica
Version:Asa's Hard
Source:beatmania IIDX 27 HEROIC VERSE
Tags:dnb drum n bass electronic instrumental halgoh deviouspanda acyl shizuku- kazato asa sylas thekoala leader sanodg shikibe mayu
BeatmapID:2831912
BeatmapSetID:1369545

[Difficulty]
HPDrainRate:5
CircleSize:3.9
OverallDifficulty:6.5
ApproachRate:8
SliderMultiplier:1.4
SliderTickRate:1

[Events]
//Background and Video events
0,0,"resize.jpg",0,0
//Break Periods
2,22548,26764
//Storyboard Layer 0 (Background)
//Storyboard Layer 1 (Fail)
//Storyboard Layer 2 (Pass)
//Storyboard Layer 3 (Foreground)
//Storyboard Layer 4 (Overlay)
//Storyboard Sound Samples

[TimingPoints]
1015,333.333333333333,4,2,1,40,1,0
1015,-166.666666666667,4,2,1,40,0,0
11681,-100,4,2,1,60,0,0
19681,-100,4,2,1,40,0,0
22348,-100,4,2,1,50,0,0
27514,-100,4,2,1,40,0,0
27681,-166.666666666667,4,2,1,60,0,0
33014,-125,4,2,1,60,0,0
46348,-142.857142857143,4,2,1,60,0,0
47681,-100,4,2,1,60,0,0
49014,-142.857142857143,4,2,1,60,0,0
49681,-100,4,2,1,60,0,0
67681,-142.857142857143,4,2,1,60,0,0
70014,-100,4,2,1,80,0,0
71681,-100,4,2,1,90,0,0
92014,-125,4,2,1,60,0,0
97014,-111.111111111111,4,2,1,70,0,0
102348,-100,4,2,1,80,0,0
110348,-142.857142857143,4,2,1,40,0,0
112348,-142.857142857143,4,2,1,70,0,0
113014,-142.857142857143,4,2,1,30,0,0
118014,-142.857142857143,4,2,1,25,0,0

[Colours]
Combo1 : 147,214,227
Combo2 : 247,134,168
Combo3 : 152,224,173
Combo4 : 237,197,137

[HitObjects]
372,24,1015,6,0,B|441:24|479:86|445:136|445:136|388:136|330:179|313:260|384:363|506:324|526:252|474:204|441:216,1,545.999983337403,6|6,0:0|0:0,0:0:0:0:
352,360,3514,6,0,B|306:375|253:361|230:324|230:324|192:329|166:350|166:350|121:297|50:321|50:321|92:284|96:221|41:178|41:178|0:207|6:253,1,587.999982055665,6|6,0:0|0:0,0:0:0:0:
168,240,6181,6,0,B|166:174|129:118|71:88|71:88|80:30|128:5,1,293.999991027832,6|2,0:0|0:0,0:0:0:0:
256,96,7681,6,0,P|297:96|336:81,1,83.9999974365235,6|2,0:0|0:0,0:0:0:0:
382,13,8181,2,0,P|417:64|409:125,1,125.999996154785,6|2,0:0|0:0,0:0:0:0:
512,256,9014,6,0,B|445:236|404:292|404:292|362:350|287:321,1,251.999992309571,6|2,0:0|0:0,0:0:0:0:
107,384,10348,2,0,P|138:307|128:224,1,167.999994873047,6|2,3:2|3:2,0:0:0:0:
128,224,11181,2,0,P|165:241|207:244,1,83.9999974365235,6|2,3:2|3:2,0:0:0:0:
272,300,11681,6,0,B|265:265|243:248|243:248|256:170,1,140,6|8,1:2|1:0,0:0:0:0:
204,96,12181,2,0,L|273:84,1,70,2|0,3:2|0:0,0:0:0:0:
319,15,12514,1,4,1:3:0:0:
319,15,12681,2,0,P|351:26|377:50,1,70,8|2,1:0|3:2,0:0:0:0:
464,4,13014,6,0,P|430:64|433:133,1,140,0|8,1:0|1:0,0:0:0:0:
501,206,13514,2,0,P|467:215|433:225,1,70,4|0,1:3|0:0,0:0:0:0:
386,299,13848,2,0,P|351:295|320:278,1,70,2|8,1:2|1:0,0:0:0:0:
208,240,14181,5,2,1:2:0:0:
208,240,14264,1,2,3:2:0:0:
208,240,14348,2,0,B|220:304|220:304|216:309|216:309|229:376,1,140,6|8,1:3|1:0,0:0:0:0:
309,347,14848,2,0,P|312:312|320:278,1,70,2|0,3:0|0:0,0:0:0:0:
288,196,15181,2,0,P|284:161|276:127,1,70,4|8,3:0|1:0,0:0:0:0:
332,56,15514,1,2,3:0:0:0:
232,11,15681,6,0,P|177:54|109:48,1,140,4|8,1:3|1:0,0:0:0:0:
14,18,16181,2,0,P|20:58|26:103,1,70,4|0,1:3|0:0,0:0:0:0:
6,170,16514,2,0,P|39:182|66:204,1,70,4|8,3:0|1:0,0:0:0:0:
141,248,16848,1,10,1:3:0:0:
157,164,17014,6,0,P|225:154|275:108,1,140,6|8,1:2|1:0,0:0:0:0:
275,106,17514,1,2,3:0:0:0:
294,20,17681,2,0,P|327:33|353:56,1,70,2|4,3:0|1:3,0:0:0:0:
433,26,18014,2,0,P|438:60|432:94,1,70,8|2,1:0|3:0,0:0:0:0:
510,172,18348,6,0,P|442:184|393:233,1,140,6|8,1:2|1:0,0:0:0:0:
320,288,18848,2,0,P|252:275|203:226,1,140,4|4,1:3|3:0,0:0:0:0:
244,157,19348,2,0,P|238:122|233:87,1,70,8|2,1:0|3:2,0:0:0:0:
233,87,19598,1,2,3:2:0:0:
233,87,19681,1,6,0:0:0:0:
256,192,19848,12,0,22348,1:2:0:0:
104,240,27514,5,2,3:0:0:0:
185,207,27681,2,0,P|192:247|179:287,1,83.9999974365235,14|2,0:0|0:0,0:0:0:0:
167,373,28181,2,0,P|127:359|100:327,1,83.9999974365235,10|2,0:0|0:0,0:0:0:0:
30,273,28681,2,0,P|61:245|102:238,1,83.9999974365235,10|2,0:0|0:0,0:0:0:0:
178,287,29181,1,10,0:0:0:0:
264,376,29514,5,2,0:0:0:0:
328,320,29681,2,0,P|369:312|410:304,1,83.9999974365235,10|10,0:0|1:2,0:0:0:0:
410,304,30098,1,0,1:0:0:0:
410,304,30181,1,10,0:0:0:0:
504,336,30348,1,14,0:0:0:0:
464,144,30848,6,0,B|472:108|449:86|449:86|428:79,1,83.9999974365235,10|2,0:0|0:0,0:0:0:0:
352,40,31348,2,0,B|316:51|309:81|309:81|313:102,1,83.9999974365235,10|2,0:0|0:0,0:0:0:0:
318,189,31848,2,0,B|345:213|375:205|375:205|391:191,1,83.9999974365235,10|2,0:0|0:0,0:0:0:0:
391,191,32348,1,10,0:0:0:0:
313,102,32681,2,0,L|271:108,1,41.9999987182618,10|10,0:0|0:0,0:0:0:0:
160,77,33014,6,0,B|163:51|170:22,2,56,14|2|2,1:2|3:0|3:2,0:0:0:0:
192,152,33514,2,0,P|147:120|93:126,1,112,10|2,3:2|3:0,0:0:0:0:
33,192,34014,2,0,P|27:246|60:290,1,112,10|6,3:2|3:2,0:0:0:0:
147,309,34514,2,0,P|196:286|218:236,1,112,10|2,3:2|3:0,0:0:0:0:
192,152,35014,2,0,L|199:96,1,56,10|2,3:2|3:2,0:0:0:0:
256,32,35348,2,0,L|259:4,2,28,10|0|0,1:2|1:0|1:2,0:0:0:0:
328,96,35681,6,0,B|370:93|402:67|402:67|392:96,1,112,10|2,3:2|3:2,0:0:0:0:
448,160,36181,2,0,B|451:202|477:234|477:234|447:224,1,112,10|2,3:2|3:0,0:0:0:0:
384,280,36681,2,0,B|342:283|310:309|310:309|319:279,1,112,10|2,3:2|3:2,0:0:0:0:
264,216,37181,2,0,B|261:174|235:142|235:142|264:151,1,112,10|2,3:2|3:0,0:0:0:0:
328,96,37681,2,0,P|332:68|325:41,1,56,10|2,1:2|3:2,0:0:0:0:
248,16,38014,2,0,L|220:21,3,28,10|2|2|2,1:2|1:2|1:2|1:2,0:0:0:0:
206,26,38348,6,0,P|182:17|152:13,1,56,14|2,1:2|3:0,0:0:0:0:
162,97,38681,2,0,P|135:100|108:112,2,56,2|10|2,1:2|3:2|3:2,0:0:0:0:
158,180,39181,2,0,P|136:196|119:220,2,56,2|10|2,1:2|3:2|3:0,0:0:0:0:
196,253,39681,1,2,1:2:0:0:
196,253,39848,2,0,P|186:277|182:307,1,56,10|2,3:2|3:2,0:0:0:0:
154,383,40181,2,0,P|198:351|253:344,1,112,2|2,3:0|3:0,0:0:0:0:
338,363,40681,2,0,L|365:356,2,28,10|0|2,1:2|1:0|1:2,0:0:0:0:
447,378,41014,6,0,B|477:349|476:309|476:309|466:296|450:286,1,112,10|2,3:2|3:2,0:0:0:0:
428,204,41514,2,0,B|388:191|353:212|353:212|347:228|347:246,1,112,10|2,3:2|3:2,0:0:0:0:
287,307,42014,2,0,B|296:347|331:366|331:366|348:364|364:355,1,112,10|2,3:2|3:2,0:0:0:0:
450,286,42514,6,0,L|505:295,2,56,10|2|2,3:2|3:2|3:0,0:0:0:0:
428,204,43014,2,0,P|433:176|438:148,1,56,10|2,3:2|1:2,0:0:0:0:
359,93,43348,2,0,P|353:120|348:148,1,56,10|2,3:2|1:2,0:0:0:0:
348,148,43598,1,2,3:2:0:0:
348,148,43681,6,0,B|298:157|298:157|296:162|296:162|237:175,1,112,10|2,3:2|3:2,0:0:0:0:
168,128,44181,2,0,B|180:53|180:53|196:85,1,112,10|2,3:2|3:0,0:0:0:0:
100,49,44681,1,10,3:2:0:0:
72,168,45014,5,2,3:2:0:0:
72,168,45181,2,0,L|80:224,1,56,10|2,3:2|3:2,0:0:0:0:
56,304,45514,1,2,3:0:0:0:
136,336,45681,2,0,B|196:324|174:368|242:354,1,112,10|10,3:2|1:2,0:0:0:0:
242,354,46098,1,0,1:0:0:0:
242,354,46181,1,0,1:0:0:0:
333,379,46348,6,0,B|341:311|287:266|234:274|234:274|200:256|176:208|207:166,1,293.999991027832,4|0,1:3|1:0,0:0:0:0:
256,64,47681,6,0,L|250:29,2,35,2|2|2,1:2|1:2|1:2,0:0:0:0:
336,104,48014,2,0,L|330:138,2,35,2|2|2,1:2|1:2|1:2,0:0:0:0:
416,64,48348,1,2,1:2:0:0:
488,114,48514,2,0,B|505:83|505:83|497:49,2,70,2|8|2,1:2|1:0|1:2,0:0:0:0:
512,193,49014,6,0,P|444:202|376:270,1,146.999995513916,6|4,1:2|0:3,0:0:0:0:
339,319,49681,2,0,P|301:310|276:290,2,70,0|2|10,0:0|3:0|3:2,0:0:0:0:
259,196,50181,6,0,B|265:165|265:165|263:159|263:159|268:127,1,70,2|6,3:2|1:2,0:0:0:0:
192,34,50514,1,2,3:0:0:0:
192,34,50681,2,0,L|123:45,1,70,8|4,1:0|1:3,0:0:0:0:
13,116,51014,1,2,1:2:0:0:
78,172,51181,2,0,P|87:205|81:239,1,70,4|8,3:0|1:0,0:0:0:0:
0,288,51514,5,2,1:2:0:0:
0,288,51598,1,2,3:2:0:0:
0,287,51681,2,0,P|67:301|120:346,1,140,4|8,1:3|1:0,0:0:0:0:
211,376,52181,1,2,3:2:0:0:
120,346,52348,6,0,P|187:332|240:287,1,140,2|8,3:2|1:0,0:0:0:0:
178,217,52848,2,0,L|188:147,1,70,12|8,3:0|1:3,0:0:0:0:
117,80,53181,6,0,P|152:73|183:58,1,70,2|8,1:3|1:0,0:0:0:0:
259,12,53514,2,0,P|307:31|340:71,1,105,4|0,1:3|0:0,0:0:0:0:
345,79,53848,2,0,P|380:78|412:64,1,70,2|8,3:0|1:0,0:0:0:0:
488,16,54181,1,8,1:3:0:0:
471,136,54348,6,0,P|408:164|338:171,1,140,6|8,1:2|1:0,0:0:0:0:
272,264,54848,2,0,P|306:267|337:282,1,70,2|4,3:0|3:0,0:0:0:0:
424,248,55181,2,0,P|438:279|440:314,2,70,8|8|4,1:3|1:0|3:0,0:0:0:0:
340,159,55681,5,6,1:2:0:0:
340,159,55848,2,0,L|350:89,1,70,2|8,3:0|1:0,0:0:0:0:
290,29,56181,2,0,L|151:48,1,140,8|4,3:0|1:3,0:0:0:0:
48,72,56681,2,0,B|34:102|34:102|44:137,1,70,8|2,1:0|3:0,0:0:0:0:
44,137,56931,1,2,3:2:0:0:
44,137,57014,6,0,B|73:124|113:127|113:127|140:155|149:185,1,140,4|8,1:3|1:0,0:0:0:0:
223,232,57514,2,0,P|236:199|234:164,1,70,2|8,3:0|3:0,0:0:0:0:
280,64,57848,2,0,P|274:29|255:0,1,70,4|8,1:3|1:0,0:0:0:0:
196,92,58181,5,2,3:0:0:0:
200,100,58348,2,0,P|250:143|324:143,1,140,4|8,1:3|1:0,0:0:0:0:
416,220,58848,2,0,P|364:220|324:253,1,105,4|0,1:3|3:0,0:0:0:0:
324,253,59181,2,0,P|332:286|328:321,1,70,4|8,1:3|1:0,0:0:0:0:
260,380,59514,5,10,3:2:0:0:
260,380,59598,1,2,3:2:0:0:
260,380,59681,2,0,B|208:372|208:372|188:348|188:348|128:340,1,140,6|8,1:2|1:0,0:0:0:0:
40,344,60181,2,0,B|24:312|24:312|30:278,1,70,4|2,3:0|3:2,0:0:0:0:
0,200,60514,2,0,P|33:190|63:172,1,70,6|8,1:2|1:0,0:0:0:0:
128,232,60848,2,0,P|161:241|191:259,1,70,2|4,3:0|1:3,0:0:0:0:
272,212,61181,6,0,P|289:242|297:276,2,70,2|8|8,3:0|1:0|1:3,0:0:0:0:
212,156,61681,1,12,0:3:0:0:
213,149,61848,2,0,L|222:79,1,70,4|8,1:3|1:0,0:0:0:0:
143,51,62181,5,2,3:0:0:0:
143,51,62264,1,2,0:3:0:0:
142,51,62348,2,0,P|210:37|268:0,2,140,4|8|2,1:3|1:0|3:2,0:0:0:0:
40,36,63181,2,0,P|53:68|56:102,1,70,4|8,1:3|1:0,0:0:0:0:
112,172,63514,2,0,P|107:206|93:238,1,70,2|8,3:2|1:3,0:0:0:0:
208,188,63848,6,0,P|212:153|226:121,1,70,8|8,3:0|1:0,0:0:0:0:
212,40,64181,2,0,B|251:79|308:69,1,105,4|0,1:3|0:0,0:0:0:0:
427,75,64514,1,4,3:0:0:0:
376,8,64681,1,8,1:0:0:0:
460,0,64848,1,8,1:2:0:0:
512,64,65014,6,0,P|484:100|474:146,2,93.3333333333333,6|2|2,1:2|1:2|1:2,0:0:0:0:
370,42,65681,2,0,P|384:86|379:132,2,93.3333333333333,2|2|0,1:2|1:2|0:0,0:0:0:0:
252,104,66348,6,0,L|272:242,1,140,6|8,1:2|1:0,0:0:0:0:
331,319,66848,2,0,P|279:325|237:356,1,105,4|0,1:3|0:0,0:0:0:0:
237,356,67181,2,0,P|202:355|168:345,1,70,8|8,1:3|1:0,0:0:0:0:
76,384,67514,1,10,1:2:0:0:
76,384,67598,1,0,0:0:0:0:
76,384,67681,6,0,L|91:237,1,146.999995513916,4|0,1:2|0:0,0:0:0:0:
91,237,68514,2,0,P|66:195|66:147,1,97.9999970092774,0|2,0:0|0:0,0:0:0:0:
0,80,69014,6,0,B|93:61|0:76|93:57,1,97.9999970092774,6|2,1:2|0:0,0:0:0:0:
176,79,69514,2,0,P|183:56|183:32,2,48.9999985046387,2|2|2,1:2|3:2|3:2,0:0:0:0:
256,140,70014,2,0,P|241:171|239:206,1,70,8|2,1:0|1:3,0:0:0:0:
239,206,70264,1,2,3:0:0:0:
239,206,70348,1,0,0:0:0:0:
20,232,71681,5,6,1:0:0:0:
4,316,71848,1,2,3:2:0:0:
56,376,72014,1,8,1:0:0:0:
142,384,72181,2,0,L|126:280,1,105,8|0,1:3|0:0,0:0:0:0:
126,280,72514,2,0,B|161:294|161:294|193:288,1,70,4|8,3:0|1:0,0:0:0:0:
248,216,72848,5,2,3:2:0:0:
248,216,72931,1,0,3:0:0:0:
248,216,73014,2,0,B|220:136|280:168|247:80,1,140,8|8,1:3|1:0,0:0:0:0:
211,0,73514,2,0,P|265:42|333:36,1,140,6|4,3:2|1:3,0:0:0:0:
424,11,74014,2,0,P|416:46|414:81,1,70,8|2,1:0|3:2,0:0:0:0:
492,152,74348,1,4,1:3:0:0:
492,151,74514,2,0,P|457:159|426:175,1,70,8|8,1:3|1:0,0:0:0:0:
363,236,74848,6,0,P|295:223|241:180,1,140,4|4,1:3|1:3,0:0:0:0:
276,108,75348,1,8,1:0:0:0:
276,108,75514,1,8,1:3:0:0:
220,32,75681,5,6,1:2:0:0:
137,68,75848,2,0,P|102:61|70:47,1,70,2|8,3:2|1:0,0:0:0:0:
20,200,76181,2,0,P|89:190|151:160,1,140,2|4,3:2|1:3,0:0:0:0:
157,253,76681,2,0,P|171:284|177:319,1,70,8|2,1:0|1:2,0:0:0:0:
256,272,77014,6,0,P|261:237|276:205,1,70,2|2,1:2|1:3,0:0:0:0:
241,133,77348,1,8,1:0:0:0:
288,57,77514,2,0,P|357:55|414:17,1,140,6|4,1:2|1:3,0:0:0:0:
432,113,78014,1,8,1:0:0:0:
512,154,78181,5,8,3:0:0:0:
512,154,78264,1,2,3:2:0:0:
512,154,78348,2,0,L|487:291,1,140,6|8,1:2|1:0,0:0:0:0:
511,383,78848,2,0,P|459:339|391:340,1,140,2|8,3:0|1:3,0:0:0:0:
265,305,79348,1,8,1:0:0:0:
319,382,79514,5,8,3:0:0:0:
319,382,79681,2,0,B|357:346|357:346|338:260,1,140,6|8,1:2|1:0,0:0:0:0:
267,219,80181,2,0,P|278:186|280:151,1,70,4|8,1:3|1:3,0:0:0:0:
367,99,80514,1,8,1:3:0:0:
290,69,80681,2,0,P|283:34|267:3,1,70,8|8,1:0|1:3,0:0:0:0:
268,5,80931,1,8,1:3:0:0:
268,4,81014,2,0,P|236:19|202:25,1,70,6|2,1:2|3:0,0:0:0:0:
111,0,81348,6,0,L|95:139,1,140,8|0,1:0|0:0,0:0:0:0:
23,180,81848,2,0,P|37:213|43:247,2,70,8|8|2,1:3|1:0|3:2,0:0:0:0:
96,139,82348,5,8,1:3:0:0:
182,149,82514,1,2,3:2:0:0:
245,203,82681,1,8,1:0:0:0:
352,144,82848,6,0,P|370:95|366:43,1,105,4|0,1:3|0:0,0:0:0:0:
366,43,83181,2,0,P|400:49|429:68,1,70,4|8,1:3|1:0,0:0:0:0:
461,173,83514,5,2,3:0:0:0:
461,173,83598,1,2,3:2:0:0:
461,173,83681,2,0,P|438:232|440:313,1,140,4|8,1:3|1:0,0:0:0:0:
512,352,84181,2,0,B|433:336|469:392|379:375,1,140,2|4,3:2|1:3,0:0:0:0:
311,326,84681,1,8,1:0:0:0:
222,366,84848,6,0,P|223:331|218:296,1,70,8|8,3:0|1:3,0:0:0:0:
285,242,85181,2,0,P|263:214|237:191,1,70,2|8,3:0|1:0,0:0:0:0:
253,105,85514,2,0,P|218:97|183:96,1,70,4|0,1:3|0:0,0:0:0:0:
44,72,85848,5,0,1:0:0:0:
76,160,86014,1,8,1:0:0:0:
76,160,86181,1,8,1:3:0:0:
3,248,86348,6,0,P|73:253|130:292,1,140,6|8,1:2|1:0,0:0:0:0:
187,368,86848,2,0,P|221:357|248:335,1,70,2|0,3:0|0:0,0:0:0:0:
303,271,87181,1,4,1:3:0:0:
303,271,87348,2,0,P|337:282|364:304,1,70,8|2,1:0|1:2,0:0:0:0:
211,247,87681,6,0,P|180:186|179:116,1,140,8|8,1:3|1:0,0:0:0:0:
95,79,88181,2,0,P|164:73|218:29,1,140,8|4,1:3|1:3,0:0:0:0:
296,100,88681,1,8,1:0:0:0:
296,100,88848,1,8,1:3:0:0:
396,64,89014,1,6,1:2:0:0:
256,192,89181,12,0,90348,0:0:0:0:
216,71,91181,5,8,0:3:0:0:
292,116,91348,1,8,1:0:0:0:
292,116,91431,1,4,1:3:0:0:
292,116,91514,2,0,L|348:107,2,35,8|12|14,1:3|1:3|1:0,0:0:0:0:
440,164,92014,5,2,3:2:0:0:
440,164,92181,2,0,B|412:196|420:244|420:244|407:235|404:222,1,112,10|2,1:2|0:0,0:0:0:0:
320,180,92681,2,0,B|306:139|260:122|260:122|275:115|286:119,1,112,10|2,2:2|0:0,0:0:0:0:
366,68,93181,2,0,B|407:76|445:45|445:45|443:61|434:69,1,112,10|2,2:2|0:0,0:0:0:0:
326,0,93681,1,10,2:2:0:0:
225,56,94014,6,0,L|197:62,2,28,10|0|10,1:2|1:0|1:2,0:0:0:0:
130,12,94348,2,0,B|91:23|81:63|81:63|99:95,1,112,10|2,0:0|0:0,0:0:0:0:
48,164,94848,2,0,B|59:203|99:213|99:213|131:194,1,112,10|2,0:0|0:0,0:0:0:0:
200,246,95348,2,0,B|239:235|249:195|249:195|230:162,1,112,10|2,0:0|0:0,0:0:0:0:
282,94,95848,2,0,B|271:55|231:45|231:45|198:63,1,112,10|2,0:0|0:0,0:0:0:0:
129,16,96348,1,10,0:0:0:0:
99,95,96514,2,0,L|43:85,1,56,2|10,3:2|0:0,0:0:0:0:
156,173,96848,1,10,0:0:0:0:
156,173,97014,6,0,P|114:184|99:195,2,62.9999980773926,10|2|2,3:2|3:0|3:2,0:0:0:0:
23,179,97514,2,0,B|64:199|72:241|72:241|60:259|61:282,1,125.999996154785,10|2,3:2|3:0,0:0:0:0:
120,344,98014,2,0,P|149:332|180:327,1,62.9999980773926,10|2,3:2|3:0,0:0:0:0:
263,370,98348,5,2,3:2:0:0:
263,370,98514,2,0,L|270:307,1,62.9999980773926,10|2,3:2|3:2,0:0:0:0:
203,229,98848,1,2,3:0:0:0:
203,229,99014,2,0,L|195:166,1,62.9999980773926,10|2,3:2|3:0,0:0:0:0:
135,112,99348,2,0,P|121:117|105:119,2,31.4999990386963,10|0|0,1:2|1:0|1:0,0:0:0:0:
196,39,99681,6,0,B|250:23|286:55|286:55|302:102|356:106,1,188.999994232178,14|10,1:2|3:2,0:0:0:0:
512,62,100514,1,2,3:0:0:0:
430,72,100681,2,0,L|439:9,1,62.9999980773926,10|2,3:2|3:0,0:0:0:0:
500,148,101014,5,2,1:2:0:0:
500,148,101181,2,0,P|495:179|491:210,1,62.9999980773926,10|0,3:2|0:0,0:0:0:0:
484,292,101514,1,2,3:0:0:0:
396,328,101681,2,0,L|390:359,2,31.4999990386963,2|2|2,3:2|3:2|3:2,0:0:0:0:
316,284,102014,1,8,1:0:0:0:
316,284,102098,1,2,1:2:0:0:
316,284,102181,1,2,1:2:0:0:
328,188,102348,6,0,B|316:128|344:100|344:100|336:68|316:68,1,140,6|8,1:2|1:0,0:0:0:0:
228,8,102848,2,0,P|181:31|130:28,1,105,4|0,3:0|0:0,0:0:0:0:
129,27,103181,2,0,P|115:59|113:94,1,70,8|8,1:3|1:0,0:0:0:0:
52,148,103514,1,2,3:0:0:0:
44,232,103681,5,2,1:2:0:0:
116,280,103848,1,2,3:0:0:0:
120,284,104014,2,0,P|134:315|138:350,1,70,8|4,1:0|3:0,0:0:0:0:
212,384,104348,1,2,1:2:0:0:
268,324,104514,2,0,P|253:292|249:257,1,70,4|8,1:3|1:0,0:0:0:0:
167,207,104848,5,2,3:0:0:0:
167,207,104931,1,2,3:2:0:0:
167,207,105014,2,0,P|172:155|195:109,1,105,4|0,1:3|0:0,0:0:0:0:
195,109,105348,2,0,P|160:105|129:89,1,70,8|2,1:0|3:0,0:0:0:0:
220,16,105681,1,2,1:2:0:0:
304,44,105848,2,0,P|338:40|369:24,1,70,4|8,1:3|1:0,0:0:0:0:
476,64,106181,6,0,L|465:133,1,70,2|4,3:0|3:3,0:0:0:0:
376,192,106514,2,0,L|365:122,1,70,2|8,3:0|1:0,0:0:0:0:
457,226,106848,2,0,P|408:242|373:281,1,105,4|2,1:3|3:2,0:0:0:0:
373,280,107181,1,4,1:3:0:0:
296,328,107348,1,8,1:0:0:0:
224,271,107514,1,8,1:2:0:0:
244,184,107681,6,0,B|224:121|224:121|235:96,2,93.3333333333333,6|2|2,1:2|1:2|1:2,0:0:0:0:
144,220,108348,2,0,B|123:157|123:157|99:143,2,93.3333333333333,2|0|0,1:2|1:0|0:0,0:0:0:0:
48,328,109014,6,0,P|116:323|176:358,1,140,2|8,1:2|1:0,0:0:0:0:
268,380,109514,2,0,P|292:334|292:282,1,105,2|2,1:2|0:0,0:0:0:0:
288,272,109848,1,2,1:2:0:0:
220,216,110014,2,0,L|225:181,3,35,0|0|0|0,1:0|1:0|1:0|1:0,0:0:0:0:
228,168,110348,6,0,B|268:152|300:172|300:172|312:132|349:123,1,146.999995513916,6|2,1:2|0:0,0:0:0:0:
468,200,111181,1,2,0:0:0:0:
468,200,111348,2,0,L|458:248,1,48.9999985046387,2|0,0:0|0:0,0:0:0:0:
508,320,111681,6,0,B|462:327|462:327|458:331|458:331|413:339,1,97.9999970092774,6|2,1:2|0:0,0:0:0:0:
336,356,112181,1,2,0:0:0:0:
268,308,112348,2,0,B|252:344|252:344|258:377,2,73.4999977569581,4|4|4,3:3|3:3|3:3,0:0:0:0:
248,232,113014,5,6,1:2:0:0:
