osu file format v14

[General]
AudioFilename: audio.mp3
AudioLeadIn: 0
PreviewTime: 60653
Countdown: 0
SampleSet: Soft
StackLeniency: 0.7
Mode: 0
LetterboxInBreaks: 0
WidescreenStoryboard: 0

[Editor]
DistanceSpacing: 0.85
BeatDivisor: 4
GridSize: 16
TimelineZoom: 2

[Metadata]
Title:Ijiwaru na Anata
TitleUnicode:イジワルなあなた
Artist:Sano Hiroaki feat. Tatsumi Megumi
ArtistUnicode:佐野宏晃 feat. 達見 恵
Creator:Down
Version:Insane
Source:GuitarFreaks V6 & DrumMania V6 BLAZING!!!!
Tags:video game rock jrock j-rock japanese konami dailycare morinaga bemani jieusieu
BeatmapID:3689075
BeatmapSetID:1799536

[Difficulty]
HPDrainRate:5
CircleSize:4
OverallDifficulty:8
ApproachRate:9
SliderMultiplier:1.8
SliderTickRate:1

[Events]
//Background and Video events
0,0,"222.jpg",0,0
//Break Periods
//Storyboard Layer 0 (Background)
//Storyboard Layer 1 (Fail)
//Storyboard Layer 2 (Pass)
//Storyboard Layer 3 (Foreground)
//Storyboard Layer 4 (Overlay)
//Storyboard Sound Samples

[TimingPoints]
1767,361.44578313253,4,2,1,80,1,0
2309,-83.3333333333333,4,2,1,80,0,0
14779,-100,4,2,1,65,0,0
24718,-83.3333333333333,4,2,1,65,0,0
26345,-100,4,2,1,65,0,0
35020,-83.3333333333333,4,2,1,65,0,0
36285,-83.3333333333333,4,2,1,80,0,0
36465,-83.3333333333333,4,2,1,65,0,0
36827,-83.3333333333333,4,2,1,80,0,0
37369,-83.3333333333333,4,2,1,50,0,0
37911,-125,4,2,1,54,0,0
42068,-125,4,2,1,65,0,0
42971,-125,4,2,1,75,0,0
43694,-100,4,2,1,80,0,0
47851,-83.3333333333333,4,2,1,80,0,0
49477,-125,4,2,1,54,0,0
53634,-125,4,2,1,65,0,0
54538,-125,4,2,1,75,0,0
55260,-100,4,2,1,80,0,0
58152,-83.3333333333333,4,2,1,80,0,0
59598,-83.3333333333333,4,2,1,70,0,0
60321,-83.3333333333333,4,2,1,60,0,0
60682,-250,4,2,1,60,0,0
60953,-250,4,2,1,10,0,0
61044,-83.3333333333333,4,2,1,82,0,0
80562,-83.3333333333333,4,2,1,85,0,0
81285,-83.3333333333333,4,2,1,78,0,0
82550,-83.3333333333333,4,2,1,85,0,0
83634,-83.3333333333333,4,2,1,78,0,0
83995,-83.3333333333333,4,2,1,80,0,0
84176,-100,4,2,1,80,0,0
95381,-100,4,2,1,10,0,0
95562,-125,4,2,1,40,0,0

[Colours]
Combo1 : 252,202,141
Combo2 : 254,211,238
Combo3 : 251,230,191
Combo4 : 244,155,169

[HitObjects]
173,41,2309,5,8,0:3:0:0:
173,41,2399,1,0,0:0:0:0:
173,41,2489,2,0,P|183:109|132:147,1,107.999996704102,12|8,0:2|0:3,0:0:0:0:
149,213,2760,1,8,0:3:0:0:
162,220,2851,2,0,L|236:209,1,53.9999983520508,8|8,0:3|0:3,0:0:0:0:
274,159,3032,2,0,L|348:170,1,53.9999983520508,8|8,0:3|0:3,0:0:0:0:
486,213,3212,6,0,P|427:201|368:280,1,161.999995056153,12|8,0:1|0:3,0:0:0:0:
378,285,3574,1,10,0:3:0:0:
399,125,3754,1,8,0:3:0:0:
304,324,3935,2,0,P|241:309|156:294,1,107.999996704102,12|0,0:0|0:0,0:0:0:0:
25,207,4297,2,0,L|104:190,1,53.9999983520508,8|8,0:3|0:3,0:0:0:0:
138,136,4477,6,0,B|165:182|165:182|147:244,1,107.999996704102,12|0,0:1|0:0,0:0:0:0:
30,325,4839,1,0,0:0:0:0:
198,300,5020,2,0,P|248:283|327:271,1,107.999996704102,2|0,1:2|0:0,0:0:0:0:
377,306,5291,1,8,0:0:0:0:
387,316,5381,2,0,L|403:211,1,53.9999983520508,10|0,0:0|0:0,0:0:0:0:
278,160,5562,1,0,0:3:0:0:
424,89,5742,1,0,1:0:0:0:
424,89,5833,1,8,0:0:0:0:
424,89,5923,1,4,0:3:0:0:
424,89,6104,6,0,P|339:100|287:14,1,161.999995056153,8|8,0:3|0:3,0:0:0:0:
296,33,6465,1,10,0:3:0:0:
422,182,6646,1,8,0:3:0:0:
278,160,6827,2,0,P|226:170|161:186,1,107.999996704102,12|0,0:0|0:0,0:0:0:0:
77,333,7188,2,0,P|83:305|77:273,1,53.9999983520508,8|8,0:3|0:3,0:0:0:0:
9,238,7369,6,0,P|-7:194|31:121,1,107.999996704102,12|0,0:1|0:0,0:0:0:0:
127,12,7730,2,0,P|133:30|135:70,2,53.9999983520508,8|8|2,0:3|0:3|1:2,0:0:0:0:
77,189,8092,2,0,P|108:177|145:176,1,53.9999983520508,0|8,0:0|0:0,0:0:0:0:
195,224,8273,1,8,0:3:0:0:
191,237,8363,1,0,0:0:0:0:
188,250,8453,1,8,0:0:0:0:
185,263,8544,1,8,0:0:0:0:
181,276,8634,1,8,0:0:0:0:
178,289,8724,1,8,0:0:0:0:
175,302,8815,1,8,0:3:0:0:
172,315,8905,1,8,0:0:0:0:
168,328,8995,6,0,P|245:269|330:286,1,161.999995056153,8|8,0:3|0:3,0:0:0:0:
315,287,9357,1,10,0:3:0:0:
155,221,9538,1,8,0:3:0:0:
323,153,9718,2,0,P|303:100|302:28,1,107.999996704102,12|0,0:0|0:0,0:0:0:0:
398,180,10080,2,0,P|390:201|353:225,1,53.9999983520508,8|8,0:3|0:3,0:0:0:0:
305,273,10260,6,0,P|259:265|175:251,1,107.999996704102,12|0,0:1|0:0,0:0:0:0:
425,359,10622,1,0,0:0:0:0:
503,156,10803,2,0,P|449:167|362:187,1,107.999996704102,2|0,1:2|0:0,0:0:0:0:
315,188,11074,1,8,0:0:0:0:
302,196,11164,2,0,P|284:147|312:95,1,107.999996704102,10|0,0:0|0:0,0:0:0:0:
369,48,11435,1,8,0:0:0:0:
381,39,11526,2,0,P|325:27|249:8,1,107.999996704102,10|0,0:0|0:0,0:0:0:0:
206,55,11797,1,0,0:0:0:0:
197,67,11887,6,0,P|140:120|36:85,1,161.999995056153,8|8,0:3|0:3,0:0:0:0:
54,96,12248,1,10,0:3:0:0:
205,182,12429,1,8,0:3:0:0:
29,237,12610,2,0,P|48:310|55:369,1,107.999996704102,12|0,0:0|0:0,0:0:0:0:
248,299,12971,2,0,P|252:268|262:226,1,53.9999983520508,8|8,0:3|0:3,0:0:0:0:
205,182,13152,6,0,P|256:163|330:153,1,107.999996704102,12|0,0:1|0:0,0:0:0:0:
473,266,13513,1,2,0:0:0:0:
473,266,13875,1,2,0:0:0:0:
413,319,14146,1,2,0:0:0:0:
413,319,14236,1,2,0:0:0:0:
332,285,14417,1,8,0:0:0:0:
332,285,14507,1,8,0:0:0:0:
332,285,14598,1,8,0:0:0:0:
332,285,14688,1,2,0:0:0:0:
332,285,14779,6,0,P|307:214|382:151,1,180,12|8,0:1|0:0,0:0:0:0:
446,200,15321,1,2,0:0:0:0:
332,285,15501,2,0,P|289:274|238:268,1,90,8|2,0:3|3:2,0:0:0:0:
177,312,15863,1,8,0:0:0:0:
55,258,16044,6,0,P|110:188|202:217,1,180,2|0,3:2|0:0,0:0:0:0:
177,312,16586,2,0,P|134:327|76:336,1,90,10|0,0:0|0:0,0:0:0:0:
267,167,16947,2,0,P|272:145|290:115,2,45,8|0|8,0:3|0:0|0:3,0:0:0:0:
358,341,17309,1,10,0:0:0:0:
243,268,17489,1,0,0:0:0:0:
358,341,17670,6,0,B|382:294|382:294|345:164,1,180,8|8,0:3|0:0,0:0:0:0:
257,63,18212,1,0,0:0:0:0:
257,63,18303,1,0,0:0:0:0:
257,63,18393,1,8,0:3:0:0:
334,92,18574,1,2,3:2:0:0:
411,121,18754,1,8,0:0:0:0:
293,285,18935,6,0,P|237:279|176:340,1,135,2|0,3:2|0:0,0:0:0:0:
177,344,19297,1,0,0:0:0:0:
293,285,19477,2,0,P|299:247|302:184,1,90,10|2,0:0|0:0,0:0:0:0:
221,53,19839,1,8,0:3:0:0:
377,150,20020,1,8,0:3:0:0:
213,239,20200,1,0,1:0:0:0:
271,157,20381,1,2,0:0:0:0:
271,157,20471,1,2,0:0:0:0:
271,157,20562,6,0,P|223:148|148:136,1,90,8|0,0:3|0:0,0:0:0:0:
422,81,20923,2,0,P|470:72|545:60,1,90,10|2,0:0|0:0,0:0:0:0:
350,39,21285,1,8,0:3:0:0:
331,220,21465,1,2,3:2:0:0:
350,39,21646,1,8,0:0:0:0:
396,158,21827,6,0,B|424:211|424:211|402:299,1,135,2|0,3:2|0:0,0:0:0:0:
391,297,22188,1,0,0:0:0:0:
249,244,22369,1,2,1:2:0:0:
129,325,22550,6,0,P|114:348|104:374,2,45,2|0|8,0:0|0:0|0:3,0:0:0:0:
163,249,22911,1,8,0:3:0:0:
112,186,23092,1,10,0:0:0:0:
190,66,23273,1,2,0:0:0:0:
190,66,23363,1,2,0:0:0:0:
190,66,23453,6,0,P|238:76|298:83,1,90,8|0,0:3|0:0,0:0:0:0:
112,186,23815,2,0,P|64:196|4:203,1,90,8|2,0:0|0:0,0:0:0:0:
190,228,24176,1,8,0:3:0:0:
106,102,24357,1,2,3:2:0:0:
288,37,24538,2,0,P|279:75|276:99,1,45,8|0,0:0|0:0,0:0:0:0:
251,157,24718,6,0,P|302:106|405:126,1,161.999995056153,2|0,3:2|0:0,0:0:0:0:
394,128,25080,2,0,P|387:162|374:228,1,53.9999983520508
282,262,25260,2,0,P|314:251|378:229,1,53.9999983520508,10|0,0:0|0:0,0:0:0:0:
480,340,25441,6,0,P|454:289|403:244,1,107.999996704102,2|0,1:2|0:0,0:0:0:0:
418,253,25712,1,8,0:3:0:0:
418,253,25803,1,8,0:3:0:0:
301,168,25983,1,10,0:0:0:0:
432,97,26164,1,2,0:0:0:0:
432,97,26254,1,2,0:0:0:0:
432,97,26345,6,0,P|378:40|265:77,1,180,12|8,0:1|0:0,0:0:0:0:
233,119,26887,1,2,0:0:0:0:
369,250,27068,2,0,P|374:197|388:146,1,90,8|2,0:3|3:2,0:0:0:0:
432,97,27429,1,8,0:0:0:0:
503,287,27610,6,0,B|403:273|446:343|333:325,1,180,2|0,3:2|0:0,0:0:0:0:
197,303,28152,2,0,P|231:270|305:276,1,90,10|0,0:0|0:0,0:0:0:0:
227,140,28513,2,0,P|272:152|304:220,1,90,8|8,0:3|0:3,0:0:0:0:
389,109,28875,2,0,P|400:154|358:216,1,90,10|0,0:0|0:0,0:0:0:0:
503,287,29236,6,0,P|462:316|352:265,1,180,10|10,0:3|0:0,0:0:0:0:
392,136,29779,1,2,0:0:0:0:
392,136,29869,1,2,0:0:0:0:
392,136,29959,1,8,0:3:0:0:
325,191,30140,1,8,0:3:0:0:
240,173,30321,1,10,0:0:0:0:
94,291,30501,6,0,P|114:240|92:156,1,135,2|8,3:2|0:3,0:0:0:0:
81,156,30863,2,0,L|92:93,1,45,2|0,3:2|0:0,0:0:0:0:
157,64,31044,1,8,1:2:0:0:
240,173,31224,2,0,L|222:235,2,45,2|0|8,3:2|0:0|0:3,0:0:0:0:
94,291,31586,1,8,0:3:0:0:
206,374,31766,2,0,P|192:330|182:281,1,90,8|8,0:0|0:3,0:0:0:0:
102,134,32128,6,0,B|202:148|159:78|272:96,1,180,8|8,0:3|0:0,0:0:0:0:
240,173,32670,1,2,0:0:0:0:
37,80,32851,2,0,P|18:127|22:168,1,90,8|0,0:3|3:0,0:0:0:0:
75,232,33212,1,10,0:0:0:0:
240,173,33393,6,0,P|275:238|255:331,1,135,2|0,3:2|0:0,0:0:0:0:
260,313,33754,1,0,0:0:0:0:
358,209,33935,2,0,P|367:171|393:108,1,90,8|0,0:0|0:0,0:0:0:0:
240,173,34297,1,8,0:3:0:0:
240,173,34387,1,0,0:0:0:0:
240,173,34477,1,8,0:3:0:0:
169,222,34658,1,10,0:0:0:0:
88,193,34839,1,0,3:0:0:0:
9,363,35020,6,0,P|63:308|162:327,1,161.999995056153
153,328,35381,2,0,P|158:271|171:211,1,107.999996704102,8|2,1:0|0:0,0:0:0:0:
117,159,35652,1,0,0:0:0:0:
108,148,35742,2,0,L|182:137,1,53.9999983520508,8|0,0:3|0:0,0:0:0:0:
237,175,35923,2,0,L|311:164,1,53.9999983520508,10|0,0:3|0:0,0:0:0:0:
390,75,36104,1,0,1:0:0:0:
498,273,36285,6,0,B|438:263|438:263|408:236|408:236|337:226,1,161.999995056153,4|0,0:0|0:0,0:0:0:0:
290,167,36646,1,8,0:3:0:0:
298,154,36736,1,8,0:3:0:0:
306,141,36827,1,2,1:2:0:0:
369,312,37007,1,0,0:0:0:0:
482,189,37188,5,8,0:0:0:0:
369,312,37369,1,4,0:3:0:0:
351,314,37459,1,4,0:3:0:0:
333,317,37549,1,8,0:3:0:0:
315,320,37640,1,8,0:3:0:0:
297,323,37730,1,8,0:3:0:0:
280,326,37820,1,8,0:3:0:0:
262,329,37911,6,0,P|301:281|270:198,1,144,4|2,0:1|3:2,0:0:0:0:
280,207,38453,1,0,0:0:0:0:
180,94,38634,2,0,P|201:147|207:194,1,72,2|0,0:0|0:0,0:0:0:0:
175,239,38995,1,2,3:2:0:0:
104,197,39176,1,0,0:0:0:0:
47,254,39357,6,0,P|39:286|38:328,1,72,2|0,0:0|3:0,0:0:0:0:
240,303,39718,2,0,P|189:352|113:338,2,144,0|2|2,3:0|3:2|0:0,0:0:0:0:
354,343,40622,1,0,3:0:0:0:
318,271,40803,6,0,P|325:239|338:176,1,72,2|0,0:0|0:0,0:0:0:0:
276,141,41164,2,0,L|192:162,1,72,2|0,3:2|0:0,0:0:0:0:
358,121,41526,2,0,P|408:54|483:74,1,144,2|2,3:2|3:2,0:0:0:0:
461,57,42068,1,0,1:0:0:0:
276,141,42248,5,0,0:0:0:0:
333,200,42429,2,0,P|325:235|318:271,1,72,2|2,0:0|0:0,0:0:0:0:
246,313,42791,1,0,3:0:0:0:
246,313,42881,1,0,0:0:0:0:
246,313,42971,5,0,1:0:0:0:
409,251,43152,1,0,1:0:0:0:
246,313,43333,5,0,1:0:0:0:
409,251,43514,1,0,1:0:0:0:
276,141,43694,6,0,L|152:121,1,90,6|0,0:0|0:0,0:0:0:0:
34,197,44056,2,0,L|158:177,1,90,8|2,0:0|0:3,0:0:0:0:
195,228,44327,1,8,0:0:0:0:
204,237,44417,1,2,1:2:0:0:
276,141,44598,1,8,0:3:0:0:
201,48,44779,1,8,0:0:0:0:
345,195,44959,6,0,B|366:154|366:154|345:64,1,135,8|0,0:3|0:0,0:0:0:0:
331,60,45321,1,8,0:3:0:0:
451,167,45501,1,8,0:0:0:0:
276,141,45682,1,0,0:0:0:0:
349,274,45863,2,0,L|365:336,2,45,2|0|8,3:2|0:0|0:3,0:0:0:0:
172,245,46224,2,0,L|146:338,1,90,8|0,0:0|0:0,0:0:0:0:
263,165,46586,6,0,B|232:264|292:248|258:342,1,180,12|10,0:1|0:0,0:0:0:0:
182,291,47128,1,2,0:0:0:0:
182,291,47218,1,8,0:0:0:0:
182,291,47309,1,2,1:2:0:0:
341,212,47489,1,8,0:3:0:0:
182,291,47670,1,8,0:0:0:0:
369,317,47851,6,0,P|373:232|420:157,1,161.999995056153,4|0,1:2|0:0,0:0:0:0:
426,156,48212,2,0,P|365:142|310:112,1,107.999996704102,0|10,0:0|1:2,0:0:0:0:
94,107,48574,6,0,P|137:59|220:59,1,107.999996704102,12|0,0:1|0:0,0:0:0:0:
239,102,48845,1,0,0:0:0:0:
243,116,48935,2,0,L|225:193,1,53.9999983520508,8|0,3:0|0:0,0:0:0:0:
178,317,49116,2,0,P|173:262|154:191,1,107.999996704102,10|0,1:2|0:0,0:0:0:0:
160,210,49477,6,0,L|-5:191,1,144,4|0,0:1|3:0,0:0:0:0:
17,193,50020,1,0,0:0:0:0:
230,168,50200,2,0,P|237:138|262:73,2,72,2|0|0,0:0|0:0|3:0,0:0:0:0:
300,295,50742,6,0,L|385:278,1,72,0|2,0:0|0:0,0:0:0:0:
370,280,51013,1,2,0:0:0:0:
370,280,51104,1,0,3:0:0:0:
414,211,51285,2,0,L|499:194,1,72,0|0,3:0|0:0,0:0:0:0:
300,295,51646,2,0,P|247:247|155:267,1,144,2|0,0:0|3:0,0:0:0:0:
121,309,52188,1,0,3:0:0:0:
49,267,52369,6,0,L|60:173,1,72,2|0,0:0|0:0,0:0:0:0:
128,153,52640,1,0,0:0:0:0:
139,149,52730,2,0,L|150:55,1,72,0|0,3:0|3:0,0:0:0:0:
364,77,53092,6,0,L|373:149,1,72,2|0,0:0|0:0,0:0:0:0:
322,211,53453,1,2,3:2:0:0:
243,183,53634,6,0,P|201:237|222:309,1,144,0|2,1:0|0:0,0:0:0:0:
357,341,54176,2,0,L|271:357,1,72,2|2,0:0|3:2,0:0:0:0:
286,354,54447,1,0,0:0:0:0:
286,354,54538,5,0,1:0:0:0:
410,277,54718,1,0,1:0:0:0:
286,354,54899,5,8,1:2:0:0:
410,277,55079,1,8,0:0:0:0:
269,202,55260,6,0,L|148:183,1,90,6|0,0:0|0:0,0:0:0:0:
67,88,55622,2,0,P|86:155|104:233,1,135,8|0,0:0|0:0,0:0:0:0:
97,235,55983,1,2,1:2:0:0:
163,110,56164,1,8,0:3:0:0:
12,206,56345,1,8,0:0:0:0:
168,290,56526,6,0,P|212:276|298:264,1,90,8|2,0:3|0:0,0:0:0:0:
364,182,56887,1,8,0:3:0:0:
416,326,57068,2,0,P|425:279|428:226,1,90,8|0,0:0|0:0,0:0:0:0:
391,101,57429,2,0,P|364:142|376:209,1,90,10|0,0:2|0:0,0:0:0:0:
331,335,57791,1,10,0:0:0:0:
331,335,57881,1,8,0:0:0:0:
331,335,57971,1,8,0:0:0:0:
331,335,58062,1,8,0:0:0:0:
331,335,58152,5,4,1:0:0:0:
157,273,58333,2,0,L|81:291,2,53.9999983520508,8|0|2,0:3|0:0|0:0,0:0:0:0:
321,156,58694,1,4,0:1:0:0:
321,156,58785,1,0,0:0:0:0:
321,156,58875,1,8,0:3:0:0:
149,90,59056,1,2,0:0:0:0:
149,90,59147,1,8,0:0:0:0:
149,90,59237,1,4,1:0:0:0:
207,176,59417,1,0,0:3:0:0:
367,82,59598,5,12,1:2:0:0:
380,78,59688,1,8,0:0:0:0:
393,75,59778,1,8,1:0:0:0:
406,72,59869,1,8,0:0:0:0:
419,69,59959,1,8,0:0:0:0:
432,66,60049,1,8,0:0:0:0:
445,63,60140,1,8,0:0:0:0:
459,60,60230,1,8,0:0:0:0:
472,57,60321,2,0,P|433:120|470:220,1,161.999995056153,8|0,0:0|0:0,0:0:0:0:
468,212,60682,6,0,P|443:218|408:226,1,54,4|0,0:3|0:0,0:0:0:0:
348,176,61044,6,0,P|292:192|226:195,1,107.999996704102,4|2,3:2|0:0,0:0:0:0:
92,198,61405,2,0,P|140:148|205:160,1,107.999996704102,0|2,1:0|0:0,0:0:0:0:
242,195,61676,1,8,0:0:0:0:
250,207,61766,2,0,L|236:285,1,53.9999983520508,8|0,0:3|0:0,0:0:0:0:
171,308,61947,2,0,L|185:386,1,53.9999983520508,8|0,3:0|0:0,0:0:0:0:
336,351,62128,2,0,P|395:316|452:305,1,107.999996704102,8|2,0:0|0:0,0:0:0:0:
409,194,62489,6,0,P|364:187|304:134,1,107.999996704102,0|2,3:0|0:0,0:0:0:0:
246,23,62851,2,0,P|241:96|226:143,1,107.999996704102,0|2,1:0|0:0,0:0:0:0:
190,197,63122,1,8,0:0:0:0:
203,205,63212,2,0,P|245:207|277:210,1,53.9999983520508,8|0,0:3|0:0,0:0:0:0:
158,64,63393,2,0,P|116:66|84:69,1,53.9999983520508,8|0,3:0|0:0,0:0:0:0:
108,230,63574,2,0,P|141:305|114:365,1,107.999996704102,8|2,0:0|0:0,0:0:0:0:
30,197,63935,6,0,P|73:155|132:150,1,107.999996704102,0|2,3:0|0:0,0:0:0:0:
345,257,64297,2,0,P|308:218|256:207,1,107.999996704102,0|2,1:0|0:0,0:0:0:0:
204,148,64568,1,0,0:0:0:0:
203,133,64658,2,0,P|212:78|219:18,1,107.999996704102,8|8,0:3|3:0,0:0:0:0:
108,230,65020,2,0,P|114:283|123:336,1,107.999996704102,8|2,0:0|0:3,0:0:0:0:
123,336,65291,1,0,0:0:0:0:
123,336,65381,5,4,3:0:0:0:
329,269,65562,2,0,L|343:205,1,53.9999983520508,2|0,0:0|0:0,0:0:0:0:
248,250,65742,2,0,L|262:186,3,53.9999983520508,10|0|8|8,0:0|3:3|0:0|0:0,0:0:0:0:
270,328,66104,5,8,1:3:0:0:
256,330,66194,1,8,0:0:0:0:
243,333,66284,1,10,0:3:0:0:
230,336,66375,1,0,0:0:0:0:
217,339,66465,1,2,1:2:0:0:
204,342,66555,1,0,0:0:0:0:
191,345,66646,1,2,0:3:0:0:
177,348,66736,1,2,0:0:0:0:
164,351,66827,6,0,P|170:297|123:221,1,107.999996704102,4|0,3:2|0:0,0:0:0:0:
103,86,67188,2,0,P|90:145|87:222,1,107.999996704102,0|2,1:0|0:0,0:0:0:0:
150,248,67459,1,8,0:0:0:0:
164,254,67550,2,0,L|240:237,1,53.9999983520508,8|0,0:3|0:0,0:0:0:0:
278,192,67730,2,0,L|354:209,1,53.9999983520508,8|0,3:0|0:0,0:0:0:0:
435,271,67911,2,0,P|418:207|428:143,1,107.999996704102,8|2,0:0|0:0,0:0:0:0:
458,39,68273,6,0,P|406:49|387:127,1,107.999996704102,0|2,3:0|0:0,0:0:0:0:
330,203,68634,2,0,P|272:205|227:178,1,107.999996704102,2|2,1:2|0:0,0:0:0:0:
177,118,68905,1,8,0:0:0:0:
165,109,68995,2,0,L|175:48,1,53.9999983520508,8|0,0:3|0:0,0:0:0:0:
80,240,69176,2,0,L|90:301,1,53.9999983520508,8|0,3:0|0:0,0:0:0:0:
0,145,69357,2,0,P|77:147|119:187,1,107.999996704102,8|2,0:0|0:0,0:0:0:0:
275,234,69718,6,0,P|232:238|161:255,1,107.999996704102,0|0,3:0|0:0,0:0:0:0:
409,176,70080,2,0,P|411:129|450:75,1,107.999996704102,0|2,1:0|0:0,0:0:0:0:
392,17,70351,1,8,0:0:0:0:
380,26,70441,2,0,P|332:44|250:38,1,107.999996704102,8|8,0:0|3:0,0:0:0:0:
409,176,70803,2,0,P|444:236|432:298,1,107.999996704102,8|2,0:0|0:0,0:0:0:0:
380,329,71074,1,0,0:0:0:0:
367,337,71164,6,0,L|298:330,1,53.9999983520508,4|0,3:0|0:0,0:0:0:0:
135,285,71345,2,0,L|204:278,1,53.9999983520508
299,155,71526,2,0,P|280:206|272:290,1,107.999996704102,4|2,1:0|0:0,0:0:0:0:
271,258,71797,1,8,0:0:0:0:
271,258,71887,1,8,1:3:0:0:
299,155,72068,2,0,P|305:121|298:92,1,53.9999983520508,8|0,0:3|0:0,0:0:0:0:
229,57,72248,1,4,1:0:0:0:
229,57,72339,1,8,0:0:0:0:
229,57,72429,1,8,0:0:0:0:
229,57,72520,1,8,0:0:0:0:
229,57,72610,6,0,P|170:64|120:72,1,107.999996704102,4|2,3:2|0:0,0:0:0:0:
301,102,72971,2,0,P|360:109|410:117,1,107.999996704102,0|2,1:0|0:0,0:0:0:0:
461,178,73242,1,8,0:0:0:0:
469,190,73333,2,0,P|468:226|445:262,1,53.9999983520508,8|0,0:3|0:0,0:0:0:0:
499,313,73513,2,0,P|467:330|424:328,1,53.9999983520508,8|0,3:0|0:0,0:0:0:0:
303,330,73694,2,0,P|349:280|408:287,1,107.999996704102,8|2,0:0|0:0,0:0:0:0:
160,136,74056,6,0,P|92:91|33:98,1,107.999996704102,0|0,3:0|0:0,0:0:0:0:
20,245,74417,2,0,P|74:222|149:206,1,107.999996704102,0|2,1:0|0:0,0:0:0:0:
198,240,74688,1,8,0:0:0:0:
210,232,74779,2,0,L|277:241,1,53.9999983520508,8|0,0:3|0:0,0:0:0:0:
368,102,74959,2,0,L|314:109,1,53.9999983520508,8|0,3:0|0:0,0:0:0:0:
200,54,75140,2,0,P|225:106|241:188,1,107.999996704102,8|2,0:0|0:0,0:0:0:0:
331,323,75501,6,0,P|344:270|368:222,1,107.999996704102,0|0,3:0|0:0,0:0:0:0:
470,121,75863,2,0,P|425:101|344:109,1,107.999996704102,0|2,1:0|0:0,0:0:0:0:
307,159,76134,1,8,0:0:0:0:
296,170,76224,2,0,P|229:198|179:182,1,107.999996704102,8|8,0:3|3:0,0:0:0:0:
164,38,76586,2,0,P|132:80|135:133,1,107.999996704102,8|2,0:0|0:0,0:0:0:0:
115,212,76857,1,0,0:0:0:0:
111,226,76947,6,0,L|131:288,3,53.9999983520508,6|0|0|2,3:0|0:0|0:0|0:3,0:0:0:0:
77,339,77309,2,0,P|55:329|19:318,1,53.9999983520508,4|0,1:2|0:0,0:0:0:0:
209,303,77489,2,0,P|220:278|235:255,1,53.9999983520508,2|2,1:3|0:0,0:0:0:0:
164,371,77670,1,4,3:0:0:0:
164,371,77760,1,0,0:0:0:0:
164,371,77851,1,8,0:3:0:0:
111,226,78032,1,14,0:0:0:0:
111,226,78122,1,8,0:0:0:0:
111,226,78212,1,10,0:0:0:0:
111,226,78303,1,8,0:0:0:0:
111,226,78393,6,0,P|130:173|107:100,1,107.999996704102,6|0,3:2|3:0,0:0:0:0:
156,300,78754,1,0,1:0:0:0:
228,252,78935,1,2,0:0:0:0:
228,252,79026,1,8,0:0:0:0:
228,252,79116,1,8,3:2:0:0:
308,282,79297,1,2,3:2:0:0:
431,136,79477,1,0,1:0:0:0:
378,69,79658,5,2,0:0:0:0:
378,69,79748,1,8,0:0:0:0:
378,69,79839,1,0,3:0:0:0:
256,116,80020,2,0,L|248:186,1,53.9999983520508,0|0,1:0|0:0,0:0:0:0:
176,82,80200,2,0,L|168:152,1,53.9999983520508,4|0,1:0|0:0,0:0:0:0:
102,182,80381,1,0,0:0:0:0:
22,56,80562,5,0,1:0:0:0:
61,252,80742,1,10,0:0:0:0:
11,66,80923,5,0,1:0:0:0:
102,182,81104,2,0,P|138:173|188:183,1,53.9999983520508,2|0,0:0|0:0,0:0:0:0:
305,132,81285,6,0,B|216:120|248:188|141:171,1,161.999995056153,0|8,1:0|0:0,0:0:0:0:
138,58,81646,2,0,P|169:84|185:136,1,53.9999983520508,0|0,1:0|0:0,0:0:0:0:
289,212,81827,1,8,0:3:0:0:
290,232,81917,1,0,0:0:0:0:
281,250,82007,1,8,0:0:0:0:
154,173,82188,1,8,0:3:0:0:
305,132,82369,1,0,1:0:0:0:
332,315,82550,6,0,P|276:310|209:339,1,107.999996704102,12|0,0:1|0:0,0:0:0:0:
151,364,82821,1,8,0:0:0:0:
138,372,82911,2,0,P|143:315|153:245,1,107.999996704102,8|0,0:3|3:0,0:0:0:0:
23,79,83273,2,0,P|37:120|38:163,1,53.9999983520508,8|8,0:3|0:0,0:0:0:0:
21,223,83453,5,4,1:2:0:0:
39,215,83543,1,8,0:0:0:0:
58,208,83633,1,8,0:0:0:0:
78,203,83724,1,8,0:0:0:0:
97,197,83814,1,8,0:0:0:0:
117,193,83904,1,8,0:0:0:0:
137,190,83995,1,8,0:0:0:0:
157,187,84085,1,8,0:0:0:0:
177,185,84176,6,0,P|191:144|158:81,1,90,4|2,0:2|0:0,0:0:0:0:
20,123,84538,2,0,P|62:115|100:54,1,90,8|2,0:0|0:0,0:0:0:0:
240,247,84899,6,0,P|225:287|259:351,1,90,8|2,0:3|3:2,0:0:0:0:
397,309,85261,2,0,P|354:316|316:377,1,90,8|2,0:0|0:0,0:0:0:0:
313,204,85622,6,0,P|317:161|336:96,1,90,8|0,0:3|0:0,0:0:0:0:
487,162,85983,2,0,P|497:195|508:248,2,45,8|2|2,0:0|0:0|0:0,0:0:0:0:
399,75,86345,2,0,P|343:37|290:46,1,90,8|0,0:3|0:0,0:0:0:0:
154,190,86706,2,0,P|186:159|230:151,1,90,8|2,0:0|0:0,0:0:0:0:
437,259,87068,6,0,P|367:325|290:298,1,180,8|8,0:3|0:0,0:0:0:0:
237,240,87610,1,2,0:0:0:0:
237,240,87700,1,8,0:0:0:0:
237,240,87791,1,8,0:3:0:0:
170,296,87971,1,2,3:2:0:0:
86,277,88152,1,8,0:0:0:0:
237,240,88333,2,0,P|272:228|310:222,1,45,2|0,0:0|0:0,0:0:0:0:
430,303,88513,5,8,0:3:0:0:
430,303,88604,1,8,0:3:0:0:
430,303,88694,1,8,0:3:0:0:
430,303,88785,1,8,0:3:0:0:
430,303,88875,2,0,P|439:271|451:242,1,45,4|0,1:0|0:0,0:0:0:0:
340,169,89056,2,0,P|331:137|319:108,1,45,8|0,1:2|0:0,0:0:0:0:
333,327,89236,6,0,P|338:305|346:283,2,45,4|8|8,3:2|3:0|0:3,0:0:0:0:
512,154,89598,1,8,0:0:0:0:
489,149,89688,1,8,0:0:0:0:
467,145,89778,1,8,0:0:0:0:
445,141,89869,1,8,0:0:0:0:
423,137,89959,6,0,P|405:195|481:270,2,135,4|8|8,3:2|0:3|0:3,0:0:0:0:
256,35,90682,2,0,L|255:164,1,90,4|0,0:1|0:0,0:0:0:0:
41,171,91044,6,0,P|59:235|33:276,1,90,2|8,0:0|0:0,0:0:0:0:
39,273,91315,1,8,0:0:0:0:
61,270,91405,1,12,0:0:0:0:
83,266,91495,1,0,1:0:0:0:
105,262,91585,1,8,0:0:0:0:
127,259,91676,1,8,0:0:0:0:
149,255,91766,1,0,1:0:0:0:
172,252,91856,1,8,0:0:0:0:
194,248,91947,1,8,0:0:0:0:
216,245,92037,1,8,0:0:0:0:
238,241,92128,6,0,P|252:207|218:140,1,90,4|0,1:0|0:0,0:0:0:0:
223,150,92399,2,0,P|208:108|222:66,1,90,4|0,1:0|0:0,0:0:0:0:
237,57,92670,1,4,1:2:0:0:
256,192,92760,12,0,95381,0:0:0:0:
237,57,95562,6,0,L|248:99,3,24,0|0|0|8,0:0|0:0|3:0|0:3,0:0:0:0:
