osu file format v14

[General]
AudioFilename: audio.mp3
AudioLeadIn: 0
PreviewTime: 60653
Countdown: 0
SampleSet: Soft
StackLeniency: 0.7
Mode: 0
LetterboxInBreaks: 0
WidescreenStoryboard: 0

[Editor]
DistanceSpacing: 0.85
BeatDivisor: 4
GridSize: 16
TimelineZoom: 1

[Metadata]
Title:Ijiwaru na Anata
TitleUnicode:イジワルなあなた
Artist:Sano Hiroaki feat. Tatsumi Megumi
ArtistUnicode:佐野宏晃 feat. 達見 恵
Creator:Down
Version:Dailycare's Hard
Source:GuitarFreaks V6 & DrumMania V6 BLAZING!!!!
Tags:video game rock jrock j-rock japanese konami dailycare morinaga bemani jieusieu
BeatmapID:3689074
BeatmapSetID:1799536

[Difficulty]
HPDrainRate:5
CircleSize:3.6
OverallDifficulty:6.6
ApproachRate:8
SliderMultiplier:1.51
SliderTickRate:1

[Events]
//Background and Video events
0,0,"222.jpg",0,0
//Break Periods
//Storyboard Layer 0 (Background)
//Storyboard Layer 1 (Fail)
//Storyboard Layer 2 (Pass)
//Storyboard Layer 3 (Foreground)
//Storyboard Layer 4 (Overlay)
//Storyboard Sound Samples

[TimingPoints]
1767,361.44578313253,4,2,1,80,1,0
14779,-100,4,2,1,65,0,0
36285,-100,4,2,1,80,0,0
36646,-100,4,2,1,65,0,0
36827,-100,4,2,1,80,0,0
37459,-100,4,2,1,50,0,0
37911,-125,4,2,1,54,0,0
42068,-125,4,2,1,65,0,0
42971,-100,4,2,1,75,0,0
43694,-100,4,2,1,80,0,0
49477,-125,4,2,1,54,0,0
53634,-125,4,2,1,65,0,0
54538,-100,4,2,1,75,0,0
55260,-100,4,2,1,80,0,0
59598,-100,4,2,1,70,0,0
60321,-100,4,2,1,60,0,0
61044,-97.0873786407767,4,2,1,82,0,0
80562,-97.0873786407767,4,2,1,85,0,0
81285,-97.0873786407767,4,2,1,78,0,0
82550,-97.0873786407767,4,2,1,85,0,0
83634,-97.0873786407767,4,2,1,78,0,0
83995,-97.0873786407767,4,2,1,80,0,0
84176,-100,4,2,1,80,0,0
95562,-100,4,2,1,40,0,0

[Colours]
Combo1 : 252,202,141
Combo2 : 254,211,238
Combo3 : 251,230,191
Combo4 : 244,155,169

[HitObjects]
183,156,2309,5,8,0:3:0:0:
183,156,2399,1,0,0:0:0:0:
183,156,2489,2,0,P|229:148|276:78,1,113.25,12|8,0:2|0:3,0:0:0:0:
295,80,2851,2,0,P|291:38|272:13,3,37.75,8|8|8|8,0:3|0:3|0:3|0:3,0:0:0:0:
280,19,3212,6,0,P|353:41|384:124,1,151,12|10,0:1|0:3,0:0:0:0:
466,133,3754,1,8,0:3:0:0:
400,192,3935,2,0,P|393:253|386:360,1,151,12|8,0:0|0:3,0:0:0:0:
368,351,4387,1,8,0:3:0:0:
351,360,4477,2,0,P|296:310|223:316,1,151,12|0,0:1|0:0,0:0:0:0:
150,275,5020,2,0,L|11:287,1,113.25,2|8,1:2|0:0,0:0:0:0:
37,284,5381,2,0,L|47:179,1,75.5,10|0,0:0|0:3,0:0:0:0:
0,138,5742,2,0,L|7:70,2,37.75,0|8|4,1:0|0:0|0:3,0:0:0:0:
46,22,6104,6,0,P|101:67|190:56,1,151,8|10,0:3|0:3,0:0:0:0:
242,116,6646,1,8,0:3:0:0:
300,54,6827,2,0,P|288:122|278:214,1,151,12|8,0:0|0:3,0:0:0:0:
279,224,7279,1,8,0:3:0:0:
273,244,7369,2,0,P|328:199|417:210,1,151,12|8,0:1|0:3,0:0:0:0:
430,118,7911,2,0,P|426:80|424:42,1,75.5,2|0,1:2|0:0,0:0:0:0:
491,189,8273,1,8,0:3:0:0:
466,277,8453,1,8,0:0:0:0:
466,277,8544,1,8,0:0:0:0:
466,277,8634,2,0,L|459:345,2,37.75,8|8|8,0:0|0:0|0:3,0:0:0:0:
399,374,8995,6,0,P|355:382|258:316,1,151,8|10,0:3|0:3,0:0:0:0:
195,283,9538,1,8,0:3:0:0:
144,355,9718,2,0,P|131:251|121:188,1,151,12|8,0:0|0:3,0:0:0:0:
110,191,10170,1,8,0:3:0:0:
94,179,10260,2,0,P|162:179|221:90,1,151,12|0,0:1|0:0,0:0:0:0:
289,72,10803,2,0,P|293:109|304:161,1,75.5,2|0,1:2|0:0,0:0:0:0:
269,231,11164,2,0,P|337:231|396:320,1,151,10|10,0:0|0:0,0:0:0:0:
469,324,11706,1,0,0:0:0:0:
460,237,11887,6,0,P|474:179|513:62,1,151,8|10,0:3|0:3,0:0:0:0:
453,18,12429,1,8,0:3:0:0:
377,62,12610,2,0,P|318:72|195:84,1,151,12|8,0:0|0:3,0:0:0:0:
207,89,13062,1,8,0:3:0:0:
186,88,13152,2,0,P|151:138|179:234,2,151,12|2|2,0:1|0:0|0:0,0:0:0:0:
111,40,14056,2,0,L|105:-10,2,37.75,0|2|2,0:0|0:0|0:0,0:0:0:0:
37,89,14417,2,0,L|31:139,2,37.75,8|8|8,0:0|0:0|0:0,0:0:0:0:
0,204,14779,6,0,P|64:212|124:308,1,151,12|8,0:1|0:0,0:0:0:0:
194,221,15321,1,2,0:0:0:0:
194,221,15501,2,0,P|207:256|206:300,1,75.5,8|2,0:3|3:2,0:0:0:0:
226,382,15863,1,8,0:0:0:0:
313,384,16044,6,0,P|324:335|408:261,1,151,2|0,3:2|0:0,0:0:0:0:
464,321,16586,2,0,P|480:279|472:223,1,75.5,10|0,0:0|0:0,0:0:0:0:
420,184,16947,1,8,0:3:0:0:
420,184,17038,1,0,0:0:0:0:
420,184,17128,1,8,0:3:0:0:
488,124,17309,2,0,P|451:97|395:90,1,75.5,10|0,0:0|0:0,0:0:0:0:
347,40,17670,6,0,P|279:73|189:90,2,151,8|8|8,0:3|0:0|0:3,0:0:0:0:
436,16,18574,2,0,P|423:82|421:121,1,75.5,2|8,3:2|0:0,0:0:0:0:
351,132,18935,6,0,P|365:210|377:302,1,151,2|0,3:2|0:0,0:0:0:0:
304,333,19477,1,10,0:0:0:0:
242,271,19658,1,2,0:0:0:0:
161,299,19839,1,8,0:3:0:0:
161,299,19929,1,2,0:3:0:0:
161,299,20020,2,0,L|167:201,1,75.5,8|0,0:3|1:0,0:0:0:0:
112,155,20381,1,2,0:0:0:0:
31,186,20562,6,0,P|10:139|28:31,1,151,8|10,0:3|0:0,0:0:0:0:
102,7,21104,2,0,P|140:32|199:43,1,75.5,2|8,0:0|0:3,0:0:0:0:
195,125,21465,2,0,P|233:100|292:89,1,75.5,2|8,3:2|0:0,0:0:0:0:
321,25,21827,6,0,P|371:55|372:163,1,151,2|0,3:2|0:0,0:0:0:0:
468,178,22369,1,2,1:2:0:0:
468,178,22550,2,0,P|487:233|418:316,1,151,2|8,0:0|0:3,0:0:0:0:
401,384,23092,1,10,0:0:0:0:
322,357,23273,1,2,0:0:0:0:
322,357,23363,1,2,0:0:0:0:
322,357,23453,6,0,L|305:192,1,151,8|8,0:3|0:0,0:0:0:0:
220,222,23995,2,0,L|233:141,1,75.5,2|8,0:0|0:3,0:0:0:0:
146,128,24357,2,0,L|192:36,1,75.5,2|8,3:2|0:0,0:0:0:0:
109,10,24718,6,0,P|62:11|-10:95,1,151,2|0,3:2|0:0,0:0:0:0:
49,156,25260,1,10,0:0:0:0:
49,156,25441,2,0,P|89:194|92:273,1,113.25,2|8,1:2|0:3,0:0:0:0:
109,259,25803,2,0,P|93:298|91:353,1,75.5,8|10,0:3|0:0,0:0:0:0:
172,384,26164,1,2,0:0:0:0:
172,384,26254,1,2,0:0:0:0:
172,384,26345,6,0,P|205:325|276:281,1,151,12|8,0:1|0:0,0:0:0:0:
275,195,26887,1,2,0:0:0:0:
275,195,27068,2,0,P|320:205|356:253,1,75.5,8|2,0:3|3:2,0:0:0:0:
430,203,27429,1,8,0:0:0:0:
372,134,27610,6,0,P|322:85|301:-17,1,151,2|0,3:2|0:0,0:0:0:0:
210,0,28152,2,0,P|179:37|166:89,1,75.5,10|0,0:0|0:0,0:0:0:0:
104,121,28513,1,8,0:3:0:0:
104,121,28604,1,2,0:3:0:0:
104,121,28694,1,8,0:3:0:0:
79,201,28875,2,0,P|109:238|122:290,1,75.5,10|0,0:0|0:0,0:0:0:0:
202,283,29236,6,0,P|254:292|339:213,1,151,10|10,0:3|0:0,0:0:0:0:
391,177,29779,1,2,0:0:0:0:
391,177,29869,1,2,0:0:0:0:
391,177,29959,2,0,L|379:84,1,75.5,8|8,0:3|0:3,0:0:0:0:
437,33,30321,1,10,0:0:0:0:
505,90,30501,6,0,P|485:140|481:234,1,113.25,2|8,3:2|0:3,0:0:0:0:
469,208,30863,2,0,P|494:250|504:310,1,75.5,2|8,3:2|1:2,0:0:0:0:
440,343,31224,1,2,3:2:0:0:
440,343,31315,1,0,0:0:0:0:
440,343,31405,2,0,P|407:323|371:312,1,75.5,8|8,0:3|0:3,0:0:0:0:
303,255,31766,2,0,P|267:266|234:285,1,75.5,8|8,0:0|0:3,0:0:0:0:
173,354,32128,6,0,L|9:368,1,151,8|8,0:3|0:0,0:0:0:0:
51,282,32670,1,2,0:0:0:0:
51,282,32851,2,0,L|-39:267,1,75.5,8|0,0:3|3:0,0:0:0:0:
14,187,33212,1,10,0:0:0:0:
0,100,33393,6,0,P|62:93|141:157,1,151,2|0,3:2|0:0,0:0:0:0:
209,97,33935,2,0,P|211:127|219:186,1,75.5,8|0,0:0|0:0,0:0:0:0:
277,239,34297,2,0,P|327:244|401:168,1,151,8|10,0:3|0:0,0:0:0:0:
470,129,34839,1,0,3:0:0:0:
389,93,35020,6,0,L|376:18,1,75.5,0|2,0:0|0:0,0:0:0:0:
295,60,35381,2,0,L|307:134,1,75.5,8|2,1:0|0:0,0:0:0:0:
209,43,35742,1,8,0:3:0:0:
146,163,35923,2,0,L|133:88,1,75.5,10|0,0:3|1:0,0:0:0:0:
45,68,36285,6,0,P|31:154|-12:210,1,151,4|8,0:0|0:3,0:0:0:0:
4,222,36736,1,8,0:3:0:0:
15,238,36827,2,0,P|59:249|104:265,1,75.5,2|0,1:2|0:0,0:0:0:0:
144,330,37188,2,0,P|197:321|284:316,1,113.25,8|4,0:0|0:3,0:0:0:0:
281,299,37550,2,0,L|348:311,3,37.75,8|8|8|8,0:3|0:3|0:3|0:3,0:0:0:0:
347,296,37911,6,0,L|363:165,2,120.8,4|2|2,0:1|3:2|0:0,0:0:0:0:
406,367,38815,2,0,P|421:336|441:310,1,60.4,0|2,0:0|3:2,0:0:0:0:
509,270,39176,2,0,P|521:215|480:153,1,120.8,0|0,0:0|3:0,0:0:0:0:
506,73,39718,2,0,P|478:77|429:89,1,60.4,0|0,3:0|0:0,0:0:0:0:
367,121,40080,2,0,L|222:101,1,120.8,2|2,3:2|0:0,0:0:0:0:
173,67,40622,1,0,3:0:0:0:
173,67,40803,6,0,P|205:123|184:188,2,120.8,2|2|2,0:0|3:2|3:2,0:0:0:0:
113,134,41706,2,0,P|79:123|54:122,1,60.4,0|2,0:0|3:2,0:0:0:0:
0,191,42068,2,0,P|33:244|42:320,1,120.8,0|2,1:0|0:0,0:0:0:0:
118,373,42610,2,0,L|128:292,1,60.4,2|0,0:0|3:0,0:0:0:0:
141,300,42881,1,0,0:0:0:0:
156,288,42971,6,0,L|145:204,1,75.5,0|0,1:0|1:0,0:0:0:0:
314,289,43333,2,0,P|274:302|240:325,1,75.5,0|0,1:0|1:0,0:0:0:0:
226,168,43694,6,0,P|293:163|369:228,1,151,6|8,0:0|0:0,0:0:0:0:
446,230,44236,2,0,L|453:274,2,37.75,2|8|2,0:3|0:0|1:2,0:0:0:0:
492,154,44598,1,8,0:3:0:0:
492,154,44779,2,0,P|498:110|511:53,1,75.5,8|8,0:0|0:3,0:0:0:0:
451,6,45140,6,0,P|391:50|317:47,1,151,2|8,0:0|0:0,0:0:0:0:
234,84,45682,1,0,0:0:0:0:
153,41,45863,2,0,L|147:-7,2,37.75,2|0|8,3:2|0:0|0:3,0:0:0:0:
71,77,46224,2,0,P|49:113|39:160,1,75.5,8|0,0:0|0:0,0:0:0:0:
106,208,46586,6,0,P|103:255|160:350,1,151,12|10,0:1|0:0,0:0:0:0:
245,377,47128,1,2,0:0:0:0:
245,377,47218,1,8,0:0:0:0:
245,377,47309,1,2,1:2:0:0:
306,308,47489,2,0,P|312:264|329:214,1,75.5,8|8,0:3|0:0,0:0:0:0:
393,178,47851,6,0,L|219:199,1,151,4|0,1:2|0:0,0:0:0:0:
160,161,48393,1,10,1:2:0:0:
271,73,48574,6,0,L|445:94,1,151,12|8,0:1|3:0,0:0:0:0:
504,56,49116,1,10,1:2:0:0:
504,56,49477,6,0,P|479:90|476:184,2,120.8,4|0|2,0:1|3:0|0:0,0:0:0:0:
427,11,50381,2,0,L|344:22,1,60.4,0|0,0:0|3:0,0:0:0:0:
298,74,50742,2,0,P|251:71|185:133,1,120.8,0|0,0:0|3:0,0:0:0:0:
107,89,51285,2,0,P|105:120|95:176,1,60.4,0|0,3:0|0:0,0:0:0:0:
32,204,51646,2,0,P|79:201|145:263,1,120.8,2|0,0:0|3:0,0:0:0:0:
226,219,52188,1,0,3:0:0:0:
226,219,52279,1,0,0:0:0:0:
226,219,52369,6,0,L|216:351,2,120.8,2|0|2,0:0|3:0|0:0,0:0:0:0:
308,180,53273,2,0,P|317:216|313:243,1,60.4,0|2,0:0|3:2,0:0:0:0:
333,327,53634,2,0,P|348:291|424:251,1,120.8,0|2,1:0|0:0,0:0:0:0:
490,201,54176,2,0,P|494:166|504:119,1,60.4,2|2,0:0|3:2,0:0:0:0:
490,124,54447,1,0,0:0:0:0:
481,108,54538,6,0,L|469:25,1,75.5,0|0,1:0|1:0,0:0:0:0:
408,168,54899,2,0,P|373:157|299:156,1,75.5,8|8,1:2|0:0,0:0:0:0:
286,77,55260,6,0,L|180:101,1,75.5,6|0,0:0|0:0,0:0:0:0:
123,99,55622,2,0,P|170:115|210:232,1,151,8|2,0:0|1:2,0:0:0:0:
301,239,56164,1,8,0:3:0:0:
301,239,56345,2,0,P|291:280|285:321,1,75.5,8|8,0:0|0:3,0:0:0:0:
216,367,56706,6,0,P|140:350|52:342,1,151,2|8,0:0|0:0,0:0:0:0:
13,274,57248,1,0,0:0:0:0:
88,226,57429,2,0,L|78:135,1,75.5,10|0,0:2|0:0,0:0:0:0:
20,85,57791,2,0,L|25:44,3,37.75,10|8|8|8,0:0|0:0|0:0|0:0,0:0:0:0:
15,19,58152,6,0,P|76:57|176:46,1,151,4|2,1:0|0:0,0:0:0:0:
319,17,58694,2,0,P|255:50|215:142,1,151,4|2,0:1|0:0,0:0:0:0:
168,281,59236,2,0,P|170:209|110:128,1,151,4|12,1:0|1:2,0:0:0:0:
153,55,59779,5,8,1:0:0:0:
218,118,59959,1,8,0:0:0:0:
130,142,60140,1,8,0:0:0:0:
64,80,60321,5,8,0:0:0:0:
63,269,60682,1,4,0:3:0:0:
63,269,61044,6,0,P|101:259|163:261,1,77.7649993473702,4|2,3:2|0:0,0:0:0:0:
209,320,61405,1,0,1:0:0:0:
300,289,61586,1,2,0:0:0:0:
300,289,61676,1,8,0:0:0:0:
300,289,61766,2,0,L|308:211,1,77.7649993473702,8|8,0:3|3:0,0:0:0:0:
231,154,62128,2,0,L|222:231,1,77.7649993473702,8|2,0:0|0:0,0:0:0:0:
278,371,62489,6,0,P|343:372|420:309,1,155.52999869474,0|0,3:0|1:0,0:0:0:0:
483,261,63032,1,2,0:0:0:0:
442,180,63212,2,0,P|436:135|431:88,1,77.7649993473702,8|8,0:3|3:0,0:0:0:0:
402,17,63574,2,0,P|446:14|502:39,1,77.7649993473702,8|2,0:0|0:0,0:0:0:0:
348,87,63935,6,0,P|288:144|254:243,2,155.52999869474,0|0|8,3:0|1:0|0:3,0:0:0:0:
348,87,64748,1,8,0:0:0:0:
348,87,64839,1,8,3:0:0:0:
278,36,65020,2,0,P|238:24|197:-10,1,77.7649993473702,8|2,0:0|0:3,0:0:0:0:
137,56,65381,5,4,3:0:0:0:
55,21,65562,1,2,0:0:0:0:
5,94,65742,2,0,P|13:128|17:190,1,77.7649993473702,10|8,0:0|0:0,0:0:0:0:
32,183,66013,1,8,0:0:0:0:
47,193,66104,2,0,L|35:289,1,77.7649993473702,8|10,1:3|0:3,0:0:0:0:
20,359,66465,2,0,P|54:351|116:347,1,77.7649993473702,2|2,1:2|0:3,0:0:0:0:
111,335,66736,1,2,0:0:0:0:
128,328,66827,6,0,L|217:351,1,77.7649993473702,4|0,3:2|0:0,0:0:0:0:
292,334,67188,1,0,1:0:0:0:
240,264,67369,1,2,0:0:0:0:
240,264,67459,1,8,0:0:0:0:
240,264,67550,2,0,P|242:216|248:168,1,77.7649993473702,8|8,0:3|3:0,0:0:0:0:
335,170,67911,2,0,P|332:217|327:266,1,77.7649993473702,8|2,0:0|0:0,0:0:0:0:
150,280,68273,6,0,P|113:252|5:249,1,155.52999869474,0|2,3:0|1:2,0:0:0:0:
29,157,68815,1,2,0:0:0:0:
0,77,68995,2,0,P|23:34|56:12,1,77.7649993473702,8|8,0:3|3:0,0:0:0:0:
88,95,69357,2,0,P|127:123|166:128,1,77.7649993473702,8|2,0:0|0:0,0:0:0:0:
205,203,69718,6,0,P|285:190|363:181,1,155.52999869474,0|0,3:0|1:0,0:0:0:0:
436,138,70260,1,2,0:0:0:0:
512,242,70441,2,0,P|480:234|413:225,1,77.7649993473702,8|8,0:0|3:0,0:0:0:0:
360,95,70803,2,0,P|353:56|345:18,1,77.7649993473702,8|2,0:0|0:0,0:0:0:0:
434,38,71164,6,0,L|519:23,1,77.7649993473702,4|0,3:0|0:0,0:0:0:0:
360,95,71526,1,4,1:0:0:0:
289,157,71706,1,2,0:0:0:0:
289,157,71797,1,8,0:0:0:0:
289,157,71887,2,0,L|212:143,1,77.7649993473702,8|8,1:3|0:3,0:0:0:0:
356,220,72248,2,0,L|427:208,3,38.8824996736851,4|8|8|8,1:0|0:0|0:0|0:0,0:0:0:0:
419,200,72610,6,0,P|439:238|439:290,1,77.7649993473702,4|2,3:2|0:0,0:0:0:0:
413,355,72971,1,0,1:0:0:0:
326,328,73152,1,2,0:0:0:0:
326,328,73242,1,8,0:0:0:0:
326,328,73333,2,0,P|285:336|240:346,1,77.7649993473702,8|8,0:3|3:0,0:0:0:0:
197,265,73694,2,0,P|238:257|283:247,1,77.7649993473702,8|2,0:0|0:0,0:0:0:0:
161,349,74056,6,0,P|112:358|34:276,1,155.52999869474,0|0,3:0|1:0,0:0:0:0:
74,212,74598,1,2,0:0:0:0:
9,150,74779,2,0,P|14:105|19:67,1,77.7649993473702,8|8,0:3|3:0,0:0:0:0:
78,6,75140,2,0,P|106:46|103:95,1,77.7649993473702,8|2,0:0|0:0,0:0:0:0:
182,120,75501,6,0,P|259:98|301:32,2,155.52999869474,0|0|8,3:0|1:0|0:3,0:0:0:0:
253,195,76405,1,8,3:0:0:0:
253,195,76586,2,0,P|232:239|243:286,1,77.7649993473702,8|2,0:0|0:0,0:0:0:0:
300,330,76947,6,0,P|350:306|430:314,1,116.647499021055,6|2,3:0|0:3,0:0:0:0:
425,315,77309,2,0,L|438:225,1,77.7649993473702,4|2,1:2|1:3,0:0:0:0:
388,166,77670,1,4,3:0:0:0:
388,166,77760,1,0,0:0:0:0:
388,166,77851,1,8,0:3:0:0:
456,114,78032,2,0,L|447:64,3,38.8824996736851,14|8|10|8,0:0|0:0|0:0|0:0,0:0:0:0:
464,53,78393,6,0,L|356:35,1,77.7649993473702,6|0,3:2|3:0,0:0:0:0:
303,66,78754,1,0,1:0:0:0:
235,10,78935,1,2,0:0:0:0:
153,40,79116,6,0,P|143:77|138:137,1,77.7649993473702,8|2,3:2|3:2,0:0:0:0:
76,179,79477,1,0,1:0:0:0:
161,205,79658,1,2,0:0:0:0:
147,293,79839,6,0,L|255:275,1,77.7649993473702,0|0,3:0|1:0,0:0:0:0:
308,306,80200,1,4,1:0:0:0:
363,234,80381,1,0,0:0:0:0:
446,267,80562,6,0,P|440:301|437:357,1,77.7649993473702,0|10,1:0|0:0,0:0:0:0:
278,205,80923,2,0,P|284:171|287:115,1,77.7649993473702,0|2,1:0|0:0,0:0:0:0:
249,46,81285,6,0,P|313:90|418:67,2,155.52999869474,0|0|8,1:0|1:0|0:0,0:0:0:0:
171,96,82188,1,8,0:3:0:0:
114,23,82369,1,0,1:0:0:0:
34,60,82550,6,0,P|47:114|51:193,1,116.647499021055,12|8,0:1|0:0,0:0:0:0:
45,188,82911,2,0,P|19:221|5:282,1,77.7649993473702,8|0,0:3|3:0,0:0:0:0:
30,341,83273,1,8,0:3:0:0:
114,375,83453,6,0,L|163:367,3,38.8824996736851,4|8|8|8,1:2|0:0|0:0|0:0,0:0:0:0:
172,346,83815,2,0,L|221:338,3,38.8824996736851,8|8|8|8,0:0|0:0|0:0|0:0,0:0:0:0:
234,319,84176,6,0,L|242:238,1,75.5,4|2,0:2|0:0,0:0:0:0:
171,189,84538,2,0,L|163:108,1,75.5,8|2,0:0|0:0,0:0:0:0:
134,16,84899,2,0,P|179:30|220:36,1,75.5,8|2,0:3|3:2,0:0:0:0:
325,92,85260,2,0,P|287:98|252:110,1,75.5,8|2,0:0|0:0,0:0:0:0:
171,189,85622,6,0,P|228:185|301:262,1,151,8|8,0:3|0:0,0:0:0:0:
295,243,86074,1,2,0:0:0:0:
295,243,86164,1,2,0:0:0:0:
380,295,86345,2,0,P|384:252|391:214,1,75.5,8|0,0:3|0:0,0:0:0:0:
477,203,86706,2,0,P|472:245|466:284,1,75.5,8|2,0:0|0:0,0:0:0:0:
436,360,87068,6,0,P|360:364|267:380,1,151,8|8,0:3|0:0,0:0:0:0:
204,354,87610,1,2,0:0:0:0:
204,354,87700,1,8,0:0:0:0:
204,354,87791,2,0,P|196:307|188:270,1,75.5,8|2,0:3|3:2,0:0:0:0:
141,185,88152,2,0,L|225:199,1,75.5,8|2,0:0|0:0,0:0:0:0:
275,261,88513,5,8,0:3:0:0:
303,172,88694,1,8,0:3:0:0:
232,111,88875,2,0,P|227:75|222:36,1,75.5,4|8,1:0|1:2,0:0:0:0:
308,0,89236,1,4,3:2:0:0:
308,0,89327,1,8,3:0:0:0:
308,0,89417,1,8,0:3:0:0:
375,58,89598,2,0,L|425:65,3,37.75,8|8|8|8,0:0|0:0|0:0|0:0,0:0:0:0:
440,49,89959,6,0,P|510:85|525:136,2,113.25,4|8|8,3:2|0:3|0:3,0:0:0:0:
433,139,90682,2,0,P|364:157|312:234,1,151,4|2,0:1|0:0,0:0:0:0:
272,134,91224,1,8,0:0:0:0:
242,274,91405,6,0,P|234:231|197:180,1,75.5,12|8,0:0|0:0,0:0:0:0:
132,231,91766,2,0,P|140:274|177:325,1,75.5,0|8,1:0|0:0,0:0:0:0:
222,364,92128,6,0,L|356:371,2,113.25,4|4|4,1:0|1:0|1:2,0:0:0:0:
256,192,92851,12,8,95742,0:3:0:0:
