osu file format v14

[General]
AudioFilename: audio.mp3
AudioLeadIn: 0
PreviewTime: 60653
Countdown: 0
SampleSet: Soft
StackLeniency: 0.7
Mode: 0
LetterboxInBreaks: 0
WidescreenStoryboard: 0

[Editor]
DistanceSpacing: 0.85
BeatDivisor: 6
GridSize: 16
TimelineZoom: 4.699998

[Metadata]
Title:Ijiwaru na Anata
TitleUnicode:イジワルなあなた
Artist:Sano Hiroaki feat. Tatsumi Megumi
ArtistUnicode:佐野宏晃 feat. 達見 恵
Creator:Down
Version:Dailycare's Expert
Source:GuitarFreaks V6 & DrumMania V6 BLAZING!!!!
Tags:video game rock jrock j-rock japanese konami dailycare morinaga bemani jieusieu
BeatmapID:3689073
BeatmapSetID:1799536

[Difficulty]
HPDrainRate:5
CircleSize:4
OverallDifficulty:8.8
ApproachRate:9.2
SliderMultiplier:1.83
SliderTickRate:1

[Events]
//Background and Video events
0,0,"222.jpg",0,0
//Break Periods
//Storyboard Layer 0 (Background)
//Storyboard Layer 1 (Fail)
//Storyboard Layer 2 (Pass)
//Storyboard Layer 3 (Foreground)
//Storyboard Layer 4 (Overlay)
//Storyboard Sound Samples

[TimingPoints]
1767,361.44578313253,4,2,1,80,1,0
2489,-71.4285714285714,4,2,1,80,0,0
3212,-100,4,2,1,80,0,0
8273,-71.4285714285714,4,2,1,80,0,0
8453,-100,4,2,1,80,0,0
14779,-104.166666666667,4,2,1,65,0,0
36285,-104.166666666667,4,2,1,80,0,0
36465,-104.166666666667,4,2,1,65,0,0
36827,-104.166666666667,4,2,1,80,0,0
37369,-104.166666666667,4,2,1,50,0,0
37911,-125,4,2,1,54,0,0
42068,-125,4,2,1,65,0,0
42971,-125,4,2,1,75,0,0
43694,-104.166666666667,4,2,1,80,0,0
49477,-125,4,2,1,54,0,0
53634,-125,4,2,1,65,0,0
54538,-125,4,2,1,75,0,0
55260,-104.166666666667,4,2,1,80,0,0
59598,-83.3333333333333,4,2,1,70,0,0
60321,-83.3333333333333,4,2,1,60,0,0
60682,-250,4,2,1,60,0,0
60953,-250,4,2,1,10,0,0
61044,-96.1538461538461,4,2,1,82,0,0
71435,-96.1538461538461,4,2,1,10,0,0
71526,-96.1538461538461,4,2,1,82,0,0
78032,-83.3333333333333,4,2,1,82,0,0
80200,-96.1538461538461,4,2,1,82,0,0
80562,-96.1538461538461,4,2,1,85,0,0
81285,-96.1538461538461,4,2,1,78,0,0
82550,-96.1538461538461,4,2,1,85,0,0
83634,-96.1538461538461,4,2,1,78,0,0
83995,-96.1538461538461,4,2,1,80,0,0
84176,-100,4,2,1,80,0,0
95381,-100,4,2,1,10,0,0
95562,-100,4,2,1,40,0,0

[Colours]
Combo1 : 252,202,141
Combo2 : 254,211,238
Combo3 : 251,230,191
Combo4 : 244,155,169

[HitObjects]
310,80,2309,6,0,L|287:85,2,22.875,8|0|0,0:3|0:0|0:0,0:0:0:0:
414,32,2489,6,0,P|405:60|397:138,1,64.0499980453492,12|0,0:2|0:0,0:0:0:0:
221,154,2670,1,8,0:3:0:0:
221,154,2760,1,8,0:3:0:0:
221,154,2851,2,0,P|215:122|205:92,1,64.0499980453492,8|8,0:3|0:3,0:0:0:0:
301,16,3032,6,0,L|311:94,1,64.0499980453492,8|8,0:3|0:3,0:0:0:0:
512,240,3212,5,12,0:1:0:0:
508,216,3303,1,8,0:3:0:0:
496,194,3393,1,8,0:3:0:0:
476,182,3483,1,8,0:3:0:0:
453,173,3574,1,10,0:3:0:0:
430,173,3664,1,8,0:3:0:0:
408,181,3754,2,0,L|398:236,1,45.75,8|8,0:3|0:3,0:0:0:0:
207,352,3935,5,12,0:0:0:0:
202,356,4297,2,0,L|192:301,1,45.75,8|8,0:3|0:3,0:0:0:0:
23,94,4477,6,0,P|108:83|183:145,1,183,12|0,0:1|0:0,0:0:0:0:
297,296,5020,2,0,P|302:248|312:186,1,91.5,2|0,1:2|0:0,0:0:0:0:
308,205,5291,1,8,0:0:0:0:
308,205,5381,1,10,0:0:0:0:
214,232,5562,1,0,0:3:0:0:
393,298,5742,2,0,L|460:288,2,45.75,0|8|4,1:0|0:0|0:3,0:0:0:0:
13,264,6104,5,8,0:3:0:0:
17,240,6195,1,8,0:3:0:0:
29,219,6285,1,8,0:3:0:0:
49,206,6375,1,8,0:3:0:0:
72,197,6466,1,10,0:3:0:0:
95,197,6556,1,8,0:3:0:0:
117,205,6646,2,0,L|127:260,1,45.75,8|8,0:3|0:3,0:0:0:0:
305,352,6827,5,12,0:0:0:0:
310,356,7189,2,0,L|320:301,1,45.75,8|8,0:3|0:3,0:0:0:0:
503,82,7369,6,0,P|418:71|343:133,1,183,12|8,0:1|0:3,0:0:0:0:
194,181,7821,1,8,0:3:0:0:
197,190,7911,2,0,B|250:232|250:232|334:198,1,137.25,2|8,1:2|0:0,0:0:0:0:
408,140,8273,6,0,L|322:123,1,64.0499980453492,8|0,0:3|0:0,0:0:0:0:
86,72,8453,6,0,L|144:59,1,45.75,8|8,0:0|0:0,0:0:0:0:
256,8,8634,5,8,0:0:0:0:
256,8,8724,1,8,0:0:0:0:
256,8,8815,2,0,L|243:66,1,45.75,8|8,0:3|0:0,0:0:0:0:
111,275,8995,5,8,0:3:0:0:
88,265,9086,1,8,0:3:0:0:
69,250,9176,1,8,0:3:0:0:
60,228,9266,1,8,0:3:0:0:
55,203,9357,1,10,0:3:0:0:
60,181,9447,1,8,0:3:0:0:
71,160,9538,2,0,L|129:147,1,45.75,8|8,0:3|0:3,0:0:0:0:
352,278,9718,5,12,0:0:0:0:
348,283,10080,2,0,L|289:270,1,45.75,8|8,0:3|0:3,0:0:0:0:
41,365,10260,6,0,P|84:308|207:320,1,183,12|0,0:1|0:0,0:0:0:0:
396,149,10803,2,0,P|362:176|253:167,1,137.25,2|8,1:2|0:0,0:0:0:0:
188,197,11164,2,0,L|203:97,1,91.5,10|0,0:0|0:0,0:0:0:0:
29,112,11435,1,8,0:0:0:0:
35,106,11526,2,0,P|87:104|127:146,1,91.5,10|0,0:0|0:0,0:0:0:0:
401,275,11887,5,8,0:3:0:0:
424,265,11978,1,8,0:3:0:0:
443,250,12068,1,8,0:3:0:0:
452,228,12158,1,8,0:3:0:0:
457,202,12249,1,10,0:3:0:0:
452,181,12339,1,8,0:3:0:0:
441,160,12430,2,0,L|383:147,1,45.75,8|8,0:3|0:3,0:0:0:0:
160,278,12610,5,12,0:0:0:0:
164,283,12971,2,0,L|223:270,1,45.75,8|8,0:3|0:3,0:0:0:0:
471,365,13152,6,0,P|428:308|305:320,1,183,12|2,0:1|0:0,0:0:0:0:
217,104,13694,1,2,0:0:0:0:
115,208,13875,2,0,L|226:188,1,91.5,2|0,0:0|0:0,0:0:0:0:
205,191,14146,1,2,0:0:0:0:
205,191,14236,1,2,0:0:0:0:
409,87,14417,5,8,0:0:0:0:
379,82,14507,1,8,0:0:0:0:
348,76,14598,1,8,0:0:0:0:
126,74,14779,6,0,P|187:15|271:28,1,175.680004289063,12|8,0:1|0:0,0:0:0:0:
336,158,15321,1,2,0:0:0:0:
485,126,15501,2,0,P|490:82|500:39,1,87.8400021445313,8|2,0:3|3:2,0:0:0:0:
361,235,15863,1,8,0:0:0:0:
497,330,16044,6,0,P|507:267|415:195,1,175.680004289063,2|0,3:2|0:0,0:0:0:0:
257,133,16586,2,0,P|266:175|272:219,1,87.8400021445313,10|0,0:0|0:0,0:0:0:0:
387,325,16947,1,8,0:3:0:0:
387,325,17128,1,8,0:3:0:0:
197,255,17309,1,10,0:0:0:0:
351,168,17489,1,0,0:0:0:0:
245,352,17670,6,0,P|183:290|99:302,2,175.680004289063,8|8|8,0:3|0:0|0:3,0:0:0:0:
342,256,18574,1,2,3:2:0:0:
194,156,18754,1,8,0:0:0:0:
297,62,18935,6,0,P|279:152|257:271,1,175.680004289063,2|0,3:2|0:0,0:0:0:0:
70,282,19477,1,10,0:0:0:0:
194,156,19658,1,2,0:0:0:0:
48,44,19839,5,8,0:3:0:0:
48,44,19929,1,2,0:2:0:0:
48,44,20020,1,8,0:3:0:0:
114,205,20200,1,0,1:0:0:0:
230,65,20381,5,2,0:0:0:0:
230,65,20471,1,2,0:0:0:0:
230,65,20562,2,0,P|185:78|134:90,1,87.8400021445313,8|0,0:3|0:0,0:0:0:0:
28,206,20923,1,10,0:0:0:0:
220,244,21104,2,0,P|207:201|197:159,1,87.8400021445313,2|8,0:0|0:3,0:0:0:0:
68,38,21465,2,0,P|55:80|45:122,1,87.8400021445313,2|8,3:2|0:0,0:0:0:0:
168,315,21827,6,0,P|247:331|310:254,1,175.680004289063,2|0,3:2|0:0,0:0:0:0:
368,107,22369,1,2,1:2:0:0:
465,217,22550,2,0,L|351:195,1,87.8400021445313,2|8,0:0|0:3,0:0:0:0:
275,91,22911,1,8,0:3:0:0:
476,10,23092,2,0,P|468:45|459:96,1,87.8400021445313,10|2,0:0|0:0,0:0:0:0:
459,96,23363,1,2,0:0:0:0:
459,96,23453,6,0,P|412:27|322:24,1,175.680004289063,8|8,0:3|0:0,0:0:0:0:
243,172,23995,1,2,0:0:0:0:
101,67,24176,1,8,0:3:0:0:
101,67,24357,2,0,P|108:102|117:153,1,87.8400021445313,2|8,3:2|0:0,0:0:0:0:
303,341,24718,6,0,P|311:297|342:143,1,175.680004289063,2|0,3:2|0:0,0:0:0:0:
193,92,25260,1,10,0:0:0:0:
60,275,25441,6,0,P|124:262|189:250,1,131.760003216797,2|8,1:2|0:3,0:0:0:0:
198,236,25803,1,8,0:3:0:0:
303,341,25983,1,10,0:0:0:0:
32,199,26164,5,2,0:0:0:0:
32,199,26254,1,2,0:0:0:0:
32,199,26345,2,0,P|5:140|75:52,1,175.680004289063,12|8,0:1|0:0,0:0:0:0:
181,158,26887,1,2,0:0:0:0:
314,37,27068,2,0,P|274:27|211:15,1,87.8400021445313,8|2,0:3|3:2,0:0:0:0:
94,136,27429,5,8,0:0:0:0:
252,291,27610,2,0,P|265:209|291:77,1,175.680004289063,2|0,3:2|0:0,0:0:0:0:
140,2,28152,2,0,P|148:46|158:99,1,87.8400021445313,10|0,0:0|0:0,0:0:0:0:
244,269,28513,5,8,0:3:0:0:
244,269,28604,1,2,0:2:0:0:
244,269,28694,1,8,0:3:0:0:
86,365,28875,2,0,P|93:321|102:278,1,87.8400021445313,10|0,0:0|0:0,0:0:0:0:
320,188,29236,5,10,0:3:0:0:
139,112,29417,1,2,0:0:0:0:
244,269,29598,1,10,0:0:0:0:
323,80,29779,1,2,0:0:0:0:
323,80,29869,1,2,0:0:0:0:
323,80,29959,2,0,P|283:90|220:102,1,87.8400021445313,8|8,0:3|0:3,0:0:0:0:
168,215,30321,1,10,0:0:0:0:
354,361,30501,6,0,P|345:317|334:275,1,87.8400021445313,2|0,3:2|0:0,0:0:0:0:
334,275,30773,1,8,0:3:0:0:
334,275,30863,1,2,3:2:0:0:
453,116,31044,1,8,1:2:0:0:
512,247,31224,2,0,P|472:237|409:225,1,87.8400021445313,2|8,3:2|0:3,0:0:0:0:
250,157,31586,2,0,L|303:145,2,43.9200010722657,8|2|8,0:3|0:0|0:0,0:0:0:0:
505,41,31947,5,8,0:3:0:0:
505,41,32038,1,2,0:0:0:0:
505,41,32128,2,0,P|404:37|364:114,1,175.680004289063,8|8,0:3|0:0,0:0:0:0:
254,242,32670,1,2,0:0:0:0:
174,96,32851,5,8,0:3:0:0:
87,204,33032,2,0,P|127:194|190:182,1,87.8400021445313,0|10,3:0|0:0,0:0:0:0:
381,365,33393,6,0,P|298:346|181:327,1,175.680004289063,2|0,3:2|0:0,0:0:0:0:
130,360,33845,1,2,0:0:0:0:
125,352,33935,2,0,P|135:306|146:237,1,87.8400021445313,8|0,0:0|0:0,0:0:0:0:
315,175,34297,2,0,P|322:218|331:261,1,87.8400021445313,8|8,0:3|0:3,0:0:0:0:
224,88,34658,1,10,0:0:0:0:
0,231,34839,6,0,P|55:167|138:180,1,175.680004289063,0|2,3:0|0:0,0:0:0:0:
279,239,35381,5,8,1:0:0:0:
66,350,35562,1,2,0:0:0:0:
139,86,35742,5,8,0:3:0:0:
267,337,35923,1,10,0:3:0:0:
0,231,36104,1,0,1:0:0:0:
245,3,36285,6,0,P|233:45|225:88,1,87.8400021445313,4|0,0:0|0:0,0:0:0:0:
98,270,36646,1,8,0:3:0:0:
98,270,36736,1,8,0:3:0:0:
98,270,36827,2,0,P|89:226|78:184,1,87.8400021445313,2|0,1:2|0:0,0:0:0:0:
297,141,37188,5,8,0:0:0:0:
155,14,37369,5,4,0:3:0:0:
133,6,37459,1,4,0:3:0:0:
110,6,37549,1,8,0:3:0:0:
87,15,37640,1,8,0:3:0:0:
67,28,37730,1,8,0:3:0:0:
55,49,37820,1,8,0:3:0:0:
51,73,37911,6,0,P|126:86|208:104,2,146.4,4|2|2,0:1|3:2|0:0,0:0:0:0:
105,241,38815,1,0,0:0:0:0:
194,219,38995,1,2,3:2:0:0:
105,241,39176,2,0,P|113:196|123:151,1,73.2,0|2,0:0|0:0,0:0:0:0:
279,239,39538,5,0,3:0:0:0:
279,239,39718,2,0,P|286:274|292:310,1,73.2,0|0,3:0|0:0,0:0:0:0:
92,371,40080,6,0,P|132:317|226:328,1,146.4,2|2,3:2|0:0,0:0:0:0:
400,342,40622,2,0,L|350:354,1,36.6,0|0,3:0|0:0,0:0:0:0:
251,382,40803,6,0,P|264:307|282:225,1,146.4,2|2,0:0|3:2,0:0:0:0:
318,95,41345,1,0,0:0:0:0:
318,95,41526,2,0,P|325:130|331:166,1,73.2,2|0,3:2|0:0,0:0:0:0:
413,306,41887,1,2,3:2:0:0:
512,159,42068,6,0,P|472:105|378:116,1,146.4,0|2,1:0|0:0,0:0:0:0:
246,163,42610,1,2,0:0:0:0:
422,224,42791,2,0,L|410:174,1,36.6,0|0,3:0|0:0,0:0:0:0:
363,28,42971,5,0,1:0:0:0:
267,252,43152,1,0,1:0:0:0:
481,106,43333,1,0,1:0:0:0:
259,19,43513,1,0,1:0:0:0:
371,276,43694,6,0,P|382:192|401:84,1,175.680004289063,6|8,0:0|0:0,0:0:0:0:
180,229,44236,1,2,0:3:0:0:
180,229,44327,1,8,0:0:0:0:
180,229,44417,1,2,1:2:0:0:
307,354,44598,1,8,0:3:0:0:
237,147,44779,1,8,0:0:0:0:
27,316,44959,6,0,L|133:287,1,87.8400021445313,8|2,0:3|0:0,0:0:0:0:
329,172,45321,1,8,0:3:0:0:
119,54,45501,2,0,P|133:96|148:160,1,87.8400021445313,8|0,0:0|0:0,0:0:0:0:
143,138,45773,1,8,0:0:0:0:
143,138,45863,1,2,3:2:0:0:
250,291,46044,1,8,0:3:0:0:
387,98,46224,2,0,P|344:87|302:73,1,87.8400021445313,8|0,0:0|0:0,0:0:0:0:
44,14,46586,6,0,P|-18:71|1:152,1,175.680004289063,12|10,0:1|0:0,0:0:0:0:
189,232,47128,2,0,L|123:248,1,43.9200010722657,2|8,0:0|0:0,0:0:0:0:
76,298,47309,1,2,1:2:0:0:
244,331,47489,5,8,0:3:0:0:
87,173,47670,1,8,0:0:0:0:
302,73,47851,6,0,P|284:158|269:245,1,175.680004289063,4|0,1:2|0:0,0:0:0:0:
152,368,48393,1,10,1:2:0:0:
499,325,48574,6,0,P|464:278|382:286,1,131.760003216797,12|0,0:1|0:0,0:0:0:0:
324,310,48935,1,8,3:0:0:0:
211,98,49116,1,10,1:2:0:0:
211,98,49477,6,0,P|139:113|67:125,2,146.4,4|0|2,0:1|3:0|0:0,0:0:0:0:
380,160,50381,1,0,0:0:0:0:
228,259,50562,1,0,3:0:0:0:
280,40,50742,6,0,P|288:76|298:122,1,73.2,0|2,0:0|0:0,0:0:0:0:
295,111,51013,1,2,0:0:0:0:
295,111,51104,1,0,3:0:0:0:
379,253,51285,2,0,P|343:245|307:237,1,73.2,0|0,3:0|0:0,0:0:0:0:
118,237,51646,6,0,P|162:180|251:194,1,146.4,2|0,0:0|3:0,0:0:0:0:
332,327,52188,2,0,L|282:315,1,36.6,0|0,3:0|0:0,0:0:0:0:
228,259,52369,6,0,P|300:244|372:232,1,146.4,2|0,0:0|3:0,0:0:0:0:
445,322,52911,1,0,3:0:0:0:
445,322,53092,2,0,P|452:286|460:250,1,73.2,2|0,0:0|0:0,0:0:0:0:
356,147,53453,1,2,3:2:0:0:
512,17,53634,6,0,P|441:17|398:73,1,146.4,0|2,1:0|0:0,0:0:0:0:
258,196,54176,1,2,0:0:0:0:
304,28,54357,2,0,L|312:63,1,36.6,2|0,3:2|0:0,0:0:0:0:
371,294,54538,5,0,1:0:0:0:
145,188,54718,1,0,1:0:0:0:
398,72,54899,5,8,1:2:0:0:
299,372,55080,1,8,0:0:0:0:
50,152,55260,6,0,P|150:86|209:116,1,175.680004289063,6|8,0:0|0:0,0:0:0:0:
342,179,55803,1,0,0:0:0:0:
89,369,55983,5,2,1:2:0:0:
329,262,56164,1,8,0:3:0:0:
145,188,56345,1,8,0:0:0:0:
354,352,56526,6,0,P|400:361|469:377,1,87.8400021445313,8|2,0:3|0:0,0:0:0:0:
193,255,56887,1,8,0:3:0:0:
317,98,57068,2,0,P|310:54|300:11,1,87.8400021445313,8|0,0:0|0:0,0:0:0:0:
501,207,57429,2,0,P|489:249|483:292,1,87.8400021445313,10|0,0:2|0:0,0:0:0:0:
110,224,57791,5,10,0:0:0:0:
123,189,57881,1,8,0:0:0:0:
152,165,57972,1,8,0:0:0:0:
188,159,58062,1,8,0:0:0:0:
222,171,58152,1,4,1:0:0:0:
416,233,58333,5,8,0:3:0:0:
195,57,58513,1,2,0:0:0:0:
195,57,58604,1,8,0:0:0:0:
195,57,58694,1,4,0:1:0:0:
324,367,58875,5,8,0:3:0:0:
501,112,59056,1,2,0:0:0:0:
501,112,59146,1,8,0:0:0:0:
501,112,59236,1,4,1:0:0:0:
152,165,59417,1,0,0:3:0:0:
460,371,59598,5,12,1:2:0:0:
460,371,59688,1,8,0:0:0:0:
460,371,59779,2,0,L|447:308,1,54.899998324585,8|8,1:0|0:0,0:0:0:0:
274,108,59959,5,8,0:0:0:0:
274,108,60049,1,8,0:0:0:0:
274,108,60140,2,0,L|261:171,1,54.899998324585,8|8,0:0|0:0,0:0:0:0:
61,302,60321,5,8,0:0:0:0:
61,302,60682,6,0,L|48:239,1,54.899998324585,4|0,0:3|0:0,0:0:0:0:
0,159,61044,6,0,P|49:168|130:180,1,95.1599994191894,4|2,3:2|0:0,0:0:0:0:
299,258,61405,1,0,1:0:0:0:
119,373,61586,1,2,0:0:0:0:
119,373,61676,1,8,0:0:0:0:
119,373,61766,1,8,0:3:0:0:
190,140,61947,5,8,3:0:0:0:
412,356,62128,2,0,P|404:308|395:262,1,95.1599994191894,8|2,0:0|0:0,0:0:0:0:
295,4,62489,6,0,P|285:50|278:97,1,95.1599994191894,0|2,3:0|0:0,0:0:0:0:
143,267,62851,1,0,1:0:0:0:
401,145,63032,1,2,0:0:0:0:
401,145,63122,1,8,0:0:0:0:
401,145,63212,1,8,0:3:0:0:
179,25,63393,5,8,3:0:0:0:
313,240,63574,1,8,0:0:0:0:
398,0,63754,1,2,0:0:0:0:
80,151,63935,6,0,P|126:141|173:134,1,95.1599994191894,0|2,3:0|0:0,0:0:0:0:
504,253,64297,2,0,P|457:243|410:236,1,95.1599994191894,0|2,1:0|0:0,0:0:0:0:
243,335,64658,1,8,0:3:0:0:
243,335,64748,1,8,0:0:0:0:
243,335,64839,1,8,3:0:0:0:
277,97,65020,5,8,0:0:0:0:
351,374,65200,1,2,0:3:0:0:
116,280,65381,5,4,3:0:0:0:
116,280,65562,1,2,0:0:0:0:
422,98,65742,6,0,L|402:177,1,47.5799997095947,10|0,0:0|3:3,0:0:0:0:
257,246,65923,2,0,L|245:199,1,47.5799997095947,8|8,0:0|0:0,0:0:0:0:
310,11,66104,5,8,1:3:0:0:
310,11,66194,1,8,0:0:0:0:
310,11,66285,2,0,L|357:23,1,47.5799997095947,10|0,0:3|0:0,0:0:0:0:
450,241,66465,2,0,L|403:253,1,47.5799997095947,2|0,1:2|0:0,0:0:0:0:
149,187,66646,5,2,0:3:0:0:
149,187,66736,1,2,0:0:0:0:
149,187,66827,2,0,P|195:115|314:135,1,190.319998838379,4|0,3:2|1:0,0:0:0:0:
511,34,67369,1,2,0:0:0:0:
511,34,67459,1,8,0:0:0:0:
511,34,67550,2,0,P|501:80|494:127,1,95.1599994191894,8|8,0:3|3:0,0:0:0:0:
355,342,67911,2,0,P|348:294|337:248,1,95.1599994191894,8|2,0:0|0:0,0:0:0:0:
400,48,68273,5,0,3:0:0:0:
512,252,68453,1,2,0:0:0:0:
512,252,68544,1,2,0:0:0:0:
512,252,68634,1,2,1:2:0:0:
265,165,68815,2,0,L|245:244,1,47.5799997095947,2|8,0:0|0:0,0:0:0:0:
188,331,68995,5,8,0:3:0:0:
432,188,69176,1,8,3:0:0:0:
181,94,69357,1,8,0:0:0:0:
363,278,69538,1,2,0:0:0:0:
93,384,69718,6,0,P|80:302|176:236,1,190.319998838379,0|0,3:0|1:0,0:0:0:0:
333,103,70260,1,2,0:0:0:0:
333,103,70351,1,8,0:0:0:0:
333,103,70441,2,0,L|254:83,1,47.5799997095947,8|0,0:0|1:0,0:0:0:0:
144,38,70622,1,8,3:0:0:0:
253,211,70803,1,8,0:0:0:0:
347,0,70983,1,2,0:0:0:0:
113,132,71164,6,0,P|46:140|0:71,1,142.739999128784,4|0,3:0|0:0,0:0:0:0:
74,69,71526,1,4,1:0:0:0:
253,211,71706,5,2,0:0:0:0:
259,216,71797,1,8,0:0:0:0:
265,221,71887,2,0,L|279:327,1,95.1599994191894,8|8,1:3|0:3,0:0:0:0:
512,104,72248,5,4,1:0:0:0:
499,73,72338,1,8,0:0:0:0:
473,53,72428,1,8,0:0:0:0:
441,45,72519,1,8,0:0:0:0:
409,53,72610,2,0,P|403:104|395:159,1,95.1599994191894,4|2,3:2|0:0,0:0:0:0:
277,315,72971,1,0,1:0:0:0:
493,199,73152,1,2,0:0:0:0:
493,199,73242,1,8,0:0:0:0:
493,199,73333,1,8,0:3:0:0:
306,81,73513,5,8,3:0:0:0:
483,305,73694,2,0,P|435:298|388:292,1,95.1599994191894,8|2,0:0|0:0,0:0:0:0:
133,384,74056,6,0,P|120:302|216:236,1,190.319998838379,0|0,3:0|1:0,0:0:0:0:
415,130,74598,1,2,0:0:0:0:
415,130,74688,1,8,0:0:0:0:
415,130,74779,1,8,0:3:0:0:
186,55,74959,5,8,3:0:0:0:
323,235,75140,1,8,0:0:0:0:
401,0,75321,1,2,0:0:0:0:
167,147,75501,6,0,P|69:165|-38:188,1,190.319998838379,0|0,3:0|1:0,0:0:0:0:
268,368,76044,1,2,0:0:0:0:
268,368,76134,1,8,0:0:0:0:
268,368,76224,1,8,0:3:0:0:
64,253,76405,1,8,3:0:0:0:
279,93,76586,2,0,P|267:146|255:225,1,95.1599994191894,8|2,0:0|0:0,0:0:0:0:
0,43,76947,6,0,P|35:7|127:23,1,142.739999128784,6|2,3:0|0:3,0:0:0:0:
155,84,77309,1,4,1:2:0:0:
477,154,77489,5,2,1:3:0:0:
475,144,77580,1,2,0:0:0:0:
473,135,77670,1,4,3:0:0:0:
283,289,77851,1,8,0:3:0:0:
493,368,78032,6,0,L|411:354,1,54.899998324585,14|8,0:0|0:0,0:0:0:0:
237,213,78212,2,0,L|319:199,1,54.899998324585,10|8,0:0|0:0,0:0:0:0:
432,64,78393,5,6,3:2:0:0:
432,64,78574,1,0,3:0:0:0:
512,281,78754,1,0,1:0:0:0:
315,117,78935,5,2,0:0:0:0:
315,117,79026,1,8,0:0:0:0:
315,117,79116,1,8,3:2:0:0:
187,350,79297,5,2,3:2:0:0:
396,209,79477,1,0,1:0:0:0:
149,113,79658,2,0,L|163:195,1,54.899998324585,2|8,0:0|0:0,0:0:0:0:
278,317,79839,5,0,3:0:0:0:
353,26,80020,1,0,1:0:0:0:
201,239,80200,6,0,P|122:246|80:188,1,142.739999128784,4|0,1:0|0:0,0:0:0:0:
38,134,80562,5,0,1:0:0:0:
187,350,80742,1,10,0:0:0:0:
247,72,80923,1,0,1:0:0:0:
11,239,81104,1,2,0:0:0:0:
325,383,81285,6,0,L|304:270,1,95.1599994191894,0|0,1:0|0:0,0:0:0:0:
307,289,81556,1,8,0:0:0:0:
307,289,81646,1,0,1:0:0:0:
169,124,81827,1,8,0:3:0:0:
408,229,82007,5,8,0:0:0:0:
187,350,82188,1,8,0:3:0:0:
350,63,82369,1,0,1:0:0:0:
512,369,82550,6,0,P|462:321|394:332,1,142.739999128784,12|8,0:1|0:0,0:0:0:0:
333,269,82911,1,8,0:3:0:0:
71,357,83092,5,0,3:0:0:0:
39,348,83182,1,0,3:0:0:0:
18,321,83273,1,8,0:3:0:0:
11,289,83363,1,8,0:0:0:0:
21,257,83453,2,0,L|112:243,1,47.5799997095947,4|8,1:2|0:0,0:0:0:0:
280,171,83634,5,8,0:0:0:0:
310,157,83724,1,8,0:0:0:0:
333,132,83815,1,8,0:0:0:0:
342,99,83905,1,8,0:0:0:0:
340,65,83995,1,8,0:0:0:0:
325,35,84086,1,8,0:0:0:0:
299,13,84176,6,0,L|171:34,1,91.5,4|2,0:2|0:0,0:0:0:0:
99,164,84538,2,0,L|227:185,1,91.5,8|2,0:0|0:0,0:0:0:0:
334,361,84899,2,0,P|324:313|313:233,1,91.5,8|2,0:3|3:2,0:0:0:0:
293,102,85260,2,0,P|285:147|277:192,1,91.5,8|2,0:0|0:0,0:0:0:0:
89,358,85622,6,0,P|120:304|262:304,1,183,8|8,0:3|0:0,0:0:0:0:
231,284,86074,1,2,0:0:0:0:
231,284,86164,1,2,0:0:0:0:
456,226,86345,2,0,P|370:211|259:188,1,183,8|8,0:3|0:0,0:0:0:0:
186,30,86887,5,2,0:0:0:0:
186,30,86977,1,2,0:0:0:0:
186,30,87068,2,0,P|195:67|209:149,1,91.5,8|0,0:3|0:0,0:0:0:0:
91,278,87429,2,0,P|100:240|114:159,1,91.5,8|2,0:0|0:0,0:0:0:0:
110,188,87700,1,8,0:0:0:0:
110,188,87791,1,8,0:3:0:0:
187,283,87971,1,2,3:2:0:0:
17,188,88152,1,8,0:0:0:0:
118,92,88333,1,2,0:0:0:0:
142,370,88513,5,8,0:3:0:0:
124,340,88603,1,8,0:3:0:0:
96,320,88693,1,8,0:3:0:0:
63,312,88784,1,8,0:3:0:0:
29,316,88874,1,4,1:0:0:0:
231,212,89056,5,8,1:2:0:0:
118,92,89236,1,4,3:2:0:0:
120,78,89327,1,8,3:0:0:0:
122,64,89416,1,8,0:3:0:0:
407,235,89598,5,8,0:0:0:0:
404,221,89688,1,8,0:0:0:0:
402,207,89778,1,8,0:0:0:0:
399,193,89869,1,8,0:0:0:0:
397,179,89959,2,0,P|347:140|254:169,1,137.25,4|8,3:2|0:3,0:0:0:0:
140,227,90321,2,0,L|239:210,1,91.5,10|8,0:0|0:3,0:0:0:0:
421,7,90682,6,0,L|240:39,1,183,4|2,0:1|0:0,0:0:0:0:
0,218,91224,1,8,0:0:0:0:
0,218,91315,1,8,0:0:0:0:
0,218,91405,5,12,0:0:0:0:
32,208,91495,1,0,1:0:0:0:
63,213,91586,1,8,0:0:0:0:
90,229,91676,1,8,0:0:0:0:
104,257,91766,1,0,1:0:0:0:
122,283,91857,1,8,0:0:0:0:
147,301,91947,1,8,0:0:0:0:
179,307,92038,1,8,0:0:0:0:
209,300,92128,5,4,1:0:0:0:
438,162,92399,5,4,1:0:0:0:
440,174,92489,1,2,0:0:0:0:
240,38,92670,5,4,1:2:0:0:
256,192,92760,12,0,95381,0:0:0:0:
185,97,95562,6,0,L|190:129,3,30.5,0|0|0|8,0:0|0:0|3:0|0:3,0:0:0:0:
