osu file format v14

[General]
AudioFilename: audio.mp3
AudioLeadIn: 0
PreviewTime: 23075
Countdown: 0
SampleSet: Soft
StackLeniency: 0.7
Mode: 0
LetterboxInBreaks: 1
WidescreenStoryboard: 1

[Editor]
Bookmarks: 28722,34369,40016,45663,56957,68251,79545,90839,107781,113428
DistanceSpacing: 1
BeatDivisor: 4
GridSize: 4
TimelineZoom: 1.9

[Metadata]
Title:Taiko Time
TitleUnicode:タイコタイム
Artist:Sano Denji
ArtistUnicode:佐野電磁
Creator:Flask
Version:Easy
Source:太鼓の達人14
Tags:さの でんじ のぶよし 信義 Nobuyoshi sanodg taiko no tatsujin namco original electronic instrumental video game glhf otst6 qf hd2 osu taiwanese standard tournament 6
BeatmapID:3889871
BeatmapSetID:1536761

[Difficulty]
HPDrainRate:2
CircleSize:2.5
OverallDifficulty:2
ApproachRate:3
SliderMultiplier:1
SliderTickRate:1

[Events]
//Background and Video events
0,0,"BGdadon.png",0,0
//Break Periods
//Storyboard Layer 0 (Background)
//Storyboard Layer 1 (Fail)
//Storyboard Layer 2 (Pass)
//Storyboard Layer 3 (Foreground)
//Storyboard Layer 4 (Overlay)
//Storyboard Sound Samples

[TimingPoints]
487,352.941176470588,4,1,1,70,1,0
707,-100,4,1,1,20,0,0
796,-100,4,1,1,70,0,0
1148,-100,4,1,1,20,0,0
1237,-100,4,1,1,70,0,0
1325,-100,4,1,1,20,0,0
1414,-100,4,1,1,70,0,0
1678,-100,4,1,1,20,0,0
1767,-100,4,1,1,70,0,0
6442,-100,4,1,1,20,0,0
6531,-100,4,1,1,70,0,0
6795,-100,4,1,1,20,0,0
6884,-100,4,1,1,70,0,0
6972,-100,4,1,1,20,0,0
7061,-100,4,1,1,70,0,0
7325,-100,4,1,1,20,0,0
7414,-100,4,1,1,70,0,0
12089,-100,4,1,1,20,0,0
12178,-100,4,1,1,70,0,0
12442,-100,4,1,1,20,0,0
12531,-100,4,1,1,70,0,0
12619,-100,4,1,1,20,0,0
12708,-100,4,1,1,70,0,0
12972,-100,4,1,1,20,0,0
13061,-100,4,1,1,70,0,0
17736,-100,4,1,1,20,0,0
17825,-100,4,1,1,70,0,0
18089,-100,4,1,1,20,0,0
18178,-100,4,1,1,70,0,0
18266,-100,4,1,1,20,0,0
18355,-100,4,1,1,70,0,0
18619,-100,4,1,1,20,0,0
18708,-100,4,1,1,70,0,0
23075,-100,4,1,1,80,0,1
23428,-100,4,2,1,80,0,1
45663,-100,4,2,1,70,0,0
73192,-100,4,2,1,50,0,0
73898,-100,4,2,1,70,0,0
82369,-100,4,2,1,60,0,0
90133,-100,4,2,1,70,0,0
102134,-100,4,2,1,80,0,1
124722,-100,4,2,1,60,0,0

[Colours]
Combo1 : 255,204,128
Combo2 : 131,252,131
Combo3 : 131,131,252
Combo4 : 252,131,131

[HitObjects]
140,64,487,6,0,P|86:124|140:252,2,225,0|0|0,1:0|1:0|1:0,1:0:0:0:
372,64,6134,6,0,P|426:124|372:252,2,225,0|0|0,1:0|1:0|1:0,1:0:0:0:
43,364,11781,6,0,L|276:329,2,225,4|0|0,1:0|1:0|1:0,1:0:0:0:
469,364,17428,6,0,L|236:329,2,225,0|0|0,1:0|1:0|1:0,1:0:0:0:
284,239,22369,5,2,2:1:0:0:
275,139,22722,1,2,2:1:0:0:
188,89,23075,6,0,P|129:135|141:210,2,150,4|2|8,2:0|2:0|2:0,2:0:0:0:
268,29,24486,2,0,L|368:77,1,100,2|8,2:0|2:0,2:0:0:0:
454,43,25192,2,0,L|462:153,1,100,2|8,2:0|2:0,2:0:0:0:
418,233,25898,5,0,2:0:0:0:
418,233,26251,1,8,2:0:0:0:
321,205,26604,2,0,L|207:227,1,100,0|8,2:0|2:0,2:0:0:0:
242,322,27310,2,0,L|356:300,2,100,0|8|2,2:0|2:0|2:0,2:0:0:0:
117,165,28722,6,0,L|163:15,2,150,2|2|10,2:0|2:0|2:0,2:0:0:0:
177,244,30134,2,0,L|283:230,1,100,2|8,2:0|2:0,2:0:0:0:
342,305,30839,2,0,L|448:291,1,100,2|8,2:0|2:0,2:0:0:0:
486,202,31545,6,0,L|516:93,2,100,0|8|0,2:0|2:0|2:0,2:0:0:0:
400,149,32604,1,8,2:0:0:0:
331,221,32957,2,0,L|223:192,1,100,0|8,2:0|2:0,2:0:0:0:
165,130,33663,1,2,2:1:0:0:
165,130,34016,1,10,2:1:0:0:
242,66,34369,6,0,L|404:109,2,150,2|2|10,2:0|2:0|2:0,2:0:0:0:
156,13,35781,2,0,L|51:38,1,100,2|8,2:0|2:0,2:0:0:0:
21,128,36486,2,0,L|46:233,1,100,2|8,2:0|2:0,2:0:0:0:
111,299,37192,6,0,L|102:358,2,50,2|2|8,2:0|2:0|2:0,2:0:0:0:
193,240,37898,1,0,2:0:0:0:
193,240,38251,1,8,2:0:0:0:
203,140,38604,2,0,L|194:81,2,50,2|0|8,2:0|2:0|2:0,2:0:0:0:
295,178,39310,1,2,2:0:0:0:
488,146,40016,6,0,B|501:71|455:99|478:-15,2,150,2|2|10,2:0|2:0|2:0,2:0:0:0:
482,246,41428,2,0,L|500:356,1,100,2|8,2:0|2:0,2:0:0:0:
400,367,42134,2,0,L|298:341,1,100,2|8,2:0|2:0,2:0:0:0:
208,362,42839,5,2,2:0:0:0:
208,362,43192,1,8,2:0:0:0:
142,286,43545,2,0,L|167:184,1,100,0|8,2:0|2:0,2:0:0:0:
196,93,44251,1,2,2:0:0:0:
196,93,45663,6,0,P|303:113|331:37,2,200,4|2|2,2:0|2:0|2:0,2:0:0:0:
101,59,47428,1,8,2:0:0:0:
45,142,47781,2,0,L|62:252,1,100,0|10,2:0|2:0,2:0:0:0:
22,333,48486,6,0,L|229:366,2,200,2|2|2,2:0|2:0|2:0,2:0:0:0:
60,240,50251,1,8,2:0:0:0:
150,196,50604,2,0,L|249:175,1,100,0|10,2:0|2:0,2:0:0:0:
304,92,51310,6,0,P|336:126|285:265,1,200,2|2,2:0|2:0,2:0:0:0:
298,358,52369,1,8,2:0:0:0:
398,356,52722,2,0,P|461:335|496:205,1,200,2|2,2:0|2:0,2:0:0:0:
490,16,54134,6,0,L|287:44,1,200,2|2,2:0|2:0,2:0:0:0:
241,129,55192,1,8,2:0:0:0:
272,223,55545,2,0,L|69:195,1,200,2|2,2:0|2:0,2:0:0:0:
10,5,56957,6,0,P|64:0|106:32,1,100,4|8,2:0|2:0,2:0:0:0:
200,13,57663,2,0,P|231:57|224:109,1,100,2|8,2:0|2:0,2:0:0:0:
288,181,58369,2,0,P|265:230|216:250,1,100,2|8,2:0|2:0,2:0:0:0:
186,341,59075,1,2,2:0:0:0:
383,374,59781,6,0,L|405:264,1,100,2|8,2:0|2:0,2:0:0:0:
497,245,60486,2,0,L|475:135,1,100,2|8,2:0|2:0,2:0:0:0:
377,144,61192,2,0,L|399:34,1,100,2|8,2:0|2:0,2:0:0:0:
488,5,61898,1,2,2:0:0:0:
293,51,62604,6,0,L|187:30,1,100,2|8,2:0|2:0,2:0:0:0:
106,79,63310,2,0,L|85:185,1,100,2|8,2:0|2:0,2:0:0:0:
132,266,64016,2,0,L|238:287,1,100,2|8,2:0|2:0,2:0:0:0:
327,307,64722,1,2,2:0:0:0:
483,182,65428,6,0,P|450:154|390:154,1,100,2|8,2:0|2:0,2:0:0:0:
367,55,66134,2,0,P|326:69|296:121,1,100,2|8,2:0|2:0,2:0:0:0:
199,91,66839,2,0,P|191:133|221:185,1,100,2|8,2:0|2:0,2:0:0:0:
259,273,67545,1,2,1:0:0:0:
206,358,67898,1,10,1:0:0:0:
108,336,68251,6,0,L|4:311,1,100,6|8,2:0|2:0,2:0:0:0:
34,215,68957,2,0,L|138:240,1,100,2|8,2:0|2:0,2:0:0:0:
155,141,69663,2,0,L|51:116,1,100,2|8,2:0|2:0,2:0:0:0:
48,22,70369,1,2,2:0:0:0:
48,22,70722,1,8,2:0:0:0:
146,3,71075,6,0,P|189:5|228:54,1,100,2|8,2:0|2:0,2:0:0:0:
317,85,71781,2,0,P|296:130|290:189,1,100,2|8,2:0|2:0,2:0:0:0:
233,262,72486,2,0,P|260:296|318:312,1,100,2|8,2:0|2:0,2:0:0:0:
389,376,73192,2,0,L|444:366,1,50,8|8,2:0|2:0,2:0:0:0:
487,358,73545,1,8,2:0:0:0:
474,258,73898,6,0,L|499:151,1,100,6|8,2:0|2:0,2:0:0:0:
464,65,74604,2,0,L|357:40,1,100,2|8,2:0|2:0,2:0:0:0:
288,105,75310,2,0,L|263:212,1,100,2|8,2:0|2:0,2:0:0:0:
184,259,76016,1,2,2:0:0:0:
184,259,76369,1,8,2:0:0:0:
86,238,76722,6,0,P|58:197|60:148,1,100,2|8,2:0|2:0,2:0:0:0:
109,60,77428,2,0,L|218:78,1,100,2|8,2:0|2:0,2:0:0:0:
298,33,78134,2,0,P|344:51|364:97,1,100,2|8,2:0|2:0,2:0:0:0:
445,152,78839,1,2,1:0:0:0:
384,231,79192,1,10,1:0:0:0:
434,317,79545,5,4,2:0:0:0:
74,43,82369,5,2,2:0:0:0:
201,197,83075,1,2,2:0:0:0:
53,332,83781,1,2,2:0:0:0:
250,358,84486,2,0,L|460:312,1,200,2|4,2:1|2:0,2:0:0:0:
438,43,88016,5,2,2:0:0:0:
311,197,88722,1,2,2:0:0:0:
459,332,89428,1,2,2:0:0:0:
262,358,90133,2,0,L|113:328,1,150,2|2,2:1|2:1,2:0:0:0:
70,351,90839,6,0,P|29:323|29:265,1,100,4|10,2:0|2:0,2:0:0:0:
92,202,91545,2,0,L|76:98,1,100,2|8,2:0|2:0,2:0:0:0:
144,29,92251,2,0,P|189:30|259:156,1,200,2|2,2:0|2:0,2:0:0:0:
224,243,93310,1,8,2:0:0:0:
283,323,93663,6,0,L|402:305,1,100,2|8,2:0|2:0,2:0:0:0:
480,326,94369,2,0,L|458:214,1,100,2|10,2:0|2:0,2:0:0:0:
386,160,95075,2,0,P|326:186|255:136,1,150,2|2,2:0|2:0,2:0:0:0:
246,95,95781,1,2,2:1:0:0:
312,19,96134,1,10,2:1:0:0:
411,22,96486,6,0,P|449:33|475:94,1,100,2|10,2:0|2:0,2:0:0:0:
500,180,97192,2,0,P|482:235|476:281,1,100,2|8,2:0|2:0,2:0:0:0:
472,377,97898,2,0,B|422:383|383:340|398:326|361:276|298:286,1,200,2|2,2:0|2:0,2:0:0:0:
227,347,98957,1,8,2:0:0:0:
137,301,99310,6,0,P|144:259|153:195,1,100,2|8,2:0|2:0,2:0:0:0:
232,142,100016,2,0,P|217:100|162:76,1,100,2|8,2:0|2:0,2:0:0:0:
97,5,100722,2,0,L|-12:21,2,100,2|8|2,2:0|2:0|2:1,2:0:0:0:
73,102,101781,1,10,2:1:0:0:
20,187,102134,6,0,L|174:222,2,150,4|2|10,2:0|2:0|2:0,2:0:0:0:
24,286,103545,2,0,L|122:310,1,100,2|10,2:0|2:0,2:0:0:0:
216,340,104251,1,0,2:0:0:0:
300,286,104604,1,8,2:0:0:0:
370,357,104957,6,0,P|399:309|332:191,1,200,2|2,2:0|2:0,2:0:0:0:
238,191,106016,1,8,2:0:0:0:
149,237,106369,2,0,P|87:163|117:73,1,200,2|2,2:1|2:1,2:0:0:0:
213,45,107428,1,10,2:1:0:0:
313,33,107781,6,0,L|464:62,2,150,2|2|10,2:0|2:0|2:0,2:0:0:0:
218,66,109192,2,0,L|236:179,1,100,2|10,2:0|2:0,2:0:0:0:
327,199,109898,1,0,2:0:0:0:
297,294,110251,1,8,2:0:0:0:
202,331,110604,6,0,P|98:314|-12:303,1,200,2|2,2:0|2:0,2:0:0:0:
54,217,111663,1,8,2:0:0:0:
105,131,112016,2,0,L|85:30,1,100,2|10,2:1|2:1,2:0:0:0:
183,11,112722,2,0,L|203:112,1,100,2|10,2:1|2:1,2:0:0:0:
290,157,113428,6,0,P|273:232|257:315,2,150,4|2|10,2:0|2:0|2:0,2:0:0:0:
360,86,114839,1,2,2:0:0:0:
438,147,115192,1,10,2:0:0:0:
383,230,115545,2,0,L|490:262,1,100,0|8,2:0|2:0,2:0:0:0:
495,357,116251,6,0,L|298:296,1,200,2|2,2:0|2:0,2:0:0:0:
224,359,117310,1,8,2:0:0:0:
124,348,117663,2,0,L|78:146,1,200,2|2,2:1|2:1,2:0:0:0:
179,155,118722,1,10,2:1:0:0:
279,148,119075,6,0,P|300:96|241:17,2,150,2|2|10,2:0|2:0|2:0,2:0:0:0:
266,247,120486,1,2,2:0:0:0:
177,201,120839,1,8,2:0:0:0:
99,264,121192,2,0,L|128:372,1,100,0|8,2:0|2:0,2:0:0:0:
224,370,121898,6,0,L|387:336,1,150,4|4,2:0|2:0,2:0:0:0:
506,275,122957,2,0,L|472:112,1,150,4|4,2:0|2:0,2:0:0:0:
324,132,124016,1,4,2:0:0:0:
252,60,124369,1,8,2:0:0:0:
188,132,124722,1,4,2:0:0:0:
256,192,124898,12,0,127545,2:0:0:0:
