osu file format v14

[General]
AudioFilename: audio.mp3
AudioLeadIn: 0
PreviewTime: -1
Countdown: 0
SampleSet: Normal
StackLeniency: 0.2
Mode: 0
LetterboxInBreaks: 0
WidescreenStoryboard: 0

[Editor]
Bookmarks: 18270,38842,54842,73128,82270,91413,109699,127985,137128,178270,182842
DistanceSpacing: 0.8
BeatDivisor: 4
GridSize: 32
TimelineZoom: 2.8

[Metadata]
Title:Zlatan
TitleUnicode:Zlatan
Artist:Sanjin & Youthman
ArtistUnicode:Sanjin & Youthman
Creator:Naidaaka
Version:Ibrahimovic
Source:Filthy Jump Map
Tags:It took me just 1 hour i just wanted to map this song LOL
BeatmapID:1455702
BeatmapSetID:687834

[Difficulty]
HPDrainRate:6
CircleSize:4.3
OverallDifficulty:8.2
ApproachRate:9.7
SliderMultiplier:1.7
SliderTickRate:1

[Events]
//Background and Video events
0,0,"anime_football_girl-wallpaper-1920x1080.jpg",0,0
//Break Periods
//Storyboard Layer 0 (Background)
//Storyboard Layer 1 (Fail)
//Storyboard Layer 2 (Pass)
//Storyboard Layer 3 (Foreground)
//Storyboard Sound Samples

[TimingPoints]
9128,285.714285714286,4,1,0,70,1,0
18270,-83.3333333333333,4,1,0,70,0,0
22842,-83.3333333333333,4,1,0,70,0,0
27413,-83.3333333333333,4,1,0,70,0,0
31985,-83.3333333333333,4,1,0,70,0,0
36413,-83.3333333333333,4,1,0,5,0,0
36556,-83.3333333333333,4,1,0,70,0,0
38842,-100,4,1,0,70,0,0
45413,-100,4,1,0,70,0,0
50270,-100,4,1,0,70,0,0
54699,-100,4,1,0,5,0,0
54842,-83.3333333333333,4,1,0,70,0,0
59413,-83.3333333333333,4,1,0,70,0,0
63985,-83.3333333333333,4,1,0,70,0,0
68556,-83.3333333333333,4,1,0,70,0,0
72985,-83.3333333333333,4,1,0,5,0,0
73128,-83.3333333333333,4,1,0,70,0,1
77699,-83.3333333333333,4,1,0,70,0,1
82270,-83.3333333333333,4,1,0,70,0,1
86842,-83.3333333333333,4,1,0,70,0,1
91270,-83.3333333333333,4,1,0,5,0,0
91413,-83.3333333333333,4,1,0,70,0,0
93699,-100,4,1,0,70,0,0
95985,-100,4,1,0,70,0,0
100556,-100,4,1,0,70,0,0
105128,-100,4,1,0,70,0,0
109556,-100,4,1,0,5,0,0
109699,-83.3333333333333,4,1,0,70,0,0
114270,-83.3333333333333,4,1,0,70,0,0
118842,-83.3333333333333,4,1,0,70,0,0
123413,-83.3333333333333,4,1,0,70,0,0
126842,-83.3333333333333,4,1,0,70,0,0
127842,-83.3333333333333,4,1,0,5,0,0
127985,-83.3333333333333,4,1,0,70,0,1
132556,-83.3333333333333,4,1,0,70,0,1
137128,-83.3333333333333,4,1,0,70,0,1
141699,-83.3333333333333,4,1,0,70,0,1
146128,-83.3333333333333,4,1,0,5,0,0
146270,-100,4,1,0,70,0,0
155413,-83.3333333333333,4,1,0,70,0,0
164413,-83.3333333333333,4,1,0,5,0,0
164556,-71.4285714285714,4,1,0,70,0,1
169128,-71.4285714285714,4,1,0,70,0,1
173699,-71.4285714285714,4,1,0,70,0,1
178270,-71.4285714285714,4,1,0,70,0,1
182556,-71.4285714285714,4,1,0,70,0,0
182842,-71.4285714285714,4,1,0,70,0,1
187413,-71.4285714285714,4,1,0,70,0,1
191985,-71.4285714285714,4,1,0,70,0,1
196556,-71.4285714285714,4,1,0,70,0,1
200842,-71.4285714285714,4,1,0,70,0,0
201128,-71.4285714285714,4,1,0,70,0,1
205699,-71.4285714285714,4,1,0,70,0,1
210270,-71.4285714285714,4,1,0,70,0,1
214842,-71.4285714285714,4,1,0,70,0,1
217128,-71.4285714285714,4,1,0,70,0,0

[Colours]
Combo1 : 74,134,255
Combo2 : 158,138,229
Combo3 : 253,255,255
Combo4 : 106,234,124

[HitObjects]
51,165,18270,6,0,B|86:174|118:165|118:165|152:197|152:197|201:181|248:197,1,203.999993774414
202,284,18699,1,0,0:0:0:0:
324,153,18842,6,0,P|338:204|318:251,1,101.999996887207
247,95,19128,2,0,P|293:66|341:66,1,101.999996887207
240,194,19413,1,0,0:0:0:0:
260,361,19556,1,0,0:0:0:0:
143,206,19699,1,0,0:0:0:0:
298,273,19842,1,0,0:0:0:0:
104,296,19985,6,0,P|46:210|91:123,1,203.999993774414
337,182,20413,1,0,0:0:0:0:
143,206,20556,6,0,B|224:195|224:195|238:180|238:180|257:191|257:191|337:181,1,203.999993774414
444,169,20985,1,0,0:0:0:0:
392,262,21128,6,0,P|336:178|373:86,1,203.999993774414
476,64,21556,1,0,0:0:0:0:
499,261,21699,6,0,P|482:327|458:346,1,101.999996887207
444,169,21985,2,0,P|497:150|545:165,1,101.999996887207
392,262,22270,1,0,0:0:0:0:
192,190,22413,1,0,0:0:0:0:
444,169,22556,1,0,0:0:0:0:
339,357,22699,1,0,0:0:0:0:
289,51,22842,6,0,B|389:76,1,101.999996887207
263,253,23128,2,0,P|172:277|103:186,1,203.999993774414
192,190,23556,1,0,0:0:0:0:
244,346,23699,1,0,0:0:0:0:
283,161,23842,6,0,P|333:126|447:191,1,203.999993774414
335,317,24270,2,0,L|358:211,1,101.999996887207
391,41,24556,5,0,0:0:0:0:
356,217,24699,1,0,0:0:0:0:
306,76,24842,1,0,0:0:0:0:
426,279,24985,1,0,0:0:0:0:
209,190,25128,6,0,P|111:157|28:233,1,203.999993774414
130,257,25556,1,0,0:0:0:0:
206,160,25699,6,0,P|108:127|25:203,1,203.999993774414
130,257,26128,1,0,0:0:0:0:
387,209,26270,6,0,B|466:193|466:193|438:185,1,101.999996887207
305,164,26556,2,0,P|290:219|313:269,1,101.999996887207
389,304,26842,1,0,0:0:0:0:
384,115,26985,1,0,0:0:0:0:
309,355,27128,1,0,0:0:0:0:
470,254,27270,1,0,0:0:0:0:
206,160,27413,6,0,L|105:122,1,101.999996887207
237,243,27699,2,0,P|296:192|259:86,1,203.999993774414
373,91,28128,1,0,0:0:0:0:
206,160,28270,1,0,0:0:0:0:
412,174,28413,1,0,0:0:0:0:
168,78,28556,6,0,L|66:37,1,101.999996887207
154,234,28842,1,0,0:0:0:0:
465,99,28985,6,0,P|436:31|315:23,1,203.999993774414
206,160,29413,1,0,0:0:0:0:
373,91,29555,1,0,0:0:0:0:
154,234,29699,6,0,P|256:235|301:149,1,203.999993774414
256,55,30128,1,0,0:0:0:0:
467,241,30270,6,0,B|471:109|471:109|466:145|425:172,1,203.999993774414
369,254,30699,1,0,0:0:0:0:
242,143,30842,6,0,P|186:117|165:53,1,101.999996887207
327,170,31128,2,0,P|298:218|251:233,1,101.999996887207
172,200,31413,1,0,0:0:0:0:
308,83,31556,1,0,0:0:0:0:
303,314,31699,1,0,0:0:0:0:
157,110,31842,1,0,0:0:0:0:
420,175,31985,6,0,L|393:63,1,101.999996887207
327,170,32270,1,0,0:0:0:0:
487,74,32413,1,0,0:0:0:0:
243,143,32556,6,0,P|258:238|359:257,1,203.999993774414
327,170,32985,1,0,0:0:0:0:
165,280,33128,6,0,B|124:299|104:355|104:355|72:304|96:244,1,203.999993774414
163,194,33556,2,0,P|224:215|226:340,1,203.999993774414
76,163,33985,1,0,0:0:0:0:
256,192,34270,12,0,36413,0:0:0:0:
389,220,36556,5,0,0:0:0:0:
398,227,37699,5,0,0:0:0:0:
391,221,37985,5,0,0:0:0:0:
385,215,38270,5,0,0:0:0:0:
379,209,38556,5,0,0:0:0:0:
333,285,38699,1,0,0:0:0:0:
291,208,38842,6,0,P|324:136|415:128,1,170
333,285,39270,2,0,P|250:289|205:214,1,170
466,189,39699,1,0,0:0:0:0:
433,279,39842,1,0,0:0:0:0:
406,124,39985,6,0,B|458:90|512:115|512:115|485:84|443:70,1,170
302,30,40413,2,0,B|181:22|181:22|213:37|222:59,1,170
144,98,40842,1,0,0:0:0:0:
220,139,40985,1,0,0:0:0:0:
70,143,41128,6,0,P|56:99|65:60,1,85
220,139,41413,2,0,P|234:183|225:222,1,85
151,264,41699,1,0,0:0:0:0:
294,94,41842,1,0,0:0:0:0:
149,178,41985,1,0,0:0:0:0:
370,135,42128,1,0,0:0:0:0:
75,223,42270,6,0,P|70:136|149:88,1,170
368,49,42699,2,0,P|445:86|443:180,1,170
296,178,43128,2,0,L|377:130,1,85
221,133,43413,2,0,L|143:181,1,85
219,220,43699,5,0,0:0:0:0:
297,90,43842,1,0,0:0:0:0:
294,265,43985,1,0,0:0:0:0:
222,45,44128,1,0,0:0:0:0:
217,307,44270,1,0,0:0:0:0:
299,3,44413,5,0,0:0:0:0:
142,261,44556,1,0,0:0:0:0:
373,138,44699,1,0,0:0:0:0:
138,348,44842,1,0,0:0:0:0:
374,49,44985,1,0,0:0:0:0:
63,302,45128,5,0,0:0:0:0:
63,302,45413,5,0,0:0:0:0:
142,261,45556,1,0,0:0:0:0:
67,214,45699,6,0,P|134:171|216:206,1,170
279,147,46128,2,0,B|316:217|268:262|268:262|297:253|343:263,1,170
198,115,46556,1,0,0:0:0:0:
346,93,46699,1,0,0:0:0:0:
131,169,46842,6,0,P|111:104|184:32,1,170
413,39,47270,2,0,P|433:114|373:178,1,170
291,232,47699,1,0,0:0:0:0:
267,62,47842,1,0,0:0:0:0:
222,286,47985,5,0,0:0:0:0:
269,47,48128,1,0,0:0:0:0:
304,319,48270,5,0,0:0:0:0:
267,62,48413,1,0,0:0:0:0:
222,286,48556,5,0,0:0:0:0:
269,47,48699,1,0,0:0:0:0:
443,209,48842,1,0,0:0:0:0:
197,116,48985,1,0,0:0:0:0:
512,154,49128,5,0,0:0:0:0:
128,171,49270,1,0,0:0:0:0:
498,151,49413,1,0,0:0:0:0:
59,226,49556,6,0,P|46:135|108:86,1,170
197,116,49985,1,0,0:0:0:0:
128,171,50128,1,0,0:0:0:0:
293,236,50270,6,0,B|260:205|211:205|211:205|262:188|277:153,1,170
362,181,50699,2,0,P|378:262|314:320,1,170
224,291,51128,1,0,0:0:0:0:
343,103,51270,1,0,0:0:0:0:
141,258,51413,5,0,0:0:0:0:
362,181,51556,1,0,0:0:0:0:
185,29,51699,1,0,0:0:0:0:
320,318,51842,1,0,0:0:0:0:
402,48,51985,6,0,P|314:28|262:84,1,170
285,159,52413,1,0,0:0:0:0:
256,192,52556,12,0,54699,0:0:0:0:
145,337,54842,6,0,B|164:204|164:204|164:246|197:274,1,203.999993774414
72,210,55270,1,0,0:0:0:0:
210,122,55413,6,0,P|150:112|110:131,1,101.999996887207
258,203,55699,2,0,P|293:172|307:118,1,101.999996887207
165,204,55985,1,0,0:0:0:0:
258,362,56128,1,0,0:0:0:0:
210,122,56270,1,0,0:0:0:0:
210,283,56413,1,0,0:0:0:0:
256,44,56556,6,0,P|347:36|400:143,1,203.999993774414
358,204,56985,1,0,0:0:0:0:
168,205,57128,6,0,B|244:204|244:204|262:187|262:187|281:204|281:204|376:204,1,203.999993774414
466,201,57556,1,0,0:0:0:0:
407,283,57699,6,0,P|358:205|418:113,1,203.999993774414
466,201,58128,1,0,0:0:0:0:
314,80,58270,6,0,P|256:70|215:86,1,101.999996887207
233,264,58556,2,0,P|268:222|268:166,1,101.999996887207
164,178,58842,1,0,0:0:0:0:
394,284,58985,1,0,0:0:0:0:
314,80,59128,1,0,0:0:0:0:
302,350,59270,1,0,0:0:0:0:
211,86,59413,6,0,L|95:103,1,101.999996887207
401,115,59699,2,0,P|385:21|283:-7,1,203.999993774414
314,80,60128,1,0,0:0:0:0:
488,80,60270,1,0,0:0:0:0:
327,172,60413,6,0,P|313:272|408:326,1,203.999993774414
493,189,60842,2,0,L|399:232,1,101.999996887207
228,304,61128,1,0,0:0:0:0:
240,137,61270,1,0,0:0:0:0:
158,363,61413,1,0,0:0:0:0:
316,79,61556,1,0,0:0:0:0:
67,150,61699,6,0,P|78:40|164:6,1,203.999993774414
151,100,62128,1,0,0:0:0:0:
153,198,62270,6,0,B|102:254|25:238|25:238|62:254|81:277,1,203.999993774414
163,320,62699,1,0,0:0:0:0:
334,238,62842,6,0,B|405:193|405:193|381:192,1,101.999996887207
250,189,63128,2,0,P|237:243|256:290,1,101.999996887207
333,331,63413,1,0,0:0:0:0:
331,141,63556,1,0,0:0:0:0:
414,377,63699,1,0,0:0:0:0:
252,285,63842,1,0,0:0:0:0:
512,209,63985,6,0,L|468:107,1,101.999996887207
250,189,64270,2,0,P|168:241|176:340,1,203.999993774414
334,238,64699,1,0,0:0:0:0:
246,92,64842,1,0,0:0:0:0:
252,285,64985,1,0,0:0:0:0:
415,83,65128,6,0,L|323:145,1,101.999996887207
419,282,65413,1,0,0:0:0:0:
328,45,65556,6,0,P|231:7|150:74,1,203.999993774414
334,238,65985,1,0,0:0:0:0:
246,92,66128,1,0,0:0:0:0:
252,285,66270,6,0,P|338:333|420:282,1,203.999993774414
415,186,66699,1,0,0:0:0:0:
170,237,66842,6,0,P|79:279|-6:207,1,203.999993774414
252,190,67270,1,0,0:0:0:0:
88,94,67413,6,0,B|31:54|31:54|59:61|93:53,1,101.999996887207
171,47,67699,2,0,P|186:99|167:147,1,101.999996887207
88,189,67985,1,0,0:0:0:0:
334,143,68128,1,0,0:0:0:0:
170,333,68270,1,0,0:0:0:0:
253,96,68413,1,0,0:0:0:0:
336,333,68556,6,0,L|355:223,1,101.999996887207
252,285,68842,1,0,0:0:0:0:
433,311,68985,1,0,0:0:0:0:
416,97,69128,6,0,P|331:44|254:95,1,203.999993774414
334,143,69556,1,0,0:0:0:0:
172,142,69699,6,0,P|87:195|10:144,1,203.999993774414
83,10,70128,2,0,B|110:54|91:107|91:107|123:56|174:49,1,203.999993774414
253,95,70556,1,0,0:0:0:0:
251,108,70842,6,0,B|268:191|195:232|195:232|223:224|255:233,1,203.999993774414
221,320,71270,2,0,P|126:288|121:185,1,203.999993774414
314,302,71699,1,0,0:0:0:0:
256,192,71985,12,0,72985,0:0:0:0:
95,104,73128,5,0,0:0:0:0:
311,148,73270,1,0,0:0:0:0:
227,198,73413,1,0,0:0:0:0:
313,246,73556,1,0,0:0:0:0:
179,54,73699,5,0,0:0:0:0:
397,196,73842,1,0,0:0:0:0:
166,314,73985,2,0,L|241:308,1,50.9999984436036
80,266,74128,1,0,0:0:0:0:
313,246,74270,5,0,0:0:0:0:
312,148,74413,1,0,0:0:0:0:
399,294,74556,1,0,0:0:0:0:
397,99,74699,1,0,0:0:0:0:
227,198,74842,6,0,L|230:146,1,50.9999984436036
237,67,74985,1,0,0:0:0:0:
313,246,75128,1,0,0:0:0:0:
228,296,75270,1,0,0:0:0:0:
397,196,75413,5,0,0:0:0:0:
142,247,75556,1,0,0:0:0:0:
482,243,75699,1,0,0:0:0:0:
227,198,75842,1,0,0:0:0:0:
480,145,75985,5,0,0:0:0:0:
143,149,76128,1,0,0:0:0:0:
313,246,76270,2,0,L|311:175,1,50.9999984436036
310,109,76413,1,0,0:0:0:0:
314,344,76556,5,0,0:0:0:0:
320,350,76842,6,0,L|258:322,1,50.9999984436036
399,295,76985,1,0,0:0:0:0:
313,246,77128,1,0,0:0:0:0:
398,196,77270,5,0,0:0:0:0:
313,234,77413,1,0,0:0:0:0:
228,198,77556,1,0,0:0:0:0:
483,158,77699,5,0,0:0:0:0:
240,290,77842,1,0,0:0:0:0:
155,254,77985,1,0,0:0:0:0:
167,346,78128,1,0,0:0:0:0:
218,107,78270,5,0,0:0:0:0:
228,198,78413,1,0,0:0:0:0:
292,53,78556,2,0,L|283:-4,1,50.9999984436036
302,145,78699,1,0,0:0:0:0:
70,215,78842,5,0,0:0:0:0:
155,254,78985,1,0,0:0:0:0:
62,122,79128,1,0,0:0:0:0:
79,309,79270,1,0,0:0:0:0:
228,198,79413,6,0,L|240:259,1,50.9999984436036
256,322,79556,1,0,0:0:0:0:
147,162,79699,1,0,0:0:0:0:
398,196,79842,1,0,0:0:0:0:
62,122,79985,6,0,P|64:214|169:247,1,203.999993774414
228,198,80413,1,0,0:0:0:0:
469,151,80556,6,0,P|373:108|313:178,1,203.999993774414
295,258,80985,1,0,0:0:0:0:
211,72,81128,6,0,B|194:20|194:20|178:97|143:171,1,203.999993774414
156,250,81556,1,0,0:0:0:0:
314,171,81699,1,0,0:0:0:0:
74,212,81842,5,0,0:0:0:0:
379,230,81985,1,0,0:0:0:0:
211,72,82128,1,0,0:0:0:0:
165,341,82270,5,0,0:0:0:0:
398,145,82413,1,0,0:0:0:0:
314,171,82556,1,0,0:0:0:0:
379,230,82699,1,0,0:0:0:0:
333,85,82842,5,0,0:0:0:0:
295,256,82985,1,0,0:0:0:0:
165,137,83128,2,0,L|154:192,1,50.9999984436036
135,269,83270,1,0,0:0:0:0:
269,26,83413,5,0,0:0:0:0:
417,58,83556,1,0,0:0:0:0:
250,112,83699,1,0,0:0:0:0:
483,117,83842,1,0,0:0:0:0:
185,52,83985,6,0,L|122:38,1,50.9999984436036
50,20,84128,1,0,0:0:0:0:
165,137,84270,1,0,0:0:0:0:
333,85,84413,1,0,0:0:0:0:
77,108,84556,5,0,0:0:0:0:
314,170,84699,1,0,0:0:0:0:
7,169,84842,1,0,0:0:0:0:
398,144,84985,1,0,0:0:0:0:
95,200,85128,5,0,0:0:0:0:
378,229,85270,1,0,0:0:0:0:
185,230,85413,2,0,L|254:198,1,50.9999984436036
314,170,85556,1,0,0:0:0:0:
302,312,85699,5,0,0:0:0:0:
293,308,85985,6,0,L|236:336,1,50.9999984436036
155,319,86128,1,0,0:0:0:0:
185,230,86270,1,0,0:0:0:0:
95,200,86413,5,0,0:0:0:0:
314,170,86556,1,0,0:0:0:0:
67,291,86699,1,0,0:0:0:0:
380,226,86842,5,0,0:0:0:0:
85,16,86985,1,0,0:0:0:0:
151,72,87128,1,0,0:0:0:0:
69,101,87270,1,0,0:0:0:0:
330,85,87413,5,0,0:0:0:0:
85,16,87556,1,0,0:0:0:0:
185,230,87699,2,0,L|124:240,1,50.9999984436036
135,157,87842,1,0,0:0:0:0:
396,141,87985,5,0,0:0:0:0:
364,311,88128,1,0,0:0:0:0:
330,85,88270,1,0,0:0:0:0:
446,283,88413,1,0,0:0:0:0:
248,114,88556,6,0,L|220:175,1,50.9999984436036
185,230,88699,1,0,0:0:0:0:
411,55,88842,1,0,0:0:0:0:
135,157,88985,1,0,0:0:0:0:
446,283,89128,5,0,0:0:0:0:
256,192,89270,12,0,91270,0:0:0:0:
126,247,91413,5,0,0:0:0:0:
125,256,92556,5,0,0:0:0:0:
126,247,92842,5,0,0:0:0:0:
127,238,93127,5,0,0:0:0:0:
128,230,93413,5,0,0:0:0:0:
40,236,93556,1,0,0:0:0:0:
79,157,93699,6,0,P|156:142|215:212,1,170
159,338,94128,2,0,B|115:293|129:229|129:229|124:264|108:284,1,170
240,292,94556,1,0,0:0:0:0:
39,236,94699,1,0,0:0:0:0:
303,225,94842,6,0,P|336:303|291:370,1,170
276,136,95270,2,0,B|343:124|386:175|386:175|382:147|394:120,1,170
303,225,95699,1,0,0:0:0:0:
371,37,95842,1,0,0:0:0:0:
472,163,95985,6,0,B|495:239|439:289|439:289|444:265|434:237,1,170
186,163,96413,2,0,B|163:87|219:37|219:37|214:61|224:89,1,170
96,136,96842,1,0,0:0:0:0:
276,136,96985,1,0,0:0:0:0:
117,227,97128,6,0,P|63:225|30:203,1,85
255,45,97413,2,0,P|309:47|342:69,1,85
312,224,97699,1,0,0:0:0:0:
186,163,97842,1,0,0:0:0:0:
427,75,97985,1,0,0:0:0:0:
290,315,98128,1,0,0:0:0:0:
276,136,98270,6,0,L|368:146,1,85
202,327,98556,2,0,L|110:317,1,85
165,76,98842,1,0,0:0:0:0:
380,289,98985,1,0,0:0:0:0:
96,136,99128,1,0,0:0:0:0:
455,168,99270,1,0,0:0:0:0:
117,227,99414,5,0,0:0:0:0:
107,231,99699,5,0,0:0:0:0:
98,236,99985,5,0,0:0:0:0:
189,209,100128,1,0,0:0:0:0:
165,300,100270,1,0,0:0:0:0:
10,187,100413,1,0,0:0:0:0:
255,275,100556,6,0,P|237:361|167:392,1,170
189,209,100985,2,0,P|262:181|334:227,1,170
336,319,101413,1,0,0:0:0:0:
165,300,101556,1,0,0:0:0:0:
414,271,101699,6,0,B|531:256|531:256|503:251|483:237,1,170
412,181,102128,2,0,B|379:139|407:78|407:78|392:107|354:117,1,170
328,28,102556,1,0,0:0:0:0:
490,133,102699,1,0,0:0:0:0:
225,154,102842,6,0,L|113:164,1,85
243,35,103128,2,0,L|355:25,1,85
306,198,103413,1,0,0:0:0:0:
62,113,103556,1,0,0:0:0:0:
360,115,103699,1,0,0:0:0:0:
215,327,103842,1,0,0:0:0:0:
243,35,103986,5,0,0:0:0:0:
232,31,104270,5,0,0:0:0:0:
222,28,104556,5,0,0:0:0:0:
404,203,104699,1,0,0:0:0:0:
327,27,104842,1,0,0:0:0:0:
246,251,104985,1,0,0:0:0:0:
459,121,105128,6,0,P|503:195|463:280,1,170
168,309,105556,2,0,P|151:228|201:163,1,170
300,169,105985,1,0,0:0:0:0:
59,239,106128,1,0,0:0:0:0:
246,251,106270,6,0,L|352:256,1,85
104,154,106556,2,0,L|-2:149,1,85
260,349,106842,1,0,0:0:0:0:
185,95,106985,1,0,0:0:0:0:
338,288,107128,1,0,0:0:0:0:
93,54,107270,1,0,0:0:0:0:
416,226,107413,5,0,0:0:0:0:
256,192,107556,12,0,109556,0:0:0:0:
108,122,109699,6,0,B|242:134|242:134|204:140|186:173,1,203.999993774414
261,224,110128,1,0,0:0:0:0:
329,162,110270,6,0,P|331:104|304:66,1,101.999996887207
261,224,110556,2,0,P|315:252|364:244,1,101.999996887207
415,182,110842,1,0,0:0:0:0:
178,263,110985,1,0,0:0:0:0:
379,332,111128,1,0,0:0:0:0:
242,134,111270,1,0,0:0:0:0:
98,309,111413,6,0,P|186:357|267:291,1,203.999993774414
156,85,111842,1,0,0:0:0:0:
178,263,111985,6,0,B|169:193|169:193|141:175|141:175|165:153|165:153|156:78,1,203.999993774414
62,184,112413,1,0,0:0:0:0:
279,223,112556,6,0,B|270:153|270:153|242:135|242:135|266:113|266:113|257:38,1,203.999993774414
380,183,112985,1,0,0:0:0:0:
179,261,113128,6,0,L|60:269,1,101.999996887207
380,183,113413,2,0,L|499:175,1,101.999996887207
262,329,113699,1,0,0:0:0:0:
295,116,113842,1,0,0:0:0:0:
364,290,113985,1,0,0:0:0:0:
396,76,114128,1,0,0:0:0:0:
224,160,114270,6,0,L|223:51,1,101.999996887207
309,227,114556,2,0,P|206:263|127:196,1,203.999993774414
134,110,114985,1,0,0:0:0:0:
410,187,115128,1,0,0:0:0:0:
46,161,115270,6,0,P|52:49|133:8,1,203.999993774414
224,160,115699,2,0,L|125:105,1,101.999996887207
223,58,115985,1,0,0:0:0:0:
135,212,116128,1,0,0:0:0:0:
124,9,116270,1,0,0:0:0:0:
225,264,116413,1,0,0:0:0:0:
311,108,116556,6,0,P|406:82|479:165,1,203.999993774414
379,187,116985,1,0,0:0:0:0:
316,88,117128,6,0,P|411:62|484:145,1,203.999993774414
384,167,117557,1,0,0:0:0:0:
214,109,117699,6,0,L|232:5,1,101.999996887207
352,267,117985,2,0,L|230:283,1,101.999996887207
146,295,118270,1,0,0:0:0:0:
455,245,118413,1,0,0:0:0:0:
75,217,118556,1,0,0:0:0:0:
423,345,118699,1,0,0:0:0:0:
107,116,118842,6,0,L|230:124,1,101.999996887207
455,245,119128,2,0,P|482:134|411:64,1,203.999993774414
208,122,119556,1,0,0:0:0:0:
384,167,119699,1,0,0:0:0:0:
176,223,119842,1,0,0:0:0:0:
329,376,119985,6,0,L|270:289,1,101.999996887207
107,141,120270,1,0,0:0:0:0:
162,31,120413,2,0,P|268:42|304:140,1,203.999993774414
71,242,120842,1,0,0:0:0:0:
208,122,120985,1,0,0:0:0:0:
140,324,121128,6,0,P|21:326|-30:251,1,203.999993774414
71,242,121556,1,0,0:0:0:0:
176,223,121699,6,0,B|256:255|251:338|251:338|261:295|301:271,1,203.999993774414
140,324,122128,1,0,0:0:0:0:
305,121,122271,6,0,L|417:133,1,101.999996887207
176,223,122556,2,0,L|64:211,1,101.999996887207
194,117,122842,1,0,0:0:0:0:
334,220,122985,1,0,0:0:0:0:
97,140,123128,1,0,0:0:0:0:
250,37,123270,1,0,0:0:0:0:
140,324,123413,6,0,L|120:213,1,101.999996887207
223,275,123699,1,0,0:0:0:0:
42,301,123842,1,0,0:0:0:0:
59,87,123985,6,0,P|143:34|221:84,1,203.999993774414
141,133,124413,1,0,0:0:0:0:
303,132,124556,6,0,P|387:184|464:133,1,203.999993774414
392,0,124985,2,0,B|365:43|384:96|384:96|352:46|301:39,1,203.999993774414
222,85,125413,1,0,0:0:0:0:
224,98,125699,6,0,B|207:180|280:222|280:222|252:213|220:222,1,203.999993774414
254,310,126127,2,0,P|349:278|354:175,1,203.999993774414
161,292,126556,1,0,0:0:0:0:
256,192,126842,12,0,127842,0:0:0:0:
435,228,127985,5,0,0:0:0:0:
242,122,128127,1,0,0:0:0:0:
274,215,128270,1,0,0:0:0:0:
177,196,128413,1,0,0:0:0:0:
403,135,128556,5,0,0:0:0:0:
145,104,128699,1,0,0:0:0:0:
246,343,128842,2,0,L|192:290,1,50.9999984436036
343,361,128985,1,0,0:0:0:0:
177,196,129127,5,0,0:0:0:0:
241,122,129270,1,0,0:0:0:0:
80,178,129413,1,0,0:0:0:0:
207,30,129556,1,0,0:0:0:0:
274,215,129699,6,0,L|305:173,1,50.9999984436036
350,108,129842,1,0,0:0:0:0:
177,196,129985,1,0,0:0:0:0:
210,289,130127,1,0,0:0:0:0:
145,104,130270,5,0,0:0:0:0:
307,307,130413,1,0,0:0:0:0:
50,85,130556,1,0,0:0:0:0:
274,215,130699,1,0,0:0:0:0:
114,12,130842,5,0,0:0:0:0:
370,231,130985,1,0,0:0:0:0:
177,196,131127,2,0,L|224:143,1,50.9999984436036
267,93,131270,1,0,0:0:0:0:
113,271,131413,5,0,0:0:0:0:
105,271,131699,6,0,L|170:290,1,50.9999984436036
80,178,131842,1,0,0:0:0:0:
177,196,131985,1,0,0:0:0:0:
144,103,132127,5,0,0:0:0:0:
185,187,132270,1,0,0:0:0:0:
273,214,132413,1,0,0:0:0:0:
103,20,132556,5,0,0:0:0:0:
205,277,132699,1,0,0:0:0:0:
293,304,132842,1,0,0:0:0:0:
225,367,132985,1,0,0:0:0:0:
339,151,133127,5,0,0:0:0:0:
273,214,133270,1,0,0:0:0:0:
317,62,133413,2,0,L|361:24,1,50.9999984436036
250,126,133556,1,0,0:0:0:0:
383,329,133699,5,0,0:0:0:0:
293,304,133842,1,0,0:0:0:0:
449,263,133985,1,0,0:0:0:0:
316,395,134127,1,0,0:0:0:0:
273,214,134270,6,0,L|225:253,1,50.9999984436036
172,291,134413,1,0,0:0:0:0:
358,239,134556,1,0,0:0:0:0:
144,103,134699,1,0,0:0:0:0:
449,263,134842,6,0,P|388:332|287:290,1,203.999993774414
273,214,135270,1,0,0:0:0:0:
119,23,135413,6,0,P|220:52|221:144,1,203.999993774414
183,217,135842,1,0,0:0:0:0:
367,129,135985,6,0,B|414:100|414:100|376:169|356:248,1,203.999993774414
295,300,136413,1,0,0:0:0:0:
225,138,136556,1,0,0:0:0:0:
382,324,136699,5,0,0:0:0:0:
137,142,136842,1,0,0:0:0:0:
367,129,136985,1,0,0:0:0:0:
229,364,137127,5,0,0:0:0:0:
177,64,137270,1,0,0:0:0:0:
225,138,137413,1,0,0:0:0:0:
137,142,137556,1,0,0:0:0:0:
265,60,137699,5,0,0:0:0:0:
184,215,137842,1,0,0:0:0:0:
361,208,137985,2,0,L|334:257,1,50.9999984436036
299,328,138127,1,0,0:0:0:0:
223,46,138270,5,0,0:0:0:0:
75,78,138413,1,0,0:0:0:0:
242,132,138556,1,0,0:0:0:0:
9,137,138699,1,0,0:0:0:0:
307,72,138842,6,0,L|369:57,1,50.9999984436036
442,40,138985,1,0,0:0:0:0:
327,157,139127,1,0,0:0:0:0:
159,104,139270,1,0,0:0:0:0:
415,127,139413,5,0,0:0:0:0:
178,190,139556,1,0,0:0:0:0:
485,189,139699,1,0,0:0:0:0:
94,164,139842,1,0,0:0:0:0:
397,219,139985,5,0,0:0:0:0:
114,249,140127,1,0,0:0:0:0:
307,250,140270,2,0,L|238:218,1,50.9999984436036
178,190,140413,1,0,0:0:0:0:
190,332,140556,5,0,0:0:0:0:
199,328,140842,6,0,L|255:356,1,50.9999984436036
337,338,140985,1,0,0:0:0:0:
307,250,141127,1,0,0:0:0:0:
397,219,141270,5,0,0:0:0:0:
178,190,141413,1,0,0:0:0:0:
425,311,141556,1,0,0:0:0:0:
112,246,141699,5,0,0:0:0:0:
407,36,141842,1,0,0:0:0:0:
341,92,141985,1,0,0:0:0:0:
423,121,142127,1,0,0:0:0:0:
162,105,142270,5,0,0:0:0:0:
407,36,142413,1,0,0:0:0:0:
307,250,142556,2,0,L|368:260,1,50.9999984436036
357,177,142699,1,0,0:0:0:0:
96,161,142842,5,0,0:0:0:0:
128,331,142985,1,0,0:0:0:0:
162,105,143127,1,0,0:0:0:0:
46,303,143270,1,0,0:0:0:0:
244,133,143413,6,0,L|272:194,1,50.9999984436036
307,250,143556,1,0,0:0:0:0:
81,75,143699,1,0,0:0:0:0:
357,177,143842,1,0,0:0:0:0:
46,303,143985,5,0,0:0:0:0:
256,192,144128,12,0,146128,0:0:0:0:
247,147,146270,5,0,0:0:0:0:
225,220,146699,1,0,0:0:0:0:
229,138,146842,1,0,0:0:0:0:
211,129,147128,1,0,0:0:0:0:
310,253,147412,5,0,0:0:0:0:
332,180,147842,1,0,0:0:0:0:
328,262,147984,1,0,0:0:0:0:
346,271,148270,1,0,0:0:0:0:
418,214,148556,5,0,0:0:0:0:
332,180,148699,1,0,0:0:0:0:
346,271,148842,1,0,0:0:0:0:
404,122,148985,1,0,0:0:0:0:
432,305,149128,1,0,0:0:0:0:
346,271,149413,1,0,0:0:0:0:
260,237,149698,5,0,0:0:0:0:
238,310,150127,1,0,0:0:0:0:
242,228,150270,1,0,0:0:0:0:
224,219,150556,1,0,0:0:0:0:
352,89,150841,5,0,0:0:0:0:
318,20,151270,1,0,0:0:0:0:
371,83,151413,1,0,0:0:0:0:
390,77,151699,1,0,0:0:0:0:
233,54,151984,5,0,0:0:0:0:
267,123,152413,1,0,0:0:0:0:
214,60,152556,1,0,0:0:0:0:
195,66,152842,1,0,0:0:0:0:
109,100,153128,5,0,0:0:0:0:
182,157,153271,1,0,0:0:0:0:
195,66,153413,1,0,0:0:0:0:
96,191,153556,1,0,0:0:0:0:
123,9,153699,1,0,0:0:0:0:
195,66,153985,1,0,0:0:0:0:
267,123,154270,5,0,0:0:0:0:
233,192,154699,1,0,0:0:0:0:
286,129,154842,1,0,0:0:0:0:
305,135,155128,1,0,0:0:0:0:
284,344,155413,6,0,P|231:371|115:304,1,203.999993774414
287,260,155842,2,0,B|365:268|374:349|374:349|379:308|405:280,1,203.999993774414
477,247,156270,1,0,0:0:0:0:
487,239,156556,2,0,B|511:99|511:99|459:155,1,203.999993774414
365,163,156985,2,0,P|312:175|223:65,1,203.999993774414
289,11,157413,1,0,0:0:0:0:
279,23,157699,6,0,P|196:72|87:14,1,203.999993774414
279,23,158128,2,0,P|319:129|258:223,1,203.999993774414
200,242,158556,1,0,0:0:0:0:
194,234,158842,2,0,P|246:204|355:304,1,203.999993774414
145,310,159270,2,0,B|86:242|136:174|136:174|93:208|64:203,1,203.999993774414
7,169,159699,1,0,0:0:0:0:
14,153,159985,5,0,0:0:0:0:
49,68,160128,1,0,0:0:0:0:
161,214,160270,1,0,0:0:0:0:
105,141,160413,1,0,0:0:0:0:
70,226,160556,1,0,0:0:0:0:
196,129,160699,1,0,0:0:0:0:
161,214,160842,1,0,0:0:0:0:
141,57,160985,1,0,0:0:0:0:
286,118,161128,6,0,B|435:97|435:97|370:72,1,203.999993774414
314,132,161556,2,0,B|463:111|463:111|398:86,1,203.999993774414
337,43,161985,1,0,0:0:0:0:
314,132,162128,1,0,0:0:0:0:
337,221,162270,5,0,0:0:0:0:
256,192,162413,12,0,164413,0:0:0:0:
352,274,164556,6,0,B|297:317|297:317|118:279,1,237.999992736817
178,205,164985,1,0,0:0:0:0:
410,207,165128,2,0,P|438:265|421:328,1,118.999996368408
323,191,165413,2,0,P|353:139|409:119,1,118.999996368408
484,159,165699,5,0,0:0:0:0:
352,274,165842,1,0,0:0:0:0:
479,71,165985,1,0,0:0:0:0:
489,248,166128,1,0,0:0:0:0:
400,31,166270,6,0,B|339:4|339:4|170:32,1,237.999992736817
115,139,166699,1,0,0:0:0:0:
218,219,166842,6,0,P|251:164|159:30,1,237.999992736817
50,38,167270,1,0,0:0:0:0:
218,219,167413,2,0,B|388:208|388:208|305:177,1,237.999992736817
235,134,167842,1,0,0:0:0:0:
118,266,167985,2,0,P|89:325|113:382,1,118.999996368408
196,327,168270,2,0,P|225:280|213:210,1,118.999996368408
126,154,168556,5,0,0:0:0:0:
332,270,168699,1,0,0:0:0:0:
25,203,168842,1,0,0:0:0:0:
433,221,168985,1,0,0:0:0:0:
196,327,169128,2,0,B|178:290|178:290|203:208,1,118.999996368408
272,38,169413,6,0,P|352:7|440:117,1,237.999992736817
433,221,169842,1,0,0:0:0:0:
346,99,169985,1,0,0:0:0:0:
332,270,170128,6,0,B|279:336|279:336|320:184,1,237.999992736817
462,105,170556,2,0,L|430:231,1,118.999996368408
425,331,170842,1,0,0:0:0:0:
346,99,170985,1,0,0:0:0:0:
429,342,171128,1,0,0:0:0:0:
342,87,171270,1,0,0:0:0:0:
165,290,171413,6,0,B|130:234|130:234|166:61,1,237.999992736817
261,40,171842,1,0,0:0:0:0:
142,276,171985,2,0,B|107:220|107:220|143:47,1,237.999992736817
273,28,172413,1,0,0:0:0:0:
253,265,172556,2,0,P|210:286|139:274,1,118.999996368408
324,200,172842,2,0,P|345:243|333:314,1,118.999996368408
254,359,173128,5,0,0:0:0:0:
233,172,173270,1,0,0:0:0:0:
405,247,173413,1,0,0:0:0:0:
82,284,173556,1,0,0:0:0:0:
384,61,173699,6,0,B|447:14|519:55|519:55|502:127|444:111,1,237.999992736817
375,150,174128,1,0,0:0:0:0:
180,102,174270,2,0,P|192:39|235:5,1,118.999996368408
233,172,174556,2,0,P|172:193|121:172,1,118.999996368408
375,150,174842,6,0,L|352:272,1,118.999996368408
309,345,175128,1,0,0:0:0:0:
384,61,175270,2,0,B|447:14|519:55|519:55|502:127|444:111,1,237.999992736817
375,150,175699,1,0,0:0:0:0:
198,252,175842,1,0,0:0:0:0:
448,202,175985,6,0,B|426:371|426:371|396:303,1,237.999992736817
198,252,176413,1,0,0:0:0:0:
192,67,176556,1,0,0:0:0:0:
248,157,176699,1,0,0:0:0:0:
141,161,176842,1,0,0:0:0:0:
298,64,176985,1,0,0:0:0:0:
91,256,177128,5,0,0:0:0:0:
353,153,177270,1,0,0:0:0:0:
85,69,177413,1,0,0:0:0:0:
403,61,177556,1,0,0:0:0:0:
34,163,177699,5,0,0:0:0:0:
457,150,177842,1,0,0:0:0:0:
148,347,177985,1,0,0:0:0:0:
298,64,178128,1,0,0:0:0:0:
470,340,178270,6,0,B|423:284|423:284|443:116,1,237.999992736817
397,19,178699,1,0,0:0:0:0:
298,64,178842,2,0,L|281:198,1,118.999996368408
169,345,179128,1,0,0:0:0:0:
268,300,179270,1,0,0:0:0:0:
367,345,179413,6,0,L|384:211,1,118.999996368408
397,19,179699,1,0,0:0:0:0:
298,64,179842,2,0,L|281:198,1,118.999996368408
268,300,180128,1,0,0:0:0:0:
169,345,180270,2,0,L|186:211,1,118.999996368408
201,57,180556,5,0,0:0:0:0:
284,232,180699,1,0,0:0:0:0:
91,216,180842,1,0,0:0:0:0:
395,72,180985,1,0,0:0:0:0:
229,312,181128,5,0,0:0:0:0:
298,64,181270,1,0,0:0:0:0:
326,320,181413,1,0,0:0:0:0:
243,144,181556,1,0,0:0:0:0:
381,240,181699,5,0,0:0:0:0:
104,49,181842,1,0,0:0:0:0:
492,80,181985,1,0,0:0:0:0:
91,216,182128,1,0,0:0:0:0:
479,247,182271,5,0,0:0:0:0:
96,59,182413,1,0,0:0:0:0:
484,90,182556,1,0,0:0:0:0:
87,227,182699,1,0,0:0:0:0:
475,258,182842,6,0,B|424:293|424:293|238:273,1,237.999992736817
127,328,183270,1,0,0:0:0:0:
219,167,183413,2,0,P|254:224|241:288,1,118.999996368408
146,110,183699,2,0,P|203:75|267:88,1,118.999996368408
310,152,183985,5,0,0:0:0:0:
134,202,184128,1,0,0:0:0:0:
266,330,184270,1,0,0:0:0:0:
60,145,184413,1,0,0:0:0:0:
343,65,184556,2,0,B|400:26|471:73|471:73|449:141|389:131,1,237.999992736817
252,80,184985,1,0,0:0:0:0:
372,220,185128,6,0,B|399:384|399:384|333:313,1,237.999992736817
266,77,185556,1,0,0:0:0:0:
386,217,185699,2,0,B|413:381|413:381|347:310,1,237.999992736817
277,268,186128,1,0,0:0:0:0:
124,192,186270,5,0,0:0:0:0:
343,65,186413,1,0,0:0:0:0:
91,277,186556,1,0,0:0:0:0:
208,6,186699,1,0,0:0:0:0:
245,355,186842,5,0,0:0:0:0:
91,80,186985,1,0,0:0:0:0:
363,300,187128,1,0,0:0:0:0:
34,206,187270,1,0,0:0:0:0:
434,173,187413,6,0,B|497:133|497:133|324:148,1,237.999992736817
255,194,187842,1,0,0:0:0:0:
171,39,187985,2,0,P|127:28|63:64,1,118.999996368408
219,112,188270,2,0,P|250:79|251:5,1,118.999996368408
131,116,188556,2,0,B|147:189|217:199|217:199|147:206|124:260,1,237.999992736817
91,334,188985,5,0,0:0:0:0:
219,112,189128,1,0,0:0:0:0:
179,330,189270,1,0,0:0:0:0:
131,116,189413,1,0,0:0:0:0:
267,326,189556,1,0,0:0:0:0:
307,108,189699,5,0,0:0:0:0:
132,256,189842,1,0,0:0:0:0:
171,37,189985,1,0,0:0:0:0:
355,322,190128,1,0,0:0:0:0:
260,34,190270,5,0,0:0:0:0:
220,252,190413,1,0,0:0:0:0:
349,31,190556,1,0,0:0:0:0:
443,318,190699,1,0,0:0:0:0:
268,183,190842,5,0,0:0:0:0:
454,148,190985,1,0,0:0:0:0:
355,322,191128,1,0,0:0:0:0:
349,31,191270,1,0,0:0:0:0:
169,357,191413,5,0,0:0:0:0:
163,66,191556,1,0,0:0:0:0:
82,218,191699,1,0,0:0:0:0:
268,183,191841,1,0,0:0:0:0:
454,148,191985,6,0,B|507:103|507:103|326:137,1,237.999992736817
268,183,192413,1,0,0:0:0:0:
82,218,192556,2,0,P|66:156|95:103,1,118.999996368408
164,264,192842,2,0,P|118:308|57:310,1,118.999996368408
163,170,193128,6,0,P|224:187|256:238,1,118.999996368408
239,326,193413,1,0,0:0:0:0:
163,170,193556,2,0,B|143:9|143:9|183:74,1,237.999992736817
164,264,193985,1,0,0:0:0:0:
82,218,194128,1,0,0:0:0:0:
329,290,194270,5,0,0:0:0:0:
84,313,194413,1,0,0:0:0:0:
327,195,194556,1,0,0:0:0:0:
0,267,194699,1,0,0:0:0:0:
410,240,194842,5,0,0:0:0:0:
189,53,194985,1,0,0:0:0:0:
412,335,195128,1,0,0:0:0:0:
406,50,195270,1,0,0:0:0:0:
329,290,195413,5,0,0:0:0:0:
487,0,195556,1,0,0:0:0:0:
331,384,195699,1,0,0:0:0:0:
325,99,195841,1,0,0:0:0:0:
165,294,195985,5,0,0:0:0:0:
406,49,196127,1,0,0:0:0:0:
248,339,196270,1,0,0:0:0:0:
242,54,196412,1,0,0:0:0:0:
82,249,196556,6,0,B|68:70|68:70|111:132,1,237.999992736817
178,188,196985,1,0,0:0:0:0:
63,245,197128,2,0,B|49:66|49:66|92:128,1,237.999992736817
188,197,197556,1,0,0:0:0:0:
365,254,197699,6,0,P|433:245|463:202,1,118.999996368408
295,194,197985,2,0,P|268:257|291:304,1,118.999996368408
365,344,198270,1,0,0:0:0:0:
381,163,198413,1,0,0:0:0:0:
217,240,198556,1,0,0:0:0:0:
365,344,198699,1,0,0:0:0:0:
381,163,198842,5,0,0:0:0:0:
148,182,198985,1,0,0:0:0:0:
450,221,199128,1,0,0:0:0:0:
232,59,199270,1,0,0:0:0:0:
202,329,199413,5,0,0:0:0:0:
381,163,199556,1,0,0:0:0:0:
59,190,199699,1,0,0:0:0:0:
143,67,199842,1,0,0:0:0:0:
113,337,199985,5,0,0:0:0:0:
217,240,200128,1,0,0:0:0:0:
202,329,200270,1,0,0:0:0:0:
148,183,200413,1,0,0:0:0:0:
113,337,200556,5,0,0:0:0:0:
232,151,200699,1,0,0:0:0:0:
287,298,200842,1,0,0:0:0:0:
163,95,200985,1,0,0:0:0:0:
400,89,201128,5,0,0:0:0:0:
287,298,201270,1,0,0:0:0:0:
331,33,201413,1,0,0:0:0:0:
370,267,201556,1,0,0:0:0:0:
230,152,201699,2,0,L|101:162,1,118.999996368408
20,356,201985,2,0,L|149:346,1,118.999996368408
100,87,202270,5,0,0:0:0:0:
213,296,202413,1,0,0:0:0:0:
169,31,202555,1,0,0:0:0:0:
130,265,202698,1,0,0:0:0:0:
270,150,202842,2,0,L|399:160,1,118.999996368408
480,354,203127,2,0,L|351:344,1,118.999996368408
198,208,203413,5,0,0:0:0:0:
87,0,203556,1,0,0:0:0:0:
62,322,203699,1,0,0:0:0:0:
270,150,203842,1,0,0:0:0:0:
145,353,203985,5,0,0:0:0:0:
26,141,204128,1,0,0:0:0:0:
368,268,204270,1,0,0:0:0:0:
454,301,204413,1,0,0:0:0:0:
439,210,204556,5,0,0:0:0:0:
439,210,204842,5,0,0:0:0:0:
382,358,204985,1,0,0:0:0:0:
353,177,205128,1,0,0:0:0:0:
424,119,205271,1,0,0:0:0:0:
297,325,205413,1,0,0:0:0:0:
182,112,205556,1,0,0:0:0:0:
424,119,205699,5,0,0:0:0:0:
368,268,205842,1,0,0:0:0:0:
339,87,205985,1,0,0:0:0:0:
167,203,206128,1,0,0:0:0:0:
81,236,206271,5,0,0:0:0:0:
96,145,206414,1,0,0:0:0:0:
153,293,206557,1,0,0:0:0:0:
182,112,206700,1,0,0:0:0:0:
81,236,206842,5,0,0:0:0:0:
253,170,206985,1,0,0:0:0:0:
68,327,207128,1,0,0:0:0:0:
324,228,207270,1,0,0:0:0:0:
96,145,207413,5,0,0:0:0:0:
339,138,207556,1,0,0:0:0:0:
223,351,207699,1,0,0:0:0:0:
96,145,207842,1,0,0:0:0:0:
339,138,207985,6,0,B|497:129|497:129|413:99,1,237.999992736817
93,127,208413,1,0,0:0:0:0:
336,120,208556,2,0,B|494:111|494:111|410:81,1,237.999992736817
90,109,208985,1,0,0:0:0:0:
395,286,209128,5,0,0:0:0:0:
168,33,209270,1,0,0:0:0:0:
311,355,209413,1,0,0:0:0:0:
275,17,209556,1,0,0:0:0:0:
202,361,209699,5,0,0:0:0:0:
370,66,209842,1,0,0:0:0:0:
109,302,209985,1,0,0:0:0:0:
419,167,210127,1,0,0:0:0:0:
69,204,210270,5,0,0:0:0:0:
84,103,210413,1,0,0:0:0:0:
163,167,210556,1,0,0:0:0:0:
148,268,210699,1,0,0:0:0:0:
179,67,210842,5,0,0:0:0:0:
227,332,210985,1,0,0:0:0:0:
274,31,211128,1,0,0:0:0:0:
322,296,211270,1,0,0:0:0:0:
353,95,211413,5,0,0:0:0:0:
432,158,211556,1,0,0:0:0:0:
338,194,211699,1,0,0:0:0:0:
417,258,211842,1,0,0:0:0:0:
322,296,211985,5,0,0:0:0:0:
353,95,212128,1,0,0:0:0:0:
227,332,212270,1,0,0:0:0:0:
274,31,212413,1,0,0:0:0:0:
163,167,212556,5,0,0:0:0:0:
338,194,212699,1,0,0:0:0:0:
148,268,212842,1,0,0:0:0:0:
179,67,212985,1,0,0:0:0:0:
322,296,213128,5,0,0:0:0:0:
353,95,213271,1,0,0:0:0:0:
227,332,213413,1,0,0:0:0:0:
274,31,213556,1,0,0:0:0:0:
251,181,213699,5,0,0:0:0:0:
251,181,213985,5,0,0:0:0:0:
330,245,214127,1,0,0:0:0:0:
345,145,214271,1,0,0:0:0:0:
157,217,214413,1,0,0:0:0:0:
251,181,214556,1,0,0:0:0:0:
63,253,214698,1,0,0:0:0:0:
235,280,214842,5,0,0:0:0:0:
173,118,214985,1,0,0:0:0:0:
141,316,215128,1,0,0:0:0:0:
330,245,215270,1,0,0:0:0:0:
251,181,215413,1,0,0:0:0:0:
235,280,215556,5,0,0:0:0:0:
345,144,215699,1,0,0:0:0:0:
330,245,215842,1,0,0:0:0:0:
439,107,215985,5,0,0:0:0:0:
312,344,216128,1,0,0:0:0:0:
266,82,216270,1,0,0:0:0:0:
425,208,216413,1,0,0:0:0:0:
251,181,216556,5,0,0:0:0:0:
360,43,216699,1,0,0:0:0:0:
235,280,216842,1,0,0:0:0:0:
266,82,216985,1,0,0:0:0:0:
141,319,217128,5,0,0:0:0:0:
256,192,217270,12,0,219413,0:0:0:0:
