osu file format v14

[General]
AudioFilename: audio.mp3
AudioLeadIn: 0
PreviewTime: 952031
Countdown: 0
SampleSet: Soft
StackLeniency: 0.6
Mode: 0
LetterboxInBreaks: 0
EpilepsyWarning: 1
WidescreenStoryboard: 1

[Editor]
Bookmarks: 33,52276,93176,149890,188520,228228,294703,349276,403777,448511,502346,559246,621860,674571,728666,774351,841365,915000,989940,1044051
DistanceSpacing: 0.4
BeatDivisor: 4
GridSize: 4
TimelineZoom: 3.100002

[Metadata]
Title:Songs Compilation
TitleUnicode:Songs Compilation
Artist:Sangatsu no Phantasia
ArtistUnicode:三月のパンタシア
Creator:Jiysea
Version:Fantasy
Source:
Tags:japanese pop rock jpop j-pop jrock j-rock Sakasama no Lady Bittersweet Seishun nante Iranaiwa Ao ni Minasoko Pinedrop Pink Lemonade Koufuku na Wagamama Sangatsu ga Zutto Tsuzukeba Ii Tabete ageru Tabeteageru Hoshi no Namida Smoke Kemuri Koi wa Kirai da Samenaide, Soda Ice Gairo, Light no Akari Dake Pastel Rain Aoi Ame wa Furiyamanai Transparent Color Toumeiiro Rendezvous 101 1st Album Ano Toki no Uta ga Kikoeru 2nd Girl's Blue, Happy Sad 3rd Pop wa Nari Kaikou Shoujo Yakou Mia n-buna 40mP Shota Horie Takayuki Ishikura Ryo Eguchi Katsumi Ishi Scop Pusu yairi buzzG Jin Web Novel 8-ji 33-fun, Natsu ga Mata Kagayaku Ending Switch Game Everyday Today's MENU for EMIYA Family Theme Song TV Anime As Miss Beelzebub likes it. Opening Asahi Friday Night Drama If I'd Kiss You At That Time The Irregular Magic High School Ki/oon SACRA MUSIC
BeatmapID:3370931
BeatmapSetID:1651207

[Difficulty]
HPDrainRate:5
CircleSize:4.2
OverallDifficulty:9
ApproachRate:9.5
SliderMultiplier:1.9
SliderTickRate:1

[Events]
//Background and Video events
0,0,"no sb bg.jpg",0,0
//Break Periods
2,49180,56561
2,90243,97329
2,146914,156708
2,184999,193461
2,225425,232625
2,291260,297369
2,346458,351884
2,399910,408093
2,445415,451561
2,499558,508346
2,553974,562196
2,618462,626579
2,670589,682489
2,724720,731332
2,771527,778351
2,838550,846306
2,912153,919687
2,986450,994361
2,1040666,1048462
//Storyboard Layer 0 (Background)
//Storyboard Layer 1 (Fail)
//Storyboard Layer 2 (Pass)
//Storyboard Layer 3 (Foreground)
//Storyboard Layer 4 (Overlay)
//Storyboard Sound Samples

[TimingPoints]
33,394.736842105263,4,2,1,50,1,0
4769,-100,4,2,1,65,0,0
6348,-133.333333333333,4,2,1,65,0,0
11875,-100,4,2,1,65,0,0
15032,-100,4,2,1,40,0,0
15427,-100,4,2,1,65,0,0
15822,-100,4,2,1,70,0,0
17302,-100,4,2,1,5,0,0
17401,-100,4,2,1,65,0,0
18980,-71.4285714285714,4,2,1,80,0,0
19276,-71.4285714285714,4,2,1,5,0,0
19375,-71.4285714285714,4,2,1,80,0,0
20855,-71.4285714285714,4,2,1,5,0,0
20954,-71.4285714285714,4,2,1,80,0,0
22434,-71.4285714285714,4,2,1,5,0,0
22532,-71.4285714285714,4,2,1,80,0,0
24013,-71.4285714285714,4,2,1,5,0,0
24111,-71.4285714285714,4,2,1,80,0,0
25592,-71.4285714285714,4,2,1,5,0,0
25690,-71.4285714285714,4,2,1,80,0,0
30526,-71.4285714285714,4,2,1,5,0,0
30625,-133.333333333333,4,2,1,80,0,0
30723,-133.333333333333,4,2,1,5,0,0
30822,-71.4285714285714,4,2,1,80,0,0
31907,-71.4285714285714,4,2,1,5,0,0
32006,-71.4285714285714,4,2,1,80,0,0
33486,-71.4285714285714,4,2,1,5,0,0
33585,-71.4285714285714,4,2,1,80,0,0
35065,-71.4285714285714,4,2,1,5,0,0
35164,-71.4285714285714,4,2,1,80,0,0
36644,-71.4285714285714,4,2,1,5,0,0
36743,-71.4285714285714,4,2,1,80,0,0
38223,-71.4285714285714,4,2,1,5,0,0
38322,-71.4285714285714,4,2,1,80,0,0
40986,-71.4285714285714,4,2,1,5,0,0
41085,-71.4285714285714,4,2,1,80,0,0
41381,-71.4285714285714,4,2,1,5,0,0
41480,-71.4285714285714,4,2,1,80,0,0
41776,-71.4285714285714,4,2,1,5,0,0
41875,-71.4285714285714,4,2,1,80,0,0
42171,-71.4285714285714,4,2,1,5,0,0
42269,-71.4285714285714,4,2,1,80,0,0
42960,-71.4285714285714,4,2,1,5,0,0
43059,-100,4,2,1,80,0,0
43157,-100,4,2,1,5,0,0
43256,-100,4,2,1,80,0,0
43355,-100,4,2,1,5,0,0
43454,-71.4285714285714,4,2,1,80,0,0
43552,-71.4285714285714,4,2,1,5,0,0
43651,-71.4285714285714,4,2,1,80,0,0
43750,-71.4285714285714,4,2,1,5,0,0
43848,-55.5555555555556,4,2,1,80,0,0
43947,-55.5555555555556,4,2,1,5,0,0
44046,-55.5555555555556,4,2,1,80,0,0
44144,-55.5555555555556,4,2,1,5,0,0
44243,-100,4,2,1,50,0,0
46611,-71.4285714285714,4,2,1,65,0,0
46710,-71.4285714285714,4,2,1,5,0,0
46809,-71.4285714285714,4,2,1,65,0,0
47302,-71.4285714285714,4,2,1,5,0,0
47401,-100,4,2,1,85,0,0
47894,-100,4,2,1,5,0,0
47993,-100,4,2,1,85,0,0
48980,-100,4,2,1,65,0,0
52276,612.244897959184,4,2,1,50,1,0
57173,-66.6666666666667,4,2,1,50,0,0
59622,-50,4,2,1,65,0,0
59724,-50,4,2,1,5,0,0
59827,-50,4,2,1,65,0,0
59929,-50,4,2,1,5,0,0
60031,-50,4,2,1,65,0,0
60133,-50,4,2,1,5,0,0
60235,-50,4,2,1,65,0,0
60337,-50,4,2,1,5,0,0
60439,-50,4,2,1,65,0,0
60541,-50,4,2,1,5,0,0
60643,-50,4,2,1,65,0,0
60745,-50,4,2,1,5,0,0
60847,-50,4,2,1,65,0,0
60949,-50,4,2,1,5,0,0
61051,-50,4,2,1,65,0,0
61153,-50,4,2,1,5,0,0
61255,-50,4,2,1,65,0,0
61357,-50,4,2,1,5,0,0
61459,-50,4,2,1,65,0,0
61765,-66.6666666666667,4,2,1,65,0,0
62071,-66.6666666666667,4,2,1,65,0,0
64520,-50,4,2,1,65,0,0
64724,-50,4,2,1,5,0,0
64827,-50,4,2,1,65,0,0
65031,-50,4,2,1,5,0,0
65133,-50,4,2,1,65,0,0
65337,-50,4,2,1,5,0,0
65439,-50,4,2,1,65,0,0
65643,-50,4,2,1,5,0,0
65745,-50,4,2,1,65,0,0
66357,-100,4,2,1,65,0,0
66867,-100,4,2,1,5,0,0
66969,-35.7142857142857,4,2,1,80,0,0
67276,-50,4,2,1,80,0,0
67582,-35.7142857142857,4,2,1,80,0,0
68194,-40,4,2,1,80,0,0
68296,-40,4,2,1,5,0,0
68398,-40,4,2,1,80,0,0
68806,-40,4,2,1,80,0,0
69112,-100,4,2,1,80,0,0
69418,-40,4,2,1,80,0,0
70133,-40,4,2,1,5,0,0
70235,-40,4,2,1,80,0,0
70439,-40,4,2,1,5,0,0
70541,-40,4,2,1,80,0,0
70949,-50,4,2,1,80,0,0
71561,-100,4,2,1,80,0,0
71867,-40,4,2,1,80,0,0
72480,-50,4,2,1,80,0,0
72888,-40,4,2,1,5,0,0
72990,-40,4,2,1,80,0,0
73092,-40,4,2,1,80,0,0
74010,-100,4,2,1,80,0,0
74316,-40,4,2,1,80,0,0
74520,-40,4,2,1,5,0,0
74622,-40,4,2,1,80,0,0
75235,-100,4,2,1,80,0,0
75541,-40,4,2,1,80,0,0
76765,-35.7142857142857,4,2,1,80,0,0
77071,-50,4,2,1,80,0,0
77378,-35.7142857142857,4,2,1,80,0,0
77990,-40,4,2,1,80,0,0
78092,-40,4,2,1,5,0,0
78194,-40,4,2,1,80,0,0
78908,-100,4,2,1,80,0,0
79214,-40,4,2,1,80,0,0
79929,-40,4,2,1,5,0,0
80031,-40,4,2,1,80,0,0
80235,-40,4,2,1,5,0,0
80337,-40,4,2,1,80,0,0
80745,-50,4,2,1,80,0,0
81357,-100,4,2,1,80,0,0
81663,-50,4,2,1,80,0,0
82582,-40,4,2,1,80,0,0
82684,-40,4,2,1,5,0,0
82786,-40,4,2,1,80,0,0
83806,-100,4,2,1,80,0,0
84112,-40,4,2,1,80,0,0
84214,-40,4,2,1,5,0,0
84316,-40,4,2,1,80,0,0
84827,-40,4,2,1,5,0,0
84929,-40,4,2,1,80,0,0
85643,-100,4,2,1,80,0,0
86561,-40,4,2,1,80,0,0
88908,-40,4,2,1,50,0,0
93176,461.538461538462,4,2,1,50,1,0
98252,-133.333333333333,4,2,1,50,0,0
98599,-133.333333333333,4,2,1,5,0,0
98714,-66.6666666666667,4,2,1,70,0,0
100099,-133.333333333333,4,2,1,70,0,0
100560,-66.6666666666667,4,2,1,80,0,0
100906,-66.6666666666667,4,2,1,5,0,0
101022,-66.6666666666667,4,2,1,80,0,0
101829,-66.6666666666667,4,2,1,5,0,0
101945,-66.6666666666667,4,2,1,80,0,0
102060,-66.6666666666667,4,2,1,5,0,0
102176,-66.6666666666667,4,2,1,80,0,0
102522,-66.6666666666667,4,2,1,20,0,0
102637,-66.6666666666667,4,2,1,80,0,0
103676,-66.6666666666667,4,2,1,5,0,0
103791,-66.6666666666667,4,2,1,80,0,0
103906,-66.6666666666667,4,2,1,5,0,0
104022,-66.6666666666667,4,2,1,80,0,0
105522,-66.6666666666667,4,2,1,5,0,0
105637,-66.6666666666667,4,2,1,80,0,0
105752,-66.6666666666667,4,2,1,5,0,0
105868,-66.6666666666667,4,2,1,80,0,0
106676,-66.6666666666667,4,2,1,5,0,0
106791,-66.6666666666667,4,2,1,80,0,0
107368,-66.6666666666667,4,2,1,5,0,0
107483,-66.6666666666667,4,2,1,80,0,0
107599,-66.6666666666667,4,2,1,5,0,0
107714,-66.6666666666667,4,2,1,80,0,0
108291,-66.6666666666667,4,2,1,5,0,0
108406,-66.6666666666667,4,2,1,80,0,0
109214,-66.6666666666667,4,2,1,5,0,0
109329,-66.6666666666667,4,2,1,80,0,0
109445,-66.6666666666667,4,2,1,5,0,0
109560,-66.6666666666667,4,2,1,80,0,0
109906,-66.6666666666667,4,2,1,20,0,0
110022,-66.6666666666667,4,2,1,80,0,0
111060,-66.6666666666667,4,2,1,5,0,0
111176,-66.6666666666667,4,2,1,80,0,0
111291,-66.6666666666667,4,2,1,5,0,0
111406,-66.6666666666667,4,2,1,80,0,0
112214,-66.6666666666667,4,2,1,5,0,0
112329,-66.6666666666667,4,2,1,80,0,0
112906,-66.6666666666667,4,2,1,5,0,0
113022,-66.6666666666667,4,2,1,80,0,0
113137,-66.6666666666667,4,2,1,5,0,0
113252,-66.6666666666667,4,2,1,80,0,0
115676,-66.6666666666667,4,2,1,5,0,0
115791,-66.6666666666667,4,2,1,80,0,0
116599,-66.6666666666667,4,2,1,5,0,0
116714,-66.6666666666667,4,2,1,80,0,0
116829,-66.6666666666667,4,2,1,5,0,0
116945,-66.6666666666667,4,2,1,80,0,0
117291,-66.6666666666667,4,2,1,20,0,0
117406,-66.6666666666667,4,2,1,80,0,0
118445,-66.6666666666667,4,2,1,5,0,0
118560,-66.6666666666667,4,2,1,80,0,0
118676,-66.6666666666667,4,2,1,5,0,0
118791,-66.6666666666667,4,2,1,80,0,0
120291,-66.6666666666667,4,2,1,5,0,0
120406,-66.6666666666667,4,2,1,80,0,0
120522,-66.6666666666667,4,2,1,5,0,0
120637,-66.6666666666667,4,2,1,80,0,0
121445,-66.6666666666667,4,2,1,5,0,0
121560,-66.6666666666667,4,2,1,80,0,0
122137,-66.6666666666667,4,2,1,5,0,0
122252,-66.6666666666667,4,2,1,80,0,0
122368,-66.6666666666667,4,2,1,5,0,0
122483,-66.6666666666667,4,2,1,80,0,0
123060,-66.6666666666667,4,2,1,5,0,0
123176,-66.6666666666667,4,2,1,80,0,0
123983,-66.6666666666667,4,2,1,5,0,0
124099,-66.6666666666667,4,2,1,80,0,0
124214,-66.6666666666667,4,2,1,5,0,0
124329,-66.6666666666667,4,2,1,80,0,0
124676,-66.6666666666667,4,2,1,20,0,0
124791,-66.6666666666667,4,2,1,80,0,0
125829,-66.6666666666667,4,2,1,5,0,0
125945,-66.6666666666667,4,2,1,80,0,0
126060,-66.6666666666667,4,2,1,5,0,0
126176,-66.6666666666667,4,2,1,80,0,0
126522,-66.6666666666667,4,2,1,5,0,0
126637,-66.6666666666667,4,2,1,80,0,0
126983,-66.6666666666667,4,2,1,5,0,0
127099,-66.6666666666667,4,2,1,80,0,0
127676,-66.6666666666667,4,2,1,5,0,0
127791,-66.6666666666667,4,2,1,80,0,0
127906,-66.6666666666667,4,2,1,5,0,0
128022,-66.6666666666667,4,2,1,80,0,0
131714,-66.6666666666667,4,2,1,50,0,0
131945,-80,4,2,1,70,0,0
146714,-80,4,2,1,50,0,0
149890,272.727272727273,4,2,1,50,1,0
157253,-200,4,2,1,50,0,0
157935,-200,4,2,1,30,0,0
158208,-100,4,2,1,50,0,0
158549,-100,4,2,1,5,0,0
158617,-133.333333333333,4,2,1,65,0,0
162980,-200,4,2,1,65,0,0
166730,-200,4,2,1,40,0,0
167071,-333.333333333333,4,2,1,65,0,0
167276,-333.333333333333,4,2,1,5,0,0
167344,-100,4,2,1,80,0,0
174980,-80,4,2,1,80,0,0
175185,-80,4,2,1,5,0,0
175253,-80,4,2,1,80,0,0
175458,-80,4,2,1,5,0,0
175526,-100,4,2,1,80,0,0
175730,-100,4,2,1,5,0,0
175799,-133.333333333333,4,2,1,80,0,0
176071,-100,4,2,1,80,0,0
184799,-100,4,2,1,50,0,0
188520,352.941176470588,4,2,1,50,1,0
194167,-133.333333333333,4,2,1,65,0,0
194872,-133.333333333333,4,2,1,50,0,0
194961,-133.333333333333,4,2,1,5,0,0
195049,-133.333333333333,4,2,1,50,0,0
195137,-133.333333333333,4,2,1,5,0,0
195225,-100,4,2,1,55,0,0
195314,-100,4,2,1,5,0,0
195402,-100,4,2,1,55,0,0
195490,-100,4,2,1,5,0,0
195578,-80,4,2,1,55,0,0
195667,-80,4,2,1,5,0,0
195755,-80,4,2,1,55,0,0
195843,-80,4,2,1,5,0,0
195931,-66.6666666666667,4,2,1,60,0,0
196020,-66.6666666666667,4,2,1,5,0,0
196108,-66.6666666666667,4,2,1,60,0,0
196196,-66.6666666666667,4,2,1,5,0,0
196284,-66.6666666666667,4,2,1,65,0,0
196372,-66.6666666666667,4,2,1,5,0,0
196461,-66.6666666666667,4,2,1,65,0,0
196549,-66.6666666666667,4,2,1,5,0,0
196637,-66.6666666666667,4,2,1,70,0,0
196725,-66.6666666666667,4,2,1,5,0,0
196814,-66.6666666666667,4,2,1,70,0,0
196990,-133.333333333333,4,2,1,70,0,0
199108,-200,4,2,1,60,0,0
199725,-200,4,2,1,5,0,0
199814,-80,4,2,1,80,0,0
200078,-80,4,2,1,5,0,0
200167,-80,4,2,1,80,0,0
202196,-80,4,2,1,5,0,0
202284,-80,4,2,1,80,0,0
202902,-80,4,2,1,5,0,0
202990,-80,4,2,1,80,0,0
205020,-80,4,2,1,5,0,0
205108,-133.333333333333,4,2,1,80,0,0
205372,-133.333333333333,4,2,1,5,0,0
205461,-79.9999999999999,4,2,1,80,0,0
205725,-80,4,2,1,5,0,0
205814,-80,4,2,1,80,0,0
207843,-80,4,2,1,5,0,0
207931,-80,4,2,1,80,0,0
208549,-80,4,2,1,5,0,0
208637,-80,4,2,1,80,0,0
208725,-80,4,2,1,5,0,0
208814,-80,4,2,1,80,0,0
209784,-80,4,2,1,5,0,0
209872,-80,4,2,1,80,0,0
210490,-80,4,2,1,5,0,0
210578,-80,4,2,1,80,0,0
211372,-80,4,2,1,5,0,0
211461,-80,4,2,1,80,0,0
213490,-80,4,2,1,5,0,0
213578,-80,4,2,1,80,0,0
214196,-80,4,2,1,5,0,0
214284,-80,4,2,1,80,0,0
216314,-80,4,2,1,5,0,0
216402,-80,4,2,1,80,0,0
219137,-80,4,2,1,5,0,0
219225,-80,4,2,1,80,0,0
219843,-80,4,2,1,5,0,0
219931,-80,4,2,1,80,0,0
224519,-80,4,2,1,60,0,0
224872,-80,4,2,1,70,0,0
225225,-80,4,2,1,50,0,0
228233,314.13612565445,4,2,1,50,1,0
233259,-133.333333333333,4,2,1,50,0,0
234515,-133.333333333333,4,2,1,60,0,0
237028,-133.333333333333,4,2,1,70,0,0
238599,-133.333333333333,4,2,1,50,0,0
238913,-133.333333333333,4,2,1,60,0,0
239227,-133.333333333333,4,2,1,70,0,0
239541,-333.333333333333,4,2,1,40,0,0
240798,-86.9565217391304,4,2,1,80,0,0
243547,-86.9565217391304,4,2,1,5,0,0
243625,-86.9565217391304,4,2,1,80,0,0
248573,-86.9565217391304,4,2,1,5,0,0
248651,-86.9565217391304,4,2,1,80,0,0
250850,-86.9565217391304,4,2,1,80,0,0
253599,-86.9565217391304,4,2,1,5,0,0
253678,-86.9565217391304,4,2,1,80,0,0
253913,-86.9565217391304,4,2,1,5,0,0
253992,-86.9565217391304,4,2,1,80,0,0
254227,-86.9565217391304,4,2,1,5,0,0
254306,-86.9565217391304,4,2,1,80,0,0
260353,-86.9565217391304,4,2,1,5,0,0
260431,-86.9565217391304,4,2,1,80,0,0
263651,-86.9565217391304,4,2,1,5,0,0
263730,-86.9565217391304,4,2,1,80,0,0
268678,-86.9565217391304,4,2,1,5,0,0
268756,-86.9565217391304,4,2,1,80,0,0
273704,-86.9565217391304,4,2,1,5,0,0
273782,-86.9565217391304,4,2,1,80,0,0
274018,-86.9565217391304,4,2,1,5,0,0
274096,-86.9565217391304,4,2,1,80,0,0
274332,-86.9565217391304,4,2,1,5,0,0
274411,-86.9565217391304,4,2,1,80,0,0
276217,-86.9565217391304,4,2,1,5,0,0
276295,-86.9565217391304,4,2,1,80,0,0
277473,-86.9565217391304,4,2,1,5,0,0
277552,-86.9565217391304,4,2,1,80,0,0
278494,-200,4,2,1,70,0,0
279751,-100,4,2,1,70,0,0
280693,-200,4,2,1,70,0,0
280929,-200,4,2,1,5,0,0
281007,-133.333333333333,4,2,1,70,0,0
284620,-133.333333333333,4,2,1,50,0,0
284777,-133.333333333333,4,2,1,50,0,0
284934,-133.333333333333,4,2,1,55,0,0
285091,-133.333333333333,4,2,1,60,0,0
285248,-133.333333333333,4,2,1,65,0,0
285405,-133.333333333333,4,2,1,70,0,0
286034,-111.111111111111,4,2,1,80,0,0
291060,-111.111111111111,4,2,1,50,0,0
294703,444.444444444444,4,2,1,50,1,0
298258,-100,4,2,1,30,0,0
299147,-100,4,2,1,50,0,0
299258,-100,4,2,1,5,0,0
299369,-100,4,2,1,50,0,0
300036,-111.111111111111,4,2,1,60,0,0
302925,-111.111111111111,4,2,1,40,0,0
303147,-111.111111111111,4,2,1,50,0,0
303369,-111.111111111111,4,2,1,65,0,0
303591,-111.111111111111,4,2,1,50,0,0
303814,-111.111111111111,4,2,1,70,0,0
304258,-111.111111111111,4,2,1,70,0,0
304703,-111.111111111111,4,2,1,65,0,0
305369,-80,4,2,1,65,0,0
306258,-80,4,2,1,65,0,0
306369,-80,4,2,1,5,0,0
306480,-80,4,2,1,40,0,0
306703,-80,4,2,1,55,0,0
306925,-80,4,2,1,65,0,0
307147,-50,4,2,1,70,0,0
308258,-50,4,2,1,50,0,0
308925,-62.5,4,2,1,80,0,0
315369,-62.5,4,2,1,5,0,0
315480,-62.5,4,2,1,80,0,0
315703,-62.5,4,2,1,5,0,0
315814,-62.5,4,2,1,80,0,0
322147,-62.5,4,2,1,50,0,0
322703,-62.5,4,2,1,70,0,0
323147,-62.5,4,2,1,80,0,0
328147,-62.5,4,2,1,5,0,0
328258,-62.5,4,2,1,80,0,0
329369,-62.5,4,2,1,50,0,0
329814,-62.5,4,2,1,75,0,0
330258,-62.5,4,2,1,80,0,0
336591,-62.5,4,2,1,5,0,0
336702,-62.5,4,2,1,50,0,0
337036,-62.5,4,2,1,70,0,0
337369,-62.5,4,2,1,65,0,0
338036,-100,4,2,1,70,0,0
339147,-76.9230769230769,4,2,1,70,0,0
339702,-76.9230769230769,4,2,1,5,0,0
339814,-76.9230769230769,4,2,1,70,0,0
340147,-76.9230769230769,4,2,1,5,0,0
340258,-76.9230769230769,4,2,1,70,0,0
341480,-76.9230769230769,4,2,1,5,0,0
341591,-76.9230769230769,4,2,1,70,0,0
341925,-76.9230769230769,4,2,1,5,0,0
342036,-76.9230769230769,4,2,1,70,0,0
343258,-76.9230769230769,4,2,1,5,0,0
343369,-76.9230769230769,4,2,1,70,0,0
343702,-76.9230769230769,4,2,1,5,0,0
343814,-76.9230769230769,4,2,1,70,0,0
345147,-62.5,4,2,1,70,0,0
345258,-62.5,4,2,1,5,0,0
345369,-62.5,4,2,1,70,0,0
345702,-62.5,4,2,1,5,0,0
345814,-62.5,4,2,1,70,0,0
345925,-62.5,4,2,1,5,0,0
346036,-62.5,4,2,1,70,0,0
346258,-62.5,4,2,1,50,0,0
349276,434.782608695652,4,2,1,50,1,0
352754,-80,4,2,1,30,0,0
352971,-80,4,2,1,5,0,0
353080,-133.333333333333,4,2,1,30,0,0
353623,-80,4,2,1,40,0,0
353841,-80,4,2,1,5,0,0
353949,-133.333333333333,4,2,1,50,0,0
354493,-66.6666666666667,4,2,1,65,0,0
354928,-80,4,2,1,60,0,0
355362,-100,4,2,1,55,0,0
355797,-133.333333333333,4,2,1,50,0,0
356232,-133.333333333333,4,2,1,40,0,0
359058,-133.333333333333,4,2,1,50,0,0
359276,-133.333333333333,4,2,1,65,0,0
359602,-133.333333333333,4,2,1,5,0,0
359710,-66.6666666666667,4,2,1,70,0,0
359819,-66.6666666666667,4,2,1,5,0,0
359928,-133.333333333333,4,2,1,70,0,0
360036,-133.333333333333,4,2,1,5,0,0
360145,-66.6666666666667,4,2,1,70,0,0
360254,-66.6666666666667,4,2,1,5,0,0
360362,-66.6666666666667,4,2,1,70,0,0
360580,-66.6666666666667,4,2,1,70,0,0
360689,-66.6666666666667,4,2,1,5,0,0
360797,-133.333333333333,4,2,1,70,0,0
360906,-133.333333333333,4,2,1,5,0,0
361015,-66.6666666666667,4,2,1,70,0,0
361449,-55.5555555555556,4,2,1,70,0,0
362319,-100,4,2,1,70,0,0
362428,-100,4,2,1,5,0,0
362536,-100,4,2,1,70,0,0
363189,-66.6666666666667,4,2,1,80,0,0
375471,-66.6666666666667,4,2,1,5,0,0
375580,-66.6666666666667,4,2,1,80,0,0
376123,-66.6666666666667,4,2,1,5,0,0
376232,-66.6666666666667,4,2,1,80,0,0
376341,-66.6666666666667,4,2,1,5,0,0
376449,-66.6666666666667,4,2,1,80,0,0
387428,-66.6666666666667,4,2,1,5,0,0
387536,-66.6666666666667,4,2,1,80,0,0
389384,-66.6666666666667,4,2,1,5,0,0
389493,-66.6666666666667,4,2,1,80,0,0
391015,-66.6666666666667,4,2,1,50,0,0
392754,-66.6666666666667,4,2,1,70,0,0
393515,-66.6666666666667,4,2,1,5,0,0
393623,-55.5555555555556,4,2,1,70,0,0
394276,-66.6666666666667,4,2,1,70,0,0
394384,-66.6666666666667,4,2,1,5,0,0
394493,-66.6666666666667,4,2,1,70,0,0
395254,-66.6666666666667,4,2,1,5,0,0
395362,-55.5555555555556,4,2,1,70,0,0
396015,-66.6666666666667,4,2,1,70,0,0
396123,-66.6666666666667,4,2,1,5,0,0
396232,-66.6666666666667,4,2,1,70,0,0
397102,-55.5555555555556,4,2,1,70,0,0
397754,-66.6666666666667,4,2,1,70,0,0
397862,-66.6666666666667,4,2,1,5,0,0
397971,-66.6666666666667,4,2,1,70,0,0
398841,-55.5555555555556,4,2,1,70,0,0
399710,-55.5555555555556,4,2,1,50,0,0
403777,431.654676258993,4,2,1,50,1,0
408956,-100,4,2,1,60,0,0
409280,-100,4,2,1,5,0,0
409388,-100,4,2,1,60,0,0
412410,-66.6666666666667,4,2,1,70,0,0
412464,-66.6666666666667,4,2,1,5,0,0
413273,-66.6666666666667,4,2,1,70,0,0
413327,-66.6666666666667,4,2,1,5,0,0
413705,-66.6666666666667,4,2,1,70,0,0
414190,-66.6666666666667,4,2,1,5,0,0
415215,-100,4,2,1,70,0,0
415539,-100,4,2,1,5,0,0
415647,-100,4,2,1,70,0,0
415863,-80,4,2,1,80,0,0
416187,-80,4,2,1,5,0,0
416294,-80,4,2,1,80,0,0
423093,-80,4,2,1,5,0,0
423201,-80,4,2,1,80,0,0
430000,-80,4,2,1,5,0,0
430107,-80,4,2,1,80,0,0
436906,-80,4,2,1,5,0,0
437014,-80,4,2,1,80,0,0
443165,-80,4,2,1,5,0,0
443273,-80,4,2,1,80,0,0
443705,-80,4,2,1,50,0,0
445107,-80,4,2,1,5,0,0
445215,-80,4,2,1,50,0,0
448511,508.474576271186,4,2,1,50,1,0
452578,-80,4,2,1,30,0,0
453341,-100,4,2,1,40,0,0
453849,-100,4,2,1,50,0,0
454612,-100,4,2,1,60,0,0
456646,-80,4,2,1,60,0,0
457027,-80,4,2,1,5,0,0
457155,-133.333333333333,4,2,1,60,0,0
457536,-133.333333333333,4,2,1,5,0,0
457663,-76.9230769230769,4,2,1,60,0,0
457917,-76.9230769230769,4,2,1,5,0,0
458044,-76.9230769230769,4,2,1,60,0,0
458299,-76.9230769230769,4,2,1,5,0,0
458426,-76.9230769230769,4,2,1,60,0,0
458553,-76.9230769230769,4,2,1,5,0,0
458680,-133.333333333333,4,2,1,60,0,0
462748,-133.333333333333,4,2,1,60,0,0
463765,-100,4,2,1,60,0,0
464782,-80,4,2,1,70,0,0
465290,-80,4,2,1,5,0,0
465544,-133.333333333333,4,2,1,70,0,0
466816,-71.4285714285714,4,2,1,80,0,0
467324,-100,4,2,1,80,0,0
467451,-100,4,2,1,5,0,0
467578,-71.4285714285714,4,2,1,80,0,0
468468,-71.4285714285714,4,2,1,5,0,0
468595,-71.4285714285714,4,2,1,80,0,0
469358,-100,4,2,1,80,0,0
469485,-100,4,2,1,5,0,0
469612,-71.4285714285714,4,2,1,80,0,0
470502,-71.4285714285714,4,2,1,5,0,0
470629,-71.4285714285714,4,2,1,80,0,0
471265,-71.4285714285714,4,2,1,5,0,0
471392,-100,4,2,1,80,0,0
471900,-41.6666666666667,4,2,1,80,0,0
472155,-41.6666666666667,4,2,1,5,0,0
472282,-41.6666666666667,4,2,1,80,0,0
472536,-41.6666666666667,4,2,1,5,0,0
472663,-71.4285714285714,4,2,1,80,0,0
474316,-71.4285714285714,4,2,1,50,0,0
474379,-71.4285714285714,4,2,1,60,0,0
474443,-71.4285714285714,4,2,1,80,0,0
475333,-71.4285714285714,4,2,1,5,0,0
475460,-71.4285714285714,4,2,1,80,0,0
475587,-71.4285714285714,4,2,1,5,0,0
475714,-71.4285714285714,4,2,1,80,0,0
477366,-71.4285714285714,4,2,1,5,0,0
477494,-100,4,2,1,80,0,0
478002,-41.6666666666667,4,2,1,80,0,0
478256,-41.6666666666667,4,2,1,5,0,0
478383,-100,4,2,1,80,0,0
478638,-100,4,2,1,5,0,0
478765,-71.4285714285714,4,2,1,80,0,0
479655,-71.4285714285714,4,2,1,5,0,0
479782,-71.4285714285714,4,2,1,80,0,0
480672,-71.4285714285714,4,2,1,5,0,0
480799,-71.4285714285714,4,2,1,80,0,0
481053,-55.5555555555556,4,2,1,80,0,0
483087,-71.4285714285714,4,2,1,80,0,0
483595,-100,4,2,1,80,0,0
483722,-100,4,2,1,5,0,0
483849,-100,4,2,1,80,0,0
483977,-71.4285714285714,4,2,1,80,0,0
484739,-71.4285714285714,4,2,1,5,0,0
484866,-71.4285714285714,4,2,1,80,0,0
485629,-100,4,2,1,80,0,0
485756,-100,4,2,1,5,0,0
485883,-71.4285714285714,4,2,1,80,0,0
486773,-71.4285714285714,4,2,1,5,0,0
486900,-71.4285714285714,4,2,1,80,0,0
487536,-71.4285714285714,4,2,1,5,0,0
487663,-55.5555555555556,4,2,1,80,0,0
488172,-35.7142857142857,4,2,1,80,0,0
488426,-35.7142857142857,4,2,1,5,0,0
488553,-35.7142857142857,4,2,1,80,0,0
488807,-35.7142857142857,4,2,1,5,0,0
488934,-55.5555555555556,4,2,1,80,0,0
489697,-71.4285714285714,4,2,1,80,0,0
491604,-71.4285714285714,4,2,1,5,0,0
491731,-71.4285714285714,4,2,1,80,0,0
491858,-71.4285714285714,4,2,1,5,0,0
491985,-71.4285714285714,4,2,1,80,0,0
493638,-71.4285714285714,4,2,1,5,0,0
493765,-100,4,2,1,80,0,0
494273,-41.6666666666667,4,2,1,80,0,0
494527,-41.6666666666667,4,2,1,5,0,0
494655,-100,4,2,1,80,0,0
494909,-100,4,2,1,5,0,0
495036,-71.4285714285714,4,2,1,80,0,0
496943,-71.4285714285714,4,2,1,5,0,0
497070,-71.4285714285714,4,2,1,80,0,0
497324,-55.5555555555556,4,2,1,80,0,0
499358,-55.5555555555556,4,2,1,50,0,0
502346,428.571428571429,4,2,1,50,1,0
509203,-100,4,2,1,60,0,0
516060,-83.3333333333333,4,2,1,60,0,0
516381,-83.3333333333333,4,2,1,5,0,0
516488,-100,4,2,1,60,0,0
520988,-80,4,2,1,70,0,0
522917,-74.0740740740741,4,2,1,80,0,0
523238,-74.0740740740741,4,2,1,5,0,0
523346,-74.0740740740741,4,2,1,80,0,0
523453,-74.0740740740741,4,2,1,5,0,0
523560,-74.0740740740741,4,2,1,80,0,0
524524,-74.0740740740741,4,2,1,5,0,0
524631,-74.0740740740741,4,2,1,80,0,0
526881,-74.0740740740741,4,2,1,5,0,0
526988,-74.0740740740741,4,2,1,80,0,0
527953,-74.0740740740741,4,2,1,5,0,0
528060,-74.0740740740741,4,2,1,80,0,0
530524,-74.0740740740741,4,2,1,5,0,0
530631,-74.0740740740741,4,2,1,80,0,0
531381,-74.0740740740741,4,2,1,5,0,0
531488,-74.0740740740741,4,2,1,80,0,0
535453,-74.0740740740741,4,2,1,5,0,0
535560,-74.0740740740741,4,2,1,80,0,0
536310,-74.0740740740741,4,2,1,5,0,0
536417,-74.0740740740741,4,2,1,80,0,0
536953,-74.0740740740741,4,2,1,5,0,0
537060,-74.0740740740741,4,2,1,80,0,0
537167,-74.0740740740741,4,2,1,5,0,0
537274,-74.0740740740741,4,2,1,80,0,0
538238,-74.0740740740741,4,2,1,5,0,0
538346,-74.0740740740741,4,2,1,80,0,0
540596,-74.0740740740741,4,2,1,5,0,0
540703,-74.0740740740741,4,2,1,80,0,0
541667,-74.0740740740741,4,2,1,5,0,0
541774,-74.0740740740741,4,2,1,80,0,0
544238,-74.0740740740741,4,2,1,5,0,0
544346,-74.0740740740741,4,2,1,80,0,0
545096,-74.0740740740741,4,2,1,5,0,0
545203,-74.0740740740741,4,2,1,80,0,0
549167,-74.0740740740741,4,2,1,5,0,0
549274,-74.0740740740741,4,2,1,80,0,0
550346,-100,4,2,1,70,0,0
552488,-133.333333333333,4,2,1,60,0,0
552810,-133.333333333333,4,2,1,5,0,0
552917,-133.333333333333,4,2,1,60,0,0
553346,-333.333333333333,4,2,1,40,0,0
553667,-333.333333333333,4,2,1,5,0,0
553774,-333.333333333333,4,2,1,50,0,0
559246,491.803278688525,4,2,1,50,1,0
563180,-80,4,2,1,60,0,0
574860,-80,4,2,1,5,0,0
574983,-80,4,2,1,50,0,0
576950,-50,4,2,1,70,0,0
577012,-50,4,2,1,5,0,0
577196,-50,4,2,1,70,0,0
577258,-50,4,2,1,5,0,0
577442,-50,4,2,1,70,0,0
577504,-50,4,2,1,5,0,0
578918,-66.6666666666667,4,2,1,80,0,0
583836,-50,4,2,1,80,0,0
584819,-66.6666666666667,4,2,1,80,0,0
586295,-66.6666666666667,4,2,1,80,0,0
586786,-66.6666666666667,4,2,1,80,0,0
591705,-50,4,2,1,80,0,0
592688,-66.6666666666667,4,2,1,80,0,0
599573,-50,4,2,1,80,0,0
600311,-66.6666666666667,4,2,1,80,0,0
606459,-133.333333333333,4,2,1,50,0,0
606582,-133.333333333333,4,2,1,5,0,0
606705,-133.333333333333,4,2,1,50,0,0
606827,-133.333333333333,4,2,1,5,0,0
606950,-100,4,2,1,60,0,0
607073,-100,4,2,1,5,0,0
607196,-100,4,2,1,60,0,0
607319,-100,4,2,1,5,0,0
607442,-66.6666666666667,4,2,1,70,0,0
607565,-66.6666666666667,4,2,1,5,0,0
607688,-66.6666666666667,4,2,1,70,0,0
607811,-66.6666666666667,4,2,1,5,0,0
607934,-50,4,2,1,80,0,0
608057,-50,4,2,1,5,0,0
608180,-50,4,2,1,80,0,0
608303,-50,4,2,1,5,0,0
608426,-200,4,2,1,30,0,0
610393,-80,4,2,1,70,0,0
610762,-80,4,2,1,5,0,0
610885,-80,4,2,1,70,0,0
612729,-80,4,2,1,5,0,0
612852,-80,4,2,1,70,0,0
617401,-80,4,2,1,5,0,0
617524,-80,4,2,1,70,0,0
618139,-80,4,2,1,5,0,0
618262,-80,4,2,1,50,0,0
621850,337.078651685393,4,2,1,50,1,0
627243,-80,4,2,1,70,0,0
632552,-80,4,2,1,5,0,0
632636,-100,4,2,1,70,0,0
635333,-100,4,2,1,50,0,0
636007,-100,4,2,1,60,0,0
636344,-100,4,2,1,70,0,0
636681,-100,4,2,1,70,0,0
638029,-80,4,2,1,80,0,0
638282,-80,4,2,1,5,0,0
638366,-133.333333333333,4,2,1,80,0,0
638451,-133.333333333333,4,2,1,5,0,0
638535,-133.333333333333,4,2,1,80,0,0
638703,-80,4,2,1,80,0,0
638956,-80,4,2,1,5,0,0
639041,-133.333333333333,4,2,1,80,0,0
639125,-133.333333333333,4,2,1,5,0,0
639209,-133.333333333333,4,2,1,80,0,0
639378,-80,4,2,1,80,0,0
639630,-80,4,2,1,5,0,0
639715,-80,4,2,1,80,0,0
640220,-66.6666666666667,4,2,1,80,0,0
640305,-66.6666666666667,4,2,1,5,0,0
640389,-66.6666666666667,4,2,1,80,0,0
640473,-66.6666666666667,4,2,1,5,0,0
640557,-80,4,2,1,80,0,0
640979,-80,4,2,1,5,0,0
641063,-133.333333333333,4,2,1,80,0,0
641147,-133.333333333333,4,2,1,5,0,0
641232,-133.333333333333,4,2,1,80,0,0
641400,-80,4,2,1,80,0,0
641653,-80,4,2,1,5,0,0
641737,-133.333333333333,4,2,1,80,0,0
641821,-133.333333333333,4,2,1,5,0,0
641906,-133.333333333333,4,2,1,80,0,0
642074,-80,4,2,1,80,0,0
642917,-66.6666666666667,4,2,1,80,0,0
643001,-66.6666666666667,4,2,1,5,0,0
643085,-66.6666666666667,4,2,1,80,0,0
643170,-66.6666666666667,4,2,1,5,0,0
643254,-80,4,2,1,80,0,0
643675,-80,4,2,1,5,0,0
643760,-133.333333333333,4,2,1,80,0,0
643844,-133.333333333333,4,2,1,5,0,0
643928,-133.333333333333,4,2,1,80,0,0
644097,-80,4,2,1,80,0,0
644350,-80,4,2,1,5,0,0
644434,-133.333333333333,4,2,1,80,0,0
644518,-133.333333333333,4,2,1,5,0,0
644602,-133.333333333333,4,2,1,80,0,0
644771,-80,4,2,1,80,0,0
648310,-66.6666666666667,4,2,1,80,0,0
648394,-66.6666666666667,4,2,1,5,0,0
648479,-66.6666666666667,4,2,1,80,0,0
648563,-66.6666666666667,4,2,1,5,0,0
648647,-66.6666666666667,4,2,1,80,0,0
648816,-80,4,2,1,80,0,0
649069,-80,4,2,1,5,0,0
649153,-133.333333333333,4,2,1,80,0,0
649237,-133.333333333333,4,2,1,5,0,0
649321,-133.333333333333,4,2,1,80,0,0
649490,-80,4,2,1,80,0,0
649743,-80,4,2,1,5,0,0
649827,-133.333333333333,4,2,1,80,0,0
649911,-133.333333333333,4,2,1,5,0,0
649996,-133.333333333333,4,2,1,80,0,0
650164,-80,4,2,1,80,0,0
650417,-80,4,2,1,5,0,0
650501,-80,4,2,1,80,0,0
651007,-66.6666666666667,4,2,1,80,0,0
651091,-66.6666666666667,4,2,1,5,0,0
651175,-66.6666666666667,4,2,1,80,0,0
651260,-66.6666666666667,4,2,1,5,0,0
651344,-66.6666666666667,4,2,1,80,0,0
651512,-80,4,2,1,80,0,0
651765,-80,4,2,1,5,0,0
651850,-133.333333333333,4,2,1,80,0,0
651934,-133.333333333333,4,2,1,5,0,0
652018,-133.333333333333,4,2,1,80,0,0
652187,-80,4,2,1,80,0,0
652439,-80,4,2,1,5,0,0
652524,-133.333333333333,4,2,1,80,0,0
652608,-133.333333333333,4,2,1,5,0,0
652692,-133.333333333333,4,2,1,80,0,0
652861,-80,4,2,1,80,0,0
656906,-66.6666666666667,4,2,1,80,0,0
657158,-66.6666666666667,4,2,1,5,0,0
657243,-133.333333333333,4,2,1,80,0,0
657496,-133.333333333333,4,2,1,5,0,0
657580,-66.6666666666667,4,2,1,80,0,0
657833,-66.6666666666667,4,2,1,5,0,0
657917,-66.6666666666667,4,2,1,80,0,0
658001,-66.6666666666667,4,2,1,5,0,0
658085,-66.6666666666667,4,2,1,80,0,0
658338,-66.6666666666667,4,2,1,5,0,0
658423,-133.333333333333,4,2,1,80,0,0
658675,-133.333333333333,4,2,1,5,0,0
658760,-66.6666666666667,4,2,1,80,0,0
658844,-66.6666666666667,4,2,1,5,0,0
658928,-66.6666666666667,4,2,1,80,0,0
659181,-66.6666666666667,4,2,1,5,0,0
659265,-66.6666666666667,4,2,69,80,0,0
659602,-100,4,2,1,70,0,0
664490,-66.6666666666667,4,2,1,70,0,0
664574,-66.6666666666667,4,2,1,5,0,0
664658,-66.6666666666667,4,2,1,70,0,0
664743,-66.6666666666667,4,2,1,5,0,0
664827,-100,4,2,1,70,0,0
664996,-100,4,2,1,70,0,0
669630,-100,4,2,1,5,0,0
669715,-100,4,2,1,70,0,0
669883,-66.6666666666667,4,2,1,70,0,0
669967,-66.6666666666667,4,2,1,5,0,0
670052,-66.6666666666667,4,2,1,70,0,0
670136,-66.6666666666667,4,2,1,5,0,0
670389,-100,4,2,1,55,0,0
674571,304.568527918782,4,2,1,50,1,0
683098,-100,4,2,1,70,0,0
683327,-100,4,2,1,5,0,0
683403,-100,4,2,1,70,0,0
684545,-100,4,2,1,5,0,0
684621,-100,4,2,1,70,0,0
685535,-133.333333333333,4,2,1,65,0,0
687972,-100,4,2,1,70,0,0
688200,-100,4,2,1,5,0,0
688276,-100,4,2,1,70,0,0
689418,-100,4,2,1,5,0,0
689494,-100,4,2,1,70,0,0
690408,-133.333333333333,4,2,1,60,0,0
692312,-133.333333333333,4,2,1,5,0,0
692388,-133.333333333333,4,2,1,60,0,0
692845,-100,4,2,1,70,0,0
693073,-100,4,2,1,5,0,0
693149,-100,4,2,1,70,0,0
694291,-100,4,2,1,5,0,0
694367,-100,4,2,1,70,0,0
697718,-86.9565217391304,4,2,1,80,0,0
697946,-86.9565217391304,4,2,1,5,0,0
698022,-86.9565217391304,4,2,1,80,0,0
702819,-86.9565217391304,4,2,1,5,0,0
702895,-86.9565217391304,4,2,1,80,0,0
705027,-100,4,2,1,80,0,0
707464,-86.9565217391304,4,2,1,80,0,0
707692,-86.9565217391304,4,2,1,5,0,0
707768,-86.9565217391304,4,2,1,80,0,0
712565,-86.9565217391304,4,2,1,5,0,0
712642,-86.9565217391304,4,2,1,80,0,0
715002,-86.9565217391304,4,2,1,5,0,0
715078,-86.9565217391304,4,2,1,80,0,0
717439,-86.9565217391304,4,2,1,5,0,0
717515,-86.9565217391304,4,2,1,80,0,0
719875,-86.9565217391304,4,2,1,5,0,0
719951,-86.9565217391304,4,2,1,80,0,0
721093,-86.9565217391304,4,2,1,5,0,0
721169,-133.333333333333,4,2,1,65,0,0
722083,-133.333333333333,4,2,1,80,0,0
723225,-133.333333333333,4,2,1,5,0,0
723301,-133.333333333333,4,2,1,80,0,0
723606,-100,4,2,1,80,0,0
723834,-100,4,2,1,5,0,0
723911,-100,4,2,1,80,0,0
724520,-100,4,2,1,50,0,0
728664,444.77390659748,4,2,1,60,1,0
732222,-133.333333333333,4,2,1,60,0,0
739783,-100,4,2,1,60,0,0
742896,-100,4,2,1,70,0,0
745343,-133.333333333333,4,2,1,60,0,0
745565,-133.333333333333,4,2,1,5,0,0
746432,446.927374301676,4,2,1,60,1,0
746432,-66.6666666666667,4,2,1,80,0,0
748554,-66.6666666666667,4,2,1,5,0,0
748666,-66.6666666666667,4,2,1,80,0,0
753135,434.782608695652,4,2,1,80,1,0
753569,445.269016697588,4,2,1,80,1,0
753569,-66.6666666666667,4,2,1,80,0,0
758689,417.101147028154,4,2,1,80,1,0
758689,-66.6666666666667,4,2,1,80,0,0
759107,445.103857566766,4,2,1,80,1,0
759107,-66.6666666666667,4,2,1,80,0,0
759329,445.103857566766,4,2,1,80,1,0
759329,-66.6666666666667,4,2,1,80,0,0
760110,-66.6666666666667,4,2,1,5,0,0
760221,-66.6666666666667,4,2,1,80,0,0
760332,-66.6666666666667,4,2,1,5,0,0
760443,-66.6666666666667,4,2,1,80,0,0
760664,445.103857566766,4,2,1,80,1,0
760664,-66.6666666666667,4,2,1,80,0,0
767785,442.804428044281,4,2,1,80,1,0
767785,-66.6666666666667,4,2,1,80,0,0
770552,-66.6666666666667,4,2,1,5,0,0
770663,-66.6666666666667,4,2,1,80,0,0
770773,-66.6666666666667,4,2,1,5,0,0
770884,-66.6666666666667,4,2,1,80,0,0
771327,-66.6666666666667,4,2,1,50,0,0
774351,444.444444444444,4,2,1,50,1,0
779239,-66.6666666666667,4,2,1,50,0,0
779351,-66.6666666666667,4,2,1,5,0,0
779462,-66.6666666666667,4,2,1,50,0,0
779684,-100,4,2,1,55,0,0
780017,-100,4,2,1,5,0,0
780128,-100,4,2,1,55,0,0
780573,-100,4,2,1,60,0,0
781462,-66.6666666666667,4,2,1,60,0,0
781795,-100,4,2,1,60,0,0
782128,-66.6666666666667,4,2,1,60,0,0
782462,-100,4,2,1,60,0,0
782795,-66.6666666666667,4,2,1,60,0,0
783128,-100,4,2,1,60,0,0
783462,-66.6666666666667,4,2,1,60,0,0
783795,-100,4,2,1,60,0,0
784351,-100,4,2,1,60,0,0
784573,-66.6666666666667,4,2,1,60,0,0
784795,-66.6666666666667,4,2,1,60,0,0
785017,-66.6666666666667,4,2,1,60,0,0
785351,-100,4,2,1,60,0,0
785684,-66.6666666666667,4,2,1,60,0,0
786017,-100,4,2,1,60,0,0
786351,-66.6666666666667,4,2,1,60,0,0
786684,-100,4,2,1,60,0,0
787017,-66.6666666666667,4,2,1,60,0,0
787351,-100,4,2,1,60,0,0
787684,-66.6666666666667,4,2,1,60,0,0
788017,-100,4,2,1,60,0,0
790351,-80,4,2,1,60,0,0
792128,-80,4,2,1,70,0,0
792906,-80,4,2,1,5,0,0
793017,-80,4,2,1,70,0,0
793128,-80,4,2,1,5,0,0
793239,-80,4,2,1,70,0,0
793684,-133.333333333333,4,2,1,70,0,0
793795,-80,4,2,1,5,0,0
793906,-50,4,2,1,70,0,0
795684,-55.5555555555556,4,2,1,80,0,0
796017,-66.6666666666667,4,2,1,80,0,0
796351,-55.5555555555556,4,2,1,80,0,0
797017,-66.6666666666667,4,2,1,80,0,0
797462,-66.6666666666667,4,2,1,80,0,0
808017,-66.6666666666667,4,2,1,5,0,0
808128,-55.5555555555556,4,2,1,80,0,0
808239,-55.5555555555556,4,2,1,5,0,0
808351,-55.5555555555556,4,2,1,80,0,0
808795,-55.5555555555556,4,2,1,5,0,0
808906,-55.5555555555556,4,2,1,80,0,0
810239,-66.6666666666667,4,2,1,80,0,0
810573,-55.5555555555556,4,2,1,80,0,0
811239,-66.6666666666667,4,2,1,80,0,0
811684,-66.6666666666667,4,2,1,80,0,0
820795,-66.6666666666667,4,2,1,50,0,0
821017,-66.6666666666667,4,2,1,60,0,0
821462,-66.6666666666667,4,2,1,70,0,0
821906,-66.6666666666667,4,2,1,80,0,0
822351,-66.6666666666667,4,2,1,50,0,0
823906,-66.6666666666667,4,2,1,60,0,0
824128,-80,4,2,1,70,0,0
835795,-80,4,2,1,5,0,0
835906,-80,4,2,1,50,0,0
836128,-80,4,2,1,70,0,0
836573,-50,4,2,1,70,0,0
836739,-50,4,2,1,5,0,0
836906,-50,4,2,1,70,0,0
836962,-50,4,2,1,5,0,0
837128,-50,4,2,1,70,0,0
837184,-50,4,2,1,5,0,0
837350,-50,4,2,1,70,0,0
837406,-50,4,2,1,5,0,0
837573,-50,4,2,1,70,0,0
837739,-50,4,2,1,5,0,0
837906,-50,4,2,1,70,0,0
837962,-50,4,2,1,5,0,0
838128,-100,4,2,1,70,0,0
838239,-100,4,2,1,5,0,0
838350,-100,4,2,1,50,0,0
841365,352.941176470588,4,2,1,50,1,0
847012,-133.333333333333,4,2,1,60,0,0
852659,-133.333333333333,4,2,1,50,0,0
857600,-100,4,2,1,60,0,0
858217,-100,4,2,1,5,0,0
858306,-200,4,2,1,50,0,0
858570,-200,4,2,1,5,0,0
858659,-200,4,2,1,50,0,0
858923,-200,4,2,1,5,0,0
859012,-133.333333333333,4,2,1,55,0,0
859276,-133.333333333333,4,2,1,5,0,0
859365,-133.333333333333,4,2,1,55,0,0
859629,-133.333333333333,4,2,1,5,0,0
859717,-100,4,2,1,60,0,0
859982,-100,4,2,1,5,0,0
860070,-100,4,2,1,60,0,0
860335,-100,4,2,1,5,0,0
860423,-80,4,2,1,65,0,0
860688,-80,4,2,1,5,0,0
860776,-80,4,2,1,65,0,0
860865,-80,4,2,1,5,0,0
860953,-80,4,2,1,65,0,0
861129,-80,4,2,1,70,0,0
861659,-133.333333333333,4,2,1,70,0,0
863953,-333.333333333333,4,2,1,70,0,0
866247,-200,4,2,1,70,0,0
866688,-200,4,2,1,5,0,0
866776,-80,4,2,1,80,0,0
867041,-80,4,2,1,5,0,0
867129,-80,4,2,1,80,0,0
867747,-80,4,2,1,5,0,0
867835,-80,4,2,1,80,0,0
872688,-80,4,2,1,5,0,0
872776,-80,4,2,1,80,0,0
873394,-80,4,2,1,5,0,0
873482,-80,4,2,1,80,0,0
885129,-200,4,2,1,80,0,0
885394,-200,4,2,1,5,0,0
885482,-80,4,2,1,80,0,0
889012,-200,4,2,1,80,0,0
889276,-200,4,2,1,5,0,0
889365,-80,4,2,1,80,0,0
889629,-80,4,2,1,5,0,0
889717,-80,4,2,1,80,0,0
890335,-80,4,2,1,5,0,0
890423,-80,4,2,1,80,0,0
895276,-80,4,2,1,5,0,0
895365,-80,4,2,1,80,0,0
895982,-80,4,2,1,5,0,0
896070,-80,4,2,1,80,0,0
909394,-80,4,2,1,5,0,0
909482,-80,4,2,1,80,0,0
911600,-133.333333333333,4,2,1,80,0,0
911865,-133.333333333333,4,2,1,5,0,0
911953,-133.333333333333,4,2,1,50,0,0
915000,468.75,4,2,1,50,1,0
920625,-100,4,2,1,60,0,0
928125,-66.6666666666667,4,2,1,60,0,0
928183,-66.6666666666667,4,2,1,5,0,0
928593,-133.333333333333,4,2,1,60,0,0
929648,-133.333333333333,4,2,1,5,0,0
929765,-133.333333333333,4,2,1,60,0,0
929882,-133.333333333333,4,2,1,5,0,0
930000,-50,4,2,1,70,0,0
930117,-50,4,2,1,5,0,0
930234,-100,4,2,1,70,0,0
930703,-50,4,2,1,70,0,0
930820,-50,4,2,1,5,0,0
930937,-100,4,2,1,70,0,0
931054,-100,4,2,1,5,0,0
931171,-100,4,2,1,70,0,0
931757,-100,4,2,1,5,0,0
931875,-50,4,2,1,70,0,0
931992,-50,4,2,1,5,0,0
932109,-50,4,2,1,70,0,0
932226,-100,4,2,1,75,0,0
932578,-50,4,2,1,70,0,0
932695,-50,4,2,1,5,0,0
932812,-100,4,2,1,70,0,0
932929,-100,4,2,1,5,0,0
933046,-100,4,2,1,70,0,0
933398,-100,4,2,1,5,0,0
933515,-100,4,2,1,70,0,0
933632,-100,4,2,1,5,0,0
933750,-100,4,2,1,70,0,0
933984,-50,4,2,1,70,0,0
934453,-50,4,2,1,70,0,0
934570,-50,4,2,1,5,0,0
934687,-50,4,2,1,70,0,0
934804,-50,4,2,1,5,0,0
934921,-100,4,2,1,70,0,0
935273,-100,4,2,1,5,0,0
935390,-100,4,2,1,70,0,0
935507,-100,4,2,1,5,0,0
935625,-100,4,2,1,70,0,0
936210,-100,4,2,1,5,0,0
936328,-100,4,2,1,70,0,0
936445,-100,4,2,1,5,0,0
936562,-50,4,2,1,70,0,0
936679,-50,4,2,1,5,0,0
936796,-50,4,2,1,70,0,0
936914,-50,4,2,1,5,0,0
937031,-50,4,2,1,70,0,0
937148,-50,4,2,1,5,0,0
937265,-50,4,2,1,70,0,0
937382,-50,4,2,1,5,0,0
937500,-50,4,2,1,70,0,0
937617,-50,4,2,1,5,0,0
937734,-50,4,2,1,70,0,0
937851,-100,4,2,1,70,0,0
938203,-50,4,2,1,70,0,0
938320,-50,4,2,1,5,0,0
938437,-100,4,2,1,70,0,0
938554,-100,4,2,1,5,0,0
938671,-100,4,2,1,70,0,0
939023,-100,4,2,1,5,0,0
939140,-100,4,2,1,70,0,0
939257,-100,4,2,1,5,0,0
939375,-50,4,2,1,70,0,0
939492,-50,4,2,1,5,0,0
939609,-50,4,2,1,70,0,0
939726,-100,4,2,1,70,0,0
940078,-50,4,2,1,70,0,0
940195,-50,4,2,1,5,0,0
940312,-100,4,2,1,70,0,0
940429,-100,4,2,1,5,0,0
940546,-100,4,2,1,70,0,0
940898,-100,4,2,1,5,0,0
941015,-100,4,2,1,70,0,0
941132,-100,4,2,1,5,0,0
941250,-100,4,2,1,70,0,0
941484,-50,4,2,1,70,0,0
941953,-50,4,2,1,70,0,0
942070,-50,4,2,1,5,0,0
942187,-50,4,2,1,70,0,0
942304,-50,4,2,1,5,0,0
942421,-50,4,2,1,70,0,0
942656,-100,4,2,1,75,0,0
942773,-100,4,2,1,5,0,0
942890,-100,4,2,1,70,0,0
943007,-100,4,2,1,5,0,0
943125,-100,4,2,1,70,0,0
943710,-100,4,2,1,5,0,0
943828,-100,4,2,1,70,0,0
943945,-100,4,2,1,5,0,0
944062,-100,4,2,1,70,0,0
945000,-133.333333333333,4,2,1,60,0,0
948750,-133.333333333333,4,2,1,35,0,0
949687,-133.333333333333,4,2,1,50,0,0
950625,-200,4,2,1,60,0,0
951679,-200,4,2,1,5,0,0
951796,-133.333333333333,4,2,1,60,0,0
951914,-133.333333333333,4,2,1,5,0,0
952031,-100,4,2,1,70,0,0
952148,-100,4,2,1,5,0,0
952265,-80,4,2,1,70,0,0
952382,-80,4,2,1,5,0,0
952500,-50,4,2,1,80,0,0
952734,-66.6666666666667,4,2,1,80,0,0
953906,-50,4,2,1,80,0,0
954140,-100,4,2,1,80,0,0
954375,-50,4,2,1,80,0,0
954609,-66.6666666666667,4,2,1,80,0,0
955546,-50,4,2,1,80,0,0
955781,-100,4,2,1,80,0,0
956250,-66.6666666666667,4,2,1,80,0,0
957421,-50,4,2,1,80,0,0
957656,-100,4,2,1,80,0,0
958125,-66.6666666666667,4,2,1,80,0,0
958828,-50,4,2,1,80,0,0
959296,-66.6666666666667,4,2,1,80,0,0
960234,-100,4,2,1,80,0,0
960468,-50,4,2,1,80,0,0
960937,-100,4,2,1,80,0,0
961875,-50,4,2,1,80,0,0
962343,-100,4,2,1,80,0,0
962812,-50,4,2,1,80,0,0
963046,-66.6666666666667,4,2,1,80,0,0
964218,-50,4,2,1,80,0,0
964453,-100,4,2,1,80,0,0
964687,-66.6666666666667,4,2,1,80,0,0
965625,-100,4,2,1,80,0,0
965859,-50,4,2,1,80,0,0
966328,-66.6666666666667,4,2,1,80,0,0
966796,-100,4,2,1,80,0,0
967500,-50,4,2,1,80,0,0
967734,-66.6666666666667,4,2,1,80,0,0
968906,-50,4,2,1,80,0,0
969140,-100,4,2,1,80,0,0
969375,-50,4,2,1,80,0,0
969609,-66.6666666666667,4,2,1,80,0,0
970546,-50,4,2,1,80,0,0
970781,-100,4,2,1,80,0,0
971250,-66.6666666666667,4,2,1,80,0,0
972421,-50,4,2,1,80,0,0
972656,-100,4,2,1,80,0,0
973125,-66.6666666666667,4,2,1,80,0,0
973828,-50,4,2,1,80,0,0
974296,-66.6666666666667,4,2,1,80,0,0
975000,-100,4,2,1,80,0,0
975468,-50,4,2,1,80,0,0
975937,-100,4,2,1,80,0,0
976875,-50,4,2,1,80,0,0
977343,-100,4,2,1,80,0,0
977812,-50,4,2,1,80,0,0
978046,-66.6666666666667,4,2,1,80,0,0
979218,-50,4,2,1,80,0,0
979453,-100,4,2,1,80,0,0
979687,-66.6666666666667,4,2,1,80,0,0
980625,-100,4,2,1,80,0,0
980976,-50,4,2,1,80,0,0
981328,-66.6666666666667,4,2,1,80,0,0
981796,-100,4,2,1,80,0,0
982500,-100,4,2,1,60,0,0
985195,-100,4,2,1,5,0,0
985312,-100,4,2,1,60,0,0
985664,-100,4,2,1,5,0,0
985781,-100,4,2,1,60,0,0
986250,-100,4,2,1,50,0,0
989940,315.789473684211,4,2,1,50,1,0
994992,-133.333333333333,4,2,1,60,0,0
1005097,-111.111111111111,4,2,1,70,0,0
1010071,-111.111111111111,4,2,1,5,0,0
1010150,-133.333333333333,4,2,1,60,0,0
1010387,-133.333333333333,4,2,1,5,0,0
1010466,-133.333333333333,4,2,1,60,0,0
1015440,-133.333333333333,4,2,1,5,0,0
1015518,-133.333333333333,4,2,1,60,0,0
1018084,-133.333333333333,4,2,1,5,0,0
1018203,-133.333333333333,4,2,1,60,0,0
1018242,-133.333333333333,4,2,1,5,0,0
1018361,-133.333333333333,4,2,1,70,0,0
1018913,-133.333333333333,4,2,1,5,0,0
1018992,-133.333333333333,4,2,1,70,0,0
1020255,-80,4,2,1,80,0,0
1020492,-80,4,2,1,5,0,0
1020571,-80,4,2,1,80,0,0
1021755,-80,4,2,1,5,0,0
1021834,-80,4,2,1,80,0,0
1023018,-80,4,2,1,5,0,0
1023097,-80,4,2,1,80,0,0
1028071,-80,4,2,1,5,0,0
1028150,-80,4,2,1,80,0,0
1029808,-80,4,2,1,5,0,0
1029887,-80,4,2,1,80,0,0
1030597,-80,4,2,1,5,0,0
1030676,-80,4,2,1,80,0,0
1031861,-80,4,2,1,5,0,0
1031940,-80,4,2,1,80,0,0
1033124,-80,4,2,1,5,0,0
1033203,-80,4,2,1,80,0,0
1038176,-80,4,2,1,5,0,0
1038255,-80,4,2,1,80,0,0
1040466,-80,4,2,1,50,0,0
1044051,441.176470588235,4,2,1,50,1,0
1049345,-100,4,2,1,60,0,0
1050668,-66.6666666666667,4,2,1,60,0,0
1050778,-66.6666666666667,4,2,1,5,0,0
1050889,-66.6666666666667,4,2,1,60,0,0
1051109,-100,4,2,1,60,0,0
1052433,-66.6666666666667,4,2,1,60,0,0
1052543,-66.6666666666667,4,2,1,5,0,0
1052653,-66.6666666666667,4,2,1,60,0,0
1052874,-100,4,2,1,60,0,0
1054198,-66.6666666666667,4,2,1,60,0,0
1054308,-66.6666666666667,4,2,1,5,0,0
1054418,-66.6666666666667,4,2,1,60,0,0
1054639,-100,4,2,1,60,0,0
1057617,-66.6666666666667,4,2,1,60,0,0
1057837,-100,4,2,1,60,0,0
1061698,-80,4,2,1,60,0,0
1063462,-66.6666666666667,4,2,1,60,0,0
1064676,-100,4,2,1,60,0,0
1065227,-50,4,2,1,60,0,0
1066551,-133.333333333333,4,2,1,60,0,0
1066881,-133.333333333333,4,2,1,5,0,0
1066992,-133.333333333333,4,2,1,50,0,0
1079345,-133.333333333333,4,2,1,60,0,0
1079786,-133.333333333333,4,2,1,70,0,0
1081101,220.588235294118,4,2,1,80,1,0
1081101,-80,4,2,1,80,0,0
1081266,-80,4,2,1,5,0,0
1081321,-80,4,2,1,80,0,0
1081376,-80,4,2,1,5,0,0
1081431,-80,4,2,1,80,0,0
1081597,-80,4,2,1,5,0,0
1081652,-80,4,2,1,80,0,0
1081707,-80,4,2,1,5,0,0
1081762,-80,4,2,1,80,0,0
1083031,-80,4,2,1,5,0,0
1083086,-80,4,2,1,80,0,0
1083141,-80,4,2,1,5,0,0
1083196,-80,4,2,1,80,0,0
1084851,-133.333333333333,4,2,1,80,0,0
1085512,-100,4,2,1,80,0,0
1086395,-80,4,2,1,80,0,0
1087277,-100,4,2,1,80,0,0
1088159,-80,4,2,1,80,0,0
1088325,-80,4,2,1,5,0,0
1088380,-80,4,2,1,80,0,0
1088435,-80,4,2,1,5,0,0
1088490,-80,4,2,1,80,0,0
1088656,-80,4,2,1,5,0,0
1088711,-80,4,2,1,80,0,0
1088766,-80,4,2,1,5,0,0
1088821,-80,4,2,1,80,0,0
1090089,-80,4,2,1,5,0,0
1090145,-80,4,2,1,80,0,0
1090200,-80,4,2,1,5,0,0
1090255,-80,4,2,1,80,0,0
1091027,-133.333333333333,4,2,1,80,0,0
1091689,-100,4,2,1,80,0,0
1092516,-100,4,2,1,5,0,0
1092571,-100,4,2,1,80,0,0
1093453,-80,4,2,1,80,0,0
1094281,-80,4,2,1,5,0,0
1094336,-80,4,2,1,80,0,0
1095218,-133.333333333333,4,2,1,80,0,0
1095273,-133.333333333333,4,2,1,5,0,0
1095328,-133.333333333333,4,2,1,80,0,0
1095604,-133.333333333333,4,2,1,5,0,0
1095659,-133.333333333333,4,2,1,80,0,0
1096266,-133.333333333333,4,2,1,5,0,0
1096321,-133.333333333333,4,2,1,80,0,0
1096597,-133.333333333333,4,2,1,5,0,0
1096652,-133.333333333333,4,2,1,80,0,0
1096707,-133.333333333333,4,2,1,5,0,0
1096762,-133.333333333333,4,2,1,80,0,0
1096817,-133.333333333333,4,2,1,5,0,0
1096873,-133.333333333333,4,2,1,80,0,0
1096928,-133.333333333333,4,2,1,5,0,0
1096983,-500,4,2,1,70,0,0
1098748,-500,4,2,1,5,0,0
1099189,-500,4,2,1,15,0,0
1099409,-500,4,2,1,30,0,0
1099630,-500,4,2,1,45,0,0
1099851,-500,4,2,1,60,0,0
1100071,-500,4,2,1,70,0,0
1100457,-500,4,2,1,5,0,0
1100512,-100,4,2,1,70,0,0
1103987,-100,4,2,1,5,0,0
1104042,-100,4,2,1,70,0,0
1111045,-100,4,2,1,5,0,0
1111101,-100,4,2,1,70,0,0
1114409,-200,4,2,1,70,0,0
1114630,441.176470588235,4,2,1,70,1,0
1114630,-100,4,2,1,70,0,0
1115953,-50,4,2,1,70,0,0
1116174,-50,4,2,1,5,0,0
1116284,-50,4,2,1,70,0,0
1116394,-100,4,2,1,70,0,0
1119482,-50,4,2,1,70,0,0
1119703,-50,4,2,1,5,0,0
1119813,-50,4,2,1,70,0,0
1119924,-100,4,2,1,70,0,0
1121688,-200,4,2,1,30,0,0
1123453,-200,4,2,1,5,0,0

[Colours]
Combo1 : 217,123,62
Combo2 : 237,90,94
Combo3 : 102,129,200
Combo4 : 137,149,159
Combo5 : 252,243,207
Combo6 : 251,198,190
Combo7 : 73,91,127
Combo8 : 247,214,83

[HitObjects]
508,288,4769,69,4,1:2:0:0:
416,328,4967,1,0,1:2:0:0:
488,376,5164,1,0,1:2:0:0:
488,196,5361,102,0,B|432:218|385:176|423:174|373:128|304:146,1,190,12|8,0:2|0:3,0:0:0:0:
312,156,5855,1,8,0:3:0:0:
310,164,5954,1,8,0:3:0:0:
120,76,6151,1,6,0:3:0:0:
122,64,6250,1,4,0:3:0:0:
124,52,6348,6,0,P|153:32|188:29,1,71.2500027179719,6|2,1:2|0:0,0:0:0:0:
64,132,6743,2,0,P|28:129|0:109,1,71.2500027179719,2|2,0:0|1:2,0:0:0:0:
167,248,7138,2,0,L|192:108,1,142.500005435944,10|2,0:2|0:0,0:0:0:0:
88,212,7730,1,2,0:0:0:0:
192,344,7927,102,0,L|262:356,1,71.2500027179719,0|2,1:2|0:0,0:0:0:0:
271,348,8223,2,0,P|298:324|305:290,1,71.2500027179719,0|0,1:2|0:0,0:0:0:0:
404,176,8519,1,2,1:2:0:0:
404,176,8717,2,0,L|428:316,1,142.500005435944,8|0,0:2|0:0,0:0:0:0:
428,316,9309,1,2,1:2:0:0:
512,120,9506,6,0,P|476:117|447:97,1,71.2500027179719,2|2,1:2|0:0,0:0:0:0:
300,12,9901,2,0,L|370:0,1,71.2500027179719,2|2,0:0|1:2,0:0:0:0:
332,120,10296,2,0,L|261:107,1,71.2500027179719,10|2,0:2|0:0,0:0:0:0:
211,51,10690,1,2,0:0:0:0:
4,240,10888,2,0,L|39:233,1,35.625001358986,2|0,0:0|0:0,0:0:0:0:
72,252,11085,102,0,L|84:181,1,71.2500027179719,0|2,1:2|0:0,0:0:0:0:
88,168,11381,2,0,P|117:148|152:150,1,71.2500027179719,0|0,1:2|0:0,0:0:0:0:
305,290,11677,1,2,1:2:0:0:
305,290,11875,2,0,B|214:305|214:305|211:310|211:310|120:326,1,190,12|12,0:2|0:2,0:0:0:0:
36,344,12467,5,8,0:2:0:0:
36,344,12565,1,8,0:2:0:0:
36,344,12664,2,0,L|27:297,1,47.5,6|0,1:2|3:2,0:0:0:0:
128,279,12861,2,0,L|119:325,1,47.5,2|0,3:2|3:2,0:0:0:0:
244,215,13059,102,0,L|252:168,1,47.5,2|0,1:2|3:0,0:0:0:0:
152,150,13256,2,0,L|160:196,1,47.5,2|0,3:0|3:0,0:0:0:0:
80,64,13454,5,2,1:2:0:0:
80,64,13552,2,0,L|126:72,1,47.5,2|0,3:0|3:0,0:0:0:0:
200,32,13750,1,2,3:0:0:0:
200,32,13848,2,0,L|246:23,1,47.5,0|0,1:2|3:0,0:0:0:0:
424,64,14046,101,2,3:0:0:0:
424,64,14144,1,0,3:0:0:0:
424,64,14243,2,0,L|470:72,1,47.5,2|0,1:2|3:0,0:0:0:0:
464,148,14440,2,0,L|417:139,1,47.5,2|0,3:0|3:0,0:0:0:0:
324,216,14638,6,0,L|370:207,1,47.5,2|0,1:2|3:0,0:0:0:0:
377,283,14835,2,0,L|330:291,1,47.5,2|0,3:0|3:0,0:0:0:0:
181,366,15032,101,8,1:2:0:0:
198,349,15131,1,8,3:2:0:0:
206,329,15230,1,10,3:2:0:0:
206,308,15329,1,8,3:2:0:0:
148,259,15427,5,8,1:2:0:0:
124,219,15526,1,8,3:2:0:0:
129,177,15625,1,10,3:2:0:0:
162,147,15723,1,8,3:2:0:0:
231,36,15822,102,0,L|248:130,1,95,6|10,1:2|0:2,0:0:0:0:
323,136,16118,1,8,0:2:0:0:
323,136,16217,1,10,0:2:0:0:
413,384,16414,6,0,B|438:242|438:242|494:212,1,190,6|2,1:2|1:2,0:0:0:0:
162,147,17006,2,0,L|21:121,1,142.5,10|0,0:2|0:0,0:0:0:0:
21,112,17401,101,4,1:2:0:0:
107,56,17598,1,0,1:2:0:0:
221,221,17796,5,0,1:2:0:0:
0,288,17993,1,0,1:2:0:0:
88,161,18190,101,2,1:2:0:0:
240,375,18388,1,10,0:2:0:0:
251,341,18486,1,8,0:2:0:0:
276,319,18585,1,10,0:2:0:0:
309,308,18684,1,8,0:2:0:0:
345,307,18782,1,10,0:2:0:0:
378,319,18881,1,8,0:2:0:0:
413,384,18980,6,0,B|429:289|429:289|433:288|433:288|453:185,1,199.499993911743,6|0,1:2|0:0,0:0:0:0:
472,182,19375,2,0,P|500:123|481:61,1,132.999995941162,8|0,1:2|0:0,0:0:0:0:
241,40,19769,1,2,1:2:0:0:
279,114,19967,1,2,0:0:0:0:
357,4,20164,101,10,1:2:0:0:
221,221,20361,1,2,0:0:0:0:
221,221,20460,1,2,0:0:0:0:
221,221,20559,6,0,B|165:241|119:204|148:189|103:148|28:170,1,199.499993911743,2|0,1:2|0:0,0:0:0:0:
30,152,20954,2,0,P|90:128|113:67,1,132.999995941162,8|0,1:2|0:0,0:0:0:0:
25,59,21348,1,2,1:2:0:0:
199,144,21546,1,2,0:0:0:0:
192,63,21743,101,10,1:2:0:0:
67,242,21940,2,0,L|55:307,1,66.4999979705811,2|0,0:0|0:0,0:0:0:0:
91,383,22138,6,0,P|164:316|261:301,1,199.499993911743,2|0,1:2|0:0,0:0:0:0:
293,233,22532,2,0,P|321:249|335:279,1,66.4999979705811,10|0,1:2|0:0,0:0:0:0:
368,377,22730,2,0,P|420:339|434:275,1,132.999995941162,2|0,0:0|1:2,0:0:0:0:
372,83,23125,2,0,P|310:86|296:147,1,132.999995941162,2|8,0:0|1:2,0:0:0:0:
48,257,23519,1,2,0:0:0:0:
48,257,23618,1,2,0:0:0:0:
48,257,23717,102,0,B|65:158|65:158|64:154|64:154|80:60,1,199.499993911743,0|0,1:2|0:0,0:0:0:0:
21,16,24111,1,8,1:2:0:0:
214,184,24309,1,2,0:0:0:0:
172,105,24506,5,2,1:2:0:0:
0,327,24704,1,2,0:0:0:0:
261,266,24901,101,10,1:2:0:0:
133,224,25098,1,10,0:2:0:0:
133,224,25197,1,8,0:2:0:0:
133,224,25296,6,0,B|191:238|241:197|208:187|257:149|325:172,1,199.499993911743,6|0,1:2|0:0,0:0:0:0:
328,159,25690,2,0,P|353:138|359:106,1,66.4999979705811,10|0,1:2|0:0,0:0:0:0:
512,211,25888,2,0,P|448:203|409:254,1,132.999995941162,2|0,0:0|1:2,0:0:0:0:
187,340,26282,1,0,0:0:0:0:
261,266,26480,1,10,1:2:0:0:
428,382,26677,2,0,B|365:372|365:372|362:374|362:374|294:361,1,132.999995941162,2|0,0:0|1:2,0:0:0:0:
158,238,27072,101,0,0:0:0:0:
261,266,27269,1,10,1:2:0:0:
78,317,27467,2,0,P|20:288|10:225,1,132.999995941162,2|0,0:0|1:2,0:0:0:0:
61,29,27861,1,0,0:0:0:0:
85,207,28059,1,10,1:2:0:0:
0,147,28256,1,2,0:0:0:0:
0,147,28355,1,2,0:0:0:0:
0,147,28454,6,0,B|63:135|63:135|65:131|65:131|132:119,1,132.999995941162,2|2,1:2|0:0,0:0:0:0:
395,110,28848,101,10,1:2:0:0:
356,15,29046,1,2,0:0:0:0:
444,201,29243,5,2,1:2:0:0:
405,296,29440,1,2,0:0:0:0:
508,278,29638,101,10,1:2:0:0:
268,223,29835,1,2,0:0:0:0:
499,111,30032,5,4,1:2:0:0:
349,206,30230,1,8,0:2:0:0:
342,221,30329,1,8,0:2:0:0:
334,235,30427,2,0,L|268:223,1,66.4999979705811,8|0,0:2|0:0,0:0:0:0:
302,310,30625,2,0,L|338:317,1,35.625001358986,8|0,0:3|0:0,0:0:0:0:
395,111,30822,101,10,0:3:0:0:
387,96,30921,1,8,0:3:0:0:
380,81,31019,1,6,0:3:0:0:
162,0,31217,5,6,0:3:0:0:
154,43,31315,1,4,0:3:0:0:
146,86,31414,1,2,1:2:0:0:
139,129,31513,1,0,1:2:0:0:
199,175,31611,102,0,P|106:148|28:205,1,199.499993911743,6|0,1:2|0:0,0:0:0:0:
34,221,32006,2,0,P|96:219|115:278,1,132.999995941162,8|0,1:2|0:0,0:0:0:0:
37,372,32401,1,2,1:2:0:0:
123,360,32598,1,2,0:0:0:0:
401,296,32796,5,10,1:2:0:0:
229,272,32993,1,2,0:0:0:0:
229,272,33092,1,2,0:0:0:0:
229,272,33190,102,0,B|216:249|196:240|196:240|348:213,1,199.499993911743,2|0,1:2|0:0,0:0:0:0:
356,200,33585,2,0,B|366:138|366:138|363:136|363:136|375:68,1,132.999995941162,8|0,1:2|0:0,0:0:0:0:
123,0,33980,1,2,1:2:0:0:
262,121,34177,1,2,0:0:0:0:
214,39,34375,5,10,1:2:0:0:
78,257,34572,2,0,P|105:237|138:233,1,66.4999979705811,2|0,0:0|0:0,0:0:0:0:
153,309,34769,102,0,P|57:295|5:213,1,199.499993911743,2|0,1:2|0:0,0:0:0:0:
64,168,35164,2,0,P|50:138|21:121,1,66.4999979705811,10|0,1:2|0:0,0:0:0:0:
290,0,35361,2,0,B|279:61|279:61|283:67|283:67|270:136,1,132.999995941162,2|0,0:0|1:2,0:0:0:0:
475,319,35756,2,0,P|461:257|511:220,1,132.999995941162,2|8,0:0|1:2,0:0:0:0:
305,331,36151,1,2,0:0:0:0:
305,331,36250,1,2,0:0:0:0:
305,331,36348,6,0,B|249:355|204:313|226:306|183:265|112:279,1,199.499993911743,2|0,1:2|0:0,0:0:0:0:
119,265,36743,2,0,P|57:284|36:345,1,132.999995941162,8|0,1:2|0:0,0:0:0:0:
147,364,37138,101,2,1:2:0:0:
380,281,37335,1,2,0:0:0:0:
278,249,37532,5,10,1:2:0:0:
388,371,37730,1,10,0:2:0:0:
388,371,37829,1,8,0:2:0:0:
388,371,37927,102,0,B|407:273|407:273|403:271|403:271|421:176,1,199.499993911743,6|0,1:2|0:0,0:0:0:0:
434,165,38322,2,0,L|499:153,1,66.4999979705811,10|0,1:2|0:0,0:0:0:0:
307,0,38519,2,0,P|257:39|265:102,1,132.999995941162,2|0,0:0|1:2,0:0:0:0:
81,193,38914,1,2,0:0:0:0:
152,110,39111,1,10,1:2:0:0:
237,324,39309,2,0,L|106:300,1,132.999995941162,2|0,0:0|1:2,0:0:0:0:
189,226,39704,5,2,0:0:0:0:
324,342,39901,1,10,1:2:0:0:
356,171,40098,1,2,0:0:0:0:
292,246,40296,101,12,1:2:0:0:
512,196,40493,1,8,0:2:0:0:
507,172,40592,1,8,0:2:0:0:
503,148,40690,1,10,0:2:0:0:
499,125,40789,1,8,0:2:0:0:
495,101,40888,2,0,L|429:89,1,66.4999979705811,10|0,0:3|0:0,0:0:0:0:
95,138,41085,6,0,B|145:118|157:61|157:61|193:116|269:110,1,199.499993911743,4|0,1:2|0:0,0:0:0:0:
285,56,41480,1,8,0:2:0:0:
308,46,41579,1,8,0:2:0:0:
330,51,41677,2,0,L|341:116,1,66.4999979705811,8|0,0:3|0:0,0:0:0:0:
223,355,41875,102,0,B|161:377|115:337|149:329|103:286|41:304,1,199.499993911743,4|0,1:2|0:0,0:0:0:0:
58,224,42269,1,4,0:3:0:0:
70,213,42368,1,4,0:3:0:0:
87,209,42467,1,0,1:0:0:0:
102,211,42565,1,0,1:0:0:0:
173,256,42664,6,0,B|322:228|322:228|339:254|367:256,1,199.499993911743,4|0,1:2|0:0,0:0:0:0:
360,255,43059,102,0,P|377:270|384:293,1,47.5,8|0,1:2|0:0,0:0:0:0:
458,313,43256,2,0,P|454:336|440:354,1,47.5,8|0,1:2|0:0,0:0:0:0:
249,222,43454,6,0,P|274:201|283:169,1,66.4999979705811,10|0,1:2|0:0,0:0:0:0:
361,164,43651,2,0,P|358:131|338:106,1,66.4999979705811,10|0,1:2|0:0,0:0:0:0:
79,0,43848,102,0,P|115:29|121:74,1,85.4999973907472,10|0,1:2|0:0,0:0:0:0:
205,62,44046,2,0,P|201:109|168:139,1,85.4999973907472,10|0,1:2|0:0,0:0:0:0:
20,235,44243,5,2,0:0:0:0:
20,235,46611,102,0,L|8:300,1,66.4999979705811,12|0,0:2|0:0,0:0:0:0:
201,382,46809,1,8,0:2:0:0:
218,355,46907,1,8,0:2:0:0:
247,340,47006,1,8,0:2:0:0:
282,340,47105,1,8,0:2:0:0:
312,359,47204,2,0,L|377:347,1,66.4999979705811,8|0,0:3|0:0,0:0:0:0:
512,158,47401,6,0,B|446:190|390:139|419:128|375:68|282:96,1,237.5,4|0,1:2|0:0,0:0:0:0:
238,57,47993,1,8,0:3:0:0:
236,43,48092,1,4,0:3:0:0:
260,3,48190,1,8,1:2:0:0:
0,373,48980,101,4,1:2:0:0:
509,283,57173,54,0,B|442:271|442:271|437:273|437:273|367:261,1,142.500005435944,6|2,1:2|0:0,0:0:0:0:
265,157,57684,1,0,0:0:0:0:
268,137,57786,2,0,P|308:111|355:108,1,95.0000036239625,10|0,1:2|0:0,0:0:0:0:
414,148,58092,1,2,0:0:0:0:
286,248,58296,1,8,0:2:0:0:
290,267,58398,86,0,L|191:284,1,95.0000036239625,2|10,1:2|0:2,0:0:0:0:
125,359,58704,2,0,P|80:348|67:305,1,95.0000036239625,2|2,1:2|0:0,0:0:0:0:
120,244,59010,21,10,0:2:0:0:
16,31,59316,2,0,L|0:124,1,95.0000036239625,2|10,0:0|0:2,0:0:0:0:
107,139,59622,86,0,P|129:116|159:107,1,63.3333333333333,6|0,1:2|0:0,0:0:0:0:
242,76,59827,2,0,P|250:106|243:136,1,63.3333333333333,2|0,1:2|0:0,0:0:0:0:
227,222,60031,2,0,P|196:213|173:192,1,63.3333333333333,2|0,1:2|0:0,0:0:0:0:
326,33,60235,22,0,L|336:95,1,63.3333333333333,14|0,1:2|0:0,0:0:0:0:
419,97,60439,2,0,L|409:35,1,63.3333333333333,2|0,1:2|0:0,0:0:0:0:
485,0,60643,2,0,L|495:62,1,63.3333333333333,10|0,1:2|0:0,0:0:0:0:
502,240,60847,86,0,P|479:217|449:208,1,63.3333333333333,6|0,1:2|0:0,0:0:0:0:
320,215,61051,2,0,L|309:277,1,63.3333333333333,2|0,1:2|0:0,0:0:0:0:
368,380,61255,2,0,P|398:371|421:350,1,63.3333333333333,2|0,1:2|0:0,0:0:0:0:
399,275,61459,21,14,0:2:0:0:
125,359,61765,86,0,L|31:341,1,95.0000036239625,2|8,1:2|0:2,0:0:0:0:
0,261,62071,22,0,P|45:250|71:211,1,95.0000036239625,6|2,1:2|0:0,0:0:0:0:
31,146,62378,1,2,1:2:0:0:
166,72,62582,1,2,0:0:0:0:
194,176,62684,2,0,L|178:82,1,95.0000036239625,10|2,1:2|0:0,0:0:0:0:
239,33,62990,2,0,P|278:8|324:17,1,95.0000036239625,2|2,0:0|0:0,0:0:0:0:
436,102,63296,85,2,1:2:0:0:
409,99,63398,1,0,3:2:0:0:
383,94,63500,1,2,3:2:0:0:
359,91,63602,2,0,P|319:115|308:160,1,95.0000036239625,2|2,3:2|0:0,0:0:0:0:
362,217,63908,2,0,L|456:199,1,95.0000036239625,10|2,1:2|0:0,0:0:0:0:
512,277,64214,2,0,L|418:295,1,95.0000036239625,2|10,0:0|0:2,0:0:0:0:
252,358,64520,22,0,P|190:358|146:314,1,126.666666666667,10|0,1:2|0:0,0:0:0:0:
66,309,64827,2,0,P|125:293|156:239,1,126.666666666667,10|0,1:2|0:0,0:0:0:0:
0,55,65133,86,0,P|61:54|105:98,1,126.666666666667,10|0,1:2|0:0,0:0:0:0:
186,104,65439,2,0,P|126:119|95:173,1,126.666666666667,10|0,1:2|0:0,0:0:0:0:
232,272,65745,21,10,1:2:0:0:
232,272,66357,86,0,B|270:252|273:208|273:208|297:256|355:251,1,158.333333333333,6|0,1:2|0:0,0:0:0:0:
506,124,66969,22,0,B|456:106|414:147|440:154|408:187|346:171,1,177.33332792155,14|0,1:2|1:2,0:0:0:0:
286,126,67276,2,0,P|303:67|360:46,1,126.666666666667,2|0,1:2|1:2,0:0:0:0:
154,4,67582,2,0,P|196:80|183:166,1,177.33332792155,10|0,1:2|1:2,0:0:0:0:
91,190,67888,1,2,1:2:0:0:
208,323,68092,1,2,1:2:0:0:
152,377,68194,86,0,P|130:344|133:306,1,79.1666666666667,8|0,1:2|0:0,0:0:0:0:
334,251,68398,1,2,1:2:0:0:
445,299,68500,2,0,B|374:311|374:311|371:314|371:314|287:328,1,158.333333333333,2|0,1:2|1:2,0:0:0:0:
290,327,68806,1,8,1:2:0:0:
150,236,69010,1,2,1:2:0:0:
183,166,69112,2,0,L|172:103,1,63.3333333333333,0|2,1:2|1:2,0:0:0:0:
198,95,69418,22,0,L|42:66,1,158.333333333333,10|0,1:2|1:2,0:0:0:0:
0,0,69724,1,2,1:2:0:0:
91,190,69929,1,2,1:2:0:0:
32,243,70031,2,0,P|8:274|9:313,1,79.1666666666667,10|0,1:2|0:0,0:0:0:0:
94,292,70235,1,0,1:2:0:0:
150,236,70337,2,0,L|227:222,1,79.1666666666667,2|0,1:2|0:0,0:0:0:0:
408,73,70541,1,2,1:2:0:0:
345,28,70643,86,0,P|284:77|274:154,1,158.333333333333,10|0,1:2|1:2,0:0:0:0:
347,196,70949,2,0,B|406:205|406:205|409:208|409:208|473:219,1,126.666666666667,2|2,1:2|1:2,0:0:0:0:
512,298,71255,2,0,B|450:308|450:308|447:311|447:311|387:321,1,126.666666666667,10|2,1:2|1:2,0:0:0:0:
277,284,71561,2,0,P|299:305|305:336,1,63.3333333333333,2|0,1:2|1:2,0:0:0:0:
284,359,71867,22,0,B|223:348|223:348|221:351|221:351|129:335,1,158.333333333333,14|0,1:2|1:2,0:0:0:0:
69,384,72173,1,2,1:2:0:0:
30,232,72378,1,0,1:2:0:0:
91,190,72480,2,0,P|143:158|147:97,1,126.666666666667,10|0,1:2|1:2,0:0:0:0:
78,62,72786,2,0,L|88:0,1,63.3333333333333,2|0,1:2|0:0,0:0:0:0:
297,41,72990,1,2,1:2:0:0:
252,106,73092,86,0,P|317:62|396:56,1,158.333333333333,10|2,1:2|1:2,0:0:0:0:
497,89,73398,1,2,1:2:0:0:
405,234,73602,1,0,1:2:0:0:
423,309,73704,2,0,B|435:244|435:244|439:240|439:240|455:155,1,158.333333333333,10|0,1:2|1:2,0:0:0:0:
328,192,74010,2,0,P|316:221|319:253,1,63.3333333333333,2|8,1:2|0:2,0:0:0:0:
329,270,74316,22,0,B|287:253|251:281|269:287|237:324|176:310,1,158.333333333333,6|0,1:2|0:2,0:0:0:0:
131,255,74622,1,10,0:2:0:0:
71,87,74827,1,10,0:2:0:0:
0,132,74929,2,0,B|70:120|70:120|75:123|75:123|157:109,1,158.333333333333,0|8,1:2|0:2,0:0:0:0:
219,62,75235,2,0,L|229:0,1,63.3333333333333,2|8,1:2|0:2,0:0:0:0:
438,0,75541,86,0,P|366:27|347:101,1,158.333333333333,6|8,1:2|0:2,0:0:0:0:
436,148,75847,1,8,0:2:0:0:
231,309,76051,1,8,0:2:0:0:
284,384,76153,22,0,P|355:356|374:282,1,158.333333333333,2|8,1:2|0:2,0:0:0:0:
286,236,76459,1,8,0:2:0:0:
9,37,76765,86,0,B|31:166|31:166|7:177|-5:209,1,177.33332792155,12|0,1:2|1:2,0:0:0:0:
0,277,77071,2,0,L|124:255,1,126.666666666667,2|0,1:2|1:2,0:0:0:0:
217,140,77378,2,0,B|246:173|246:173|115:151,1,177.33332792155,10|0,1:2|1:2,0:0:0:0:
93,71,77684,1,2,1:2:0:0:
271,29,77888,1,2,1:2:0:0:
336,67,77990,22,0,L|322:144,1,79.1666666666667,8|0,1:2|0:0,0:0:0:0:
490,271,78194,1,2,1:2:0:0:
512,190,78296,2,0,P|436:189|404:257,1,158.333333333333,2|0,1:2|1:2,0:0:0:0:
403,255,78602,1,8,1:2:0:0:
206,363,78806,1,2,1:2:0:0:
283,380,78908,2,0,P|286:348|274:319,1,63.3333333333333,2|2,1:2|1:2,0:0:0:0:
257,308,79214,86,0,L|286:152,1,158.333333333333,10|0,1:2|1:2,0:0:0:0:
359,130,79520,1,2,1:2:0:0:
173,66,79724,1,2,1:2:0:0:
116,140,79827,2,0,P|92:109|93:70,1,79.1666666666667,10|0,1:2|0:0,0:0:0:0:
282,0,80031,1,0,1:2:0:0:
336,67,80133,2,0,L|259:81,1,79.1666666666667,2|0,1:2|0:0,0:0:0:0:
161,285,80337,1,2,1:2:0:0:
199,209,80439,22,0,P|122:219|74:280,1,158.333333333333,10|0,1:2|1:2,0:0:0:0:
0,345,80745,2,0,B|59:354|59:354|62:357|62:357|126:368,1,126.666666666667,2|2,1:2|1:2,0:0:0:0:
206,363,81051,2,0,P|268:368|320:334,1,126.666666666667,10|2,1:2|1:2,0:0:0:0:
397,328,81357,2,0,P|391:297|369:275,1,63.3333333333333,2|0,1:2|1:2,0:0:0:0:
346,261,81663,86,0,B|429:246|429:246|452:210,1,126.666666666667,14|0,1:2|1:2,0:0:0:0:
512,166,81969,1,2,1:2:0:0:
392,6,82173,1,0,1:2:0:0:
336,67,82276,2,0,P|340:127|392:159,1,126.666666666667,10|0,1:2|1:2,0:0:0:0:
456,112,82582,2,0,P|471:76|462:38,1,79.1666666666667,2|0,1:2|0:0,0:0:0:0:
188,56,82786,1,2,1:2:0:0:
257,126,82888,22,0,B|216:111|177:142|198:146|158:183|103:166,1,158.333333333333,10|0,1:2|1:2,0:0:0:0:
38,172,83194,1,2,1:2:0:0:
142,293,83398,2,0,P|170:266|209:265,1,79.1666666666667,2|8,1:2|1:2,0:0:0:0:
383,365,83704,1,0,1:2:0:0:
455,327,83806,2,0,L|465:264,1,63.3333333333333,2|0,1:2|1:2,0:0:0:0:
347,108,84112,86,0,L|361:186,1,79.1666666666667,14|0,1:2|0:0,0:0:0:0:
435,187,84316,1,8,0:2:0:0:
439,169,84418,1,10,1:2:0:0:
345,32,84622,1,0,1:2:0:0:
271,50,84724,22,0,L|257:127,1,79.1666666666667,14|0,1:2|0:0,0:0:0:0:
183,128,84929,1,8,0:2:0:0:
179,110,85031,1,10,1:2:0:0:
0,187,85235,1,8,0:2:0:0:
7,169,85337,85,10,0:3:0:0:
78,175,85439,1,8,0:2:0:0:
112,236,85541,1,8,0:2:0:0:
96,309,85643,2,0,L|33:319,1,63.3333333333333,10|8,0:2|0:2,0:0:0:0:
166,376,85949,1,2,1:2:0:0:
171,356,86051,21,8,0:2:0:0:
177,285,86153,1,8,0:2:0:0:
246,258,86255,1,8,0:2:0:0:
296,311,86357,1,4,1:3:0:0:
314,313,86459,1,4,1:3:0:0:
330,316,86561,86,0,B|361:134|361:134|396:135|425:106,1,237.5,14|0,1:2|1:2,0:0:0:0:
146,0,87071,1,0,1:2:0:0:
146,0,87173,22,0,B|286:118|286:118|268:147|279:187,1,237.5,14|0,1:2|1:2,0:0:0:0:
512,0,87684,1,0,1:2:0:0:
512,0,87786,86,0,B|339:62|339:62|322:32|282:21,1,237.5,14|0,1:2|1:2,0:0:0:0:
330,316,88296,1,0,1:2:0:0:
330,316,88398,22,0,B|361:134|361:134|396:135|425:106,1,237.5,14|0,1:2|1:2,0:0:0:0:
146,0,88908,1,8,0:2:0:0:
146,0,89010,1,2,0:0:0:0:
93,287,98252,22,0,P|40:288|0:322,1,106.875004076958,12|0,1:2|0:0,0:0:0:0:
0,322,98714,53,0,1:2:0:0:
73,367,98829,1,0,1:2:0:0:
186,187,98945,1,8,1:2:0:0:
186,187,99176,1,8,1:2:0:0:
43,138,99406,53,0,1:2:0:0:
100,196,99522,1,0,1:2:0:0:
151,44,99637,1,8,1:2:0:0:
151,44,99868,53,0,1:2:0:0:
70,58,99983,1,0,1:2:0:0:
205,106,100099,2,0,L|275:93,1,71.2500027179719,10|8,1:2|0:2,0:0:0:0:
334,46,100445,1,8,0:2:0:0:
355,51,100560,54,0,B|327:212|327:212|299:216|281:242,1,213.750008153916,6|0,1:2|0:0,0:0:0:0:
345,289,101022,2,0,B|416:301|416:301|422:299|422:299|487:311,1,142.500005435944,10|0,1:2|0:0,0:0:0:0:
295,353,101368,1,8,0:2:0:0:
275,355,101483,2,0,P|240:347|214:323,1,71.2500027179719,2|8,1:2|0:2,0:0:0:0:
211,184,101714,2,0,P|233:156|266:143,1,71.2500027179719
425,103,101945,2,0,L|413:173,1,71.2500027179719,10|0,1:2|0:0,0:0:0:0:
211,184,102176,1,2,0:0:0:0:
193,168,102291,1,8,0:2:0:0:
168,163,102406,54,0,P|133:172|107:196,1,71.2500027179719,2|0,1:2|0:0,0:0:0:0:
15,357,102637,2,0,P|74:329|52:267,1,142.500005435944,2|8,0:0|1:2,0:0:0:0:
1,67,103099,1,2,0:2:0:0:
5,86,103214,1,8,0:2:0:0:
90,105,103329,1,0,1:2:0:0:
76,119,103445,1,8,0:2:0:0:
108,196,103560,2,0,L|36:190,1,71.2500027179719
153,265,103791,2,0,P|180:287|189:321,1,71.2500027179719,10|0,1:2|0:0,0:0:0:0:
288,384,104022,2,0,P|297:350|324:327,1,71.2500027179719,2|8,3:0|0:2,0:0:0:0:
512,189,104252,54,0,B|500:254|500:254|501:261|501:261|487:332,2,142.500005435944,2|2|8,1:2|0:0|1:2,0:0:0:0:
396,35,104945,1,2,0:2:0:0:
392,54,105060,1,8,0:2:0:0:
307,73,105176,1,2,1:2:0:0:
321,87,105291,1,8,0:2:0:0:
289,164,105406,2,0,L|300:234,1,71.2500027179719,2|0,0:0|0:0,0:0:0:0:
398,355,105637,2,0,P|411:322|402:289,1,71.2500027179719,10|0,1:2|0:0,0:0:0:0:
70,237,105868,1,2,3:2:0:0:
70,237,105983,1,10,0:2:0:0:
70,237,106099,54,0,L|210:211,1,142.500005435944,2|2,1:2|0:0,0:0:0:0:
109,77,106560,2,0,P|78:60|42:62,1,71.2500027179719,10|0,1:2|0:0,0:0:0:0:
193,121,106791,2,0,L|263:132,1,71.2500027179719,2|8,0:0|0:2,0:0:0:0:
187,28,107022,1,2,1:2:0:0:
194,9,107137,1,8,0:2:0:0:
267,12,107252,2,0,L|337:0,1,71.2500027179719
418,27,107483,2,0,P|420:63|404:94,1,71.2500027179719,10|0,1:2|0:0,0:0:0:0:
346,157,107714,1,2,3:2:0:0:
511,360,107945,54,0,B|451:388|396:335|434:333|389:277|304:305,1,213.750008153916,6|0,1:2|0:0,0:0:0:0:
280,235,108406,2,0,P|210:227|155:269,1,142.500005435944,10|0,1:2|0:0,0:0:0:0:
48,376,108752,1,8,0:2:0:0:
54,358,108868,2,0,L|124:346,1,71.2500027179719,2|8,1:2|0:2,0:0:0:0:
68,245,109099,2,0,P|40:222|33:188,1,71.2500027179719
171,96,109329,2,0,P|180:129|168:162,1,71.2500027179719,10|0,1:2|0:0,0:0:0:0:
0,34,109560,1,2,3:2:0:0:
5,53,109676,1,8,0:2:0:0:
10,72,109791,54,0,L|80:60,1,71.2500027179719,2|0,1:2|0:0,0:0:0:0:
366,86,110022,2,0,P|334:24|267:10,1,142.500005435944,2|8,0:0|1:2,0:0:0:0:
423,235,110483,1,2,0:2:0:0:
427,216,110599,1,8,0:2:0:0:
512,197,110714,1,0,1:2:0:0:
498,183,110829,1,8,0:2:0:0:
499,105,110945,2,0,L|513:30,1,71.2500027179719
366,86,111176,2,0,P|339:108|330:142,1,71.2500027179719,10|0,1:2|0:0,0:0:0:0:
333,268,111406,2,0,P|310:241|276:232,1,71.2500027179719,2|8,3:2|0:2,0:0:0:0:
49,181,111637,54,0,B|93:186|126:158|106:152|133:131|179:136,1,142.500005435944,2|2,1:2|0:0,0:0:0:0:
46,38,112099,2,0,P|17:58|2:90,1,71.2500027179719,10|0,1:2|0:0,0:0:0:0:
61,270,112329,1,2,0:2:0:0:
65,289,112445,1,8,0:2:0:0:
150,308,112560,1,2,1:2:0:0:
136,322,112676,1,8,0:2:0:0:
196,384,112791,2,0,L|266:373,1,71.2500027179719,2|0,0:0|0:0,0:0:0:0:
403,280,113022,2,0,L|332:267,1,71.2500027179719,10|0,1:2|0:0,0:0:0:0:
207,146,113252,2,0,L|219:216,1,71.2500027179719,2|8,3:2|0:2,0:0:0:0:
471,234,113483,54,0,L|483:163,1,71.2500027179719,8|8,0:3|0:2,0:0:0:0:
380,19,113714,1,10,0:2:0:0:
337,9,113829,1,8,0:2:0:0:
297,25,113945,1,10,1:2:0:0:
276,63,114060,1,8,0:2:0:0:
282,110,114176,1,10,0:2:0:0:
250,140,114291,1,8,0:2:0:0:
207,146,114406,1,10,1:2:0:0:
207,146,114868,53,10,1:2:0:0:
0,361,115329,54,0,B|66:381|109:329|80:316|136:265|201:298,1,213.750008153916,6|0,1:2|0:0,0:0:0:0:
187,372,115791,2,0,B|208:231,1,142.500005435944,10|0,1:2|0:0,0:0:0:0:
356,316,116137,1,8,0:2:0:0:
347,333,116252,2,0,P|316:351|281:353,1,71.2500027179719,2|8,1:2|0:2,0:0:0:0:
208,231,116483,2,0,P|235:209|270:205,1,71.2500027179719
102,345,116714,2,0,L|90:275,1,71.2500027179719,10|0,1:2|0:0,0:0:0:0:
57,80,116945,1,2,3:2:0:0:
34,92,117060,1,8,0:2:0:0:
24,118,117176,54,0,P|32:153|57:179,1,71.2500027179719,2|0,1:2|0:0,0:0:0:0:
208,108,117406,2,0,P|278:112|341:80,1,142.500005435944,2|8,0:0|1:2,0:0:0:0:
512,331,117868,1,2,0:2:0:0:
508,312,117983,1,8,0:2:0:0:
423,293,118099,1,0,1:2:0:0:
437,279,118214,1,8,0:2:0:0:
404,202,118329,2,0,P|422:171|453:156,1,71.2500027179719
273,189,118560,2,0,P|300:211|309:245,1,71.2500027179719,10|0,1:2|0:0,0:0:0:0:
354,363,118791,2,0,L|283:349,1,71.2500027179719,2|8,3:2|0:2,0:0:0:0:
56,178,119022,54,0,P|6:225|14:293,2,142.500005435944,2|2|8,1:2|0:0|1:2,0:0:0:0:
345,114,119714,1,2,0:2:0:0:
325,109,119829,1,8,0:2:0:0:
307,24,119945,1,2,1:2:0:0:
293,38,120060,1,8,0:2:0:0:
211,8,120176,2,0,L|200:77,1,71.2500027179719,2|0,0:0|0:0,0:0:0:0:
112,106,120406,2,0,L|41:93,1,71.2500027179719,10|0,1:2|0:0,0:0:0:0:
233,262,120637,1,2,3:2:0:0:
233,262,120752,1,10,0:2:0:0:
233,262,120868,54,0,B|325:256|278:305|371:298,1,142.500005435944,2|2,1:2|0:0,0:0:0:0:
512,123,121329,2,0,P|476:123|446:143,1,71.2500027179719,10|0,1:2|0:0,0:0:0:0:
453,261,121560,2,0,P|478:285|512:290,1,71.2500027179719,2|8,0:0|0:2,0:0:0:0:
458,357,121791,1,2,1:2:0:0:
451,376,121906,1,8,0:2:0:0:
377,368,122022,2,0,L|365:298,1,71.2500027179719
369,147,122252,2,0,L|356:217,1,71.2500027179719,8|0,1:2|0:0,0:0:0:0:
250,348,122483,1,8,3:2:0:0:
250,348,122599,1,8,0:2:0:0:
250,348,122714,54,0,B|92:320|92:320|135:320|173:291,1,213.750008153916,6|0,1:2|0:0,0:0:0:0:
22,363,123176,2,0,P|70:313|67:244,1,142.500005435944,10|0,1:2|0:0,0:0:0:0:
182,133,123522,1,8,0:2:0:0:
164,139,123637,2,0,L|152:209,1,71.2500027179719,2|8,1:2|0:2,0:0:0:0:
0,112,123868,2,0,P|22:84|56:77,1,71.2500027179719
234,51,124099,2,0,P|201:38|167:47,1,71.2500027179719,10|0,1:2|0:0,0:0:0:0:
287,238,124329,1,2,3:2:0:0:
283,220,124445,1,8,0:2:0:0:
279,203,124560,54,0,L|267:133,1,71.2500027179719,2|0,1:2|0:0,0:0:0:0:
381,0,124791,2,0,P|448:14|479:76,1,142.500005435944,2|8,0:0|1:2,0:0:0:0:
512,332,125252,1,2,0:2:0:0:
508,313,125368,1,8,0:2:0:0:
423,294,125483,1,0,1:2:0:0:
437,280,125599,1,8,0:2:0:0:
428,198,125714,2,0,L|503:184,1,71.2500027179719
396,81,125945,2,0,P|369:103|360:137,1,71.2500027179719,10|0,1:2|0:0,0:0:0:0:
343,273,126176,2,0,P|320:246|286:237,1,71.2500027179719,2|8,3:2|0:2,0:0:0:0:
48,96,126406,54,0,B|118:83,1,71.2500027179719,2|0,1:2|0:0,0:0:0:0:
174,26,126637,1,2,0:0:0:0:
202,202,126868,2,0,P|187:233|158:253,1,71.2500027179719,10|0,1:2|0:0,0:0:0:0:
0,238,127099,1,2,0:2:0:0:
19,241,127214,1,8,0:2:0:0:
38,327,127329,1,2,1:2:0:0:
52,313,127445,1,8,0:2:0:0:
114,373,127560,2,0,L|183:384,1,71.2500027179719,2|0,0:0|0:0,0:0:0:0:
369,325,127791,2,0,P|359:291|332:267,1,71.2500027179719,10|0,1:2|0:0,0:0:0:0:
480,193,128022,2,0,P|451:213|439:246,1,71.2500027179719,2|8,3:2|0:2,0:0:0:0:
367,186,128252,53,0,1:2:0:0:
213,72,128483,1,0,1:2:0:0:
387,0,128714,2,0,P|437:46|426:114,1,142.500005435944,12|0,1:2|0:0,0:0:0:0:
352,111,129060,2,0,L|281:122,1,71.2500027179719,8|0,0:2|0:0,0:0:0:0:
229,186,129291,2,0,L|158:174,1,71.2500027179719,8|0,0:2|0:0,0:0:0:0:
4,77,129522,1,8,0:2:0:0:
8,64,129637,53,10,0:2:0:0:
77,35,129752,1,8,0:3:0:0:
140,75,129868,1,6,0:3:0:0:
132,152,129983,1,0,1:2:0:0:
17,197,130099,53,10,1:2:0:0:
17,197,130329,1,10,1:2:0:0:
489,342,131022,53,10,1:2:0:0:
489,342,131252,1,10,1:2:0:0:
458,267,131714,53,2,0:0:0:0:
461,253,131829,1,2,0:0:0:0:
406,325,131945,54,0,L|289:345,1,118.75,6|0,1:2|0:0,0:0:0:0:
223,306,132291,2,0,P|224:277|240:253,2,59.375,2|8|0,0:0|1:2|0:0,0:0:0:0:
116,384,132637,53,2,0:0:0:0:
111,352,132752,1,2,0:0:0:0:
86,333,132868,2,0,L|27:344,1,59.375,2|10,1:2|0:2,0:0:0:0:
11,267,133099,2,0,L|69:255,1,59.375,2|0,0:0|0:0,0:0:0:0:
207,165,133329,2,0,P|199:108|148:82,1,118.75,10|0,1:2|0:0,0:0:0:0:
148,82,133676,1,0,0:0:0:0:
353,51,133791,53,2,1:2:0:0:
292,93,133906,1,2,0:0:0:0:
362,125,134022,1,2,0:0:0:0:
426,78,134137,2,0,L|484:67,1,59.375,2|8,0:0|1:2,0:0:0:0:
340,201,134483,53,2,0:0:0:0:
343,212,134599,1,2,0:0:0:0:
414,189,134714,1,2,1:2:0:0:
416,201,134829,2,0,L|427:259,1,59.375,10|0,0:2|0:0,0:0:0:0:
512,355,135060,1,2,0:0:0:0:
500,353,135176,2,0,L|441:341,1,59.375,10|0,1:2|0:0,0:0:0:0:
325,297,135406,2,0,L|266:309,1,59.375,0|0,3:2|0:0,0:0:0:0:
192,365,135637,54,0,P|138:341|116:288,1,118.75,2|0,1:2|0:0,0:0:0:0:
40,271,135983,2,0,P|48:243|70:224,2,59.375,2|8|0,0:0|1:2|0:0,0:0:0:0:
203,184,136329,53,2,0:0:0:0:
186,156,136445,1,2,0:0:0:0:
152,148,136560,2,0,L|141:89,1,59.375,2|10,1:2|0:2,0:0:0:0:
29,18,136791,2,0,L|87:30,1,59.375,2|0,0:0|0:0,0:0:0:0:
337,0,137022,2,0,P|286:26|278:83,1,118.75,10|0,1:2|0:0,0:0:0:0:
278,82,137368,1,0,0:0:0:0:
421,182,137483,53,2,1:2:0:0:
312,245,137599,1,2,0:0:0:0:
342,169,137714,1,2,0:0:0:0:
396,264,137829,2,0,L|406:322,1,59.375,2|12,0:0|1:2,0:0:0:0:
501,381,138060,54,0,L|511:322,2,59.375,2|2|10,0:0|0:0|0:2,0:0:0:0:
336,366,138406,2,0,P|306:362|285:343,1,59.375,2|8,1:2|0:2,0:0:0:0:
342,169,138637,2,0,P|351:141|374:124,1,59.375,2|0,0:0|0:0,0:0:0:0:
396,264,138868,1,10,1:2:0:0:
353,254,138983,1,8,0:2:0:0:
312,245,139099,1,8,0:2:0:0:
268,235,139214,1,8,0:2:0:0:
213,160,139329,54,0,B|141:157|179:195|98:191,1,118.75,6|0,1:2|0:0,0:0:0:0:
63,117,139676,2,0,P|78:92|104:79,2,59.375,2|8|0,0:0|1:2|0:0,0:0:0:0:
35,258,140022,53,2,0:0:0:0:
4,277,140137,1,2,0:0:0:0:
6,317,140252,2,0,L|65:328,1,59.375,2|10,1:2|0:2,0:0:0:0:
144,384,140483,2,0,L|202:372,1,59.375,2|0,0:0|0:0,0:0:0:0:
360,277,140714,2,0,P|324:231|267:234,1,118.75,10|0,1:2|0:0,0:0:0:0:
267,234,141060,1,0,0:0:0:0:
488,132,141176,53,2,1:2:0:0:
501,206,141291,1,2,0:0:0:0:
422,220,141406,1,2,0:0:0:0:
409,145,141522,2,0,L|398:85,1,59.375,2|8,0:0|1:2,0:0:0:0:
224,76,141868,53,2,0:0:0:0:
227,65,141983,1,2,0:0:0:0:
298,88,142099,1,2,1:2:0:0:
300,76,142214,2,0,L|311:18,1,59.375,10|0,0:2|0:0,0:0:0:0:
504,0,142445,1,2,0:0:0:0:
492,2,142560,2,0,L|433:14,1,59.375,10|0,1:2|0:0,0:0:0:0:
328,168,142791,2,0,L|269:180,1,59.375,0|0,3:2|3:0,0:0:0:0:
199,238,143022,54,0,L|82:218,1,118.75,2|0,1:2|0:0,0:0:0:0:
36,140,143368,2,0,P|61:125|90:127,2,59.375,2|12|0,0:0|1:2|0:0,0:0:0:0:
72,328,143714,53,2,0:0:0:0:
100,332,143829,1,2,0:0:0:0:
128,336,143945,2,0,L|187:325,1,59.375,2|10,1:2|0:2,0:0:0:0:
292,344,144176,2,0,P|317:358|335:381,1,59.375,2|0,0:0|0:0,0:0:0:0:
512,280,144406,2,0,P|463:311|410:289,1,118.75,10|0,1:2|0:0,0:0:0:0:
410,289,144752,1,0,0:0:0:0:
344,136,144868,53,2,1:2:0:0:
438,200,144983,1,2,0:0:0:0:
357,216,145099,1,2,0:0:0:0:
424,121,145214,2,0,L|482:110,1,59.375,2|12,0:0|1:2,0:0:0:0:
308,56,145445,54,0,P|304:26|316:0,2,59.375,2|2|10,0:0|0:0|0:2,0:0:0:0:
412,40,145791,2,0,P|433:20|462:17,1,59.375,2|8,1:2|0:2,0:0:0:0:
357,216,146022,2,0,P|328:220|301:207,1,59.375,10|8,0:2|0:2,0:0:0:0:
156,95,146252,53,8,1:3:0:0:
108,112,146368,1,4,0:3:0:0:
92,144,146483,1,4,0:3:0:0:
96,168,146599,1,0,1:2:0:0:
104,176,146714,53,4,1:2:0:0:
375,277,157253,37,0,1:2:0:0:
427,135,157390,1,8,1:2:0:0:
490,184,157526,69,0,0:0:0:0:
297,29,157662,1,8,0:2:0:0:
370,0,157799,38,0,L|378:46,1,47.5,0|0,1:2|0:0,0:0:0:0:
378,46,158208,2,0,B|315:28|257:82|306:89|249:148|172:127,1,237.5,12|0,0:2|0:0,0:0:0:0:
96,110,158617,70,0,P|93:75|114:46,1,71.2500027179719,6|0,1:2|0:0,0:0:0:0:
209,47,158890,1,8,0:2:0:0:
260,228,159026,2,0,B|193:216|193:216|188:218|188:218|116:205,1,142.500005435944,0|0,1:2|1:2,0:0:0:0:
10,319,159435,2,0,P|44:321|73:300,1,71.2500027179719,8|0,0:2|0:0,0:0:0:0:
173,128,159708,38,0,B|161:194|161:194|163:199|163:199|150:271,1,142.500005435944,0|10,1:2|0:2,0:0:0:0:
331,349,160117,1,0,1:2:0:0:
209,361,160253,2,0,P|223:329|254:313,1,71.2500027179719,2|0,0:2|1:2,0:0:0:0:
385,271,160526,2,0,P|416:286|430:318,1,71.2500027179719,10|0,0:2|0:0,0:0:0:0:
512,120,160799,70,0,P|443:117|400:63,1,142.500005435944,6|8,1:2|0:2,0:0:0:0:
237,5,161208,2,0,L|249:75,1,71.2500027179719,0|0,1:2|0:0,0:0:0:0:
323,35,161480,1,0,1:2:0:0:
194,169,161617,2,0,P|159:164|126:178,1,71.2500027179719,8|0,0:2|0:0,0:0:0:0:
0,133,161890,37,0,1:2:0:0:
84,104,162026,1,0,1:2:0:0:
190,310,162162,69,10,0:2:0:0:
106,281,162299,1,8,0:2:0:0:
122,366,162435,1,2,1:2:0:0:
341,312,162571,2,0,L|353:242,1,71.2500027179719,8|2,0:2|0:0,0:0:0:0:
512,325,162844,1,0,1:2:0:0:
414,384,162980,38,0,B|436:257|436:257|441:241|441:241|465:103,1,285,6|2,1:2|0:0,0:0:0:0:
465,103,164003,1,0,0:0:0:0:
465,103,164071,2,0,B|390:58|315:125|364:140|311:225|211:176,1,285,2|2,0:0|0:0,0:0:0:0:
222,181,165162,69,6,1:2:0:0:
0,91,165299,1,8,0:2:0:0:
241,191,165571,37,0,1:2:0:0:
0,91,165708,1,8,0:2:0:0:
64,44,165844,1,0,1:2:0:0:
77,123,166117,69,0,1:2:0:0:
257,198,166390,37,0,1:2:0:0:
0,91,166526,1,8,0:2:0:0:
96,206,166730,69,8,0:2:0:0:
96,206,166799,1,10,0:2:0:0:
42,292,167071,2,0,L|0:300,1,42.7499986953736,2|0,0:0|0:0,0:0:0:0:
4,314,167344,38,0,B|142:289|142:289|153:317|185:328,1,190,6|8,1:2|1:2,0:0:0:0:
263,194,167753,1,0,0:0:0:0:
220,256,167890,1,0,1:2:0:0:
305,384,168026,1,0,0:0:0:0:
380,368,168162,2,0,L|473:384,1,95,10|0,1:2|0:0,0:0:0:0:
512,188,168435,70,0,L|418:204,1,95,2|0,0:2|1:2,0:0:0:0:
184,187,168708,2,0,P|163:145|175:100,1,95,10|0,0:2|0:2,0:0:0:0:
374,0,168980,2,0,B|358:89|358:89|360:95|360:95|344:186,1,190,2|10,1:2|1:2,0:0:0:0:
435,126,169390,1,0,0:0:0:0:
220,256,169526,38,0,L|121:272,1,95,2|0,1:2|0:0,0:0:0:0:
7,92,169799,2,0,P|44:64|91:65,1,95,10|0,1:2|0:0,0:0:0:0:
207,22,170071,1,0,1:2:0:0:
175,100,170208,1,0,1:2:0:0:
126,271,170344,1,8,1:2:0:0:
70,154,170480,70,0,B|161:136|161:136|167:139|167:139|256:123,1,190,0|0,1:2|1:2,0:0:0:0:
339,173,170890,2,0,P|367:137|353:93,1,95,8|0,1:2|0:0,0:0:0:0:
220,256,171162,2,0,L|202:349,1,95,2|0,1:2|0:0,0:0:0:0:
59,327,171435,2,0,P|30:291|44:247,1,95,10|0,1:2|0:0,0:0:0:0:
313,262,171708,38,0,B|371:241|419:288|391:297|434:336|496:311,1,190,6|8,1:2|1:2,0:0:0:0:
418,171,172117,1,0,0:0:0:0:
461,233,172253,1,0,1:2:0:0:
257,322,172390,1,0,0:0:0:0:
186,348,172526,2,0,L|93:332,1,95,10|0,1:2|0:0,0:0:0:0:
0,181,172799,70,0,P|42:161|88:170,1,95,2|0,0:2|1:2,0:0:0:0:
239,161,173071,2,0,L|220:254,1,95,10|0,0:2|0:2,0:0:0:0:
83,258,173344,2,0,B|56:109|56:109|35:103|19:87,1,190,2|10,1:2|1:2,0:0:0:0:
78,31,173753,1,0,0:0:0:0:
302,110,173890,38,0,P|347:120|390:100,1,95,2|0,1:2|0:0,0:0:0:0:
245,0,174162,2,0,P|198:-1|161:27,1,95,10|0,1:2|0:0,0:0:0:0:
153,190,174435,1,2,1:2:0:0:
239,161,174571,1,0,1:2:0:0:
459,45,174708,1,10,1:2:0:0:
373,16,174844,1,0,0:2:0:0:
472,141,174980,70,0,B|460:205|460:205|429:225|429:225|415:303,1,178.125,2|0,1:2|0:0,0:0:0:0:
344,355,175253,2,0,P|389:296|315:283,1,178.125,10|0,1:2|0:0,0:0:0:0:
158,312,175526,2,0,P|203:362|268:344,1,142.5,2|0,1:2|0:0,0:0:0:0:
226,231,175799,2,0,L|238:160,1,71.2500027179719,10|0,1:2|1:2,0:0:0:0:
0,49,176071,38,0,B|48:25|96:62|80:77|121:108|172:92,1,190,6|8,1:2|1:2,0:0:0:0:
282,0,176480,1,0,0:0:0:0:
250,68,176617,1,0,1:2:0:0:
447,157,176753,1,0,0:0:0:0:
415,89,176890,2,0,P|374:64|327:63,1,95,10|0,1:2|0:0,0:0:0:0:
306,242,177162,70,0,L|400:226,1,95,2|0,0:2|1:2,0:0:0:0:
144,176,177435,2,0,P|132:221|153:262,1,95,10|0,0:2|0:2,0:0:0:0:
422,367,177708,2,0,B|281:342|281:342|263:360|238:368,1,190,2|10,1:2|1:2,0:0:0:0:
224,291,178117,1,0,0:0:0:0:
15,383,178253,38,0,L|0:289,1,95,2|0,1:2|0:0,0:0:0:0:
76,87,178526,2,0,L|58:180,1,95,10|0,1:2|0:0,0:0:0:0:
228,274,178799,1,0,1:2:0:0:
306,242,178935,1,0,1:2:0:0:
512,152,179071,1,10,1:2:0:0:
433,186,179208,70,0,B|291:160|291:160|259:118,1,190,2|0,1:2|1:2,0:0:0:0:
157,93,179617,2,0,L|172:-1,1,95,10|0,1:2|0:0,0:0:0:0:
439,105,179890,2,0,L|346:87,1,95,2|0,1:2|0:0,0:0:0:0:
115,173,180162,2,0,P|77:144|68:99,1,95,10|0,1:2|0:0,0:0:0:0:
19,338,180435,38,0,B|77:359|125:312|97:303|140:264|202:289,1,190,4|8,1:2|1:2,0:0:0:0:
358,357,180844,1,0,0:0:0:0:
257,374,180980,2,0,L|274:280,1,95,2|0,1:2|0:0,0:0:0:0:
423,184,181253,2,0,P|468:174|510:194,1,95,10|0,1:2|0:0,0:0:0:0:
239,186,181526,70,0,P|193:195|150:175,1,95,2|0,0:2|1:2,0:0:0:0:
191,14,181799,2,0,L|209:107,1,95,10|0,0:2|0:2,0:0:0:0:
339,209,182071,2,0,B|354:118|354:118|351:112|351:112|367:19,1,190,2|8,1:2|1:2,0:0:0:0:
437,91,182480,1,0,0:0:0:0:
274,280,182617,38,0,P|231:260|185:270,1,95,2|0,1:2|0:0,0:0:0:0:
77,202,182890,2,0,P|43:234|36:280,1,95,8|0,1:2|0:0,0:0:0:0:
214,356,183162,1,0,1:2:0:0:
185,270,183299,1,0,1:2:0:0:
195,92,183435,1,8,1:2:0:0:
166,178,183571,70,0,B|323:149|323:149|340:123,1,190,0|0,1:2|1:2,0:0:0:0:
437,91,183980,1,8,1:2:0:0:
221,11,184117,2,0,L|314:27,1,95,8|2,0:2|0:0,0:0:0:0:
439,223,184390,37,8,0:2:0:0:
355,238,184526,1,2,0:0:0:0:
271,253,184662,1,0,1:2:0:0:
506,157,184799,69,4,1:2:0:0:
487,370,193990,21,10,0:2:0:0:
487,370,194078,1,8,0:2:0:0:
487,370,194167,22,0,L|515:211,1,142.500005435944,6|0,1:2|1:2,0:0:0:0:
511,229,194696,1,10,0:2:0:0:
458,0,194872,86,0,P|460:17|467:34,1,35.625001358986,2|0,1:2|0:0,0:0:0:0:
431,100,195049,2,0,P|446:107|464:112,1,35.625001358986,0|0,1:2|0:0,0:0:0:0:
368,288,195225,22,0,P|365:264|356:242,1,47.5,0|0,1:2|0:0,0:0:0:0:
401,177,195402,2,0,P|380:165|357:160,1,47.5,2|0,1:2|0:0,0:0:0:0:
264,116,195578,86,0,P|286:95|314:89,1,59.375,10|0,1:2|0:0,0:0:0:0:
328,9,195755,2,0,P|357:14|378:34,1,59.375,8|0,1:2|0:0,0:0:0:0:
100,144,195931,22,0,P|81:114|81:78,1,71.2500027179719,8|0,1:2|0:0,0:0:0:0:
0,60,196108,2,0,P|13:27|42:6,1,71.2500027179719,10|0,1:2|0:0,0:0:0:0:
233,29,196284,86,0,P|198:38|172:62,1,71.2500027179719,10|0,1:2|0:0,0:0:0:0:
15,191,196461,2,0,P|41:216|75:227,1,71.2500027179719,8|0,1:2|0:0,0:0:0:0:
271,284,196637,22,0,P|279:250|272:216,1,71.2500027179719,8|0,1:2|0:0,0:0:0:0:
170,170,196814,1,10,1:2:0:0:
404,337,196990,86,0,B|437:305|491:317|491:317|435:255|355:317|406:333|338:389|256:365,1,356.25001358986,6|8,1:2|0:3,0:0:0:0:
258,358,197961,1,4,0:3:0:0:
255,347,198049,1,8,1:2:0:0:
108,377,198225,1,4,1:2:0:0:
0,41,199108,22,0,B|81:26|81:26|87:28|87:28|163:15,1,166.25,2|0,0:0|0:0,0:0:0:0:
169,31,199814,86,0,B|145:162|145:162|164:176|172:197,1,178.125,6|0,1:2|0:0,0:0:0:0:
139,265,200167,2,0,P|81:266|44:222,1,118.75,8|2,1:2|0:0,0:0:0:0:
405,153,200520,21,2,1:2:0:0:
172,196,200696,1,2,0:0:0:0:
335,198,200872,85,10,1:2:0:0:
252,182,201049,1,2,0:0:0:0:
367,279,201225,22,0,L|483:258,1,118.75,2|0,1:2|0:0,0:0:0:0:
512,68,201578,2,0,L|395:47,1,118.75,10|0,1:2|0:0,0:0:0:0:
102,151,201931,1,2,1:2:0:0:
102,151,202020,1,8,0:2:0:0:
102,151,202108,2,0,P|91:123|99:96,1,59.375,8|0,0:2|0:0,0:0:0:0:
174,62,202284,1,8,1:2:0:0:
58,249,202461,1,2,0:0:0:0:
102,311,202637,86,0,B|221:300|161:366|274:356,1,178.125,2|0,1:2|0:0,0:0:0:0:
292,284,202990,2,0,P|262:235|205:231,1,118.75,8|2,1:2|0:0,0:0:0:0:
437,378,203343,21,2,1:2:0:0:
480,145,203520,1,2,0:0:0:0:
382,309,203696,85,10,1:2:0:0:
465,293,203872,1,2,0:0:0:0:
345,178,204049,22,0,P|346:120|394:89,1,118.75,2|0,1:2|0:0,0:0:0:0:
122,34,204402,2,0,L|101:150,1,118.75,10|0,1:2|0:0,0:0:0:0:
4,337,204755,1,2,1:2:0:0:
4,337,204843,1,8,0:2:0:0:
4,337,204931,2,0,L|68:325,1,59.375,8|0,0:2|0:0,0:0:0:0:
89,256,205108,2,0,P|138:238|185:260,1,106.875004076958,8|0,1:2|0:0,0:0:0:0:
318,370,205461,86,0,B|405:354|405:354|410:358|410:358|492:344,1,178.125,6|0,1:2|0:0,0:0:0:0:
512,263,205814,2,0,P|454:263|417:219,1,118.75,8|2,1:2|0:0,0:0:0:0:
293,0,206167,21,2,1:2:0:0:
336,233,206343,1,2,0:0:0:0:
414,130,206520,85,10,1:2:0:0:
331,114,206696,1,2,0:0:0:0:
254,218,206872,22,0,L|233:334,1,118.75,2|0,1:2|0:0,0:0:0:0:
0,152,207225,2,0,P|57:146|106:178,1,118.75,8|0,1:2|0:0,0:0:0:0:
133,384,207578,1,2,1:2:0:0:
133,384,207667,1,8,0:2:0:0:
133,384,207755,2,0,P|104:379|84:358,1,59.375,8|0,0:2|0:0,0:0:0:0:
56,285,207931,1,10,1:2:0:0:
192,150,208108,1,0,0:0:0:0:
125,70,208284,86,0,P|211:67|272:4,1,178.125,2|0,1:2|0:0,0:0:0:0:
347,31,208637,2,0,L|405:20,1,59.375,12|2,1:2|0:0,0:0:0:0:
507,96,208814,1,10,0:2:0:0:
507,96,208902,1,8,0:2:0:0:
507,96,208990,21,10,1:2:0:0:
369,198,209167,1,10,0:2:0:0:
408,110,209343,1,10,1:2:0:0:
437,311,209520,86,0,B|389:332|351:290|369:285|338:249|276:267,1,178.125,6|0,1:2|0:2,0:0:0:0:
267,258,209872,1,2,1:2:0:0:
71,241,210049,2,0,P|30:282|35:339,1,118.75,14|0,1:2|0:0,0:0:0:0:
213,384,210402,2,0,L|224:325,1,59.375,10|0,1:2|0:0,0:0:0:0:
284,179,210578,1,8,0:2:0:0:
279,150,210667,1,8,0:2:0:0:
275,120,210755,1,8,1:2:0:0:
14,53,210931,1,8,0:2:0:0:
43,48,211020,1,8,0:2:0:0:
73,44,211108,22,0,B|157:29|157:29|162:32|162:32|249:18,1,178.125,6|0,1:2|0:0,0:0:0:0:
314,63,211461,2,0,P|273:104|216:99,1,118.75,8|2,1:2|0:0,0:0:0:0:
51,136,211814,85,2,1:2:0:0:
284,179,211990,1,2,0:0:0:0:
115,193,212167,21,10,1:2:0:0:
198,209,212343,1,2,0:0:0:0:
24,306,212520,86,0,L|140:285,1,118.75,2|0,1:2|0:0,0:0:0:0:
428,366,212872,2,0,P|372:348|320:373,1,118.75,8|0,1:2|0:0,0:0:0:0:
376,151,213225,1,2,1:2:0:0:
376,151,213314,1,8,0:2:0:0:
376,151,213402,2,0,P|388:123|412:109,1,59.375,8|0,0:2|0:0,0:0:0:0:
487,126,213578,1,8,1:2:0:0:
258,258,213755,1,2,0:0:0:0:
259,43,213931,22,0,B|236:172|236:172|210:182|196:209,1,178.125,2|0,1:2|0:0,0:0:0:0:
142,148,214284,2,0,P|112:99|55:95,1,118.75,8|2,1:2|0:0,0:0:0:0:
25,301,214637,85,2,1:2:0:0:
258,258,214814,1,2,0:0:0:0:
127,233,214990,21,10,1:2:0:0:
111,316,215167,1,2,0:0:0:0:
318,349,215343,86,0,L|434:369,1,118.75,2|0,1:2|0:0,0:0:0:0:
484,175,215696,2,0,P|518:128|512:70,1,118.75,8|0,1:2|0:0,0:0:0:0:
260,12,216049,1,2,1:2:0:0:
260,12,216137,1,8,0:2:0:0:
260,12,216225,2,0,L|324:0,1,59.375,8|0,0:2|0:0,0:0:0:0:
387,37,216402,1,8,1:2:0:0:
218,146,216578,1,8,0:2:0:0:
194,140,216667,1,8,0:2:0:0:
168,132,216755,22,0,P|110:142|60:112,1,118.75,6|2,1:2|0:0,0:0:0:0:
0,321,217108,2,0,P|50:291|107:300,1,118.75,10|0,1:2|0:0,0:0:0:0:
299,329,217461,85,2,1:2:0:0:
66,372,217637,1,2,0:0:0:0:
161,228,217814,21,10,1:2:0:0:
244,244,217990,2,0,L|360:223,1,118.75,2|0,0:0|1:2,0:0:0:0:
490,69,218343,1,0,0:0:0:0:
404,36,218519,2,0,P|398:92|430:142,1,118.75,8|0,1:2|0:0,0:0:0:0:
512,308,218872,1,2,1:2:0:0:
512,308,218961,1,8,0:2:0:0:
512,308,219049,2,0,P|483:313|463:334,1,59.375,10|0,0:2|0:0,0:0:0:0:
392,366,219225,1,10,1:2:0:0:
244,244,219402,1,2,0:0:0:0:
194,307,219578,86,0,B|86:298|142:360|21:353,1,178.125,2|0,1:2|0:0,0:0:0:0:
14,281,219931,2,0,P|22:224|73:200,1,118.75,12|10,1:2|0:2,0:0:0:0:
133,153,220196,1,8,0:2:0:0:
129,133,220284,1,10,1:2:0:0:
292,50,220461,2,0,L|269:166,1,118.75,8|0,0:2|1:2,0:0:0:0:
512,384,220814,22,0,P|417:326|450:221,1,237.5,14|0,1:2|1:2,0:0:0:0:
450,221,221343,1,12,1:2:0:0:
320,360,221519,1,8,0:2:0:0:
314,331,221608,1,8,0:2:0:0:
309,304,221696,1,10,0:2:0:0:
199,221,221872,1,10,0:3:0:0:
95,259,222049,1,6,0:3:0:0:
84,339,222225,1,2,1:2:0:0:
95,341,222314,1,0,1:2:0:0:
108,343,222402,85,2,1:2:0:0:
238,364,222578,1,8,0:2:0:0:
500,298,222755,1,12,1:2:0:0:
466,169,222931,21,10,0:2:0:0:
460,198,223019,1,8,0:2:0:0:
455,225,223108,1,10,0:2:0:0:
325,179,223284,2,0,P|318:122|364:89,1,118.75,8|0,1:2|0:0,0:0:0:0:
63,0,223637,86,0,L|83:116,1,118.75,14|2,0:2|0:0,0:0:0:0:
166,51,223990,1,8,1:2:0:0:
24,183,224167,2,0,P|29:240|78:269,1,118.75,12|2,1:2|0:0,0:0:0:0:
248,380,224519,21,10,1:2:0:0:
270,342,224608,1,8,0:2:0:0:
312,317,224696,1,8,0:2:0:0:
360,318,224784,1,8,0:2:0:0:
400,345,224872,1,10,1:2:0:0:
448,346,224961,1,8,0:2:0:0:
490,321,225049,1,10,0:2:0:0:
512,283,225137,1,8,0:2:0:0:
510,270,225225,85,6,1:2:0:0:
0,205,233259,5,6,1:2:0:0:
0,205,233416,2,0,B|69:192|69:192|74:195|74:195|143:183,1,142.500005435944,0|2,1:2|1:2,0:0:0:0:
317,83,233887,1,10,0:2:0:0:
311,0,234044,2,0,P|246:21|227:87,1,142.500005435944,0|0,1:2|1:2,0:0:0:0:
477,189,234515,21,0,1:2:0:0:
477,189,234672,2,0,P|428:141|361:154,1,142.500005435944,0|0,1:2|1:2,0:0:0:0:
205,254,235143,86,0,L|216:324,1,71.2500027179719,10|0,0:2|1:2,0:0:0:0:
371,381,235458,1,2,0:0:0:0:
331,233,235615,1,8,0:2:0:0:
325,263,235693,1,8,0:2:0:0:
318,293,235772,21,6,1:2:0:0:
27,33,237028,85,14,0:2:0:0:
91,260,237185,1,0,1:2:0:0:
199,128,237342,21,10,0:2:0:0:
85,96,237500,1,0,1:2:0:0:
220,271,237657,85,10,0:2:0:0:
447,207,237814,1,0,1:2:0:0:
315,99,237971,21,10,0:2:0:0:
283,213,238128,1,0,1:2:0:0:
486,360,238285,85,14,0:2:0:0:
486,360,238599,21,8,1:2:0:0:
308,297,238756,1,8,1:2:0:0:
378,252,238913,85,8,1:2:0:0:
145,344,239070,1,8,1:2:0:0:
238,365,239227,21,8,1:2:0:0:
199,128,239384,1,8,1:2:0:0:
99,212,239541,86,0,L|155:202,2,56.9999982604981,2|2|2,0:0|0:0|0:0,0:0:0:0:
6,65,240484,1,2,0:0:0:0:
6,65,240798,22,0,B|79:39|125:95|91:100|140:154|217:120,1,218.500004167557,6|8,1:2|1:2,0:0:0:0:
178,29,241269,1,2,0:0:0:0:
508,157,241426,2,0,P|457:65|352:63,1,218.500004167557,2|8,1:2|1:2,0:0:0:0:
279,13,241897,1,2,0:0:0:0:
157,221,242054,85,2,1:2:0:0:
408,147,242212,1,0,1:2:0:0:
290,123,242369,2,0,L|271:230,1,109.250002083778,10|0,1:2|0:0,0:0:0:0:
474,364,242683,1,2,1:2:0:0:
365,383,242840,1,0,1:2:0:0:
360,222,242997,2,0,L|467:240,1,109.250002083778,10|0,1:2|0:0,0:0:0:0:
178,366,243311,22,0,B|104:352|104:352|94:357|94:357|14:343,1,163.875003125668,2|0,1:2|0:0,0:0:0:0:
20,327,243625,1,8,1:2:0:0:
271,230,243782,1,2,0:0:0:0:
205,146,243939,1,2,1:2:0:0:
101,276,244096,1,0,1:2:0:0:
301,332,244253,2,0,L|408:313,1,109.250002083778,8|2,1:2|1:2,0:0:0:0:
486,250,244515,86,0,P|504:219|501:184,2,72.833334722519,2|2|2,0:0|0:0|1:2,0:0:0:0:
419,196,244803,21,2,0:0:0:0:
416,180,244882,2,0,L|344:167,2,72.833334722519,10|2|2,1:2|0:0|0:0,0:0:0:0:
463,109,245196,85,2,1:2:0:0:
351,243,245353,1,0,1:2:0:0:
231,61,245510,2,0,P|284:53|330:80,1,109.250002083778,8|0,1:2|0:0,0:0:0:0:
101,276,245824,22,0,B|82:173|82:173|78:169|78:169|59:59,1,218.500004167557,2|8,1:2|1:2,0:0:0:0:
0,0,246295,1,2,0:0:0:0:
232,139,246452,2,0,P|193:235|260:315,1,218.500004167557,2|8,1:2|1:2,0:0:0:0:
279,224,246924,1,2,0:0:0:0:
150,340,247081,85,2,1:2:0:0:
343,384,247238,1,0,1:2:0:0:
260,315,247395,2,0,L|367:296,1,109.250002083778,10|0,1:2|0:0,0:0:0:0:
512,159,247709,1,2,1:2:0:0:
461,284,247866,1,0,1:2:0:0:
313,107,248023,2,0,L|331:0,1,109.250002083778,10|0,1:2|0:0,0:0:0:0:
422,181,248337,22,0,P|342:175|278:223,1,163.875003125668,2|0,1:2|0:0,0:0:0:0:
282,241,248651,2,0,L|174:222,1,109.250002083778,10|0,1:2|0:0,0:0:0:0:
0,123,248965,1,2,1:2:0:0:
47,244,249123,1,2,1:2:0:0:
145,75,249280,2,0,P|188:44|241:49,1,109.250002083778,10|0,1:2|0:0,0:0:0:0:
485,0,249594,86,0,L|503:107,1,109.250002083778,2|0,1:2|1:2,0:0:0:0:
378,303,249908,2,0,P|369:251|403:210,1,109.250002083778,8|0,1:2|1:2,0:0:0:0:
506,274,250222,1,0,1:2:0:0:
316,356,250379,1,8,0:2:0:0:
288,360,250458,1,8,0:2:0:0:
260,365,250536,1,8,0:2:0:0:
233,370,250615,1,8,0:2:0:0:
205,375,250693,2,0,L|151:365,1,54.6250010418892,10|8,0:2|0:2,0:0:0:0:
65,351,250850,22,0,L|46:243,1,109.250002083778,6|2,1:2|0:0,0:0:0:0:
228,160,251164,1,10,1:2:0:0:
156,240,251322,1,2,0:0:0:0:
24,36,251479,2,0,P|71:59|81:111,1,109.250002083778,2|0,1:2|1:2,0:0:0:0:
268,256,251793,2,0,P|302:216|355:219,1,109.250002083778,10|0,1:2|0:0,0:0:0:0:
510,77,252107,85,2,1:2:0:0:
339,37,252264,1,0,1:2:0:0:
472,194,252421,2,0,L|490:86,1,109.250002083778,10|0,1:2|0:0,0:0:0:0:
239,94,252735,21,0,1:2:0:0:
213,117,252840,85,8,0:2:0:0:
182,122,252945,21,8,0:2:0:0:
102,69,253049,85,10,0:2:0:0:
87,60,253154,21,8,0:3:0:0:
70,63,253259,85,4,0:3:0:0:
6,109,253363,22,0,B|26:225|26:225|53:230|71:258,1,163.875003125668,6|0,1:2|0:0,0:0:0:0:
98,316,253678,86,0,P|44:269|16:334,1,163.875003125668,10|0,1:2|0:0,0:0:0:0:
178,350,253992,22,0,B|302:373|302:373|278:345,1,163.875003125668,10|0,1:2|0:0,0:0:0:0:
425,265,254306,85,6,1:2:0:0:
433,241,254620,21,0,1:2:0:0:
343,38,254777,1,8,1:2:0:0:
438,60,254934,1,0,1:2:0:0:
478,150,255091,1,0,1:2:0:0:
328,249,255248,85,10,0:2:0:0:
244,182,255405,1,8,0:2:0:0:
218,177,255484,1,8,0:2:0:0:
193,172,255562,1,10,0:2:0:0:
167,167,255641,1,8,0:2:0:0:
142,162,255719,1,8,0:2:0:0:
118,157,255798,1,8,0:2:0:0:
93,152,255876,22,0,P|45:128|0:153,1,109.250002083778,6|0,1:2|1:2,0:0:0:0:
66,361,256191,2,0,B|177:343|177:343|180:339|180:339|281:323,1,218.500004167557,10|2,1:2|1:2,0:0:0:0:
163,253,256662,1,0,1:2:0:0:
393,174,256819,2,0,P|426:215|427:269,1,109.250002083778,10|0,1:2|0:0,0:0:0:0:
244,182,257133,86,0,L|262:74,1,109.250002083778,2|0,1:2|1:2,0:0:0:0:
512,76,257447,2,0,B|452:95|401:49|444:37|388:-22|314:7,1,218.500004167557,8|2,1:2|1:2,0:0:0:0:
351,92,257918,1,0,1:2:0:0:
80,18,258075,2,0,P|46:59|45:113,1,109.250002083778,10|0,1:2|0:0,0:0:0:0:
0,259,258390,21,14,0:2:0:0:
227,195,258547,1,0,1:2:0:0:
144,115,258704,85,10,0:2:0:0:
112,229,258861,1,0,1:2:0:0:
326,301,259018,21,10,0:2:0:0:
262,74,259175,1,0,1:2:0:0:
227,195,259332,85,10,0:2:0:0:
341,227,259489,1,0,1:2:0:0:
341,227,259646,1,0,1:2:0:0:
475,66,259803,21,8,0:2:0:0:
351,92,259960,1,0,1:2:0:0:
351,92,260117,1,0,1:2:0:0:
196,306,260274,86,0,L|205:359,1,54.6250010418892,14|0,0:2|0:0,0:0:0:0:
447,368,260431,1,8,0:2:0:0:
476,359,260510,1,8,0:2:0:0:
499,340,260589,1,8,0:2:0:0:
510,315,260667,1,8,0:2:0:0:
512,287,260746,1,8,0:2:0:0:
503,260,260824,1,8,0:2:0:0:
483,239,260903,22,0,B|330:213|330:213|321:177|288:162,1,218.500004167557,6|8,1:2|1:2,0:0:0:0:
248,236,261374,1,2,0:0:0:0:
2,106,261531,2,0,P|50:16|151:34,1,218.500004167557,2|8,1:2|1:2,0:0:0:0:
233,0,262002,1,2,0:0:0:0:
141,248,262159,85,2,1:2:0:0:
89,89,262316,1,0,1:2:0:0:
293,164,262473,2,0,L|186:145,1,109.250002083778,10|0,1:2|0:0,0:0:0:0:
0,222,262787,1,2,1:2:0:0:
198,338,262945,1,0,1:2:0:0:
45,384,263102,2,0,L|62:277,1,109.250002083778,10|0,1:2|0:0,0:0:0:0:
284,79,263416,22,0,B|390:78|332:132|437:135,1,163.875003125668,2|0,1:2|0:0,0:0:0:0:
436,122,263730,1,8,1:2:0:0:
325,280,263887,1,2,0:0:0:0:
293,164,264044,1,2,1:2:0:0:
501,296,264201,1,0,1:2:0:0:
365,384,264358,2,0,L|258:365,1,109.250002083778,8|2,1:2|1:2,0:0:0:0:
207,262,264672,86,0,P|176:244|141:247,2,72.833334722519,2|2|2,0:0|0:0|0:2,0:0:0:0:
80,325,264986,22,0,P|49:343|14:340,2,72.833334722519,10|2|2,1:2|0:0|0:2,0:0:0:0:
33,242,265301,85,2,1:2:0:0:
218,127,265458,1,0,1:2:0:0:
0,92,265615,2,0,P|52:98|90:137,1,109.250002083778,8|0,1:2|0:0,0:0:0:0:
223,0,265929,22,0,B|248:153|248:153|304:185,1,218.500004167557,2|8,1:2|1:2,0:0:0:0:
255,249,266400,1,2,0:0:0:0:
512,299,266557,2,0,P|432:232|335:270,1,218.500004167557,2|8,1:2|1:2,0:0:0:0:
390,343,267028,1,2,0:0:0:0:
140,378,267185,85,2,1:2:0:0:
255,249,267342,1,0,1:2:0:0:
125,163,267500,2,0,L|144:270,1,109.250002083778,10|0,1:2|0:0,0:0:0:0:
396,148,267814,1,2,1:2:0:0:
174,79,267971,1,0,1:2:0:0:
335,270,268128,2,0,L|442:252,1,109.250002083778,14|0,1:2|0:0,0:0:0:0:
506,75,268442,22,0,B|408:73|470:20|352:18,1,163.875003125668,2|0,1:2|0:0,0:0:0:0:
353,37,268756,2,0,L|245:18,1,109.250002083778,10|0,1:2|0:0,0:0:0:0:
68,75,269070,1,2,1:2:0:0:
217,169,269227,1,2,1:2:0:0:
0,252,269384,2,0,L|17:144,1,109.250002083778,10|0,1:2|0:0,0:0:0:0:
218,366,269698,86,0,P|184:324|132:312,1,109.250002083778,2|0,1:2|1:2,0:0:0:0:
409,166,270013,2,0,P|355:171|314:207,1,109.250002083778,8|0,1:2|1:2,0:0:0:0:
346,334,270327,1,8,1:2:0:0:
512,103,270484,21,8,0:2:0:0:
474,104,270562,1,8,0:2:0:0:
441,90,270641,1,8,0:2:0:0:
429,57,270719,1,8,0:2:0:0:
435,22,270798,2,0,L|381:12,1,54.6250010418892,10|8,0:2|0:2,0:0:0:0:
185,76,270955,86,0,P|180:128|216:168,1,109.250002083778,6|2,1:2|0:0,0:0:0:0:
427,250,271269,1,10,1:2:0:0:
350,90,271426,1,2,0:0:0:0:
212,251,271583,2,0,L|104:229,1,109.250002083778,2|0,1:2|1:2,0:0:0:0:
0,384,271897,2,0,L|107:365,1,109.250002083778,10|0,1:2|0:0,0:0:0:0:
351,373,272212,21,2,1:2:0:0:
287,216,272369,1,0,1:2:0:0:
495,309,272526,2,0,L|513:201,1,109.250002083778,10|0,1:2|0:0,0:0:0:0:
414,40,272840,85,0,1:2:0:0:
388,17,272945,21,8,0:2:0:0:
357,12,273049,85,8,0:2:0:0:
279,50,273154,21,10,0:2:0:0:
275,67,273259,85,8,0:3:0:0:
272,84,273363,21,4,0:3:0:0:
350,90,273468,86,0,B|252:89|309:145|195:145,1,163.875003125668,6|0,1:2|0:0,0:0:0:0:
133,74,273782,22,0,B|15:44|15:44|40:77,1,163.875003125668,10|0,1:2|0:0,0:0:0:0:
23,181,274096,86,0,B|141:211|141:211|115:177,1,163.875003125668,10|0,1:2|0:0,0:0:0:0:
250,360,274411,21,6,1:2:0:0:
253,380,274725,85,0,1:2:0:0:
492,290,274882,1,8,1:2:0:0:
401,244,275039,1,2,1:2:0:0:
296,280,275196,1,0,1:2:0:0:
376,335,275353,21,10,0:2:0:0:
310,145,275510,1,8,0:2:0:0:
322,122,275589,1,8,0:2:0:0:
342,111,275667,1,10,0:2:0:0:
366,110,275746,1,8,0:2:0:0:
390,119,275824,1,8,0:2:0:0:
403,138,275903,1,8,0:2:0:0:
404,163,275981,86,0,L|430:1,1,163.875003125668,6|0,1:2|1:2,0:0:0:0:
448,2,276295,1,0,1:2:0:0:
485,199,276452,1,8,0:2:0:0:
401,244,276609,21,2,1:2:0:0:
376,335,276924,1,2,1:2:0:0:
132,243,277238,86,0,P|58:210|17:141,1,163.875003125668,6|0,1:2|0:0,0:0:0:0:
28,131,277552,1,8,1:2:0:0:
86,55,277866,21,2,1:2:0:0:
179,74,278180,1,2,1:2:0:0:
70,335,278494,86,0,B|166:371|243:288|184:276|267:195|366:237,1,332.5,4|8,1:2|0:2,0:0:0:0:
363,248,279672,1,8,0:2:0:0:
365,262,279751,21,14,0:2:0:0:
444,0,279908,1,0,1:2:0:0:
444,0,280065,1,0,1:2:0:0:
509,53,280222,85,12,0:2:0:0:
233,100,280379,1,2,1:2:0:0:
233,100,280536,1,0,1:2:0:0:
315,57,280693,22,0,L|327:127,1,71.25,12|0,0:2|0:0,0:0:0:0:
340,135,281007,86,0,P|369:115|404:115,1,71.2500027179719,14|2,1:2|1:2,0:0:0:0:
512,315,281322,1,2,1:2:0:0:
440,279,281479,2,0,L|450:207,2,71.2500027179719,14|0|2,0:2|1:2|0:0,0:0:0:0:
267,353,281950,21,0,1:2:0:0:
241,361,282264,1,0,1:2:0:0:
213,354,282578,1,0,1:2:0:0:
193,333,282892,1,0,1:2:0:0:
190,307,283206,1,0,1:2:0:0:
204,279,283520,86,0,L|215:208,1,71.2500027179719,14|2,1:2|1:2,0:0:0:0:
0,170,283835,1,2,1:2:0:0:
55,226,283992,2,0,L|127:215,2,71.2500027179719,14|0|2,0:2|1:2|0:0,0:0:0:0:
41,100,284463,21,0,1:2:0:0:
117,120,284620,1,10,1:2:0:0:
201,195,284777,85,8,1:2:0:0:
125,215,284934,1,10,1:2:0:0:
97,40,285091,21,10,1:2:0:0:
182,276,285248,1,10,1:2:0:0:
279,173,285405,85,8,0:2:0:0:
319,175,285484,1,8,0:2:0:0:
352,195,285562,1,8,0:2:0:0:
367,235,285641,1,8,0:2:0:0:
355,282,285719,1,8,0:2:0:0:
370,322,285798,1,8,0:2:0:0:
403,342,285876,1,8,0:2:0:0:
443,344,285955,1,8,0:2:0:0:
452,333,286034,22,0,B|466:250|466:250|470:247|470:247|484:163,1,170.999994781494,6|10,1:2|1:2,0:0:0:0:
395,28,286505,1,2,0:2:0:0:
395,28,286583,1,8,0:2:0:0:
395,28,286662,2,0,P|365:58|359:100,1,85.4999973907472,0|2,1:2|1:2,0:0:0:0:
260,255,286976,1,8,1:2:0:0:
201,195,287133,2,0,L|116:180,1,85.4999973907472,2|0,0:0|1:2,0:0:0:0:
0,58,287447,85,2,0:0:0:0:
18,37,287526,1,2,0:0:0:0:
49,30,287604,2,0,L|133:43,1,85.4999973907472,10|2,1:2|0:0,0:0:0:0:
143,58,287840,2,0,L|185:50,1,42.7499986953736,8|0,0:2|1:2,0:0:0:0:
283,175,288075,21,2,1:2:0:0:
115,195,288232,1,10,1:2:0:0:
176,274,288390,1,2,0:0:0:0:
259,92,288547,86,0,P|327:44|409:55,1,170.999994781494,6|10,1:2|1:2,0:0:0:0:
512,168,289018,1,2,0:0:0:0:
512,168,289096,1,8,0:2:0:0:
512,168,289175,2,0,L|427:182,1,85.4999973907472,2|0,1:2|1:2,0:0:0:0:
252,334,289489,2,0,L|336:348,1,85.4999973907472,10|0,1:2|0:2,0:0:0:0:
477,366,289803,21,2,1:2:0:0:
455,275,289960,1,0,1:2:0:0:
351,121,290117,2,0,L|336:205,1,85.4999973907472,12|0,1:2|0:0,0:0:0:0:
166,361,290431,85,0,1:2:0:0:
50,270,290589,1,8,0:2:0:0:
30,240,290667,1,8,0:2:0:0:
33,202,290746,1,8,0:2:0:0:
61,178,290824,1,8,0:2:0:0:
75,141,290903,1,8,0:2:0:0:
63,104,290981,1,8,0:2:0:0:
46,97,291060,21,6,1:2:0:0:
504,247,298258,22,0,B|467:235|435:263|453:267|419:300|366:284,2,142.5,6|2|2,1:2|1:2|1:2,0:0:0:0:
504,247,299147,2,0,L|512:200,1,47.5,10|0,1:2|0:0,0:0:0:0:
370,56,299369,1,8,0:2:0:0:
311,45,299480,1,8,0:2:0:0:
277,75,299591,1,10,0:3:0:0:
271,111,299703,1,8,0:3:0:0:
284,134,299814,1,4,0:3:0:0:
296,138,299925,1,4,0:3:0:0:
301,134,300036,6,8,L|216:119,1,85.4999973907472,4|10,1:2|0:2,0:2:0:0:
180,50,300369,1,8,0:2:0:0:
162,60,300480,2,0,L|154:17,1,42.7499986953736,2|0,1:2|0:0,0:0:0:0:
13,90,300703,1,10,0:2:0:0:
32,100,300814,1,8,0:2:0:0:
50,110,300925,2,0,L|57:67,1,42.7499986953736,2|0,1:2|0:0,0:0:0:0:
164,185,301147,1,10,0:2:0:0:
144,194,301258,1,8,0:2:0:0:
126,204,301369,2,0,L|119:161,1,42.7499986953736,2|0,1:2|0:0,0:0:0:0:
0,338,301591,1,10,0:2:0:0:
21,341,301703,1,8,0:2:0:0:
40,345,301814,102,0,L|83:352,1,42.7499986953736,2|0,1:2|0:0,0:0:0:0:
51,269,302036,2,0,L|94:276,1,42.7499986953736,10|8,0:2|0:2,0:0:0:0:
191,376,302258,6,0,L|234:369,1,42.7499986953736,2|0,1:2|0:0,0:0:0:0:
180,300,302480,2,0,L|223:293,1,42.7499986953736,10|8,0:2|0:2,0:0:0:0:
361,316,302703,102,0,L|404:323,1,42.7499986953736,0|0,1:2|0:0,0:0:0:0:
512,106,302925,1,8,0:2:0:0:
500,91,303036,1,8,0:2:0:0:
475,72,303147,1,8,1:2:0:0:
428,54,303258,1,8,0:2:0:0:
357,51,303369,1,10,0:2:0:0:
279,81,303480,1,8,0:2:0:0:
232,167,303591,6,0,L|239:209,1,42.7499986953736,14|8,1:2|0:2,0:0:0:0:
110,373,303814,1,8,0:2:0:0:
42,353,303925,1,8,0:2:0:0:
13,289,304036,1,8,0:2:0:0:
45,224,304147,1,8,0:2:0:0:
117,202,304258,1,10,0:2:0:0:
159,140,304369,1,10,0:2:0:0:
147,65,304480,101,10,0:2:0:0:
110,37,304591,1,8,0:2:0:0:
66,32,304703,1,8,0:3:0:0:
30,57,304814,1,8,0:3:0:0:
0,130,304925,5,6,0:3:0:0:
17,132,305036,1,4,0:3:0:0:
34,135,305147,1,0,1:2:0:0:
49,137,305258,1,0,1:2:0:0:
117,202,305369,102,0,B|201:187|201:187|203:190|203:190|293:174,2,178.125,6|2|2,1:2|1:2|1:2,0:0:0:0:
117,202,306258,2,0,P|103:227|105:257,1,59.375,12|0,0:2|0:0,0:0:0:0:
274,348,306480,1,10,0:2:0:0:
287,356,306591,1,10,0:2:0:0:
325,361,306703,1,10,0:2:0:0:
382,329,306814,1,10,0:2:0:0:
397,253,306925,1,10,0:2:0:0:
357,180,307036,1,10,0:2:0:0:
241,0,307147,6,0,B|264:132|264:132|268:135|268:135|294:278,2,285,10|10|10,1:2|1:2|1:2,0:0:0:0:
0,348,308258,101,2,0:0:0:0:
3,331,308480,1,2,0:0:0:0:
5,316,308703,1,2,0:0:0:0:
190,320,308925,6,0,P|156:257|84:259,1,152,6|2,1:2|0:0,0:0:0:0:
74,57,309258,1,2,0:0:0:0:
1,107,309369,2,0,B|75:93|75:93|79:95|79:95|155:81,1,152,10|2,1:2|0:0,0:0:0:0:
423,139,309703,1,2,0:0:0:0:
341,108,309814,102,0,P|327:142|337:178,1,76,2|0,1:2|0:0,0:0:0:0:
496,87,310036,2,0,P|472:57|436:48,1,76,2|0,0:2|0:0,0:0:0:0:
428,226,310258,2,0,P|464:220|491:193,1,76,10|0,1:2|0:0,0:0:0:0:
220,10,310480,5,2,0:0:0:0:
301,27,310591,1,2,0:0:0:0:
209,9,310703,2,0,B|195:80|195:80|197:85|197:85|184:161,1,152,2|2,1:2|0:0,0:0:0:0:
100,213,311036,1,0,0:0:0:0:
177,247,311147,2,0,P|214:243|245:222,1,76,10|0,1:2|0:0,0:0:0:0:
69,132,311369,2,0,P|37:110|0:106,1,76,2|0,0:2|0:0,0:0:0:0:
29,326,311591,101,2,1:2:0:0:
109,299,311703,1,2,0:0:0:0:
28,337,311814,2,0,L|102:350,1,76,2|0,0:0|0:0,0:0:0:0:
100,213,312036,2,0,L|25:226,1,76,10|0,1:2|0:0,0:0:0:0:
270,366,312258,1,2,0:0:0:0:
344,351,312369,1,2,0:0:0:0:
418,335,312480,6,0,B|452:315|457:270|457:270|476:313|521:319,1,152,2|2,1:2|0:0,0:0:0:0:
431,67,312814,1,2,0:0:0:0:
510,101,312925,2,0,P|437:90|388:143,1,152,10|2,1:2|0:0,0:0:0:0:
177,247,313258,1,2,0:0:0:0:
255,278,313369,102,0,P|272:245|268:208,1,76,2|0,1:2|0:0,0:0:0:0:
113,143,313591,2,0,P|95:175|99:212,1,76,2|0,0:2|0:0,0:0:0:0:
34,312,313814,2,0,L|108:298,1,76,10|0,1:2|0:0,0:0:0:0:
249,112,314036,2,0,B|292:119|292:119|263:105,1,76,2|0,0:0|0:0,0:0:0:0:
131,63,314258,6,0,B|176:76|212:42|189:35|226:3|277:22,1,152,0|2,1:2|0:0,0:0:0:0:
431,67,314591,1,0,0:0:0:0:
416,72,314703,2,0,L|402:146,1,76,10|0,1:2|0:0,0:0:0:0:
459,329,314925,2,0,B|502:321|502:321|473:335,1,76,2|0,0:0|0:0,0:0:0:0:
318,371,315147,101,0,1:2:0:0:
365,263,315258,2,0,P|388:234|424:229,1,76,8|0,0:2|0:0,0:0:0:0:
305,364,315480,5,0,1:2:0:0:
352,256,315591,2,0,P|375:226|411:221,1,76,8|0,0:2|0:0,0:0:0:0:
254,277,315814,1,8,0:2:0:0:
236,272,315925,1,8,0:2:0:0:
133,346,316036,102,0,P|42:284|47:175,1,228,6|0,1:2|0:0,0:0:0:0:
86,101,316480,2,0,P|116:123|131:157,1,76,10|0,1:2|0:0,0:0:0:0:
216,354,316703,2,0,P|230:319|261:297,1,76,2|0,0:2|0:0,0:0:0:0:
459,329,316925,2,0,B|385:340|385:340|381:344|381:344|308:356,1,152,0|2,1:2|0:0,0:0:0:0:
282,175,317258,1,0,0:0:0:0:
286,192,317369,2,0,B|357:180|357:180|361:176|361:176|434:164,1,152,10|2,1:2|0:0,0:0:0:0:
512,234,317703,1,0,0:0:0:0:
437,248,317814,6,0,B|363:259|363:259|359:263|359:263|288:275,1,152,2|2,1:2|0:0,0:0:0:0:
288,275,318258,2,0,L|213:261,1,76,10|0,1:2|0:0,0:0:0:0:
418,73,318480,2,0,L|492:59,1,76,2|0,0:2|0:0,0:0:0:0:
319,0,318703,101,0,1:2:0:0:
319,0,318925,1,2,0:0:0:0:
251,36,319036,1,0,0:0:0:0:
278,108,319147,2,0,L|352:122,1,76,10|0,1:2|0:0,0:0:0:0:
418,73,319369,2,0,L|492:59,1,76,2|0,0:2|0:0,0:0:0:0:
251,36,319591,5,0,1:2:0:0:
251,36,319814,1,2,0:0:0:0:
278,108,319925,1,0,0:0:0:0:
211,149,320036,2,0,L|136:163,1,76,10|0,1:2|0:0,0:0:0:0:
93,101,320258,2,0,L|18:86,1,76,2|0,0:2|0:0,0:0:0:0:
72,372,320480,102,0,L|146:359,1,76,2|0,1:2|0:0,0:0:0:0:
211,149,320703,2,0,L|136:163,1,76,2|0,0:2|0:0,0:0:0:0:
153,281,320925,6,0,L|227:293,1,76,10|0,1:2|0:0,0:0:0:0:
315,232,321147,2,0,L|240:217,1,76,2|0,0:2|0:0,0:0:0:0:
343,353,321369,101,2,1:2:0:0:
369,350,321480,1,2,0:0:0:0:
397,347,321591,1,2,0:0:0:0:
423,344,321703,1,2,0:0:0:0:
472,285,321814,6,0,P|491:252|487:215,1,76,14|0,1:2|0:0,0:0:0:0:
278,68,322036,2,0,P|274:105|293:137,1,76,2|8,0:2|0:2,0:0:0:0:
512,54,322258,101,10,1:2:0:0:
490,31,322369,1,8,0:2:0:0:
459,22,322480,1,10,0:2:0:0:
429,27,322591,1,8,0:2:0:0:
366,86,322703,5,10,1:2:0:0:
293,137,322814,1,8,0:2:0:0:
206,120,322925,1,10,0:2:0:0:
161,44,323036,1,10,0:2:0:0:
48,24,323147,102,0,B|37:90|37:90|38:98|38:98|25:173,1,152,6|0,1:2|0:0,0:0:0:0:
234,351,323480,1,2,0:0:0:0:
155,284,323591,2,0,P|80:278|19:320,1,152,10|2,1:2|0:0,0:0:0:0:
247,363,323925,1,2,0:0:0:0:
300,274,324036,6,0,P|322:244|358:235,1,76,2|0,1:2|0:0,0:0:0:0:
198,139,324258,2,0,P|212:173|202:209,1,76,2|0,0:2|0:0,0:0:0:0:
369,112,324480,2,0,P|332:107|306:80,1,76,10|0,1:2|0:0,0:0:0:0:
507,272,324703,101,2,0:0:0:0:
421,295,324814,1,2,0:0:0:0:
508,260,324925,2,0,B|437:246|437:246|432:248|432:248|356:235,1,152,2|2,1:2|0:0,0:0:0:0:
291,173,325258,1,0,0:0:0:0:
438,148,325369,2,0,L|512:134,1,76,10|0,1:2|0:0,0:0:0:0:
238,8,325591,2,0,P|200:18|173:44,1,76,2|0,0:2|0:0,0:0:0:0:
90,323,325814,5,2,1:2:0:0:
0,340,325925,1,2,0:0:0:0:
100,323,326036,2,0,L|113:248,1,76,2|0,0:0|0:0,0:0:0:0:
12,98,326258,2,0,L|25:173,1,76,10|0,1:2|0:0,0:0:0:0:
242,241,326480,1,2,0:0:0:0:
291,173,326591,1,2,0:0:0:0:
262,98,326702,102,0,B|217:109|185:81|205:75|170:42|124:57,1,152,2|2,1:2|0:0,0:0:0:0:
113,248,327036,1,2,0:0:0:0:
175,301,327147,2,0,B|251:313|251:313|253:317|253:317|326:330,1,152,10|2,1:2|0:0,0:0:0:0:
512,221,327480,1,2,0:0:0:0:
511,211,327591,5,10,0:2:0:0:
471,148,327702,1,8,0:2:0:0:
415,141,327814,1,10,0:3:0:0:
385,160,327925,1,8,0:3:0:0:
385,174,328036,2,0,L|371:248,1,76,6|0,1:3|0:0,0:0:0:0:
90,323,328258,102,0,B|47:330|47:330|76:316,1,76,14|0,0:2|0:0,0:0:0:0:
113,248,328480,2,0,P|136:178|101:113,1,152,0|2,1:2|0:0,0:0:0:0:
13,28,328814,1,0,0:0:0:0:
0,31,328925,2,0,L|14:105,1,76,10|0,1:2|0:0,0:0:0:0:
259,205,329147,6,0,B|302:213|302:213|273:199,1,76,14|0,0:2|0:0,0:0:0:0:
212,123,329369,2,0,P|241:100|279:100,1,76,8|8,1:2|0:2,0:0:0:0:
424,22,329591,1,8,0:2:0:0:
463,49,329702,1,8,0:2:0:0:
480,94,329814,1,8,1:2:0:0:
462,139,329925,1,8,0:2:0:0:
423,166,330036,1,8,0:2:0:0:
406,211,330147,1,8,0:2:0:0:
474,254,330258,102,0,B|406:223|356:278|392:286|342:338|266:313,1,228,6|0,1:2|0:0,0:0:0:0:
259,177,330702,2,0,P|289:199|304:233,1,76,10|0,1:2|0:0,0:0:0:0:
39,373,330925,2,0,P|53:338|84:316,1,76,2|0,0:2|0:0,0:0:0:0:
171,232,331147,2,0,P|96:226|44:174,1,152,0|2,1:2|0:0,0:0:0:0:
269,79,331480,1,0,0:0:0:0:
263,92,331591,2,0,P|188:97|136:149,1,152,8|2,1:2|0:0,0:0:0:0:
342,226,331925,1,0,0:0:0:0:
422,166,332036,6,0,P|435:130|425:94,1,76,0|0,1:2|0:0,0:0:0:0:
437,259,332258,2,0,L|513:246,1,76,2|0,0:2|0:0,0:0:0:0:
374,35,332480,2,0,P|336:29|306:7,1,76,10|0,1:2|0:0,0:0:0:0:
108,50,332702,2,0,P|70:47|37:65,1,76,2|0,0:2|0:0,0:0:0:0:
0,255,332925,101,2,1:2:0:0:
36,248,333036,1,2,0:0:0:0:
125,315,333147,5,2,0:2:0:0:
89,308,333258,1,2,0:0:0:0:
71,376,333369,102,0,L|57:301,1,76,10|0,1:2|0:0,0:0:0:0:
288,233,333591,2,0,L|274:307,1,76,2|0,0:2|0:0,0:0:0:0:
194,254,333814,6,0,P|161:238|139:207,1,76,2|0,1:2|0:0,0:0:0:0:
196,36,334036,2,0,P|226:15|264:12,1,76,2|0,0:2|0:0,0:0:0:0:
385,151,334258,2,0,P|387:188|371:222,1,76,10|0,1:2|0:0,0:0:0:0:
288,233,334480,101,2,0:0:0:0:
280,201,334591,1,2,0:0:0:0:
273,171,334702,2,0,L|285:96,1,76,2|0,1:2|0:0,0:0:0:0:
509,305,334925,2,0,L|497:380,1,76,2|0,0:0|0:0,0:0:0:0:
387,314,335147,2,0,L|312:327,1,76,10|0,1:2|0:0,0:0:0:0:
386,67,335369,2,0,L|460:53,1,76,2|0,0:0|0:0,0:0:0:0:
195,255,335591,5,2,1:2:0:0:
167,249,335702,1,2,0:0:0:0:
140,245,335814,1,2,0:0:0:0:
113,240,335925,1,2,0:0:0:0:
33,292,336036,102,0,P|79:233|76:159,1,152,12|0,1:2|0:0,0:0:0:0:
5,64,336369,1,8,0:2:0:0:
9,79,336480,2,0,L|83:64,1,76,8|0,0:3|0:0,0:0:0:0:
258,0,336702,5,10,0:2:0:0:
233,41,336814,1,8,0:2:0:0:
245,91,336925,1,10,1:2:0:0:
320,114,337036,1,8,0:2:0:0:
338,193,337147,1,10,0:2:0:0:
295,254,337258,1,10,0:2:0:0:
298,268,337369,101,6,1:2:0:0:
46,371,338036,2,0,L|0:362,2,47.5,0|0|8,1:2|1:2|0:2,0:0:0:0:
46,371,339147,6,0,B|97:387|141:349|118:341|164:299|224:322,1,185.249991519928,6|2,1:2|0:0,0:0:0:0:
241,243,339591,2,0,P|213:230|195:205,1,61.7499971733095,8|0,1:2|0:0,0:0:0:0:
346,121,339814,1,2,0:0:0:0:
270,164,339925,1,8,0:2:0:0:
346,121,340036,2,0,P|363:146|366:176,1,61.7499971733095,0|0,1:2|0:0,0:0:0:0:
114,219,340258,101,2,0:0:0:0:
34,228,340369,1,2,0:0:0:0:
0,156,340480,1,10,1:2:0:0:
59,97,340591,1,2,0:0:0:0:
128,138,340702,1,2,0:0:0:0:
148,134,340814,1,10,0:2:0:0:
168,130,340925,6,0,P|237:80|202:2,1,185.249991519928,2|2,1:2|0:0,0:0:0:0:
305,10,341369,2,0,L|365:0,1,61.7499971733095,8|0,1:2|0:0,0:0:0:0:
489,109,341591,1,2,0:0:0:0:
425,52,341702,1,8,0:2:0:0:
489,109,341814,2,0,L|499:169,1,61.7499971733095,0|0,1:2|0:0,0:0:0:0:
328,222,342036,2,0,P|340:194|365:176,1,61.7499971733095,2|0,0:0|0:0,0:0:0:0:
512,281,342258,2,0,P|488:300|458:305,1,61.7499971733095,10|0,1:2|0:0,0:0:0:0:
297,374,342480,101,2,0:0:0:0:
286,373,342554,5,2,0:0:0:0:
275,372,342628,101,2,0:0:0:0:
266,372,342702,6,0,B|251:290|251:290|254:286|254:286|237:187,1,185.249991519928,2|2,1:2|0:0,0:0:0:0:
168,130,343147,2,0,P|143:111|113:109,1,61.7499971733095,8|0,1:2|0:0,0:0:0:0:
96,254,343369,1,2,0:0:0:0:
20,211,343480,1,8,0:2:0:0:
96,254,343591,2,0,P|113:229|116:199,1,61.7499971733095,0|0,1:2|0:0,0:0:0:0:
410,121,343814,101,2,0:0:0:0:
419,41,343925,1,2,0:0:0:0:
347,7,344036,1,10,1:2:0:0:
288,66,344147,1,2,0:0:0:0:
329,135,344258,1,2,0:0:0:0:
325,155,344369,1,10,0:2:0:0:
320,175,344480,6,0,B|379:165|379:165|385:166|385:166|444:156,1,123.499994346619,6|0,1:2|0:0,0:0:0:0:
500,105,344814,2,0,P|514:78|512:47,1,61.7499971733095,10|0,0:2|1:2,0:0:0:0:
323,347,345147,102,0,L|248:333,1,76,12|0,0:2|0:0,0:0:0:0:
88,194,345369,1,0,1:2:0:0:
98,178,345480,1,8,1:2:0:0:
115,167,345591,2,0,P|149:150|187:154,1,76,8|0,0:2|0:0,0:0:0:0:
106,354,345814,2,0,P|68:357|34:341,1,76,8|0,0:2|0:0,0:0:0:0:
250,213,346036,1,8,0:2:0:0:
253,233,346147,1,8,0:2:0:0:
320,175,346258,5,6,1:2:0:0:
0,316,352754,86,0,L|116:295,1,118.75,6|0,1:2|0:0,0:0:0:0:
168,239,353080,2,0,P|181:194|114:179,1,106.875004076958,6|8,1:2|0:2,0:0:0:0:
175,56,353515,1,8,0:2:0:0:
180,70,353623,102,0,B|254:69|224:109|291:111,1,118.75,6|0,1:2|0:0,0:0:0:0:
326,177,353949,2,0,B|396:180|365:140|432:142,1,106.875004076958,6|8,1:2|0:2,0:0:0:0:
493,198,354384,1,8,0:2:0:0:
500,210,354493,6,0,L|512:280,1,71.2500027179719,6|8,1:2|0:2,0:0:0:0:
348,369,354710,1,8,0:2:0:0:
294,384,354819,1,8,0:2:0:0:
248,359,354928,102,0,L|258:300,1,59.375,10|8,1:3|0:2,0:0:0:0:
128,205,355145,1,8,0:2:0:0:
95,223,355254,1,8,0:2:0:0:
89,255,355362,6,0,L|42:263,1,47.5,6|8,1:3|0:2,0:0:0:0:
0,158,355580,2,0,L|46:149,1,47.5,10|8,0:2|0:2,0:0:0:0:
143,104,355797,101,6,1:3:0:0:
152,89,355906,1,4,0:3:0:0:
154,73,356015,1,6,0:3:0:0:
150,57,356123,1,4,0:3:0:0:
83,27,356232,5,6,1:2:0:0:
481,365,359058,1,0,1:2:0:0:
478,351,359167,1,0,1:2:0:0:
475,337,359276,2,0,L|371:318,1,106.875004076958,12|0,1:2|0:0,0:0:0:0:
359,298,359710,102,0,P|338:270|342:235,1,71.2500027179719,6|0,1:2|0:0,0:0:0:0:
430,138,359928,2,0,L|465:131,1,35.625001358986,10|0,0:2|0:0,0:0:0:0:
355,21,360145,6,0,P|375:48|371:83,1,71.2500027179719,6|0,1:2|0:0,0:0:0:0:
284,181,360362,1,10,0:2:0:0:
248,187,360471,1,8,0:2:0:0:
190,142,360580,102,0,L|119:129,1,71.2500027179719,6|0,1:2|0:0,0:0:0:0:
61,82,360797,2,0,L|54:46,1,35.625001358986,10|0,0:2|0:0,0:0:0:0:
0,223,361015,5,6,1:2:0:0:
31,207,361123,1,8,0:2:0:0:
90,224,361232,1,10,0:2:0:0:
116,293,361341,1,8,0:2:0:0:
21,349,361449,102,0,B|100:377|152:311|119:306|175:245|259:278,2,256.499992172241,6|4|6,1:2|1:2|1:2,0:0:0:0:
21,349,362319,2,0,P|20:325|28:303,1,47.5,6|0,1:2|0:0,0:0:0:0:
190,142,362536,1,8,0:2:0:0:
206,110,362645,1,8,0:2:0:0:
207,73,362754,1,8,0:2:0:0:
194,43,362862,1,8,0:2:0:0:
163,27,362971,1,8,0:2:0:0:
128,25,363080,1,8,0:2:0:0:
51,114,363189,6,0,B|118:125|118:125|122:129|122:129|194:142,1,142.500005435944,6|0,1:2|0:0,0:0:0:0:
38,248,363515,1,0,0:0:0:0:
112,232,363623,2,0,L|182:219,1,71.2500027179719,10|0,1:2|0:0,0:0:0:0:
368,99,363841,101,2,0:0:0:0:
322,35,363949,2,0,P|295:57|284:91,1,71.2500027179719,2|0,0:0|1:2,0:0:0:0:
417,162,364167,1,2,0:0:0:0:
431,156,364276,2,0,L|501:169,1,71.2500027179719,2|0,0:0|0:0,0:0:0:0:
512,75,364493,2,0,L|441:61,1,71.2500027179719,10|0,1:2|0:0,0:0:0:0:
343,322,364710,5,2,0:0:0:0:
420,335,364819,1,2,0:0:0:0:
341,306,364928,2,0,L|319:165,1,142.500005435944,2|0,1:2|0:0,0:0:0:0:
319,165,365362,2,0,P|291:143|256:139,1,71.2500027179719,10|0,1:2|0:0,0:0:0:0:
0,93,365580,101,2,0:0:0:0:
127,53,365689,1,2,0:0:0:0:
51,24,365797,1,0,1:2:0:0:
4,108,365906,5,10,0:2:0:0:
131,68,366015,2,0,L|201:80,1,71.2500027179719,2|0,0:0|0:0,0:0:0:0:
154,198,366232,2,0,L|83:210,1,71.2500027179719,10|0,1:2|0:0,0:0:0:0:
0,340,366449,1,2,0:0:0:0:
33,324,366558,1,2,0:0:0:0:
69,328,366667,102,0,B|158:329|115:380|213:378,1,142.500005435944,2|0,1:2|0:0,0:0:0:0:
301,255,366993,1,0,0:0:0:0:
224,234,367102,2,0,P|218:268|232:300,1,71.2500027179719,10|0,1:2|0:0,0:0:0:0:
504,363,367319,5,2,0:0:0:0:
461,296,367428,2,0,L|448:225,1,71.2500027179719,2|0,0:0|1:2,0:0:0:0:
330,351,367645,1,2,0:0:0:0:
334,336,367754,2,0,L|404:349,1,71.2500027179719,2|0,0:0|0:0,0:0:0:0:
350,181,367971,2,0,P|318:164|283:166,1,71.2500027179719,10|0,1:2|0:0,0:0:0:0:
505,170,368189,101,2,0:0:0:0:
426,109,368297,1,2,0:0:0:0:
364,192,368406,2,0,L|505:170,1,142.500005435944,2|0,1:2|0:0,0:0:0:0:
505,170,368841,2,0,L|492:240,1,71.2500027179719,10|0,1:2|0:0,0:0:0:0:
334,336,369058,5,2,0:0:0:0:
207,296,369167,1,2,0:0:0:0:
258,365,369276,1,0,1:2:0:0:
340,319,369384,101,10,0:2:0:0:
213,279,369493,2,0,L|200:208,1,71.2500027179719,2|0,0:0|0:0,0:0:0:0:
66,287,369710,2,0,P|62:322|76:354,1,71.2500027179719,10|0,1:2|0:0,0:0:0:0:
293,234,369928,2,0,P|296:198|282:166,1,71.2500027179719,2|0,0:2|0:0,0:0:0:0:
54,89,370145,5,6,1:2:0:0:
50,107,370254,1,2,0:0:0:0:
134,139,370362,2,0,L|204:125,1,71.2500027179719,2|0,0:0|0:0,0:0:0:0:
402,15,370580,2,0,P|371:-2|336:0,1,71.2500027179719,10|0,1:2|0:0,0:0:0:0:
353,82,370797,2,0,L|366:152,1,71.2500027179719,2|0,0:0|0:0,0:0:0:0:
467,384,371015,102,0,L|480:313,1,71.2500027179719,2|0,1:2|0:0,0:0:0:0:
293,234,371232,1,2,0:0:0:0:
394,239,371341,2,0,P|428:232|454:208,1,71.2500027179719,2|8,0:0|1:2,0:0:0:0:
340,319,371558,2,0,L|269:331,1,71.2500027179719,2|0,0:0|0:0,0:0:0:0:
87,377,371776,6,0,P|69:346|71:311,1,71.2500027179719,2|0,0:2|1:2,0:0:0:0:
194,253,371993,1,2,0:0:0:0:
99,158,372102,2,0,L|112:228,1,71.2500027179719,2|0,0:0|0:0,0:0:0:0:
274,137,372319,2,0,L|204:125,1,71.2500027179719,10|0,1:2|0:0,0:0:0:0:
12,92,372536,101,2,0:0:0:0:
8,70,372645,1,2,0:0:0:0:
104,15,372754,2,0,P|134:-1|170:0,1,71.2500027179719,2|8,1:2|0:2,0:0:0:0:
353,82,372971,5,2,0:0:0:0:
349,104,373080,1,2,0:0:0:0:
274,137,373189,2,0,L|204:125,1,71.2500027179719,10|0,1:2|0:0,0:0:0:0:
380,309,373406,2,0,L|393:238,1,71.2500027179719,2|0,0:2|0:0,0:0:0:0:
64,295,373623,102,0,B|177:275|177:275|198:245,1,142.500005435944,2|0,1:2|0:0,0:0:0:0:
284,281,373949,1,0,0:0:0:0:
278,300,374058,2,0,L|288:370,1,71.2500027179719,10|0,1:2|0:0,0:0:0:0:
473,339,374276,1,2,0:0:0:0:
491,264,374384,2,0,L|503:193,1,71.2500027179719,2|0,0:0|1:2,0:0:0:0:
349,104,374602,1,2,0:0:0:0:
353,119,374710,2,0,L|423:106,1,71.2500027179719,2|0,0:0|0:0,0:0:0:0:
511,23,374928,2,0,P|479:6|444:8,1,71.2500027179719,10|0,1:2|0:0,0:0:0:0:
298,39,375145,2,0,P|273:65|266:99,1,71.2500027179719,2|0,0:2|0:0,0:0:0:0:
99,267,375362,6,0,B|85:197,1,71.2500027179719,4|0,1:2|0:0,0:0:0:0:
72,122,375580,1,8,0:2:0:0:
1,352,375797,101,0,1:2:0:0:
168,374,375906,2,0,P|214:321|283:315,1,142.500005435944,8|0,0:2|0:0,0:0:0:0:
327,251,376232,2,0,P|353:274|363:307,1,71.2500027179719,8|0,1:3|0:0,0:0:0:0:
507,376,376449,1,8,0:2:0:0:
478,353,376558,1,8,0:2:0:0:
461,320,376667,1,8,1:2:0:0:
460,287,376776,1,8,0:2:0:0:
482,259,376884,1,8,0:2:0:0:
512,242,376993,1,8,0:2:0:0:
512,161,377102,6,0,B|426:164|473:116|378:112,1,142.500005435944,6|0,1:2|0:0,0:0:0:0:
462,15,377428,1,0,0:0:0:0:
386,0,377536,2,0,P|355:17|336:47,1,71.2500027179719,10|0,1:2|0:0,0:0:0:0:
204,226,377754,101,2,0:0:0:0:
283,214,377862,2,0,P|278:179|255:152,1,71.2500027179719,2|0,0:0|1:2,0:0:0:0:
94,108,378080,1,2,0:0:0:0:
97,122,378189,2,0,L|167:109,1,71.2500027179719,2|0,0:0|0:0,0:0:0:0:
69,248,378406,2,0,L|-2:234,1,71.2500027179719,10|0,1:2|0:0,0:0:0:0:
253,295,378623,5,2,0:0:0:0:
240,372,378732,1,2,0:0:0:0:
268,293,378841,2,0,P|339:288|399:324,1,142.500005435944,2|0,1:2|0:0,0:0:0:0:
399,324,379276,2,0,P|421:296|425:261,1,71.2500027179719,10|0,1:2|0:0,0:0:0:0:
374,0,379493,101,2,0:0:0:0:
333,128,379602,1,2,0:0:0:0:
304,49,379710,1,0,1:2:0:0:
391,7,379819,5,10,0:2:0:0:
351,134,379928,2,0,L|421:122,1,71.2500027179719,2|0,0:0|0:0,0:0:0:0:
495,249,380145,2,0,L|424:261,1,71.2500027179719,10|0,1:2|0:0,0:0:0:0:
132,195,380362,1,2,0:0:0:0:
169,202,380471,1,2,0:0:0:0:
201,182,380580,102,0,B|176:41,1,142.500005435944,2|0,1:2|0:0,0:0:0:0:
23,73,380906,1,0,0:0:0:0:
57,144,381015,2,0,P|85:124|98:91,1,71.2500027179719,10|0,1:2|0:0,0:0:0:0:
145,308,381232,5,2,0:0:0:0:
70,289,381341,2,0,L|-1:302,1,71.2500027179719,2|0,0:0|1:2,0:0:0:0:
227,326,381558,1,2,0:0:0:0:
245,328,381667,2,0,L|315:341,1,71.2500027179719,2|0,0:0|0:0,0:0:0:0:
351,134,381884,2,0,P|316:144|293:170,1,71.2500027179719,10|0,1:2|0:0,0:0:0:0:
415,327,382102,101,2,0:0:0:0:
503,271,382210,1,2,0:0:0:0:
440,238,382319,2,0,L|418:97,1,142.500005435944,2|0,1:2|0:0,0:0:0:0:
418,97,382754,2,0,L|431:27,1,71.2500027179719,10|0,1:2|0:0,0:0:0:0:
125,126,382971,5,2,0:0:0:0:
252,86,383080,1,2,0:0:0:0:
205,154,383189,1,0,1:2:0:0:
118,109,383297,101,10,0:2:0:0:
245,69,383406,2,0,L|174:56,1,71.2500027179719,2|0,0:0|0:0,0:0:0:0:
0,181,383623,2,0,L|70:193,1,71.2500027179719,10|0,1:2|0:0,0:0:0:0:
201,332,383841,2,0,P|204:296|190:264,1,71.2500027179719,2|0,0:2|0:0,0:0:0:0:
351,134,384058,5,6,1:2:0:0:
369,130,384167,1,2,0:0:0:0:
436,171,384276,2,0,L|450:241,1,71.2500027179719,2|0,0:0|0:0,0:0:0:0:
350,374,384493,2,0,P|319:357|284:359,1,71.2500027179719,10|0,1:2|0:0,0:0:0:0:
305,239,384710,2,0,P|336:256|371:254,1,71.2500027179719,2|0,0:2|0:0,0:0:0:0:
493,102,384928,102,0,L|506:31,1,71.2500027179719,2|0,1:2|0:0,0:0:0:0:
352,3,385145,1,2,0:0:0:0:
234,78,385254,2,0,L|304:65,1,71.2500027179719,2|8,0:0|1:2,0:0:0:0:
246,170,385471,2,0,L|175:158,1,71.2500027179719,2|0,0:0|0:0,0:0:0:0:
0,91,385689,6,0,P|31:73|66:75,1,71.2500027179719,2|0,0:2|1:2,0:0:0:0:
157,240,385906,1,2,0:0:0:0:
62,230,386015,2,0,L|49:160,1,71.2500027179719,2|0,0:0|0:0,0:0:0:0:
220,314,386232,2,0,L|208:384,1,71.2500027179719,10|0,1:2|0:0,0:0:0:0:
334,365,386449,101,2,0:0:0:0:
330,343,386558,1,2,0:0:0:0:
411,290,386667,2,0,L|481:302,1,71.2500027179719,2|10,1:2|0:2,0:0:0:0:
471,146,386884,1,2,0:2:0:0:
393,82,386993,2,0,P|377:113|379:148,1,71.2500027179719,2|8,0:0|1:2,0:0:0:0:
233,240,387210,2,0,L|257:94,1,142.500005435944,0|0,0:2|0:0,0:0:0:0:
24,118,387536,6,0,B|60:101|67:61|67:61|88:101|149:98,1,142.500005435944,6|0,1:2|0:0,0:0:0:0:
214,9,387862,1,0,0:0:0:0:
209,25,387971,2,0,L|139:15,1,71.2500027179719,10|0,1:2|0:0,0:0:0:0:
22,208,388189,2,0,L|162:183,1,142.500005435944,2|0,0:0|1:2,0:0:0:0:
162,183,388623,2,0,P|191:164|226:167,1,71.2500027179719,2|0,0:0|0:0,0:0:0:0:
166,336,388841,2,0,P|130:337|99:320,1,71.2500027179719,10|0,1:2|0:0,0:0:0:0:
307,257,389058,2,0,L|293:327,1,71.2500027179719,2|0,0:2|0:0,0:0:0:0:
512,384,389276,102,0,B|497:314,1,71.2500027179719,4|0,1:2|0:0,0:0:0:0:
480,246,389493,1,10,0:2:0:0:
293,0,389710,2,0,P|315:26|349:34,1,71.2500027179719,2|8,1:2|0:2,0:0:0:0:
512,157,389928,1,10,0:2:0:0:
476,116,390036,1,8,0:2:0:0:
426,99,390145,1,10,1:2:0:0:
376,113,390254,1,8,0:2:0:0:
337,153,390362,1,8,0:2:0:0:
287,167,390471,1,8,0:2:0:0:
237,150,390580,5,10,1:3:0:0:
233,134,390689,1,8,0:3:0:0:
230,118,390797,1,6,0:3:0:0:
227,103,390906,1,4,0:3:0:0:
150,76,391015,101,6,1:2:0:0:
0,330,392754,5,6,1:2:0:0:
93,359,392862,1,2,0:0:0:0:
0,330,392971,1,10,0:2:0:0:
93,359,393080,2,0,L|163:346,1,71.2500027179719,2|0,1:2|1:2,0:0:0:0:
213,286,393297,2,0,B|318:305|318:305|345:339,1,142.500005435944,10|0,0:2|0:2,0:0:0:0:
484,301,393623,102,0,P|462:225|384:238,1,170.999994781494,10|2,0:2|0:2,0:0:0:0:
375,227,393949,2,0,P|455:208|502:274,1,170.999994781494,10|2,0:2|1:2,0:0:0:0:
292,207,394276,2,0,P|292:171|313:143,1,71.2500027179719,8|0,0:2|0:0,0:0:0:0:
512,45,394493,5,2,1:2:0:0:
419,74,394602,1,2,0:0:0:0:
512,45,394710,1,10,0:2:0:0:
419,74,394819,2,0,L|349:61,1,71.2500027179719,2|0,1:2|1:2,0:0:0:0:
290,11,395036,2,0,P|225:37|199:102,1,142.500005435944,10|0,0:2|0:2,0:0:0:0:
119,184,395362,102,0,P|85:209|43:209,1,85.4999973907472,10|0,1:2|0:0,0:0:0:0:
62,128,395580,1,2,0:2:0:0:
124,200,395689,6,0,P|90:225|48:225,1,85.4999973907472,10|0,0:2|1:2,0:0:0:0:
58,108,395906,1,2,0:2:0:0:
210,181,396015,2,0,L|221:251,1,71.2500027179719,10|0,0:2|0:0,0:0:0:0:
38,314,396232,101,2,1:2:0:0:
131,343,396341,1,2,0:0:0:0:
38,314,396449,1,10,0:2:0:0:
131,343,396558,2,0,L|201:330,1,71.2500027179719,2|0,1:2|1:2,0:0:0:0:
221,251,396776,2,0,B|326:270|326:270|353:304,1,142.500005435944,10|0,0:2|0:2,0:0:0:0:
432,367,397102,6,0,P|493:312|479:231,1,170.999994781494,10|2,1:2|0:0,0:0:0:0:
480,216,397428,2,0,P|507:293|463:363,1,170.999994781494,10|2,0:2|0:0,0:0:0:0:
397,219,397754,2,0,L|409:148,1,71.2500027179719,8|0,0:2|0:0,0:0:0:0:
512,45,397971,101,2,1:2:0:0:
419,74,398080,1,2,0:0:0:0:
512,45,398189,1,10,0:2:0:0:
419,74,398297,2,0,L|349:61,1,71.2500027179719,2|0,1:2|1:2,0:0:0:0:
290,11,398515,2,0,P|220:1|165:44,1,142.500005435944,10|0,0:2|0:2,0:0:0:0:
72,67,398841,6,0,P|97:101|97:143,1,85.4999973907472,10|0,1:2|0:0,0:0:0:0:
0,204,399058,2,0,B|99:207|60:262|160:262,1,170.999994781494,12|0,0:2|1:2,0:0:0:0:
214,313,399384,1,8,0:2:0:0:
217,334,399493,1,8,0:2:0:0:
220,355,399602,1,8,0:2:0:0:
293,383,399710,101,4,1:2:0:0:
308,288,408956,70,0,P|358:336|427:335,1,142.5,2|0,1:2|0:0,0:0:0:0:
447,320,409388,2,0,P|471:280|459:235,1,95,10|0,1:2|0:0,0:0:0:0:
388,186,409712,1,0,0:0:0:0:
375,185,409820,2,0,L|367:138,1,47.5,2|0,0:2|0:0,0:0:0:0:
440,100,410035,2,0,L|448:146,1,47.5,0|0,1:2|0:0,0:0:0:0:
288,184,410251,2,0,L|271:90,1,95,10|2,1:2|0:0,0:0:0:0:
0,56,410683,54,0,P|29:19|75:7,1,95,2|2,1:2|0:0,0:0:0:0:
192,144,411115,2,0,L|183:190,1,47.5,10|0,1:2|0:0,0:0:0:0:
80,248,411330,1,0,0:0:0:0:
64,250,411438,1,0,0:0:0:0:
48,253,411546,2,0,L|39:206,1,47.5,2|0,0:2|0:0,0:0:0:0:
100,136,411762,1,0,1:2:0:0:
208,272,411978,1,8,1:2:0:0:
112,336,412194,1,2,0:0:0:0:
280,368,412410,54,0,L|315:361,1,35.625001358986,10|0,1:2|0:0,0:0:0:0:
376,172,413273,54,0,L|363:205,1,35.625001358986,10|0,1:2|0:0,0:0:0:0:
392,296,413705,53,0,1:2:0:0:
500,356,413920,1,6,0:3:0:0:
504,348,414028,1,4,0:3:0:0:
508,340,414136,54,0,L|485:312,1,35.625001358986,10|0,1:2|0:0,0:0:0:0:
116,104,415215,53,0,1:2:0:0:
0,212,415431,2,0,P|21:203|45:203,1,47.5,8|0,1:2|0:0,0:0:0:0:
110,285,415647,1,8,0:2:0:0:
109,273,415755,1,8,0:2:0:0:
108,262,415863,54,0,B|168:235|205:275|179:284|216:321|269:304,1,178.125,6|0,1:2|0:0,0:0:0:0:
337,284,416294,2,0,P|358:263|366:235,1,59.375,10|0,1:2|0:0,0:0:0:0:
237,63,416510,1,0,0:0:0:0:
188,121,416618,1,0,0:0:0:0:
246,170,416726,2,0,B|297:161|297:161|301:162|301:162|363:151,1,118.75,2|0,0:2|1:2,0:0:0:0:
455,71,417050,1,0,0:0:0:0:
450,59,417158,2,0,L|460:0,1,59.375,10|0,1:2|0:0,0:0:0:0:
489,164,417374,54,0,P|521:212|512:269,1,118.75,2|0,0:2|1:2,0:0:0:0:
164,226,417805,2,0,P|155:168|187:120,1,118.75,2|8,1:2|1:2,0:0:0:0:
461,332,418237,1,2,0:0:0:0:
459,346,418345,1,0,0:0:0:0:
457,361,418453,1,0,0:0:0:0:
347,342,418669,54,0,L|288:352,1,59.375,2|0,1:2|0:0,0:0:0:0:
303,161,418884,2,0,L|362:151,1,59.375,10|0,1:2|0:0,0:0:0:0:
298,251,419100,2,0,L|239:240,1,59.375,2|0,0:0|0:0,0:0:0:0:
51,91,419316,53,0,1:2:0:0:
240,33,419532,1,2,1:2:0:0:
84,188,419748,2,0,B|75:138|75:138|72:137|72:137|60:73,1,118.75,10|2,1:2|0:0,0:0:0:0:
158,98,420071,1,0,0:0:0:0:
162,113,420179,2,0,P|195:111|220:123,1,59.375,2|0,0:0|0:0,0:0:0:0:
123,277,420395,2,0,P|95:288|66:285,1,59.375,2|0,1:2|0:0,0:0:0:0:
60,73,420611,2,0,L|71:131,1,59.375,10|0,1:2|0:0,0:0:0:0:
255,214,420827,2,0,P|233:233|222:260,1,59.375,2|0,0:0|0:0,0:0:0:0:
271,321,421043,54,0,P|316:359|374:358,1,118.75,0|2,1:2|1:2,0:0:0:0:
415,285,421366,1,0,0:0:0:0:
411,271,421474,2,0,L|469:281,1,59.375,10|0,1:2|0:0,0:0:0:0:
512,72,421690,1,2,0:0:0:0:
509,89,421798,1,0,0:0:0:0:
506,105,421906,1,0,0:0:0:0:
218,121,422122,54,0,L|179:127,2,39.5833333333333,0|0|0,1:2|0:0|0:0,0:0:0:0:
290,147,422338,54,0,B|366:141|328:185|404:178,1,118.75,8|6,1:2|0:3,0:0:0:0:
274,310,422661,1,4,0:3:0:0:
271,321,422769,54,0,B|140:298|140:298|124:324|90:329,1,178.125,6|0,1:2|0:0,0:0:0:0:
79,253,423201,2,0,P|58:232|50:204,1,59.375,10|0,1:2|0:0,0:0:0:0:
295,138,423417,1,0,0:0:0:0:
348,199,423525,1,0,0:0:0:0:
336,276,423633,2,0,P|392:293|445:268,1,118.75,2|0,0:2|1:2,0:0:0:0:
508,314,423956,1,0,0:0:0:0:
503,326,424064,2,0,P|515:352|514:381,1,59.375,10|0,1:2|0:0,0:0:0:0:
464,178,424280,54,0,L|347:198,1,118.75,2|0,0:2|1:2,0:0:0:0:
202,20,424712,2,0,L|318:40,1,118.75,2|8,1:2|1:2,0:0:0:0:
109,355,425143,1,2,0:0:0:0:
107,341,425251,1,0,0:0:0:0:
105,326,425359,1,0,0:0:0:0:
0,286,425575,54,0,P|24:270|54:270,1,59.375,2|0,1:2|0:0,0:0:0:0:
197,345,425791,2,0,P|221:360|251:362,1,59.375,10|0,1:2|0:0,0:0:0:0:
164,191,426007,2,0,L|153:250,1,59.375,2|0,0:0|0:0,0:0:0:0:
342,335,426223,53,0,1:2:0:0:
231,150,426438,1,2,1:2:0:0:
236,238,426654,2,0,B|312:234|273:199|347:197,1,118.75,10|2,1:2|0:0,0:0:0:0:
404,153,426978,1,0,0:0:0:0:
401,140,427086,2,0,P|434:138|459:150,1,59.375,2|0,0:0|0:0,0:0:0:0:
445,280,427302,2,0,P|415:282|388:271,1,59.375,2|0,1:2|0:0,0:0:0:0:
318,111,427518,2,0,P|306:84|308:54,1,59.375,10|0,1:2|0:0,0:0:0:0:
403,23,427733,2,0,L|461:34,1,59.375,2|0,0:0|0:0,0:0:0:0:
231,150,427949,54,0,B|174:159|174:159|170:162|170:162|114:171,1,118.75,0|2,1:2|1:2,0:0:0:0:
47,137,428273,1,0,0:0:0:0:
90,75,428381,2,0,L|100:16,1,59.375,10|0,1:2|0:0,0:0:0:0:
308,54,428597,1,12,1:2:0:0:
50,219,428812,53,0,1:2:0:0:
50,219,429028,2,0,L|56:257,2,39.5833333333333,8|8|8,0:2|0:2|0:2,0:0:0:0:
13,326,429244,54,0,P|38:340|68:340,1,59.375,0|0,1:2|0:0,0:0:0:0:
190,366,429460,1,8,0:2:0:0:
213,341,429568,1,8,0:2:0:0:
248,339,429676,54,0,B|334:323|334:323|337:321|337:321|430:304,1,178.125,6|0,1:2|0:0,0:0:0:0:
471,244,430107,2,0,P|445:229|416:228,1,59.375,10|0,1:2|0:0,0:0:0:0:
231,150,430323,1,0,0:0:0:0:
297,187,430431,1,0,0:0:0:0:
358,139,430539,2,0,P|375:83|351:31,1,118.75,2|0,0:2|1:2,0:0:0:0:
252,0,430863,1,0,0:0:0:0:
238,4,430971,2,0,P|224:29|226:59,1,59.375,10|0,1:2|0:0,0:0:0:0:
60,133,431187,54,0,P|107:100|164:109,1,118.75,2|0,0:2|1:2,0:0:0:0:
353,361,431618,2,0,P|295:370|247:338,1,118.75,2|8,1:2|1:2,0:0:0:0:
127,214,432050,1,2,0:0:0:0:
125,200,432158,1,0,0:0:0:0:
123,185,432266,1,0,0:0:0:0:
76,10,432482,54,0,L|135:0,1,59.375,2|0,1:2|0:0,0:0:0:0:
231,150,432697,2,0,L|221:209,1,59.375,10|0,1:2|0:0,0:0:0:0:
60,133,432913,2,0,L|1:122,1,59.375,2|0,0:0|0:0,0:0:0:0:
164,109,433129,53,0,1:2:0:0:
313,193,433345,1,2,1:2:0:0:
0,317,433561,2,0,P|42:277|99:280,1,118.75,10|0,1:2|0:0,0:0:0:0:
156,229,433884,1,0,0:0:0:0:
168,224,433992,2,0,P|192:245|201:272,1,59.375,2|0,0:0|0:0,0:0:0:0:
402,366,434208,2,0,P|374:377|345:374,1,59.375,2|0,1:2|0:0,0:0:0:0:
177,74,434424,2,0,P|162:48|164:19,1,59.375,10|0,1:2|0:0,0:0:0:0:
445,93,434640,2,0,P|421:75|392:72,1,59.375,2|0,0:0|0:0,0:0:0:0:
313,193,434856,54,0,L|430:173,1,118.75,0|2,1:2|1:2,0:0:0:0:
452,259,435179,1,0,0:0:0:0:
454,245,435287,2,0,L|512:255,1,59.375,10|0,1:2|0:0,0:0:0:0:
248,379,435503,1,2,0:0:0:0:
245,362,435611,1,0,0:0:0:0:
242,346,435719,1,0,0:0:0:0:
129,329,435935,54,0,L|123:368,2,39.5833333333333,0|0|0,1:2|0:0|0:0,0:0:0:0:
112,255,436151,54,0,P|54:266|5:235,1,118.75,8|2,1:2|0:0,0:0:0:0:
242,23,436582,54,0,B|299:8|339:45|315:57|353:88|414:68,1,178.125,6|0,1:2|0:0,0:0:0:0:
482,59,437014,2,0,P|473:30|453:10,1,59.375,10|0,1:2|0:0,0:0:0:0:
265,109,437230,1,0,0:0:0:0:
239,179,437338,1,0,0:0:0:0:
305,227,437446,2,0,P|354:196|412:206,1,118.75,2|0,0:2|1:2,0:0:0:0:
483,229,437769,1,0,0:0:0:0:
494,237,437877,2,0,L|483:298,1,59.375,10|0,1:2|0:0,0:0:0:0:
302,321,438093,54,0,B|238:316|265:364|195:361,1,118.75,2|0,0:2|1:2,0:0:0:0:
0,177,438525,2,0,B|70:174|43:222|106:217,1,118.75,2|8,1:2|1:2,0:0:0:0:
329,56,438956,1,2,0:0:0:0:
319,44,439064,1,0,0:0:0:0:
303,40,439172,1,0,0:0:0:0:
178,89,439388,54,0,P|202:73|232:73,1,59.375,2|0,1:2|0:0,0:0:0:0:
305,227,439604,2,0,P|329:242|359:244,1,59.375,10|0,1:2|0:0,0:0:0:0:
388,141,439820,2,0,P|412:126|442:124,1,59.375,2|0,0:2|0:0,0:0:0:0:
491,208,440035,53,0,1:2:0:0:
349,356,440251,1,2,1:2:0:0:
276,312,440467,2,0,P|218:304|173:340,1,118.75,10|2,1:2|0:0,0:0:0:0:
92,350,440791,1,0,0:0:0:0:
88,365,440899,2,0,P|63:343|54:316,1,59.375,2|0,0:0|0:0,0:0:0:0:
216,158,441115,2,0,P|226:185|224:214,1,59.375,2|0,1:2|0:0,0:0:0:0:
119,239,441330,2,0,L|60:228,1,59.375,10|0,1:2|0:0,0:0:0:0:
28,134,441546,2,0,L|86:145,1,59.375,2|0,0:0|0:0,0:0:0:0:
246,83,441762,54,0,P|256:55|254:26,1,59.375,0|0,1:2|0:0,0:0:0:0:
372,8,441978,1,0,1:2:0:0:
388,18,442086,1,0,1:2:0:0:
399,37,442194,1,0,1:2:0:0:
423,114,442302,54,0,L|364:103,1,59.375,8|0,0:2|1:2,0:0:0:0:
263,239,442518,1,8,0:2:0:0:
359,251,442625,2,0,L|348:192,1,59.375,8|0,0:2|0:0,0:0:0:0:
499,344,442841,53,8,0:2:0:0:
484,340,442913,53,0,1:2:0:0:
469,340,442985,53,0,1:2:0:0:
455,347,443057,54,0,L|396:357,1,59.375,8|0,0:2|0:0,0:0:0:0:
211,314,443273,53,8,0:2:0:0:
135,288,443381,1,8,0:2:0:0:
90,357,443489,2,0,P|42:326|45:270,1,118.75,8|0,1:2|0:0,0:0:0:0:
440,0,444784,54,0,P|424:67|519:68,1,178.125,2|0,0:0|0:0,0:0:0:0:
512,68,445215,1,4,1:2:0:0:
14,303,452578,70,0,P|112:287|86:384,1,237.5,2|0,1:2|0:0,0:0:0:0:
0,195,453341,2,0,B|52:213|105:168|70:160|119:121|183:141,1,190,2|2,1:2|0:0,0:0:0:0:
169,137,454104,1,2,0:0:0:0:
341,28,454358,1,2,0:0:0:0:
341,28,454485,1,2,0:0:0:0:
341,28,454612,70,0,P|263:76|269:166,1,190,0|0,1:2|0:0,0:0:0:0:
268,165,455375,2,0,L|314:156,1,47.5,0|0,1:2|0:0,0:0:0:0:
488,128,455629,1,0,0:0:0:0:
480,200,455883,1,0,0:0:0:0:
472,272,456138,1,0,0:0:0:0:
392,328,456392,1,2,0:0:0:0:
388,312,456519,1,2,0:0:0:0:
383,296,456646,38,0,B|300:310|300:310|295:307|295:307|205:323,1,178.125,2|0,1:2|0:0,0:0:0:0:
151,272,457155,2,0,P|102:284|81:337,1,106.875004076958,2|0,0:0|0:0,0:0:0:0:
243,224,457663,70,0,P|261:167|222:123,1,123.499994346619,2|0,1:2|0:0,0:0:0:0:
56,132,458044,38,0,P|96:175|154:163,1,123.499994346619,2|0,1:2|0:0,0:0:0:0:
152,84,458426,70,0,L|162:23,1,61.7499971733095,2|0,1:2|0:0,0:0:0:0:
258,0,458680,1,0,0:0:0:0:
416,48,458934,38,0,L|451:41,2,35.625001358986
356,104,459443,69,0,1:2:0:0:
338,100,459570,1,0,1:2:0:0:
318,95,459697,2,0,P|266:105|237:148,2,106.875004076958,0|0|2,1:2|1:2|1:2,0:0:0:0:
377,178,460587,1,2,0:0:0:0:
380,192,460714,38,0,L|450:178,1,71.2500027179719,2|2,1:2|0:0,0:0:0:0:
494,250,461222,2,0,L|423:263,1,71.2500027179719,2|2,0:2|1:2,0:0:0:0:
411,280,461604,2,0,L|305:261,1,106.875004076958,2|2,0:0|0:0,0:0:0:0:
202,281,462239,2,0,P|188:314|201:346,1,71.2500027179719,2|2,0:0|0:0,0:0:0:0:
125,377,462621,1,2,0:0:0:0:
120,365,462748,70,0,L|49:351,1,71.2500027179719,2|0,1:2|0:0,0:0:0:0:
0,267,463256,2,0,L|70:253,1,71.2500027179719,0|0,1:2|0:0,0:0:0:0:
217,98,463765,38,0,P|253:127|262:173,1,95,0|0,1:2|0:0,0:0:0:0:
152,233,464273,2,0,P|115:203|106:157,1,95,0|0,1:2|0:0,0:0:0:0:
355,59,464782,70,0,B|445:43|445:43|468:17,1,118.75,8|8,1:3|0:2,0:0:0:0:
476,7,465163,2,0,L|484:65,1,59.375,8|0,0:2|0:2,0:0:0:0:
512,345,465544,38,0,B|457:363|413:319|439:311|392:259|322:282,1,213.750008153916,4|6,1:2|0:3,0:0:0:0:
0,350,466816,70,0,B|145:323|145:323|164:352|195:355,1,199.499993911743,6|2,1:2|0:0,0:0:0:0:
216,281,467324,2,0,L|225:234,1,47.5,8|0,1:2|0:0,0:0:0:0:
114,24,467578,1,2,1:2:0:0:
35,39,467705,2,0,P|-1:127|62:197,1,199.499993911743,0|0,1:2|1:2,0:0:0:0:
62,197,468341,2,0,L|127:186,1,66.4999979705811,8|0,1:2|0:0,0:0:0:0:
323,23,468595,1,2,1:2:0:0:
243,6,468722,1,8,0:2:0:0:
331,35,468849,38,0,B|315:129|315:129|319:132|319:132|301:234,1,199.499993911743,2|2,1:2|0:0,0:0:0:0:
365,278,469358,2,0,P|385:265|409:262,1,47.5,8|0,1:2|0:0,0:0:0:0:
237,384,469612,1,2,1:2:0:0:
184,329,469739,2,0,P|87:310|1:356,1,199.499993911743,0|0,1:2|1:2,0:0:0:0:
1,356,470375,2,0,P|18:327|19:294,1,66.4999979705811,8|0,1:2|0:0,0:0:0:0:
95,82,470629,1,2,1:2:0:0:
36,146,470756,1,10,0:2:0:0:
73,224,470883,70,0,L|269:188,1,199.499993911743,2|0,1:2|0:0,0:0:0:0:
346,118,471392,2,0,B|422:131|422:131|399:149,1,95,10|0,1:2|1:2,0:0:0:0:
261,109,471773,1,8,0:2:0:0:
423,322,471900,38,0,B|397:356|479:420|527:350|535:271|444:225,1,227.999993041992,14|0,1:2|0:0,0:0:0:0:
304,234,472282,70,0,B|376:265|422:203|394:192|443:148|505:174,1,227.999993041992,14|0,1:2|0:2,0:2:0:0:
216,195,472663,38,0,P|250:87|338:157,1,265.999991882324,14|0,1:2|1:2,0:0:0:0:
167,310,473426,2,0,L|36:285,1,132.999995941162,8|2,1:2|1:2,0:0:0:0:
3,218,473807,2,0,P|40:150|92:160,1,132.999995941162,2|10,1:2|0:2,0:0:0:0:
132,94,474188,1,0,1:2:0:0:
252,61,474316,1,8,0:2:0:0:
252,61,474379,1,8,0:2:0:0:
252,61,474443,2,0,P|305:87|396:75,1,132.999995941162,10|10,1:2|0:2,0:0:0:0:
446,29,474824,1,10,0:2:0:0:
512,195,474951,70,0,P|418:211|389:302,1,199.499993911743,2|0,1:2|0:0,0:0:0:0:
408,384,475460,2,0,L|342:372,1,66.4999979705811,8|0,1:2|0:0,0:0:0:0:
172,198,475714,1,2,1:2:0:0:
245,226,475841,1,0,1:2:0:0:
247,305,475968,2,0,L|116:328,1,132.999995941162,2|0,0:0|0:0,0:0:0:0:
52,78,476349,1,2,1:2:0:0:
72,161,476477,2,0,P|124:123|130:59,1,132.999995941162,8|2,1:2|1:2,0:0:0:0:
321,0,476858,1,8,0:2:0:0:
255,40,476985,38,0,B|269:124|269:124|274:126|274:126|295:242,1,199.499993911743,2|0,1:2|0:0,0:0:0:0:
410,255,477494,2,0,B|437:271|462:260|462:260|439:259|416:242,1,95,10|0,1:2|1:2,0:0:0:0:
466,178,477875,1,8,0:2:0:0:
340,327,478002,70,0,B|276:354|225:303|259:290|204:238|136:263,1,227.999993041992,2|0,1:2|0:0,0:0:0:0:
110,366,478383,38,0,B|184:353|184:353|168:342,1,95,14|0,1:2|0:0,0:0:0:0:
14,247,478765,70,0,B|-21:192|4:131|77:100|117:136|117:136|89:139|62:170,1,265.999991882324,6|0,1:2|1:2,0:0:0:0:
71,160,479527,2,0,L|136:171,1,66.4999979705811,8|0,1:2|0:0,0:0:0:0:
278,65,479782,1,2,0:0:0:0:
354,53,479909,1,8,0:2:0:0:
274,78,480036,38,0,B|284:136|284:136|281:143|281:143|292:208,1,132.999995941162,2|0,1:2|1:2,0:0:0:0:
489,320,480417,1,2,0:0:0:0:
427,271,480544,2,0,P|394:270|365:285,1,66.4999979705811,8|0,1:2|0:0,0:0:0:0:
134,372,480799,69,2,0:0:0:0:
89,309,480926,1,2,0:0:0:0:
141,245,481053,2,0,L|157:162,1,85.4999973907472,2|0,1:2|0:0,0:0:0:0:
234,142,481307,37,10,0:2:0:0:
17,213,481434,2,0,L|0:129,1,85.4999973907472,2|0,1:2|0:0,0:0:0:0:
63,73,481688,69,10,0:2:0:0:
199,330,481816,2,0,B|272:363|330:316|300:290|359:237|429:271,1,256.499992172241,6|8,1:2|0:3,0:0:0:0:
495,230,482324,1,8,0:2:0:0:
390,160,482451,1,8,0:2:0:0:
390,160,482515,1,8,0:2:0:0:
390,160,482578,37,10,0:2:0:0:
495,25,482705,1,8,0:2:0:0:
504,12,482960,1,8,0:2:0:0:
308,93,483087,70,0,B|214:76|214:76|208:81|208:81|112:64,1,199.499993911743,6|2,1:2|0:0,0:0:0:0:
44,97,483595,2,0,P|34:75|34:51,1,47.5,8|0,1:2|0:0,0:0:0:0:
124,269,483849,1,2,1:2:0:0:
56,326,483977,2,0,P|144:290|214:353,1,199.499993911743,0|0,1:2|1:2,0:0:0:0:
214,353,484612,2,0,L|279:342,1,66.4999979705811,8|0,1:2|0:0,0:0:0:0:
464,313,484866,1,2,1:2:0:0:
396,370,484994,1,8,0:2:0:0:
477,302,485121,38,0,B|495:246|458:205|449:230|401:189|424:109,1,199.499993911743,2|2,1:2|0:0,0:0:0:0:
373,60,485629,2,0,P|393:47|417:44,1,47.5,8|0,1:2|0:0,0:0:0:0:
260,239,485883,1,2,1:2:0:0:
201,190,486010,2,0,B|105:173|105:173|101:175|101:175|5:158,1,199.499993911743,0|0,1:2|1:2,0:0:0:0:
4,158,486646,2,0,P|21:187|22:220,1,66.4999979705811,8|0,1:2|0:0,0:0:0:0:
201,379,486900,1,2,1:2:0:0:
184,292,487027,1,10,0:2:0:0:
260,239,487155,70,0,B|408:210|408:210|409:184|432:166,1,199.499993911743,2|0,1:2|0:0,0:0:0:0:
476,295,487663,2,0,B|491:218|491:218|495:215|495:215|511:127,1,170.999994781494,14|0,1:2|1:2,0:0:0:0:
476,59,488044,1,8,0:2:0:0:
163,98,488172,38,0,B|141:74|107:71|107:71|172:42|221:90|194:100|236:141|301:121,1,265.999991882324,14|0,1:2|0:0,0:0:0:0:
417,353,488553,70,0,B|349:350|315:278|315:278|306:358|244:383,1,265.999991882324,14|0,1:2|0:2,0:2:0:0:
53,243,488934,38,0,B|47:171|-54:185|-83:285|4:336|75:302|44:279|104:223|171:274,1,341.999989562989,14|0,1:2|1:2,0:0:0:0:
406,156,489697,2,0,P|352:118|287:123,1,132.999995941162,8|2,1:2|1:2,0:0:0:0:
159,37,490078,2,0,B|149:57|149:57|258:39,1,132.999995941162,2|10,1:2|0:2,0:0:0:0:
340,8,490460,1,0,1:2:0:0:
336,208,490587,1,8,0:2:0:0:
336,208,490650,1,8,0:2:0:0:
336,208,490714,2,0,L|194:184,1,132.999995941162,10|10,1:2|0:2,0:0:0:0:
136,133,491095,1,10,0:2:0:0:
0,292,491222,70,0,B|61:270|107:312|79:325|122:370|192:343,1,199.499993911743,2|0,1:2|0:0,0:0:0:0:
247,305,491731,2,0,P|276:319|293:347,1,66.4999979705811,8|0,1:2|0:0,0:0:0:0:
458,384,491985,1,2,1:2:0:0:
512,319,492112,1,0,1:2:0:0:
452,253,492239,2,0,L|429:122,1,132.999995941162,2|0,0:0|0:0,0:0:0:0:
187,81,492621,1,2,1:2:0:0:
255,40,492748,2,0,P|318:30|368:71,1,132.999995941162,8|2,1:2|1:2,0:0:0:0:
467,53,493129,1,8,0:2:0:0:
353,177,493256,38,0,B|269:191|269:191|267:196|267:196|151:217,1,199.499993911743,2|0,1:2|0:0,0:0:0:0:
51,173,493765,2,0,P|87:144|134:143,1,95,10|0,1:2|1:2,0:0:0:0:
187,81,494146,1,8,0:2:0:0:
5,275,494273,70,0,B|229:317,1,227.999993041992,14|0,1:2|0:0,0:0:0:0:
300,355,494655,38,0,B|311:380|342:382|342:382|323:372|313:349,1,95,14|0,1:2|0:0,0:0:0:0:
494,296,495036,70,0,B|527:305|503:243|430:207|359:224|359:224|345:265|304:277,1,265.999991882324,6|0,1:2|1:2,0:0:0:0:
105,197,495799,2,0,P|65:146|80:83,1,132.999995941162,8|0,1:2|0:0,0:0:0:0:
255,57,496180,1,8,0:2:0:0:
299,129,496307,38,0,B|241:139|241:139|234:136|234:136|169:147,1,132.999995941162,2|0,1:2|1:2,0:0:0:0:
105,197,496688,1,2,0:0:0:0:
143,264,496816,2,0,P|172:279|205:278,1,66.4999979705811,8|0,1:2|0:0,0:0:0:0:
402,266,497070,69,2,0:0:0:0:
457,321,497197,1,2,0:0:0:0:
403,380,497324,2,0,L|320:364,1,85.4999973907472,2|0,1:2|0:0,0:0:0:0:
244,377,497578,37,10,0:2:0:0:
327,198,497705,1,0,1:2:0:0:
403,180,497833,2,0,L|487:163,1,85.4999973907472,2|8,0:2|0:2,0:0:0:0:
189,18,498087,69,6,1:2:0:0:
189,18,498214,2,0,P|106:23|62:92,1,170.999994781494,2|8,0:2|0:2,0:0:0:0:
5,293,498595,37,10,0:3:0:0:
65,248,498722,1,8,0:3:0:0:
133,282,498849,1,6,0:3:0:0:
136,359,498977,1,4,0:3:0:0:
55,362,499104,1,2,1:2:0:0:
55,362,499358,69,6,1:2:0:0:
487,376,509203,54,0,P|511:335|506:289,1,95,0|0,1:2|0:0,0:0:0:0:
289,197,509631,1,10,1:2:0:0:
333,299,509846,1,2,3:2:0:0:
333,299,509953,1,0,3:2:0:0:
333,299,510060,2,0,L|426:315,1,95,0|0,1:2|1:2,0:0:0:0:
512,160,510488,1,10,1:2:0:0:
402,192,510703,2,0,L|393:145,1,47.5,2|0,0:0|0:0,0:0:0:0:
368,123,510917,70,0,L|274:106,1,95,0|0,1:2|0:0,0:0:0:0:
121,19,511346,1,10,1:2:0:0:
95,142,511560,1,2,3:2:0:0:
95,142,511667,1,0,3:0:0:0:
95,142,511774,2,0,P|137:121|184:122,1,95,0|0,1:2|1:2,0:0:0:0:
243,231,512203,2,0,L|196:240,1,47.5,10|0,1:2|0:0,0:0:0:0:
171,267,512417,38,0,L|77:250,1,95,2|0,0:0|1:2,0:0:0:0:
229,383,512846,1,2,0:0:0:0:
312,332,513060,2,0,P|356:320|395:345,1,95,10|0,1:2|3:0,0:0:0:0:
403,339,513381,1,0,3:0:0:0:
410,330,513488,1,0,1:2:0:0:
496,234,513703,2,0,L|512:133,1,95,2|8,1:2|1:2,0:0:0:0:
320,34,514131,69,0,0:0:0:0:
359,103,514346,1,0,1:2:0:0:
320,34,514560,2,0,L|226:50,1,95,2|8,0:0|1:2,0:0:0:0:
94,8,514988,1,2,3:2:0:0:
79,4,515096,1,0,3:0:0:0:
64,0,515203,2,0,P|27:29|17:75,1,95,2|2,1:2|1:2,0:0:0:0:
180,150,515631,2,0,P|226:154|266:130,1,95,8|0,1:2|0:0,0:0:0:0:
0,270,516060,38,0,B|52:255|89:286|71:298|112:332|165:311,1,170.999994781494,4|0,1:2|0:0,0:0:0:0:
165,298,516488,2,0,P|186:288|202:270,1,47.5,10|0,1:2|0:0,0:0:0:0:
387,233,516703,1,2,3:2:0:0:
360,239,516810,1,0,3:2:0:0:
334,246,516917,2,0,L|351:339,1,95,0|0,1:2|1:2,0:0:0:0:
452,349,517346,1,10,1:2:0:0:
340,149,517560,70,0,P|375:117|422:111,1,95,2|0,0:0|1:2,0:0:0:0:
489,153,517988,1,0,0:0:0:0:
259,197,518203,2,0,L|250:150,1,47.5,10|0,1:2|0:0,0:0:0:0:
227,132,518417,2,0,P|182:121|161:80,1,95,2|0,3:2|1:2,0:0:0:0:
245,44,518846,1,0,1:2:0:0:
16,18,519060,1,10,1:2:0:0:
81,71,519274,2,0,L|72:117,1,47.5,2|0,0:0|0:0,0:0:0:0:
52,141,519488,38,0,P|16:171|12:217,1,95,0|0,1:2|0:0,0:0:0:0:
199,314,519917,1,8,1:2:0:0:
93,354,520131,1,0,3:0:0:0:
89,333,520238,1,0,3:0:0:0:
85,313,520346,2,0,L|100:219,1,95,0|0,1:2|1:2,0:0:0:0:
227,132,520774,1,8,1:2:0:0:
392,367,520988,70,0,P|496:328|494:216,1,237.5,6|0,1:2|1:2,0:0:0:0:
428,277,521631,1,8,1:2:0:0:
289,75,521846,1,2,1:2:0:0:
295,53,521953,1,8,3:2:0:0:
301,32,522060,2,0,L|417:11,1,118.75,0|2,1:2|0:0,0:0:0:0:
510,135,522488,1,10,1:2:0:0:
294,310,522703,1,10,0:2:0:0:
290,334,522810,1,8,0:2:0:0:
285,357,522917,38,0,B|231:372|188:332|215:325|173:283|99:305,1,192.375000733852,6|0,1:2|0:0,0:0:0:0:
44,277,523346,2,0,P|21:255|14:224,1,64.1250002446175,8|0,1:2|0:0,0:0:0:0:
126,33,523560,1,2,3:2:0:0:
163,26,523667,1,0,3:0:0:0:
199,40,523774,2,0,L|176:166,1,128.250000489235,2|0,1:2|1:2,0:0:0:0:
392,367,524203,1,10,1:2:0:0:
458,308,524417,2,0,P|480:286|487:255,1,64.1250002446175,2|0,0:2|0:0,0:0:0:0:
372,123,524631,69,2,1:2:0:0:
366,92,524738,1,0,3:2:0:0:
361,60,524846,1,0,1:2:0:0:
335,198,525060,1,8,1:2:0:0:
435,178,525274,1,2,0:0:0:0:
361,60,525488,37,2,1:2:0:0:
283,254,525703,1,2,1:2:0:0:
502,215,525917,1,10,1:2:0:0:
238,120,526131,69,2,0:0:0:0:
206,128,526238,1,2,0:0:0:0:
175,137,526346,2,0,L|48:115,1,128.250000489235,2|2,1:2|0:0,0:0:0:0:
132,15,526774,2,0,P|159:0|191:-1,1,64.1250002446175,10|0,1:2|0:0,0:0:0:0:
373,165,526988,1,2,3:2:0:0:
406,190,527096,1,0,3:0:0:0:
410,232,527203,2,0,L|283:254,1,128.250000489235,2|0,1:2|1:2,0:0:0:0:
37,297,527631,1,10,1:2:0:0:
102,364,527846,2,0,P|128:381|159:380,1,64.1250002446175,2|0,0:2|0:0,0:0:0:0:
283,254,528060,37,2,1:2:0:0:
314,260,528167,1,0,3:2:0:0:
346,265,528274,1,0,3:2:0:0:
386,358,528488,1,8,1:2:0:0:
214,330,528703,1,2,0:0:0:0:
328,171,528917,69,2,1:2:0:0:
314,260,529131,1,2,1:2:0:0:
512,91,529346,1,10,1:2:0:0:
313,0,529560,1,2,0:0:0:0:
286,7,529667,1,2,0:0:0:0:
259,12,529774,38,0,P|234:69|259:125,1,128.250000489235,6|0,1:2|0:0,0:0:0:0:
21,188,530203,1,10,1:2:0:0:
66,115,530417,2,0,P|92:97|124:92,1,64.1250002446175,2|0,0:0|0:0,0:0:0:0:
200,226,530631,2,0,P|148:261|85:253,1,128.250000489235,0|0,1:2|1:2,0:0:0:0:
133,173,531060,69,10,1:2:0:0:
214,330,531274,2,0,P|240:347|272:352,1,64.1250002446175,2|0,0:0|0:0,0:0:0:0:
417,297,531488,37,0,1:2:0:0:
430,268,531596,1,0,3:0:0:0:
428,236,531703,1,0,1:2:0:0:
228,78,531917,1,10,1:2:0:0:
314,146,532131,2,0,L|440:123,1,128.250000489235,2|0,0:0|1:2,0:0:0:0:
344,247,532560,1,0,0:0:0:0:
133,173,532774,1,10,1:2:0:0:
214,330,532988,2,0,L|235:203,1,128.250000489235,2|0,0:0|1:2,0:0:0:0:
228,78,533417,69,0,0:0:0:0:
19,252,533631,1,10,1:2:0:0:
133,173,533846,2,0,P|103:117|43:99,1,128.250000489235,2|0,0:0|1:2,0:0:0:0:
104,254,534274,1,0,1:2:0:0:
389,177,534488,1,10,1:2:0:0:
291,253,534703,38,0,B|379:218|430:282|395:305|459:363|534:323,1,256.50000097847,6|0,1:2|1:2,0:0:0:0:
326,384,535346,2,0,L|336:320,1,64.1250002446175,8|0,1:2|0:0,0:0:0:0:
496,168,535560,69,0,3:2:0:0:
480,149,535667,1,0,3:0:0:0:
458,142,535774,1,0,1:2:0:0:
389,177,535881,2,0,L|325:165,1,64.1250002446175,8|2,0:2|0:0,0:0:0:0:
374,91,536096,37,0,1:2:0:0:
218,179,536203,2,0,P|198:156|195:124,1,64.1250002446175,10|0,0:2|0:0,0:0:0:0:
8,28,536417,1,10,0:2:0:0:
10,44,536524,1,8,0:2:0:0:
12,59,536631,70,0,B|27:144|27:144|30:148|30:148|49:252,1,192.375000733852,6|0,1:2|0:0,0:0:0:0:
60,324,537060,2,0,P|90:316|112:293,1,64.1250002446175,10|0,1:2|0:0,0:0:0:0:
405,262,537274,1,2,3:2:0:0:
412,299,537381,1,0,3:0:0:0:
398,335,537488,2,0,L|272:312,1,128.250000489235,0|0,1:2|1:2,0:0:0:0:
184,365,537917,1,10,1:2:0:0:
106,155,538131,2,0,P|84:133|53:126,1,64.1250002446175,2|0,0:2|0:0,0:0:0:0:
187,185,538346,37,2,1:2:0:0:
218,179,538453,1,0,3:2:0:0:
250,174,538560,1,0,1:2:0:0:
298,245,538774,1,8,1:2:0:0:
413,128,538988,1,2,0:0:0:0:
308,69,539203,69,2,1:2:0:0:
409,235,539417,1,2,1:2:0:0:
512,84,539631,1,10,1:2:0:0:
369,20,539846,37,2,0:0:0:0:
321,30,539953,1,2,0:0:0:0:
308,69,540060,2,0,L|435:47,1,128.250000489235,2|2,1:2|0:0,0:0:0:0:
468,250,540488,2,0,P|436:249|408:234,1,64.1250002446175,10|0,1:2|0:0,0:0:0:0:
203,104,540703,1,2,3:2:0:0:
196,145,540810,1,0,3:0:0:0:
190,184,540917,2,0,P|127:181|79:221,1,128.250000489235,0|0,1:2|1:2,0:0:0:0:
28,311,541346,1,10,1:2:0:0:
279,384,541560,2,0,P|310:385|337:368,1,64.1250002446175,2|0,0:2|0:0,0:0:0:0:
236,291,541774,69,2,1:2:0:0:
205,297,541881,1,0,3:2:0:0:
173,302,541988,1,0,3:2:0:0:
116,367,542203,1,8,1:2:0:0:
0,212,542417,1,2,0:0:0:0:
190,184,542631,37,2,1:2:0:0:
37,297,542846,1,2,1:2:0:0:
132,60,543060,1,10,1:2:0:0:
298,97,543274,1,2,0:0:0:0:
277,129,543381,1,2,0:0:0:0:
288,168,543488,70,0,L|418:189,1,128.250000489235,6|0,1:2|0:0,0:0:0:0:
501,144,543917,1,10,1:2:0:0:
392,334,544131,2,0,P|360:329|334:310,1,64.1250002446175,2|0,0:0|0:0,0:0:0:0:
240,255,544346,2,0,P|190:293|177:354,1,128.250000489235,0|0,1:2|1:2,0:0:0:0:
279,384,544774,37,10,1:2:0:0:
449,247,544988,2,0,P|476:230|508:226,1,64.1250002446175,2|0,0:0|0:0,0:0:0:0:
456,83,545203,69,0,1:2:0:0:
430,65,545310,1,0,3:0:0:0:
398,61,545417,1,0,1:2:0:0:
512,25,545631,1,10,1:2:0:0:
394,146,545846,2,0,L|268:169,1,128.250000489235,2|0,0:0|1:2,0:0:0:0:
69,55,546274,1,0,0:0:0:0:
170,204,546488,1,10,1:2:0:0:
267,169,546703,38,0,P|306:120|299:58,1,128.250000489235,2|0,0:0|1:2,0:0:0:0:
11,202,547131,2,0,P|4:264|44:313,1,128.250000489235,2|8,0:0|1:2,0:0:0:0:
201,375,547560,69,0,3:2:0:0:
227,357,547667,1,0,3:0:0:0:
259,353,547774,1,0,1:2:0:0:
381,376,547988,1,0,1:2:0:0:
170,204,548203,1,10,1:2:0:0:
243,252,548417,38,0,B|277:55|277:55|312:59|345:32,1,256.50000097847,2|2,1:2|1:2,0:0:0:0:
154,0,549060,2,0,P|183:11|206:33,1,64.1250002446175,14|0,1:2|0:0,0:0:0:0:
86,231,549274,1,2,3:2:0:0:
47,223,549381,1,0,3:0:0:0:
31,188,549488,2,0,P|22:126|59:75,1,128.250000489235,2|0,1:2|1:2,0:0:0:0:
167,115,549917,69,10,0:3:0:0:
64,318,550131,1,4,1:3:0:0:
83,315,550238,1,4,1:3:0:0:
103,313,550346,38,0,L|196:329,1,95,6|2,1:2|0:0,0:0:0:0:
292,237,550774,2,0,L|198:220,1,95,2|0,1:2|0:0,0:0:0:0:
338,375,551203,70,0,L|431:358,1,95,2|0,1:2|0:0,0:0:0:0:
468,175,551631,2,0,L|374:191,1,95,2|2,1:2|0:0,0:0:0:0:
214,108,552060,38,0,P|192:66|202:21,1,95,0|2,1:2|0:0,0:0:0:0:
512,260,552488,2,0,L|406:279,1,106.875004076958,2|0,1:2|0:0,0:0:0:0:
413,297,552917,69,10,1:2:0:0:
99,243,553131,1,10,1:2:0:0:
175,210,553346,2,0,P|191:204|185:220,1,42.7499986953736,2|0,0:0|0:2,0:0:0:0:
93,322,553774,37,6,1:2:0:0:
496,123,563180,86,0,B|443:114|443:114|437:118|437:118|375:107,1,118.75,4|0,1:2|0:0,0:0:0:0:
329,55,563549,2,0,P|313:30|312:0,1,59.375,2|0,0:0|1:2,0:0:0:0:
373,185,563795,1,2,0:0:0:0:
368,201,563918,2,0,P|338:199|314:183,1,59.375,2|0,0:0|0:0,0:0:0:0:
512,292,564164,101,2,1:2:0:0:
466,203,564286,2,0,L|486:319,1,118.75,2|2,0:0|0:0,0:0:0:0:
367,375,564655,1,2,1:2:0:0:
370,352,564778,1,2,0:0:0:0:
314,295,564901,1,2,0:0:0:0:
236,311,565024,1,2,0:0:0:0:
232,299,565147,6,0,L|115:320,1,118.75,2|0,1:2|0:0,0:0:0:0:
59,377,565516,2,0,L|0:365,1,59.375,2|0,0:0|1:2,0:0:0:0:
32,232,565762,1,2,0:0:0:0:
38,213,565885,2,0,L|96:224,1,59.375,2|0,0:0|0:0,0:0:0:0:
269,147,566131,101,2,1:2:0:0:
204,205,566254,2,0,P|160:167|162:110,1,118.75,2|2,0:0|0:0,0:0:0:0:
113,42,566623,2,0,P|138:27|167:26,1,59.375,2|0,1:2|0:0,0:0:0:0:
56,135,566868,2,0,P|26:134|1:119,1,59.375,2|0,0:0|0:0,0:0:0:0:
248,65,567114,6,0,L|364:44,1,118.75,2|0,1:2|0:0,0:0:0:0:
469,82,567483,1,2,0:0:0:0:
499,155,567606,1,2,1:2:0:0:
402,125,567729,1,2,0:0:0:0:
483,78,567852,2,0,L|472:19,1,59.375,2|0,0:0|0:0,0:0:0:0:
430,202,568098,101,2,1:2:0:0:
512,265,568221,2,0,P|462:233|405:242,1,118.75,2|2,0:0|0:0,0:0:0:0:
299,301,568590,1,2,1:2:0:0:
302,323,568713,1,2,0:0:0:0:
220,276,568836,2,0,P|191:266|170:246,1,59.375,2|0,0:0|0:0,0:0:0:0:
248,65,569082,6,0,P|298:92|303:149,1,118.75,2|0,1:2|0:0,0:0:0:0:
218,174,569450,2,0,L|159:163,1,59.375,2|0,0:0|1:2,0:0:0:0:
46,115,569696,1,2,0:0:0:0:
51,88,569819,2,0,L|109:77,1,59.375,2|0,0:0|0:0,0:0:0:0:
86,291,570065,101,2,1:2:0:0:
186,269,570188,2,0,P|227:229|217:173,1,118.75,2|10,0:0|0:2,0:0:0:0:
154,361,570557,5,10,0:2:0:0:
200,352,570680,1,8,0:2:0:0:
241,347,570803,1,10,0:2:0:0:
280,342,570926,1,8,0:2:0:0:
287,326,571049,102,0,P|318:301|357:301,1,79.1666666666667,6|2,1:2|0:0,0:0:0:0:
491,384,571418,2,0,L|432:373,1,59.375,2|2,0:0|1:2,0:0:0:0:
385,223,571664,1,2,0:0:0:0:
389,202,571786,2,0,L|447:212,1,59.375,2|0,0:0|0:0,0:0:0:0:
512,266,572032,5,2,1:2:0:0:
437,128,572155,2,0,P|422:72|458:28,1,118.75,2|2,0:0|0:0,0:0:0:0:
304,0,572524,2,0,P|331:9|352:30,1,59.375,2|0,1:2|0:0,0:0:0:0:
286,135,572770,1,2,0:0:0:0:
219,162,572893,1,2,0:0:0:0:
160,109,573016,102,0,B|100:98|100:98|95:101|95:101|42:92,1,118.75,2|2,1:2|0:0,0:0:0:0:
0,217,573385,1,2,0:0:0:0:
125,196,573508,2,0,P|143:219|147:248,1,59.375,2|0,1:2|0:0,0:0:0:0:
0,384,573754,2,0,P|4:354|22:331,1,59.375,2|0,0:0|0:0,0:0:0:0:
243,266,574000,5,8,1:3:0:0:
297,248,574123,1,8,0:2:0:0:
354,261,574246,1,8,0:2:0:0:
383,315,574368,1,8,0:2:0:0:
441,323,574491,101,10,0:2:0:0:
462,301,574614,1,10,0:2:0:0:
471,274,574737,2,0,L|460:215,1,59.375,10|0,0:2|0:0,0:0:0:0:
497,140,574983,5,2,0:2:0:0:
346,78,575967,101,2,0:0:0:0:
333,221,576950,6,0,P|336:197|348:177,1,47.5,10|0,1:2|0:0,0:0:0:0:
497,140,577196,102,0,P|475:149|451:147,1,47.5,10|0,1:2|0:0,0:0:0:0:
344,52,577442,6,0,P|362:66|373:87,1,47.5,10|0,1:2|0:0,0:0:0:0:
0,266,578918,102,0,B|46:253|79:281|62:291|94:312|137:302,1,142.500005435944,4|0,1:2|0:0,0:0:0:0:
126,216,579286,1,0,0:0:0:0:
229,360,579409,2,0,L|299:348,1,71.2500027179719,8|0,1:2|0:0,0:0:0:0:
489,233,579655,5,2,0:0:0:0:
422,199,579778,1,2,0:0:0:0:
376,261,579901,2,0,P|373:296|391:326,1,71.2500027179719,2|0,1:2|0:0,0:0:0:0:
471,136,580147,2,0,P|441:116|406:116,1,71.2500027179719,2|0,0:0|0:0,0:0:0:0:
374,34,580393,2,0,P|341:46|321:75,1,71.2500027179719,10|0,1:2|0:0,0:0:0:0:
158,184,580639,1,2,0:0:0:0:
85,156,580762,1,0,0:0:0:0:
161,169,580885,102,0,B|171:107|171:107|175:104|175:104|188:30,1,142.500005435944,2|0,1:2|0:0,0:0:0:0:
187,30,581254,2,0,P|160:6|125:0,1,71.2500027179719,2|8,0:0|1:2,0:0:0:0:
0,276,581623,6,0,P|34:269|61:246,1,71.2500027179719,2|0,0:0|0:0,0:0:0:0:
209,289,581868,2,0,P|180:268|145:268,1,71.2500027179719,2|0,1:2|0:0,0:0:0:0:
84,369,582114,2,0,L|154:382,1,71.2500027179719,2|0,0:0|0:0,0:0:0:0:
314,149,582360,2,0,L|243:135,1,71.2500027179719,10|0,1:2|0:0,0:0:0:0:
294,269,582606,1,2,0:0:0:0:
317,261,582729,1,2,0:0:0:0:
340,255,582852,102,0,L|480:280,1,142.500005435944,2|2,1:2|0:0,0:0:0:0:
512,154,583221,1,0,0:0:0:0:
441,99,583344,2,0,P|419:127|418:162,1,71.2500027179719,10|0,1:2|0:0,0:0:0:0:
502,343,583590,2,0,P|480:314|479:279,1,71.2500027179719,2|0,0:0|0:0,0:0:0:0:
314,149,583836,6,0,B|263:134|220:169|245:177|203:223|130:198,2,190,2|2|10,1:2|0:0|1:2,0:0:0:0:
142,100,584573,1,2,0:0:0:0:
217,64,584696,1,0,0:0:0:0:
138,118,584819,102,0,B|76:107|76:107|73:103|73:103|0:90,1,142.500005435944,2|0,1:2|0:0,0:0:0:0:
0,90,585188,2,0,P|10:56|39:36,1,71.2500027179719,2|8,0:0|1:2,0:0:0:0:
140,312,585557,5,2,0:0:0:0:
189,376,585680,1,2,0:0:0:0:
270,358,585803,2,0,L|340:346,1,71.2500027179719,2|0,1:2|0:0,0:0:0:0:
382,160,586049,2,0,L|311:148,1,71.2500027179719,2|0,0:0|0:0,0:0:0:0:
407,259,586295,2,0,L|477:247,1,71.2500027179719,10|0,1:2|0:0,0:0:0:0:
512,90,586541,1,2,0:0:0:0:
476,83,586664,1,0,0:0:0:0:
440,76,586786,102,0,P|370:72|323:21,1,142.500005435944,4|0,1:2|0:0,0:0:0:0:
409,0,587155,1,0,0:0:0:0:
236,40,587278,2,0,P|210:63|204:98,1,71.2500027179719,8|0,1:2|0:0,0:0:0:0:
10,169,587524,5,2,0:0:0:0:
93,182,587647,1,2,0:0:0:0:
179,191,587770,2,0,L|266:174,1,71.2500027179719,2|0,1:2|0:0,0:0:0:0:
383,277,588016,2,0,P|353:257|318:257,1,71.2500027179719,2|0,0:0|0:0,0:0:0:0:
174,320,588262,2,0,P|194:291|226:278,1,71.2500027179719,10|0,1:2|0:0,0:0:0:0:
463,237,588508,1,2,0:0:0:0:
389,190,588631,1,0,0:0:0:0:
474,225,588754,102,0,P|518:171|512:102,1,142.500005435944,2|0,1:2|0:0,0:0:0:0:
512,102,589123,2,0,P|477:95|450:72,1,71.2500027179719,2|8,0:0|1:2,0:0:0:0:
64,0,589491,6,0,P|98:6|125:29,1,71.2500027179719,2|0,0:0|0:0,0:0:0:0:
63,111,589737,2,0,P|34:131|0:131,1,71.2500027179719,2|0,1:2|0:0,0:0:0:0:
261,0,589983,2,0,P|256:35|235:64,1,71.2500027179719,2|0,0:0|0:0,0:0:0:0:
120,262,590229,2,0,P|85:267|53:252,1,71.2500027179719,10|0,1:2|0:0,0:0:0:0:
308,346,590475,1,2,0:0:0:0:
220,372,590598,1,2,0:0:0:0:
302,331,590721,102,0,B|407:349|407:349|415:369|439:382,1,142.500005435944,2|2,1:2|0:0,0:0:0:0:
419,101,591090,1,0,0:0:0:0:
350,157,591213,2,0,P|315:162|290:186,1,71.2500027179719,10|0,1:2|0:0,0:0:0:0:
488,310,591459,2,0,P|509:281|510:246,1,71.2500027179719,2|0,0:0|0:0,0:0:0:0:
261,0,591705,6,0,B|278:102|278:102|275:107|275:107|290:186,2,190,2|2|10,1:2|0:0|1:2,0:0:0:0:
143,246,592442,1,2,0:0:0:0:
218,282,592565,1,0,0:0:0:0:
139,228,592688,102,0,P|72:207|11:239,1,142.500005435944,2|0,1:2|0:0,0:0:0:0:
11,239,593057,2,0,P|3:273|18:305,1,71.2500027179719,2|8,0:0|1:2,0:0:0:0:
401,384,593426,5,2,0:0:0:0:
356,324,593549,1,2,0:0:0:0:
376,250,593672,2,0,P|405:231|440:235,1,71.2500027179719,2|0,1:2|0:0,0:0:0:0:
512,59,593918,101,10,0:2:0:0:
485,87,594041,1,8,0:2:0:0:
448,91,594164,1,10,1:2:0:0:
416,79,594286,1,8,0:2:0:0:
374,83,594409,1,10,0:2:0:0:
351,116,594532,1,8,0:2:0:0:
359,126,594655,6,0,B|296:114|296:114|291:116|291:116|216:102,1,142.500005435944,4|0,1:2|0:0,0:0:0:0:
295,35,595024,1,0,0:0:0:0:
220,201,595147,2,0,L|150:213,1,71.2500027179719,8|0,1:2|0:0,0:0:0:0:
44,114,595393,101,2,0:0:0:0:
10,47,595516,1,2,0:0:0:0:
72,1,595639,2,0,P|107:-2|137:16,1,71.2500027179719,2|0,1:2|0:0,0:0:0:0:
289,147,595885,2,0,P|309:177|309:212,1,71.2500027179719,2|0,0:0|0:0,0:0:0:0:
96,253,596131,2,0,P|115:224|148:212,1,71.2500027179719,10|0,1:2|0:0,0:0:0:0:
374,349,596377,1,2,0:0:0:0:
301,321,596500,1,0,0:0:0:0:
384,338,596623,6,0,P|425:280|418:211,1,142.500005435944,2|0,1:2|0:0,0:0:0:0:
418,211,596991,2,0,P|445:187|480:181,1,71.2500027179719,2|8,0:0|1:2,0:0:0:0:
220,361,597360,102,0,P|186:354|159:331,1,71.2500027179719,2|0,0:0|0:0,0:0:0:0:
245,190,597606,2,0,P|280:190|308:211,1,71.2500027179719,2|0,1:2|0:0,0:0:0:0:
96,253,597852,2,0,L|109:183,1,71.2500027179719,2|0,0:0|0:0,0:0:0:0:
365,59,598098,2,0,L|378:128,1,71.2500027179719,10|0,1:2|0:0,0:0:0:0:
186,127,598344,1,2,0:0:0:0:
182,108,598467,1,2,0:0:0:0:
179,91,598590,6,0,B|94:97|130:47|41:55,1,142.500005435944,2|2,1:2|0:0,0:0:0:0:
17,207,598959,1,0,0:0:0:0:
96,253,599082,2,0,P|123:275|159:276,1,71.2500027179719,10|0,1:2|0:0,0:0:0:0:
308,211,599327,2,0,P|306:175|284:148,1,71.2500027179719,2|0,0:0|0:0,0:0:0:0:
272,384,599573,102,0,B|388:364|388:364|392:366|392:366|458:355,2,190,2|2|10,1:2|0:0|1:2,0:0:0:0:
418,263,600311,1,2,0:0:0:0:
512,275,600434,1,0,0:0:0:0:
414,280,600557,6,0,P|345:268|307:210,1,142.500005435944,2|0,1:2|0:0,0:0:0:0:
307,210,600926,2,0,P|317:176|346:156,1,71.2500027179719,2|8,0:0|1:2,0:0:0:0:
200,0,601295,101,2,0:0:0:0:
149,61,601418,1,2,0:0:0:0:
71,74,601541,2,0,P|52:104|56:139,1,71.2500027179719,2|8,1:2|0:2,0:0:0:0:
0,284,601786,5,10,0:2:0:0:
37,273,601909,1,8,0:2:0:0:
71,288,602032,1,10,1:2:0:0:
93,314,602155,1,8,0:2:0:0:
136,322,602278,1,10,0:2:0:0:
150,315,602401,1,10,0:2:0:0:
226,342,602524,102,0,B|317:333|279:386|363:378,1,142.500005435944,6|2,1:2|0:0,0:0:0:0:
512,225,602893,1,2,0:0:0:0:
442,296,603016,2,0,P|424:265|425:230,1,71.2500027179719,10|0,1:2|0:0,0:0:0:0:
291,115,603262,2,0,P|358:103|409:150,1,142.500005435944,2|0,0:0|1:2,0:0:0:0:
130,234,603754,5,2,0:0:0:0:
79,182,603877,1,2,0:0:0:0:
106,110,604000,2,0,L|93:39,1,71.2500027179719,10|0,1:2|0:0,0:0:0:0:
242,0,604246,2,0,L|229:70,1,71.2500027179719,2|0,0:0|0:0,0:0:0:0:
430,330,604491,102,0,P|465:325|493:305,1,71.2500027179719,2|0,1:2|0:0,0:0:0:0:
142,224,604737,2,0,P|128:256|131:291,1,71.2500027179719,2|0,0:0|0:0,0:0:0:0:
372,48,604983,2,0,P|350:19|318:5,1,71.2500027179719,10|0,1:2|0:0,0:0:0:0:
265,201,605229,2,0,L|335:188,1,71.2500027179719,2|0,0:2|0:0,0:0:0:0:
26,4,605475,6,0,L|13:74,1,71.2500027179719,6|0,1:2|0:0,0:0:0:0:
200,309,605721,101,10,0:3:0:0:
157,372,605844,1,8,0:3:0:0:
99,378,605967,1,10,1:3:0:0:
71,360,606090,1,4,0:3:0:0:
67,338,606213,1,6,0:3:0:0:
71,330,606336,1,4,0:3:0:0:
78,327,606459,6,0,L|71:291,1,35.625001358986,14|0,1:2|0:0,0:0:0:0:
3,238,606705,2,0,L|9:202,1,35.625001358986,8|0,1:2|0:0,0:0:0:0:
122,114,606950,102,0,L|130:160,1,47.5,8|0,1:2|0:0,0:0:0:0:
208,262,607196,2,0,L|199:308,1,47.5,8|0,1:2|0:0,0:0:0:0:
268,384,607442,6,0,L|281:313,1,71.2500027179719,8|0,1:2|0:0,0:0:0:0:
322,119,607688,2,0,L|336:190,1,71.2500027179719,8|0,1:2|0:0,0:0:0:0:
510,383,607934,102,0,L|495:290,1,95,8|0,1:2|0:0,0:0:0:0:
460,0,608180,2,0,L|444:93,1,95,8|0,1:2|0:0,0:0:0:0:
444,93,608426,5,2,0:2:0:0:
0,304,610393,102,0,B|57:316|92:277|68:269|112:232|169:249,1,178.125,6|0,1:2|0:0,0:0:0:0:
37,209,610885,2,0,P|-1:166|0:108,1,118.75,10|0,1:2|0:0,0:0:0:0:
153,0,611254,5,2,0:0:0:0:
251,21,611377,1,2,1:2:0:0:
149,19,611500,1,2,0:0:0:0:
249,42,611623,2,0,L|307:31,1,59.375,2|0,0:0|0:0,0:0:0:0:
142,146,611868,2,0,L|83:135,1,59.375,10|0,1:2|0:0,0:0:0:0:
302,179,612114,2,0,L|292:121,1,59.375,2|0,0:0|0:0,0:0:0:0:
512,13,612360,102,0,P|427:24|397:104,1,178.125,2|0,1:2|0:0,0:0:0:0:
302,179,612852,2,0,L|418:199,1,118.75,10|0,1:2|0:0,0:0:0:0:
508,374,613221,5,2,0:0:0:0:
422,290,613344,1,2,1:2:0:0:
484,370,613467,1,2,0:0:0:0:
396,284,613590,2,0,P|373:302|362:329,1,59.375,2|0,0:0|0:0,0:0:0:0:
176,358,613836,2,0,P|229:377|275:343,1,118.75,10|0,1:2|0:0,0:0:0:0:
100,47,614327,102,0,L|89:105,1,59.375,2|0,1:2|0:0,0:0:0:0:
106,288,614573,2,0,L|95:230,1,59.375,0|0,0:2|0:0,0:0:0:0:
25,191,614819,2,0,P|71:155|129:155,1,118.75,10|0,1:2|0:0,0:0:0:0:
323,118,615188,5,2,0:0:0:0:
232,157,615311,1,2,1:2:0:0:
330,135,615434,1,2,0:0:0:0:
238,175,615557,2,0,P|219:196|213:225,1,59.375,2|0,0:0|0:0,0:0:0:0:
130,251,615803,2,0,P|136:279|157:300,1,59.375,10|0,1:2|0:0,0:0:0:0:
173,382,616049,2,0,L|231:371,1,59.375,2|0,0:0|0:0,0:0:0:0:
469,267,616295,102,0,L|410:256,1,59.375,2|0,1:2|0:0,0:0:0:0:
330,328,616541,5,2,0:0:0:0:
326,345,616623,101,2,0:0:0:0:
323,363,616705,5,2,0:0:0:0:
319,382,616786,102,0,B|309:330|309:330|312:327|312:327|302:264,1,118.75,14|2,1:2|0:0,0:0:0:0:
129,155,617278,2,0,P|103:140|74:139,1,59.375,2|0,1:2|0:0,0:0:0:0:
225,53,617524,1,8,0:2:0:0:
252,24,617647,1,8,0:2:0:0:
294,21,617770,1,8,0:2:0:0:
328,42,617893,1,8,0:2:0:0:
329,55,618016,2,0,L|387:44,1,59.375,8|0,0:2|0:0,0:0:0:0:
512,137,618262,5,6,1:2:0:0:
38,58,627243,6,0,P|82:20|140:22,1,118.75,14|0,0:2|0:0,0:0:0:0:
82,292,627580,2,0,P|27:272|0:221,1,118.75,10|0,0:2|0:0,0:0:0:0:
268,126,627917,2,0,P|278:183|247:232,1,118.75,10|0,0:2|1:2,0:0:0:0:
129,156,628254,5,10,0:2:0:0:
290,324,628423,1,2,1:2:0:0:
145,384,628591,2,0,L|167:267,1,118.75,10|0,0:2|0:0,0:0:0:0:
467,187,628928,101,10,0:2:0:0:
247,232,629097,1,2,0:0:0:0:
377,291,629265,2,0,L|354:174,1,118.75,10|0,0:2|1:2,0:0:0:0:
271,140,629602,5,10,0:2:0:0:
468,273,629771,1,2,1:2:0:0:
384,382,629939,102,0,P|328:368|290:324,1,118.75,14|0,0:2|0:0,0:0:0:0:
460,75,630276,2,0,P|480:129|466:186,1,118.75,10|0,0:2|0:0,0:0:0:0:
187,119,630614,2,0,P|172:62|193:7,1,118.75,10|0,0:2|0:2,0:0:0:0:
377,291,630951,2,0,L|260:311,1,118.75,10|0,0:2|1:2,0:0:0:0:
384,382,631288,5,8,0:2:0:0:
303,215,631456,1,2,1:2:0:0:
463,353,631625,1,10,0:2:0:0:
260,311,631793,1,2,1:2:0:0:
257,336,631878,1,0,1:2:0:0:
253,363,631962,2,0,L|135:343,1,118.75,2|0,1:2|1:2,0:0:0:0:
0,129,632299,102,0,P|81:133|84:215,1,178.125,14|0,0:2|0:0,0:0:0:0:
74,241,632636,6,0,L|167:223,1,95,2|0,1:2|0:0,0:0:0:0:
311,105,632973,1,10,1:2:0:0:
172,28,633142,1,0,0:2:0:0:
174,51,633226,1,8,0:3:0:0:
177,74,633310,2,0,P|218:94|233:138,1,95,2|0,1:2|1:2,0:0:0:0:
454,224,633647,2,0,P|469:180|510:159,1,95,10|0,0:2|0:0,0:0:0:0:
490,75,633984,101,2,1:2:0:0:
311,105,634153,1,0,1:2:0:0:
406,40,634321,2,0,L|389:133,1,95,10|0,0:2|0:0,0:0:0:0:
380,154,634574,1,8,0:3:0:0:
380,154,634658,1,2,1:2:0:0:
512,282,634827,1,0,1:2:0:0:
447,353,634996,2,0,P|406:329|359:329,1,95,10|0,0:2|0:0,0:0:0:0:
90,277,635333,5,14,1:2:0:0:
90,277,635670,1,8,1:2:0:0:
119,364,635838,1,10,1:2:0:0:
276,214,636007,101,10,1:2:0:0:
42,150,636175,1,8,1:2:0:0:
183,244,636344,5,8,1:2:0:0:
362,0,636512,1,8,1:2:0:0:
72,63,636681,101,8,1:2:0:0:
446,34,636850,1,8,1:2:0:0:
49,65,637018,1,8,1:2:0:0:
512,268,638029,6,0,B|456:252|424:291|442:293|409:336|352:324,1,178.125,6|0,1:2|0:0,0:0:0:0:
285,349,638366,2,0,L|290:384,1,35.625001358986,8|0,1:2|0:0,0:0:0:0:
372,240,638535,1,2,0:0:0:0:
64,152,638703,102,0,B|119:136|151:175|133:177|166:220|224:208,1,178.125,2|0,1:2|0:0,0:0:0:0:
291,233,639041,2,0,L|285:268,1,35.625001358986,8|0,1:2|0:0,0:0:0:0:
204,124,639209,1,2,0:0:0:0:
474,113,639378,6,0,P|481:35|403:42,1,178.125,2|0,1:2|0:0,0:0:0:0:
342,3,639715,1,10,1:2:0:0:
415,173,639883,1,0,0:0:0:0:
283,119,640052,1,2,3:2:0:0:
288,103,640136,1,0,3:0:0:0:
293,86,640220,102,0,B|331:78|331:78|302:92,1,71.2500027179719,8|0,0:2|0:0,0:0:0:0:
153,197,640389,2,0,B|114:189|114:189|143:203,1,71.2500027179719,8|0,1:2|0:0,0:0:0:0:
208,283,640557,1,2,0:0:0:0:
31,383,640726,6,0,B|17:311|17:311|19:305|19:305|1:207,1,178.125,2|0,1:2|0:0,0:0:0:0:
52,142,641063,2,0,L|57:106,1,35.625001358986,8|0,1:2|0:0,0:0:0:0:
109,273,641232,1,2,0:0:0:0:
229,42,641400,102,0,B|242:113|242:113|240:119|240:119|258:217,1,178.125,2|0,1:2|0:0,0:0:0:0:
208,283,641737,2,0,L|202:318,1,35.625001358986,8|0,1:2|0:0,0:0:0:0:
151,152,641906,1,2,0:0:0:0:
371,328,642074,6,0,P|427:332|464:288,1,118.75,2|0,1:2|0:0,0:0:0:0:
512,149,642411,2,0,L|395:128,1,118.75,10|0,1:2|0:0,0:0:0:0:
325,62,642748,1,2,3:2:0:0:
328,46,642833,1,0,3:0:0:0:
332,31,642917,102,0,B|370:23|370:23|341:37,1,71.2500027179719,8|0,0:2|0:0,0:0:0:0:
125,70,643085,2,0,B|86:62|86:62|115:76,1,71.2500027179719,10|0,1:2|0:0,0:0:0:0:
258,216,643254,1,0,3:2:0:0:
274,236,643338,1,0,3:2:0:0:
274,265,643423,6,0,B|190:279|190:279|185:283|185:283|98:299,1,178.125,2|0,1:2|0:0,0:0:0:0:
47,238,643760,2,0,P|30:233|18:220,1,35.625001358986,8|0,1:2|0:0,0:0:0:0:
159,169,643928,1,2,0:0:0:0:
245,350,644097,102,0,B|328:364|328:364|333:368|333:368|420:384,1,178.125,2|0,1:2|0:0,0:0:0:0:
471,323,644434,2,0,P|488:318|500:305,1,35.625001358986,8|0,1:2|0:0,0:0:0:0:
360,254,644602,1,2,0:0:0:0:
483,76,644771,5,2,1:2:0:0:
447,236,644939,1,0,0:0:0:0:
319,139,645108,2,0,P|268:111|260:55,1,118.75,10|0,1:2|0:0,0:0:0:0:
375,40,645445,101,2,1:2:0:0:
383,63,645529,1,0,3:0:0:0:
391,87,645614,1,0,3:2:0:0:
274,236,645782,2,0,L|157:256,1,118.75,10|0,1:2|0:0,0:0:0:0:
1,93,646119,5,2,1:2:0:0:
200,148,646288,1,2,0:0:0:0:
5,74,646456,101,8,1:2:0:0:
126,49,646625,1,2,0:0:0:0:
200,148,646793,2,0,L|179:264,1,118.75,0|2,1:2|0:0,0:0:0:0:
54,301,647130,1,8,1:2:0:0:
302,384,647299,1,2,0:0:0:0:
375,344,647467,5,10,1:3:0:0:
307,308,647636,1,4,0:3:0:0:
27,371,647805,102,0,B|17:315|17:315|14:312|14:312|5:253,1,118.75,14|2,1:2|0:0,0:0:0:0:
87,159,648142,1,2,1:2:0:0:
179,264,648310,6,0,B|186:302|186:302|172:273,1,71.2500027179719,10|0,0:2|0:0,0:0:0:0:
306,107,648479,2,0,B|313:68|313:68|299:97,1,71.2500027179719,10|0,1:2|0:0,0:0:0:0:
200,148,648647,1,2,0:0:0:0:
401,271,648816,102,0,B|450:266|469:219|469:219|472:272|515:291,1,178.125,6|0,1:2|0:0,0:0:0:0:
447,345,649153,2,0,L|452:380,1,35.625001358986,8|0,1:2|0:0,0:0:0:0:
391,187,649321,1,2,0:0:0:0:
133,85,649490,6,0,B|83:80|64:33|64:33|61:86|18:105,1,178.125,2|0,1:2|0:0,0:0:0:0:
87,159,649827,2,0,L|81:194,1,35.625001358986,8|0,1:2|0:0,0:0:0:0:
143,1,649996,1,2,0:0:0:0:
317,228,650164,102,0,B|269:208|231:248|250:258|218:294|159:278,1,178.125,2|0,1:2|0:0,0:0:0:0:
155,204,650501,1,10,1:2:0:0:
0,226,650670,1,0,0:0:0:0:
63,326,650838,1,2,3:2:0:0:
68,310,650923,1,0,3:0:0:0:
74,294,651007,6,0,B|66:256|66:256|80:285,1,71.2500027179719,8|0,0:2|0:0,0:0:0:0:
294,344,651175,2,0,B|286:383|286:383|300:354,1,71.2500027179719,8|0,1:2|0:0,0:0:0:0:
174,372,651344,1,2,0:0:0:0:
223,119,651512,102,0,P|293:68|378:85,1,178.125,2|0,1:2|0:0,0:0:0:0:
452,57,651850,2,0,L|457:21,1,35.625001358986,8|0,1:2|0:0,0:0:0:0:
313,153,652018,1,2,0:0:0:0:
512,283,652187,6,0,P|441:333|356:316,1,178.125,2|0,1:2|0:0,0:0:0:0:
283,345,652524,2,0,L|278:381,1,35.625001358986,8|0,1:2|0:0,0:0:0:0:
422,249,652692,1,2,0:0:0:0:
175,188,652861,102,0,P|143:236|151:293,1,118.75,2|0,1:2|0:0,0:0:0:0:
259,250,653198,1,10,1:2:0:0:
27,162,653366,1,2,0:0:0:0:
105,239,653535,5,2,1:2:0:0:
313,153,653703,1,0,0:0:0:0:
209,0,653872,2,0,B|217:50|217:50|220:54|220:54|232:118,1,118.75,10|0,1:2|3:0,0:0:0:0:
306,72,654125,1,0,3:2:0:0:
312,57,654209,102,0,P|364:30|420:46,1,118.75,6|0,1:2|0:0,0:0:0:0:
472,242,654546,2,0,P|416:257|364:231,1,118.75,10|0,1:2|0:0,0:0:0:0:
313,153,654883,5,2,1:2:0:0:
418,137,655052,1,0,0:0:0:0:
356,316,655220,101,10,1:2:0:0:
154,285,655389,1,0,0:0:0:0:
90,199,655557,6,0,P|137:165|195:171,1,118.75,2|0,1:2|0:0,0:0:0:0:
286,363,655894,2,0,L|169:383,1,118.75,10|0,1:2|0:0,0:0:0:0:
15,237,656232,1,2,1:2:0:0:
15,237,656400,1,0,1:2:0:0:
116,95,656569,2,0,P|134:41|96:0,1,118.75,12|0,1:2|0:0,0:0:0:0:
313,153,656906,102,0,B|381:172|428:117|398:109|439:63|509:82,1,213.750008153916,10|0,1:2|0:0,0:0:0:0:
388,30,657243,6,0,B|368:0|335:1|335:1|364:14|382:45,1,106.875004076958,10|0,1:2|0:0,0:0:0:0:
512,221,657580,102,0,P|423:216|462:295,1,213.750008153916,10|0,1:2|0:0,0:0:0:0:
480,377,657917,2,0,L|409:364,1,71.2500027179719,10|0,1:2|0:0,0:0:0:0:
179,299,658085,6,0,B|160:276|134:269|134:269|187:253|219:289|199:300|233:333|300:316,1,213.750008153916,10|0,1:2|0:0,0:0:0:0:
243,192,658423,102,0,P|193:193|176:146,1,106.875004076958,10|0,1:2|0:0,0:0:0:0:
237,78,658760,2,0,P|270:89|290:118,1,71.2500027179719,10|0,1:2|0:0,0:0:0:0:
57,261,658928,6,0,B|30:96|30:96|57:89|78:51,1,213.750008153916,10|0,1:2|0:0,0:0:0:0:
5,21,659265,1,2,0:0:0:0:
243,192,659602,101,6,1:2:0:0:
243,354,659771,1,2,0:0:0:0:
148,223,659939,1,10,1:2:0:0:
301,273,660108,1,2,0:0:0:0:
148,323,660276,2,0,L|54:339,1,95,2|0,1:2|0:0,0:0:0:0:
243,192,660614,5,10,1:2:0:0:
243,354,660782,1,2,0:0:0:0:
148,323,660951,1,2,1:2:0:0:
148,223,661119,1,2,0:0:0:0:
301,273,661288,2,0,L|394:290,1,95,10|0,1:2|0:0,0:0:0:0:
503,98,661625,101,2,1:2:0:0:
341,195,661793,1,2,0:0:0:0:
500,277,661962,2,0,L|483:183,1,95,10|0,1:2|0:0,0:0:0:0:
243,192,662299,5,2,1:2:0:0:
144,61,662467,1,2,0:0:0:0:
147,223,662636,1,10,1:2:0:0:
240,91,662805,1,2,0:0:0:0:
88,143,662973,2,0,P|49:169|38:214,1,95,2|0,1:2|0:0,0:0:0:0:
243,192,663310,101,10,1:2:0:0:
144,61,663479,1,2,0:0:0:0:
88,143,663647,1,2,1:2:0:0:
147,223,663816,1,2,0:0:0:0:
240,91,663984,1,10,1:2:0:0:
50,57,664153,5,2,0:2:0:0:
325,23,664321,1,2,1:2:0:0:
240,91,664490,102,0,B|202:82|202:82|231:97,1,71.2500027179719,10|0,0:2|0:0,0:0:0:0:
453,123,664658,2,0,B|492:115|492:115|463:129,1,71.2500027179719,10|0,1:2|0:0,0:0:0:0:
404,186,664827,2,0,L|395:232,1,47.5,8|8,0:2|0:2,0:0:0:0:
206,379,664996,5,6,1:2:0:0:
206,217,665164,1,2,0:0:0:0:
301,348,665333,1,10,1:2:0:0:
148,298,665501,1,2,0:0:0:0:
301,248,665670,2,0,L|395:232,1,95,2|0,1:2|0:0,0:0:0:0:
206,379,666007,101,10,1:2:0:0:
206,217,666175,1,2,0:0:0:0:
301,348,666344,1,2,1:2:0:0:
301,248,666512,1,2,0:0:0:0:
148,298,666681,2,0,P|101:296|65:266,1,95,10|0,1:2|0:0,0:0:0:0:
162,124,667018,5,2,1:2:0:0:
0,207,667187,1,2,0:0:0:0:
87,88,667355,2,0,P|95:41|75:0,1,95,10|0,1:2|0:0,0:0:0:0:
280,150,667692,101,2,1:2:0:0:
379,19,667861,1,2,0:0:0:0:
376,181,668029,1,10,1:2:0:0:
283,49,668198,1,2,0:0:0:0:
435,100,668366,2,0,L|452:193,1,95,2|0,1:2|0:0,0:0:0:0:
280,150,668703,5,10,1:2:0:0:
379,19,668872,1,2,0:0:0:0:
376,181,669041,101,10,1:3:0:0:
136,222,669209,1,6,0:3:0:0:
184,136,669378,2,0,P|251:156|280:219,1,142.5,14|0,1:2|0:0,0:0:0:0:
283,294,669715,1,2,1:2:0:0:
39,206,669883,6,0,B|1:215|1:215|30:200,1,71.2500027179719,10|0,0:2|0:0,0:0:0:0:
216,347,670052,2,0,B|324:328|324:328|327:325|327:325|428:307,1,213.750008153916,10|0,1:2|0:0,0:0:0:0:
498,291,670389,101,4,1:2:0:0:
164,57,683098,53,8,1:2:0:0:
0,118,683251,2,0,L|8:71,1,47.5
179,51,683403,69,8,1:2:0:0:
69,197,683555,2,0,P|108:171|155:169,1,95
155,169,683860,2,0,P|194:194|241:196,1,95,8|0,1:2|0:0,0:0:0:0:
241,195,684164,1,0,0:0:0:0:
329,146,684317,37,8,1:2:0:0:
228,282,684469,2,0,L|220:328,1,47.5
334,125,684621,69,8,1:2:0:0:
353,322,684774,38,0,P|325:283|323:237,1,95
323,237,685078,69,8,1:2:0:0:
512,88,685230,2,0,L|495:181,1,95,2|0,0:2|0:0,0:0:0:0:
392,174,685535,38,0,P|363:152|328:147,1,71.2500027179719,6|0,1:2|0:0,0:0:0:0:
257,95,685840,1,2,0:0:0:0:
224,181,685992,1,0,1:2:0:0:
383,56,686144,70,0,P|411:34|446:29,1,71.2500027179719,10|0,1:2|0:0,0:0:0:0:
512,88,686449,1,2,1:2:0:0:
461,187,686601,1,0,1:2:0:0:
461,187,686906,2,0,L|390:173,1,71.2500027179719,8|2,1:2|0:0,0:0:0:0:
408,258,687210,1,0,1:2:0:0:
242,313,687362,38,0,B|161:321|194:268|104:276,1,142.500005435944,10|0,1:2|0:0,0:0:0:0:
109,275,687972,69,8,1:2:0:0:
77,130,688124,2,0,L|30:122,1,47.5
116,300,688276,37,8,1:2:0:0:
236,223,688428,2,0,P|280:237|311:272,1,95
311,272,688733,2,0,P|357:270|397:245,1,95,8|0,1:2|0:0,0:0:0:0:
397,245,689038,1,0,0:0:0:0:
506,271,689190,69,8,1:2:0:0:
481,130,689342,2,0,L|473:84,1,47.5
511,293,689494,37,8,1:2:0:0:
389,122,689647,2,0,P|355:153|309:162,1,95
309,162,689951,69,8,1:2:0:0:
157,142,690103,2,0,L|64:158,1,95,2|0,0:2|0:0,0:0:0:0:
0,307,690408,38,0,P|44:254|113:255,1,142.500005435944,6|2,1:2|0:0,0:0:0:0:
193,225,690865,1,0,1:2:0:0:
160,356,691017,2,0,L|230:368,1,71.2500027179719,10|0,1:2|0:0,0:0:0:0:
325,242,691322,69,2,1:2:0:0:
256,104,691474,1,0,1:2:0:0:
256,104,691779,2,0,P|290:95|316:70,1,71.2500027179719,8|2,1:2|0:0,0:0:0:0:
246,23,692083,1,0,1:2:0:0:
421,0,692235,2,0,L|426:35,1,35.625001358986,10|0,1:2|0:0,0:0:0:0:
512,192,692388,37,8,0:2:0:0:
463,180,692464,1,8,0:2:0:0:
419,203,692540,1,10,0:2:0:0:
399,250,692616,1,8,0:2:0:0:
415,296,692692,1,8,0:2:0:0:
461,318,692768,1,8,0:2:0:0:
465,310,692845,70,0,B|399:298|399:298|394:300|394:300|324:288,1,142.5,6|0,1:2|0:0,0:0:0:0:
318,277,693149,2,0,P|281:306|277:352,1,95,10|0,1:2|0:0,0:0:0:0:
125,370,693454,1,2,1:2:0:0:
192,306,693606,1,0,1:2:0:0:
21,244,693758,2,0,L|4:150,1,95,10|0,1:2|0:0,0:0:0:0:
161,0,694063,38,0,B|149:65|149:65|151:70|151:70|139:140,1,142.5,2|0,1:2|0:0,0:0:0:0:
150,149,694367,2,0,P|187:121|237:119,1,95,10|0,1:2|0:0,0:0:0:0:
311,246,694672,1,2,1:2:0:0:
217,203,694824,1,0,1:2:0:0:
433,166,694977,1,10,1:2:0:0:
404,67,695129,1,8,0:2:0:0:
400,82,695205,1,8,0:2:0:0:
395,97,695281,70,0,L|301:79,1,95,2|0,1:2|1:2,0:0:0:0:
248,9,695586,1,10,1:2:0:0:
329,171,695738,1,0,1:2:0:0:
301,79,695890,37,10,1:2:0:0:
110,147,696043,2,0,P|80:112|84:66,1,95,0|2,1:2|0:0,0:0:0:0:
220,288,696347,2,0,B|169:301|133:260|155:250|117:207|53:233,1,190,8|0,1:2|1:2,0:0:0:0:
81,318,696804,69,10,1:2:0:0:
269,354,696956,1,8,1:2:0:0:
334,313,697109,37,2,0:0:0:0:
338,296,697413,1,2,0:0:0:0:
26,127,697718,70,0,B|150:105|150:105|174:74,1,163.875003125668,6|0,1:2|0:0,0:0:0:0:
190,60,698022,2,0,L|171:167,1,109.250002083778,10|0,1:2|0:0,0:0:0:0:
84,37,698327,1,2,1:2:0:0:
266,129,698479,1,0,1:2:0:0:
107,240,698631,2,0,L|0:221,1,109.250002083778,10|0,1:2|1:2,0:0:0:0:
238,327,698936,37,2,0:0:0:0:
132,356,699088,1,0,1:2:0:0:
300,198,699241,2,0,P|336:237|343:291,1,109.250002083778,10|0,1:2|0:0,0:0:0:0:
146,153,699545,2,0,P|153:99|189:59,1,109.250002083778,2|0,1:2|1:2,0:0:0:0:
432,23,699850,1,10,1:2:0:0:
299,0,700002,1,2,0:0:0:0:
405,154,700154,70,0,L|512:135,1,109.250002083778,2|0,1:2|0:2,0:0:0:0:
337,366,700459,2,0,L|229:347,1,109.250002083778,10|0,1:2|0:2,0:0:0:0:
59,177,700763,1,2,1:2:0:0:
141,330,700916,1,0,1:2:0:0:
310,99,701068,2,0,P|324:150|299:197,1,109.250002083778,10|0,1:2|1:2,0:0:0:0:
0,105,701373,38,0,L|107:86,1,109.250002083778,2|0,0:0|1:2,0:0:0:0:
221,6,701677,2,0,B|205:64|255:113|261:85|313:128|296:210,1,218.500004167557,8|0,1:2|1:2,0:0:0:0:
308,22,702134,1,0,1:2:0:0:
223,244,702286,2,0,P|260:281|313:283,1,109.250002083778,10|0,1:2|0:2,0:0:0:0:
512,84,702591,70,0,P|437:106|429:183,1,163.875003125668,6|0,1:2|0:0,0:0:0:0:
446,189,702895,2,0,L|426:296,1,109.250002083778,10|0,1:2|0:0,0:0:0:0:
512,384,703200,1,2,1:2:0:0:
313,283,703352,1,0,1:2:0:0:
512,231,703505,1,10,1:2:0:0:
275,363,703657,38,0,B|207:378|165:334|196:324|152:279|63:308,1,218.500004167557,0|0,1:2|1:2,0:0:0:0:
157,169,704114,2,0,P|209:179|244:220,1,109.250002083778,10|0,1:2|0:0,0:0:0:0:
0,319,704418,1,2,1:2:0:0:
132,95,704571,1,0,1:2:0:0:
0,131,704723,1,10,1:2:0:0:
88,215,704875,1,2,0:0:0:0:
73,143,705027,69,10,1:2:0:0:
352,198,705180,1,0,1:2:0:0:
352,198,705332,1,2,1:2:0:0:
54,60,705484,37,8,1:2:0:0:
333,115,705636,1,2,1:2:0:0:
333,115,705789,1,0,1:2:0:0:
311,28,705941,69,10,1:2:0:0:
257,290,706093,1,2,1:2:0:0:
338,361,706246,37,10,1:2:0:0:
508,323,706398,1,0,1:2:0:0:
446,264,706550,69,8,1:2:0:0:
88,215,706702,1,8,1:2:0:0:
88,215,707007,38,0,P|55:181|9:175,1,95,10|8,0:2|0:2,0:0:0:0:
61,331,707312,1,8,0:2:0:0:
86,335,707388,1,8,0:2:0:0:
115,340,707464,70,0,B|190:326|190:326|196:328|196:328|276:315,1,163.875003125668,6|0,1:2|0:0,0:0:0:0:
280,298,707768,2,0,P|313:256|366:252,1,109.250002083778,10|0,1:2|0:0,0:0:0:0:
512,328,708073,1,2,1:2:0:0:
336,369,708225,1,0,1:2:0:0:
388,161,708378,2,0,L|495:180,1,109.250002083778,10|0,1:2|1:2,0:0:0:0:
227,4,708682,37,2,0:0:0:0:
289,169,708834,1,0,1:2:0:0:
473,73,708987,2,0,P|430:39|376:37,1,109.250002083778,10|0,1:2|0:0,0:0:0:0:
171,134,709291,2,0,L|189:241,1,109.250002083778,2|0,1:2|1:2,0:0:0:0:
280,298,709596,1,10,1:2:0:0:
32,260,709748,1,2,0:0:0:0:
124,384,709900,70,0,P|164:348|217:344,1,109.250002083778,2|0,1:2|0:2,0:0:0:0:
388,161,710205,2,0,L|280:180,1,109.250002083778,10|0,1:2|0:2,0:0:0:0:
312,81,710510,1,2,1:2:0:0:
189,241,710662,1,0,1:2:0:0:
458,299,710814,2,0,P|483:252|469:200,1,109.250002083778,10|0,1:2|1:2,0:0:0:0:
232,0,711119,38,0,L|213:107,1,109.250002083778,2|0,0:0|1:2,0:0:0:0:
32,260,711423,2,0,P|123:218|93:123,1,218.500004167557,8|0,1:2|1:2,0:0:0:0:
0,164,711880,1,0,1:2:0:0:
321,340,712032,1,10,1:2:0:0:
325,315,712109,1,8,0:2:0:0:
330,290,712185,1,8,0:2:0:0:
334,265,712261,1,8,0:2:0:0:
338,242,712337,70,0,B|324:169|324:169|326:164|326:164|311:81,1,163.875003125668,6|0,1:2|0:0,0:0:0:0:
324,68,712642,2,0,L|431:88,1,109.250002083778,10|0,1:2|0:0,0:0:0:0:
461,194,712946,1,2,1:2:0:0:
240,151,713098,1,0,1:2:0:0:
290,0,713251,1,10,1:2:0:0:
338,242,713403,38,0,B|170:213|170:213|155:237|126:241,1,218.500004167557,0|0,1:2|1:2,0:0:0:0:
19,112,713860,2,0,P|71:122|106:163,1,109.250002083778,8|0,1:2|0:0,0:0:0:0:
281,107,714164,1,2,1:2:0:0:
204,307,714317,1,2,1:2:0:0:
26,201,714469,1,10,1:2:0:0:
173,196,714621,1,0,0:0:0:0:
143,373,714774,70,0,P|212:332|292:339,1,163.875003125668,2|0,1:2|0:0,0:0:0:0:
308,331,715078,1,8,1:2:0:0:
482,384,715230,2,0,P|445:345|439:291,1,109.250002083778,2|0,0:0|1:2,0:0:0:0:
512,101,715535,1,0,1:2:0:0:
415,205,715687,2,0,L|307:185,1,109.250002083778,10|0,1:2|0:0,0:0:0:0:
103,76,715992,37,2,1:2:0:0:
173,196,716144,1,0,1:2:0:0:
314,32,716296,2,0,P|359:4|411:16,1,109.250002083778,10|0,1:2|0:0,0:0:0:0:
512,101,716601,1,0,1:2:0:0:
261,126,716753,1,0,1:2:0:0:
336,217,716906,1,10,1:2:0:0:
347,246,716982,1,8,0:2:0:0:
341,278,717058,1,8,0:2:0:0:
324,302,717134,1,8,0:2:0:0:
294,311,717210,70,0,B|219:297|219:297|214:294|214:294|133:280,1,163.875003125668,6|0,1:2|0:0,0:0:0:0:
122,299,717515,2,0,L|14:318,1,109.250002083778,8|0,1:2|0:0,0:0:0:0:
177,384,717819,1,0,1:2:0:0:
6,238,717972,1,0,1:2:0:0:
155,88,718124,2,0,L|172:195,1,109.250002083778,10|2,1:2|0:0,0:0:0:0:
70,161,718428,37,10,1:2:0:0:
348,70,718581,1,0,1:2:0:0:
348,70,718733,1,2,1:2:0:0:
0,107,718885,69,8,1:2:0:0:
278,16,719038,1,2,1:2:0:0:
278,16,719190,1,0,1:2:0:0:
180,5,719342,37,10,1:2:0:0:
380,160,719494,1,0,1:2:0:0:
465,133,719647,70,0,B|451:210|451:210|448:214|448:214|435:296,1,163.875003125668,14|0,1:2|0:0,0:0:0:0:
442,305,719951,1,14,1:2:0:0:
49,384,720865,38,0,B|35:306|35:306|32:302|32:302|19:220,1,163.875003125668,14|0,1:2|0:0,0:0:0:0:
26,212,721169,1,14,1:2:0:0:
112,167,721322,70,0,P|127:102|73:61,1,142.500005435944,2|2,0:0|0:0,0:0:0:0:
14,11,721779,1,2,0:0:0:0:
14,11,722083,37,14,1:2:0:0:
311,68,722235,1,0,1:2:0:0:
311,68,722388,1,0,1:2:0:0:
215,110,722540,69,12,1:2:0:0:
512,53,722692,1,0,1:2:0:0:
512,53,722845,1,0,1:2:0:0:
415,0,722997,38,0,B|422:46|422:46|426:51|426:51|435:106,1,106.875004076958,12|0,1:2|0:0,0:0:0:0:
449,117,723301,70,0,P|414:123|387:146,1,71.2500027179719,0|0,1:2|1:2,0:0:0:0:
251,184,723606,2,0,B|301:176|331:206|315:210|343:239|387:234,1,142.5,10|0,0:2|0:0,0:0:0:0:
460,236,723911,1,10,0:2:0:0:
478,272,723987,1,8,0:2:0:0:
474,314,724063,1,8,0:2:0:0:
452,348,724139,1,8,0:2:0:0:
436,350,724215,1,10,0:3:0:0:
420,352,724291,2,0,L|326:335,1,95,4|4,0:3|0:3,0:0:0:0:
316,344,724520,37,2,0:2:0:0:
0,306,732222,70,0,B|45:292|80:319|58:326|93:353|141:339,1,142.500005435944,4|2,1:2|0:0,0:0:0:0:
130,342,732889,1,0,1:2:0:0:
306,139,733334,5,2,0:0:0:0:
241,83,733556,2,0,P|216:108|212:143,1,71.2500027179719,2|0,0:0|0:0,0:0:0:0:
442,195,734001,101,2,1:2:0:0:
306,139,734223,1,2,0:0:0:0:
400,101,734446,1,2,0:0:0:0:
360,205,734668,1,2,1:2:0:0:
508,311,734890,5,2,0:0:0:0:
508,311,735113,2,0,P|476:294|441:292,1,71.2500027179719,2|8,1:2|0:2,0:0:0:0:
361,345,735557,1,2,0:0:0:0:
157,277,735780,102,0,B|146:213|146:213|148:209|148:209|135:135,1,142.500005435944,0|2,1:2|0:0,0:0:0:0:
135,137,736447,1,0,1:2:0:0:
388,0,736892,5,2,0:0:0:0:
242,32,737114,2,0,P|267:56|302:60,1,71.2500027179719,2|0,0:0|0:0,0:0:0:0:
512,99,737559,101,2,1:2:0:0:
419,112,737781,1,2,0:0:0:0:
299,283,738004,5,10,0:3:0:0:
374,322,738226,1,10,1:3:0:0:
371,340,738337,1,4,0:3:0:0:
367,360,738449,1,2,0:0:0:0:
200,374,738671,2,0,P|176:347|166:313,1,71.2500027179719,6|0,1:3|0:2,0:0:0:0:
176,299,739004,1,4,0:3:0:0:
185,287,739116,1,2,0:0:0:0:
0,130,739338,101,0,1:2:0:0:
0,130,739783,6,0,B|145:104|145:104|152:79|174:68,1,190,6|0,1:2|0:0,0:0:0:0:
312,43,740450,1,2,1:2:0:0:
169,71,740672,2,0,L|151:164,1,95,10|2,1:2|1:2,0:0:0:0:
310,261,741117,101,2,0:0:0:0:
310,261,741340,2,0,P|281:224|236:213,1,95,2|8,1:2|1:2,0:0:0:0:
23,341,741784,2,0,P|68:330|96:293,1,95,2|0,0:2|1:2,0:0:0:0:
152,163,742229,1,2,1:2:0:0:
236,307,742451,1,10,1:2:0:0:
50,186,742674,1,2,3:0:0:0:
48,168,742785,1,0,3:0:0:0:
45,151,742896,5,8,1:2:0:0:
333,106,743119,1,8,1:2:0:0:
274,50,743786,101,8,1:2:0:0:
445,285,744008,1,8,1:2:0:0:
460,211,744453,6,0,B|405:188|362:232|385:236|341:279|287:260,1,190,4|0,1:2|1:2,0:0:0:0:
289,260,745120,1,8,1:2:0:0:
54,203,745343,2,0,P|23:219|12:252,1,71.2500027179719,8|0,1:2|0:0,0:0:0:0:
89,384,746432,102,0,B|98:325|98:325|104:321|104:321|116:242,1,142.500005435944,6|2,1:2|0:0,0:0:0:0:
214,316,746878,1,10,1:2:0:0:
17,129,747102,2,0,P|49:68|117:56,1,142.500005435944,2|0,0:2|1:2,0:0:0:0:
232,0,747549,1,2,1:2:0:0:
102,143,747772,1,10,1:2:0:0:
215,190,747996,1,2,0:0:0:0:
232,184,748107,1,0,0:0:0:0:
251,178,748219,6,0,B|315:157|371:209|335:217|388:262|457:233,1,213.750008153916,2|0,1:2|0:0,0:0:0:0:
498,178,748666,2,0,P|513:146|504:112,1,71.2500027179719,10|0,1:2|0:0,0:0:0:0:
323,27,748890,1,0,0:0:0:0:
323,27,749001,1,0,0:0:0:0:
323,27,749113,2,0,P|310:60|318:94,1,71.2500027179719,2|0,1:2|0:0,0:0:0:0:
412,70,749337,101,2,1:2:0:0:
279,262,749560,1,10,1:2:0:0:
442,238,749783,1,2,0:0:0:0:
251,178,750007,6,0,L|110:202,1,142.500005435944,2|2,1:2|0:0,0:0:0:0:
165,88,750454,1,10,1:2:0:0:
82,291,750677,2,0,L|11:278,1,71.2500027179719,2|0,0:0|0:0,0:0:0:0:
0,187,750901,1,0,1:2:0:0:
168,352,751124,2,0,P|196:289|165:227,1,142.500005435944,2|10,1:2|1:2,0:0:0:0:
335,368,751571,1,2,0:2:0:0:
331,351,751683,1,0,0:0:0:0:
327,333,751795,101,2,1:2:0:0:
383,274,751906,2,0,P|416:260|451:260,1,71.2500027179719,2|0,0:0|1:2,0:0:0:0:
289,268,752130,1,2,0:0:0:0:
285,255,752242,2,0,P|300:187|357:146,1,142.500005435944,10|0,1:2|0:0,0:0:0:0:
435,176,752577,1,0,0:0:0:0:
237,112,752688,5,0,1:2:0:0:
491,76,752912,1,2,1:2:0:0:
357,146,753135,1,10,1:2:0:0:
146,88,753352,1,2,0:0:0:0:
129,92,753461,1,8,0:2:0:0:
115,95,753569,102,0,P|81:156|100:223,1,142.500005435944,6|2,1:2|0:0,0:0:0:0:
276,350,754014,2,0,P|288:316|279:283,1,71.2500027179719,10|0,1:2|0:0,0:0:0:0:
51,289,754236,1,2,0:0:0:0:
51,289,754348,1,0,0:0:0:0:
51,289,754459,2,0,L|191:313,1,142.500005435944,0|2,1:2|1:2,0:0:0:0:
317,125,754904,2,0,P|250:129|227:66,1,142.500005435944,10|0,1:2|0:0,0:0:0:0:
309,43,755350,5,2,1:2:0:0:
503,200,755572,1,2,0:2:0:0:
279,283,755795,1,10,1:2:0:0:
375,184,756017,2,0,B|386:249|386:249|389:254|389:254|400:324,1,142.500005435944,2|0,0:0|1:2,0:0:0:0:
400,323,756463,2,0,P|431:339|466:340,1,71.2500027179719,2|0,1:2|0:0,0:0:0:0:
512,117,756685,2,0,P|476:117|445:134,1,71.2500027179719,10|0,1:2|0:0,0:0:0:0:
279,283,756908,2,0,L|291:212,1,71.2500027179719,2|0,0:2|0:0,0:0:0:0:
62,56,757131,102,0,B|31:34|-6:37|-6:37|60:0|111:51|82:62|133:109|195:86,1,285.000010871888,6|10,1:2|1:2,0:0:0:0:
455,207,757799,6,0,P|395:107|511:116,1,285.000010871888,6|2,1:2|1:2,0:0:0:0:
375,19,758466,1,10,1:2:0:0:
279,283,758689,102,0,B|135:258|135:258|132:254|132:254|0:230,1,285.000010871888,6|2,1:2|1:2,0:0:0:0:
0,230,759329,2,0,P|12:197|41:177,1,71.2500027179719,10|0,1:2|0:0,0:0:0:0:
170,0,759552,5,10,0:2:0:0:
127,28,759663,1,8,0:2:0:0:
134,77,759774,1,8,1:2:0:0:
177,99,759885,1,8,0:2:0:0:
223,86,759997,2,0,L|293:73,1,71.2500027179719,10|0,0:2|0:0,0:0:0:0:
436,12,760219,2,0,L|365:0,1,71.2500027179719,10|0,0:2|0:0,0:0:0:0:
451,114,760442,1,10,0:2:0:0:
494,120,760553,1,8,0:2:0:0:
512,159,760664,102,0,B|371:183,1,142.500005435944,6|2,1:2|0:0,0:0:0:0:
293,73,761109,1,10,1:2:0:0:
106,234,761332,2,0,P|173:246|205:307,1,142.500005435944,2|0,0:2|1:2,0:0:0:0:
109,339,761777,1,2,1:2:0:0:
380,373,762000,1,10,1:2:0:0:
304,272,762222,1,2,0:0:0:0:
299,249,762334,1,0,0:0:0:0:
295,225,762445,6,0,P|241:136|268:35,1,213.750008153916,2|0,1:2|0:0,0:0:0:0:
353,0,762890,2,0,P|383:17|394:50,1,71.2500027179719,10|0,1:2|0:0,0:0:0:0:
156,87,763112,1,0,0:0:0:0:
156,87,763224,1,0,0:0:0:0:
156,87,763335,2,0,L|85:73,1,71.2500027179719,2|0,1:2|0:0,0:0:0:0:
38,0,763558,101,2,1:2:0:0:
0,186,763780,1,10,1:2:0:0:
157,262,764003,1,2,0:0:0:0:
77,323,764225,6,0,P|139:290|209:295,1,142.500005435944,2|2,1:2|0:0,0:0:0:0:
285,384,764670,1,10,1:2:0:0:
431,231,764893,2,0,P|447:263|446:298,1,71.2500027179719,2|0,0:0|0:0,0:0:0:0:
389,349,765115,1,0,1:2:0:0:
323,137,765338,2,0,B|333:76|333:76|338:73|338:73|353:-5,1,142.500005435944,2|10,1:2|1:2,0:0:0:0:
512,175,765783,1,2,0:0:0:0:
495,171,765894,1,0,0:0:0:0:
477,167,766006,101,2,1:2:0:0:
431,231,766117,2,0,P|396:238|374:265,1,71.2500027179719,2|0,0:0|1:2,0:0:0:0:
288,368,766339,1,2,0:2:0:0:
285,384,766451,2,0,L|145:353,1,142.500005435944,10|0,1:2|0:0,0:0:0:0:
69,383,766785,1,0,0:0:0:0:
271,290,766896,5,0,1:2:0:0:
98,162,767118,1,2,1:2:0:0:
143,272,767341,1,10,1:2:0:0:
326,100,767563,1,2,0:0:0:0:
330,125,767675,1,8,0:2:0:0:
335,153,767785,102,0,L|194:128,1,142.500005435944,6|2,1:2|0:0,0:0:0:0:
194,128,768227,2,0,P|182:94|191:61,1,71.2500027179719,10|0,1:2|0:0,0:0:0:0:
401,0,768449,2,0,L|425:140,1,142.500005435944,2|0,0:2|1:2,0:0:0:0:
322,76,768892,1,2,1:2:0:0:
512,171,769113,1,10,1:2:0:0:
476,277,769334,6,0,P|421:232|351:231,1,142.500005435944,2|0,0:2|1:2,0:0:0:0:
108,372,769777,2,0,P|177:370|232:326,1,142.500005435944,2|8,0:2|1:2,0:0:0:0:
24,153,770220,1,2,0:0:0:0:
11,177,770331,1,8,0:2:0:0:
0,200,770441,2,0,L|11:270,1,71.2500027179719,10|0,1:2|0:0,0:0:0:0:
130,248,770663,2,0,L|200:259,1,71.2500027179719,10|0,1:3|0:0,0:0:0:0:
263,69,770884,101,8,1:3:0:0:
245,66,770995,1,8,0:3:0:0:
229,63,771106,1,6,0:3:0:0:
212,60,771216,1,4,0:3:0:0:
114,112,771327,5,6,1:2:0:0:
0,93,779239,38,0,P|31:77|67:79,1,71.2500027179719,12|0,1:2|0:0,0:0:0:0:
254,15,779462,1,8,0:2:0:0:
254,15,779573,1,8,0:2:0:0:
208,71,779684,101,8,0:2:0:0:
247,135,779795,1,8,0:2:0:0:
325,129,779906,2,0,L|333:82,1,47.5,8|0,0:3|0:0,0:0:0:0:
512,75,780128,5,8,0:2:0:0:
476,8,780239,1,8,0:2:0:0:
407,36,780351,1,8,0:2:0:0:
407,36,780573,102,0,L|415:82,1,47.5,8|8,0:3|0:2,0:0:0:0:
471,148,780795,1,8,0:2:0:0:
409,197,780906,6,0,L|362:205,1,47.5,8|0,0:3|0:0,0:0:0:0:
465,288,781128,1,8,0:3:0:0:
480,290,781239,1,4,0:3:0:0:
494,292,781351,1,4,1:3:0:0:
512,376,781462,102,0,B|448:364|448:364|443:367|443:367|368:354,1,142.500005435944,6|0,1:2|0:0,0:0:0:0:
372,354,781795,2,0,L|325:362,1,47.5,2|0,0:0|1:2,0:0:0:0:
311,220,782128,6,0,B|247:231|247:231|242:228|242:228|167:241,1,142.500005435944,2|0,0:2|1:2,0:0:0:0:
171,240,782462,2,0,L|124:231,1,47.5,2|0,0:0|0:2,0:0:0:0:
26,149,782684,1,0,0:0:0:0:
29,134,782795,102,0,P|73:81|140:92,1,142.500005435944,2|0,1:2|0:0,0:0:0:0:
203,137,783128,1,2,0:0:0:0:
206,152,783239,2,0,P|228:145|246:129,1,47.5,0|0,1:2|0:2,0:0:0:0:
412,0,783462,6,0,P|368:52|301:41,1,142.500005435944,2|0,0:2|1:2,0:0:0:0:
300,40,783795,2,0,P|277:46|259:62,1,47.5,2|0,0:0|0:2,0:0:0:0:
206,152,784017,1,0,0:0:0:0:
215,169,784128,102,0,L|206:215,1,47.5,2|0,1:2|0:0,0:0:0:0:
267,263,784351,2,0,L|275:309,1,47.5,2|0,0:2|0:0,0:0:0:0:
456,294,784573,6,0,P|425:275|390:274,1,71.2500027179719,2|0,1:2|0:0,0:0:0:0:
365,365,784795,2,0,P|395:383|430:384,1,71.2500027179719,2|0,0:0|0:0,0:0:0:0:
487,186,785017,102,0,B|499:122|499:122|496:117|496:117|509:42,1,142.500005435944,2|0,1:2|0:0,0:0:0:0:
509,47,785351,2,0,L|501:0,1,47.5,2|0,0:0|1:2,0:0:0:0:
294,0,785684,6,0,B|305:64|305:64|302:69|302:69|315:144,1,142.500005435944,2|0,0:2|1:2,0:0:0:0:
314,140,786017,2,0,L|305:187,1,47.5,2|0,0:0|0:2,0:0:0:0:
92,295,786351,102,0,P|146:336|211:314,1,142.500005435944,2|0,1:2|0:0,0:0:0:0:
210,314,786684,2,0,P|222:293|225:270,1,47.5,2|0,0:0|1:2,0:0:0:0:
140,116,787017,6,0,P|85:74|20:96,1,142.500005435944,2|0,0:2|1:2,0:0:0:0:
21,95,787351,2,0,P|4:139|15:184,1,95,2|0,0:0|0:2,0:0:0:0:
224,270,787684,102,0,P|292:249|362:243,1,142.500005435944,2|0,1:2|0:0,0:0:0:0:
362,243,788017,1,2,0:2:0:0:
399,314,788128,2,0,P|444:331|491:333,1,95,0|2,1:2|0:0,0:0:0:0:
512,53,788573,6,0,P|464:55|420:72,1,95,4|2,1:2|0:0,0:0:0:0:
262,21,788906,1,0,0:0:0:0:
318,93,789017,2,0,P|339:50|347:4,1,95,0|2,1:2|0:0,0:0:0:0:
476,146,789462,101,0,1:2:0:0:
390,165,789573,2,0,P|415:204|452:234,1,95,2|0,0:2|0:0,0:0:0:0:
419,322,789906,2,0,P|371:324|327:341,1,95,2|0,1:2|0:0,0:0:0:0:
197,349,790239,1,2,0:0:0:0:
256,298,790351,2,0,P|281:244|274:186,1,118.75,0|2,1:2|0:0,0:0:0:0:
104,98,790684,1,0,0:0:0:0:
36,138,790795,1,0,1:2:0:0:
76,207,790906,2,0,L|193:226,1,118.75,2|0,0:0|0:0,0:0:0:0:
384,121,791239,5,2,1:2:0:0:
345,56,791351,1,2,0:0:0:0:
267,59,791462,1,10,0:2:0:0:
354,39,791573,101,10,0:2:0:0:
403,118,791684,1,10,1:3:0:0:
358,202,791795,1,10,0:3:0:0:
257,206,791906,1,6,0:3:0:0:
193,129,792017,1,6,0:3:0:0:
192,114,792128,6,0,P|146:78|87:77,1,118.75,4|8,1:2|0:2,0:0:0:0:
25,285,792462,2,0,P|70:320|129:321,1,118.75,4|8,1:2|0:2,0:0:0:0:
225,383,792795,102,0,L|235:324,1,59.375,4|0,1:2|0:0,0:0:0:0:
403,118,793017,2,0,L|461:107,1,59.375,4|0,1:2|0:0,0:0:0:0:
511,205,793239,5,8,0:2:0:0:
476,209,793351,1,8,0:2:0:0:
454,237,793462,1,8,0:2:0:0:
453,270,793573,1,8,0:3:0:0:
471,298,793684,2,0,L|475:333,1,35.625001358986,4|0,0:3|0:0,0:0:0:0:
498,362,793906,102,0,B|407:345|407:345|402:347|402:347|303:329,1,190,12|0,1:2|0:0,0:0:0:0:
14,22,794239,2,0,B|104:38|104:38|109:36|109:36|208:54,1,190,12|0,1:2|0:0,0:0:0:0:
453,270,794573,6,0,L|359:253,1,95,12|0,1:2|0:0,0:0:0:0:
59,114,794795,101,12,1:2:0:0:
0,375,795684,6,0,L|168:344,1,170.999994781494,6|0,1:2|0:0,0:0:0:0:
211,231,796017,2,0,P|187:204|153:197,1,71.2500027179719,2|8,0:0|1:2,0:0:0:0:
102,269,796239,1,2,0:0:0:0:
262,367,796351,2,0,P|305:367|342:347,1,85.4999973907472,2|0,0:0|0:0,0:0:0:0:
487,206,796573,101,2,1:2:0:0:
395,176,796684,1,2,0:0:0:0:
497,189,796795,2,0,L|510:104,1,85.4999973907472,2|0,0:0|0:0,0:0:0:0:
301,63,797017,2,0,P|266:70|243:96,1,71.2500027179719,10|0,1:2|0:2,0:0:0:0:
317,173,797239,2,0,L|387:160,1,71.2500027179719,2|0,0:0|0:0,0:0:0:0:
75,107,797462,6,0,P|-1:56|9:-4,1,142.500005435944,2|0,1:2|0:0,0:0:0:0:
162,85,797795,1,2,0:0:0:0:
135,169,797906,2,0,L|122:239,1,71.2500027179719,8|0,1:2|0:0,0:0:0:0:
0,384,798128,1,2,0:0:0:0:
56,320,798239,1,2,0:0:0:0:
265,338,798351,102,0,P|196:322|130:346,1,142.500005435944,2|0,1:2|0:0,0:0:0:0:
130,346,798795,2,0,P|160:364|195:365,1,71.2500027179719,10|0,1:2|0:0,0:0:0:0:
322,272,799017,2,0,P|327:237|313:204,1,71.2500027179719,2|0,0:0|0:0,0:0:0:0:
234,239,799239,5,2,1:2:0:0:
413,346,799351,2,0,L|437:205,1,142.500005435944,2|2,0:0|0:0,0:0:0:0:
384,135,799684,2,0,P|414:116|450:115,1,71.2500027179719,10|0,1:2|0:0,0:0:0:0:
284,91,799906,2,0,P|248:90|218:71,1,71.2500027179719,2|0,0:2|0:0,0:0:0:0:
11,24,800128,102,0,L|24:94,1,71.2500027179719,2|0,1:2|0:0,0:0:0:0:
102,168,800351,2,0,L|172:181,1,71.2500027179719,2|0,0:0|0:0,0:0:0:0:
92,357,800573,2,0,L|21:370,1,71.2500027179719,10|0,1:2|0:0,0:0:0:0:
42,256,800795,2,0,L|112:269,1,71.2500027179719,2|0,0:0|0:0,0:0:0:0:
308,355,801017,5,2,1:2:0:0:
188,327,801128,2,0,P|227:270|296:259,1,142.500005435944,2|2,0:0|0:0,0:0:0:0:
370,187,801462,2,0,P|395:211|404:245,1,71.2500027179719,10|0,1:2|0:0,0:0:0:0:
477,339,801684,2,0,L|406:327,1,71.2500027179719,2|0,0:0|0:0,0:0:0:0:
266,171,801906,101,2,1:2:0:0:
268,152,802017,1,2,0:0:0:0:
270,133,802128,2,0,L|256:62,1,71.2500027179719,2|0,0:0|0:0,0:0:0:0:
167,47,802351,2,0,L|180:117,1,71.2500027179719,10|0,1:2|0:0,0:0:0:0:
465,59,802573,1,2,0:0:0:0:
390,40,802684,1,2,0:0:0:0:
475,81,802795,6,0,P|438:140|370:158,1,142.500005435944,4|0,1:2|0:0,0:0:0:0:
317,324,803128,1,2,0:0:0:0:
253,278,803239,2,0,P|277:252|311:243,1,71.2500027179719,8|0,1:2|0:2,0:0:0:0:
438,304,803462,2,0,P|463:328|472:362,1,71.2500027179719,2|0,0:2|0:2,0:0:0:0:
244,356,803684,102,0,B|167:361|203:311|106:319,1,142.500005435944,2|0,1:2|0:0,0:0:0:0:
0,195,804017,1,2,0:0:0:0:
75,242,804128,2,0,P|89:209|86:174,1,71.2500027179719,8|0,1:2|0:0,0:0:0:0:
258,0,804351,2,0,L|187:12,1,71.2500027179719,2|0,0:0|0:0,0:0:0:0:
35,78,804573,5,2,1:2:0:0:
266,171,804684,2,0,L|406:145,1,142.500005435944,2|2,0:0|0:0,0:0:0:0:
484,160,805017,2,0,P|475:194|449:217,1,71.2500027179719,10|0,1:2|0:0,0:0:0:0:
305,84,805239,1,2,0:0:0:0:
387,51,805351,1,0,0:0:0:0:
474,77,805462,102,0,L|484:6,1,71.2500027179719,2|0,1:2|0:0,0:0:0:0:
356,187,805684,2,0,L|369:256,1,71.2500027179719,2|0,0:0|0:0,0:0:0:0:
442,323,805906,2,0,L|512:334,1,71.2500027179719,10|0,1:2|0:0,0:0:0:0:
332,362,806128,1,2,0:0:0:0:
312,359,806239,1,2,0:0:0:0:
291,355,806351,6,0,P|228:386|162:365,1,142.500005435944,2|0,1:2|0:0,0:0:0:0:
72,340,806684,2,0,P|72:304|92:276,1,71.2500027179719,2|8,0:0|1:2,0:0:0:0:
189,254,806906,1,0,0:0:0:0:
74,182,807017,2,0,L|3:195,1,71.2500027179719,2|0,0:0|0:0,0:0:0:0:
212,261,807239,101,2,1:2:0:0:
173,161,807351,2,0,P|209:102|277:88,1,142.500005435944,2|2,0:0|0:0,0:0:0:0:
327,163,807684,2,0,B|388:182|429:126|407:118|452:64|527:89,1,213.750008153916,10|0,1:2|0:0,0:0:0:0:
393,34,808128,6,0,B|344:27|344:27|380:23,1,85.4999973907472,4|0,1:2|0:0,0:0:0:0:
494,168,808351,1,8,0:2:0:0:
512,202,808462,1,8,0:2:0:0:
506,238,808573,1,8,1:2:0:0:
476,266,808684,2,0,L|391:251,1,85.4999973907472,8|0,0:2|0:0,0:0:0:0:
186,363,808906,2,0,L|270:348,1,85.4999973907472,8|0,0:2|1:2,0:0:0:0:
393,371,809128,1,8,0:2:0:0:
149,50,809351,101,8,0:2:0:0:
75,15,809462,1,10,0:2:0:0:
54,22,809573,1,8,0:3:0:0:
41,37,809684,1,6,0:3:0:0:
38,58,809795,1,4,1:3:0:0:
0,130,809906,6,0,B|56:117|93:157|73:164|108:201|166:184,1,170.999994781494,6|0,1:2|0:0,0:0:0:0:
240,251,810239,2,0,P|259:221|256:186,1,71.2500027179719,2|8,0:0|1:2,0:0:0:0:
204,118,810462,1,2,0:0:0:0:
80,268,810573,2,0,P|42:247|0:247,1,85.4999973907472,2|0,0:0|0:0,0:0:0:0:
180,384,810795,101,2,1:2:0:0:
159,306,810906,1,2,0:0:0:0:
196,382,811017,2,0,L|280:368,1,85.4999973907472,2|0,0:0|0:0,0:0:0:0:
342,289,811239,2,0,P|376:281|399:255,1,71.2500027179719,10|0,1:2|0:2,0:0:0:0:
509,355,811462,2,0,P|476:341|442:346,1,71.2500027179719,2|0,0:0|0:0,0:0:0:0:
352,177,811684,6,0,P|317:117|336:50,1,142.500005435944,2|0,1:2|0:0,0:0:0:0:
421,103,812017,1,2,0:0:0:0:
256,186,812128,2,0,P|221:192|189:177,1,71.2500027179719,8|0,1:2|0:0,0:0:0:0:
72,46,812351,1,2,0:0:0:0:
0,88,812462,1,2,0:0:0:0:
79,162,812573,102,0,L|103:21,1,142.500005435944,2|0,1:2|0:0,0:0:0:0:
102,21,813017,2,0,L|115:91,1,71.2500027179719,10|0,1:2|0:0,0:0:0:0:
256,186,813239,2,0,P|269:153|264:118,1,71.2500027179719,2|0,0:0|0:0,0:0:0:0:
91,242,813462,5,2,1:2:0:0:
198,384,813573,2,0,L|173:243,1,142.500005435944,2|2,0:0|0:0,0:0:0:0:
104,326,813906,2,0,P|68:326|38:345,1,71.2500027179719,10|0,1:2|0:0,0:0:0:0:
324,283,814128,2,0,P|288:282|258:263,1,71.2500027179719,2|0,0:2|0:0,0:0:0:0:
484,164,814351,102,0,P|501:194|499:229,1,71.2500027179719,2|0,1:2|0:0,0:0:0:0:
401,384,814573,2,0,L|414:313,1,71.2500027179719,2|0,0:0|0:0,0:0:0:0:
312,92,814795,2,0,L|241:105,1,71.2500027179719,10|0,1:2|0:0,0:0:0:0:
103,230,815017,2,0,L|173:243,1,71.2500027179719,2|0,0:0|0:0,0:0:0:0:
324,283,815239,5,2,1:2:0:0:
264,192,815351,2,0,B|349:197|318:145|401:155,1,142.500005435944,2|2,0:0|0:0,0:0:0:0:
452,92,815684,2,0,P|482:75|500:44,1,71.2500027179719,10|0,1:2|0:0,0:0:0:0:
300,21,815906,2,0,L|311:91,1,71.2500027179719,2|0,0:0|0:0,0:0:0:0:
158,155,816128,101,2,1:2:0:0:
138,153,816239,1,2,0:0:0:0:
120,151,816351,2,0,L|49:164,1,71.2500027179719,2|0,0:0|0:0,0:0:0:0:
13,254,816573,2,0,L|0:324,1,71.2500027179719,10|0,1:2|0:0,0:0:0:0:
174,384,816795,1,2,0:0:0:0:
236,329,816906,1,2,0:0:0:0:
313,368,817017,6,0,P|374:335|441:352,1,142.500005435944,4|0,1:2|0:0,0:0:0:0:
359,219,817351,1,2,0:0:0:0:
279,252,817462,2,0,P|253:227|244:193,1,71.2500027179719,8|0,1:2|0:2,0:0:0:0:
454,116,817684,2,0,P|454:151|437:182,1,71.2500027179719,2|0,0:2|0:2,0:0:0:0:
182,72,817906,102,0,L|41:47,1,142.500005435944,2|0,1:2|0:0,0:0:0:0:
41,47,818351,2,0,P|15:70|2:103,1,71.2500027179719,8|0,1:2|0:0,0:0:0:0:
100,225,818573,2,0,L|170:212,1,71.2500027179719,2|0,0:0|0:0,0:0:0:0:
216,384,818795,6,0,P|161:339|91:332,1,142.500005435944,2|0,1:2|0:0,0:0:0:0:
0,325,819128,2,0,P|26:301|34:267,1,71.2500027179719,2|8,0:2|1:2,0:0:0:0:
275,190,819351,1,0,0:0:0:0:
216,129,819462,2,0,P|189:105|181:71,1,71.2500027179719,2|0,0:2|0:2,0:0:0:0:
493,0,819684,102,0,L|468:140,1,142.500005435944,2|0,1:2|0:0,0:0:0:0:
512,219,820017,2,0,P|477:214|443:226,1,71.2500027179719,2|8,0:0|1:2,0:0:0:0:
327,335,820239,1,0,0:0:0:0:
395,375,820351,2,0,P|428:387|463:382,1,71.2500027179719,2|0,0:0|0:2,0:0:0:0:
512,294,820573,6,0,L|441:306,1,71.2500027179719,6|0,1:2|0:0,0:0:0:0:
236,364,820795,1,8,0:2:0:0:
238,352,820906,1,8,0:2:0:0:
228,324,821017,101,8,1:2:0:0:
205,303,821128,1,8,0:2:0:0:
178,297,821239,1,8,0:2:0:0:
150,304,821351,1,8,0:2:0:0:
96,320,821462,5,8,1:2:0:0:
60,276,821573,1,8,0:2:0:0:
68,220,821684,1,8,0:2:0:0:
116,188,821795,1,8,0:2:0:0:
196,212,821906,101,8,1:2:0:0:
264,160,822017,1,8,0:2:0:0:
240,76,822128,1,8,0:2:0:0:
156,68,822239,1,8,0:2:0:0:
0,144,822351,5,14,1:2:0:0:
512,49,823906,101,8,0:2:0:0:
426,87,824017,1,8,0:2:0:0:
512,49,824128,5,4,1:2:0:0:
367,17,824239,2,0,P|347:38|339:67,1,59.375,2|0,0:0|0:0,0:0:0:0:
257,86,824462,2,0,P|263:114|282:137,1,59.375,2|8,0:0|1:2,0:0:0:0:
415,243,824684,2,0,L|473:231,1,59.375,2|0,0:0|0:0,0:0:0:0:
293,350,824906,2,0,L|234:338,1,59.375,2|0,0:0|1:2,0:0:0:0:
335,228,825128,101,2,0:0:0:0:
415,243,825239,2,0,L|473:231,1,59.375,2|0,0:0|0:0,0:0:0:0:
293,350,825462,2,0,L|234:338,1,59.375,10|0,1:2|0:2,0:0:0:0:
84,363,825684,1,2,0:0:0:0:
155,323,825795,1,2,0:0:0:0:
84,363,825906,5,2,1:2:0:0:
10,235,826017,2,0,L|0:176,1,59.375,2|0,0:0|0:0,0:0:0:0:
53,101,826239,2,0,P|79:87|108:86,1,59.375,2|8,0:0|1:2,0:0:0:0:
263,193,826462,2,0,P|233:192|207:178,1,59.375,2|0,0:0|0:2,0:0:0:0:
253,58,826684,2,0,L|262:0,1,59.375,2|0,0:0|1:2,0:0:0:0:
329,150,826906,101,2,0:0:0:0:
263,193,827017,2,0,P|233:192|207:178,1,59.375,2|0,0:0|0:2,0:0:0:0:
253,58,827239,2,0,L|262:0,1,59.375,10|0,1:2|0:2,0:0:0:0:
450,39,827462,2,0,P|420:43|395:57,1,59.375,2|0,0:0|0:0,0:0:0:0:
329,150,827684,6,0,L|445:129,1,118.75,2|0,1:2|0:0,0:0:0:0:
445,129,828017,2,0,L|435:187,1,59.375,2|8,0:0|1:2,0:0:0:0:
512,327,828351,102,0,L|395:306,1,118.75,2|0,0:2|1:2,0:0:0:0:
396,306,828684,2,0,L|405:364,1,59.375,2|0,0:0|0:0,0:0:0:0:
405,364,829017,6,0,L|288:384,1,118.75,10|0,1:2|0:2,0:0:0:0:
80,270,829462,101,2,1:2:0:0:
55,187,829573,2,0,P|113:187|155:227,1,118.75,2|2,0:0|0:0,0:0:0:0:
155,227,829906,2,0,P|205:255|260:239,1,118.75,10|2,1:2|0:0,0:0:0:0:
260,238,830239,2,0,P|274:213|271:184,1,59.375,2|0,0:0|1:2,0:0:0:0:
166,96,830462,5,2,0:0:0:0:
314,103,830573,2,0,P|301:76|275:62,1,59.375,2|0,0:0|0:2,0:0:0:0:
209,10,830795,2,0,L|150:0,1,59.375,10|0,1:2|0:0,0:0:0:0:
3,89,831017,1,2,0:0:0:0:
74,47,831128,1,2,0:0:0:0:
3,89,831239,101,6,1:2:0:0:
155,227,831351,2,0,P|183:219|204:199,1,59.375,2|0,0:0|0:0,0:0:0:0:
55,187,831573,2,0,P|36:209|29:238,1,59.375,2|8,0:0|1:2,0:0:0:0:
100,325,831795,2,0,L|158:313,1,59.375,2|0,0:0|0:0,0:0:0:0:
324,382,832017,2,0,P|337:356|337:326,1,59.375,2|0,0:0|1:2,0:0:0:0:
238,296,832239,5,2,0:0:0:0:
100,325,832351,2,0,L|158:313,1,59.375,2|0,0:0|0:0,0:0:0:0:
324,382,832573,2,0,P|337:356|337:326,1,59.375,10|0,1:2|0:2,0:0:0:0:
480,266,832795,1,2,0:0:0:0:
406,209,832906,1,2,0:0:0:0:
480,266,833017,101,2,1:2:0:0:
512,134,833128,2,0,L|502:75,1,59.375,2|0,0:0|0:0,0:0:0:0:
379,21,833351,2,0,P|408:21|434:35,1,59.375,2|8,0:0|1:2,0:0:0:0:
300,169,833573,2,0,P|270:168|244:154,1,59.375,2|0,0:0|0:2,0:0:0:0:
98,53,833795,2,0,P|68:54|42:68,1,59.375,2|0,0:0|1:2,0:0:0:0:
299,90,834017,5,2,0:0:0:0:
300,169,834128,2,0,P|270:168|244:154,1,59.375,2|0,0:0|0:2,0:0:0:0:
98,53,834351,2,0,P|68:54|42:68,1,59.375,10|0,1:2|0:2,0:0:0:0:
67,212,834573,2,0,P|92:226|122:230,1,59.375,2|0,0:0|0:0,0:0:0:0:
211,224,834795,101,0,1:2:0:0:
0,357,835017,2,0,L|116:335,1,118.75,2|8,0:0|1:2,0:0:0:0:
225,371,835462,1,2,0:0:0:0:
225,371,835573,1,2,0:0:0:0:
225,371,835684,2,0,L|235:312,1,59.375,2|0,1:2|0:0,0:0:0:0:
397,244,835906,1,8,0:2:0:0:
421,240,836017,1,8,0:2:0:0:
446,237,836128,5,8,1:2:0:0:
508,274,836239,1,8,0:2:0:0:
500,347,836351,1,8,0:2:0:0:
436,378,836462,1,8,0:2:0:0:
373,341,836573,101,10,1:2:0:0:
438,136,836684,2,0,L|447:89,1,47.5,10|0,1:2|0:0,0:0:0:0:
336,163,836906,6,0,L|303:128,1,47.5,10|0,1:2|0:0,0:0:0:0:
329,272,837128,102,0,L|282:278,1,47.5,10|0,1:2|0:0,0:0:0:0:
438,307,837350,6,0,L|416:349,1,47.5,10|0,1:2|0:0,0:0:0:0:
504,221,837573,101,10,1:2:0:0:
245,183,837684,2,0,L|198:176,1,47.5,10|0,1:2|0:0,0:0:0:0:
137,242,837906,6,0,L|104:276,1,47.5,10|0,1:2|0:0,0:0:0:0:
164,384,838128,102,0,L|154:337,1,47.5,2|0,1:2|0:0,0:0:0:0:
250,384,838350,5,6,1:2:0:0:
100,316,847012,53,0,1:2:0:0:
24,300,847188,1,0,3:0:0:0:
46,373,847365,2,0,P|102:330|171:335,1,142.500005435944,0|10,1:2|1:2,0:0:0:0:
484,261,848070,1,0,1:2:0:0:
418,302,848247,1,0,3:0:0:0:
480,345,848423,54,0,L|493:274,1,71.2500027179719,2|0,1:2|0:0,0:0:0:0:
280,211,848776,2,0,P|273:246|288:277,1,71.2500027179719,2|0,1:2|0:0,0:0:0:0:
512,177,849129,2,0,P|485:154|450:151,1,71.2500027179719,10|0,1:2|0:0,0:0:0:0:
330,56,849482,1,2,0:0:0:0:
248,109,849659,1,0,3:0:0:0:
248,109,849747,1,0,3:0:0:0:
248,109,849835,54,0,B|169:116|204:67|110:72,1,142.500005435944,2|2,1:2|0:0,0:0:0:0:
35,31,850365,1,0,0:0:0:0:
0,195,850541,2,0,P|29:176|64:175,1,71.2500027179719,10|0,1:2|0:0,0:0:0:0:
197,248,850894,1,2,0:0:0:0:
86,384,851070,2,0,L|111:243,1,142.500005435944,2|8,0:0|0:2,0:0:0:0:
277,164,851600,2,0,P|291:196|284:230,1,71.2500027179719,10|8,0:3|0:2,0:0:0:0:
115,71,851953,53,10,1:2:0:0:
276,0,852129,1,4,0:3:0:0:
277,164,852306,1,6,1:3:0:0:
222,79,852659,53,4,1:2:0:0:
512,267,855482,53,2,0:0:0:0:
329,366,857247,53,2,1:2:0:0:
135,334,857600,54,0,B|173:300|224:303|224:303|153:268|95:314|136:319|73:375|1:368,1,332.5,14|0,1:2|0:0,0:0:0:0:
14,369,858306,54,0,P|-3:338|0:303,1,71.25,14|0,1:2|0:0,0:0:0:0:
60,250,858659,2,0,P|77:280|74:315,1,71.25,10|0,1:2|0:0,0:0:0:0:
0,141,859012,54,0,P|38:105|90:100,1,106.875004076958,10|0,1:2|0:0,0:0:0:0:
163,134,859365,2,0,P|124:169|72:174,1,106.875004076958,10|0,1:2|0:0,0:0:0:0:
306,0,859717,54,0,P|347:55|335:123,1,142.5,10|0,1:2|0:0,0:0:0:0:
284,252,860070,2,0,P|242:196|254:128,1,142.5,10|0,1:2|0:0,0:0:0:0:
512,311,860423,54,0,L|336:341,1,178.125,10|0,1:2|0:0,0:0:0:0:
274,381,860776,2,0,L|215:370,1,59.375,10|0,1:2|0:0,0:0:0:0:
26,304,860953,53,8,0:2:0:0:
26,304,861041,1,8,0:2:0:0:
26,304,861129,1,10,1:2:0:0:
284,252,861306,1,8,0:2:0:0:
111,61,861482,1,8,0:2:0:0:
136,196,861659,54,0,L|206:183,1,71.2500027179719,4|0,1:2|0:0,0:0:0:0:
512,0,862012,53,8,0:2:0:0:
512,0,862100,1,8,0:2:0:0:
512,0,862188,1,10,0:2:0:0:
460,258,862365,1,8,0:2:0:0:
269,85,862541,1,10,0:2:0:0:
404,110,862717,54,0,L|391:180,1,71.2500027179719,4|0,1:2|0:0,0:0:0:0:
482,163,863070,1,8,0:2:0:0:
370,308,863247,1,8,0:2:0:0:
460,258,863423,1,8,0:3:0:0:
271,286,863600,1,4,0:3:0:0:
226,195,863776,1,4,1:3:0:0:
458,356,863953,54,0,B|377:391|316:323|354:317|289:245|200:285,1,284.999991302491,4|0,1:2|1:2,0:0:0:0:
205,283,866070,1,8,1:2:0:0:
0,381,866247,2,0,P|34:335|91:340,1,118.75,0|0,1:2|0:0,0:0:0:0:
91,340,866776,54,0,B|108:250|108:250|111:245|111:245|126:163,1,178.125,6|0,1:2|0:0,0:0:0:0:
125,166,867129,1,2,0:0:0:0:
0,222,867306,1,2,1:2:0:0:
263,181,867482,2,0,P|279:97|218:37,1,178.125,10|0,1:2|0:0,0:0:0:0:
218,37,867835,1,2,1:2:0:0:
407,104,868012,1,2,1:2:0:0:
338,18,868188,53,2,0:0:0:0:
359,182,868365,2,0,L|476:201,1,118.75,8|2,0:2|0:0,0:0:0:0:
512,283,868717,1,2,1:2:0:0:
335,384,868894,2,0,P|291:345|287:287,1,118.75,10|0,1:2|0:0,0:0:0:0:
412,311,869247,1,2,1:2:0:0:
192,368,869423,1,0,3:0:0:0:
192,368,869512,1,0,3:0:0:0:
192,368,869600,53,2,1:2:0:0:
24,170,869776,2,0,B|1:240|57:296|70:267|112:326|85:399,1,237.5,8|0,1:2|1:2,0:0:0:0:
203,139,870306,2,0,P|146:155|107:198,1,118.75,10|0,1:2|0:0,0:0:0:0:
287,287,870659,2,0,P|301:230|283:174,1,118.75,0|0,1:2|1:2,0:0:0:0:
188,273,871012,53,2,0:2:0:0:
404,183,871188,2,0,L|425:66,1,118.75,8|0,0:2|0:0,0:0:0:0:
512,139,871541,1,0,1:2:0:0:
272,63,871717,2,0,P|164:17|50:44,1,237.5,10|0,1:2|0:0,0:0:0:0:
0,245,872247,1,0,3:0:0:0:
0,245,872335,1,0,3:0:0:0:
0,245,872423,54,0,B|86:230|86:230|91:225|91:225|177:210,1,178.125,2|0,1:2|0:0,0:0:0:0:
174,211,872776,1,2,0:0:0:0:
21,137,872953,1,2,1:2:0:0:
218,310,873129,2,0,B|304:324|304:324|309:329|309:329|395:344,1,178.125,10|0,1:2|0:0,0:0:0:0:
392,343,873482,1,2,1:2:0:0:
278,227,873659,1,2,1:2:0:0:
497,151,873835,53,2,0:0:0:0:
414,234,874012,2,0,P|382:185|387:127,1,118.75,8|2,0:2|0:0,0:0:0:0:
292,32,874365,1,0,1:2:0:0:
117,188,874541,2,0,P|77:144|20:136,1,118.75,10|0,1:2|0:0,0:0:0:0:
0,234,874894,1,2,0:0:0:0:
173,373,875070,1,0,3:0:0:0:
173,373,875159,1,0,3:0:0:0:
173,373,875247,53,0,1:2:0:0:
278,227,875423,1,8,0:2:0:0:
89,296,875600,2,0,L|205:274,1,118.75,2|0,0:0|1:2,0:0:0:0:
450,373,875953,2,0,L|333:351,1,118.75,10|0,1:2|0:0,0:0:0:0:
278,227,876306,1,2,1:2:0:0:
385,23,876482,54,0,P|494:39|512:148,1,237.5,2|8,1:2|1:2,0:0:0:0:
398,186,877012,1,2,1:2:0:0:
208,117,877188,1,8,0:2:0:0:
208,117,877276,1,8,0:2:0:0:
208,117,877365,1,10,0:2:0:0:
333,78,877541,1,8,0:3:0:0:
278,227,877717,2,0,L|298:343,1,118.75,6|2,0:3|0:0,0:0:0:0:
198,377,878070,54,0,B|265:408|319:352|285:342|337:286|420:318,1,237.5,6|0,1:2|0:0,0:0:0:0:
512,384,878600,1,0,1:2:0:0:
323,157,878776,2,0,P|353:106|407:84,1,118.75,8|0,1:2|0:0,0:0:0:0:
486,180,879129,1,2,1:2:0:0:
240,296,879306,54,0,B|61:263|61:263|49:295|13:305,1,237.5,0|8,1:2|1:2,0:0:0:0:
0,169,879835,1,2,0:0:0:0:
97,351,880012,1,0,0:0:0:0:
163,190,880188,2,0,P|197:142|192:85,1,118.75,10|0,1:2|0:0,0:0:0:0:
69,75,880541,1,2,0:0:0:0:
267,216,880717,1,2,3:2:0:0:
267,216,880806,1,0,3:2:0:0:
267,216,880894,53,0,1:2:0:0:
343,121,881070,2,0,L|459:98,1,118.75,8|0,0:2|0:0,0:0:0:0:
378,19,881423,1,0,1:2:0:0:
479,283,881600,2,0,B|411:306|368:260|388:251|344:189|249:220,1,237.5,10|0,1:2|1:2,0:0:0:0:
450,186,882129,1,0,1:2:0:0:
295,305,882306,54,0,L|178:282,1,118.75,2|8,0:2|1:2,0:0:0:0:
19,361,882659,2,0,P|-13:313|0:256,1,118.75,2|0,0:0|1:2,0:0:0:0:
200,48,883012,2,0,P|232:95|219:152,1,118.75,10|0,1:2|0:0,0:0:0:0:
92,206,883365,1,2,0:0:0:0:
8,124,883541,1,2,1:2:0:0:
307,0,883717,54,0,B|328:115|328:115|324:118|324:118|346:237,1,237.5,6|0,1:2|0:0,0:0:0:0:
464,143,884247,1,0,1:2:0:0:
512,318,884423,1,8,1:2:0:0:
323,384,884600,1,2,0:0:0:0:
250,306,884776,1,10,0:2:0:0:
226,269,884865,1,8,0:2:0:0:
187,257,884953,1,10,0:2:0:0:
148,265,885041,1,8,0:2:0:0:
126,299,885129,2,0,L|139:369,1,71.25,8|0,0:2|0:0,0:0:0:0:
124,384,885482,54,0,L|82:150,1,237.5,6|8,1:2|0:2,0:0:0:0:
421,49,886012,54,0,B|443:34|468:35|468:35|449:9|407:0|370:38|392:41|357:82|283:72,1,237.5,6|8,1:2|0:2,0:0:0:0:
250,306,886541,54,0,P|219:211|317:228,1,237.5,6|0,1:2|0:0,0:0:0:0:
414,169,887070,1,0,1:2:0:0:
512,384,887247,2,0,L|395:363,1,118.75,8|0,0:2|0:0,0:0:0:0:
375,379,887512,1,8,0:2:0:0:
375,379,887600,1,10,0:2:0:0:
466,276,887776,1,8,0:3:0:0:
237,168,887953,54,0,P|190:202|178:258,1,118.75,2|8,1:2|0:2,0:0:0:0:
502,193,888306,1,0,1:2:0:0:
337,38,888482,1,10,0:2:0:0:
337,38,888570,1,8,0:2:0:0:
337,38,888659,1,8,0:2:0:0:
393,165,888835,1,8,0:3:0:0:
468,104,889012,54,0,P|437:85|402:85,1,71.25,6|0,0:3|0:0,0:0:0:0:
402,85,889365,54,0,B|320:70|320:70|316:67|316:67|227:51,1,178.125,6|0,1:2|0:0,0:0:0:0:
227,52,889717,1,2,0:0:0:0:
511,12,889894,1,2,1:2:0:0:
295,143,890070,2,0,P|233:202|250:286,1,178.125,10|0,1:2|0:0,0:0:0:0:
250,286,890423,1,2,0:0:0:0:
113,219,890600,1,2,3:0:0:0:
113,219,890688,1,0,3:0:0:0:
113,219,890776,53,2,1:2:0:0:
129,384,890953,2,0,L|246:364,1,118.75,8|2,0:2|0:0,0:0:0:0:
459,384,891306,1,0,1:2:0:0:
374,167,891482,2,0,P|417:129|475:132,1,118.75,10|0,1:2|0:0,0:0:0:0:
363,275,891835,1,2,0:0:0:0:
162,134,892012,1,0,3:0:0:0:
162,134,892100,1,0,3:0:0:0:
162,134,892188,53,2,1:2:0:0:
59,208,892365,2,0,B|129:230|185:174|156:161|215:119|288:146,1,237.5,8|0,0:2|1:2,0:0:0:0:
96,48,892894,2,0,P|39:64|0:107,1,118.75,10|0,1:2|0:0,0:0:0:0:
0,309,893247,2,0,L|133:286,1,118.75,0|0,1:2|1:2,0:0:0:0:
177,384,893600,53,2,0:0:0:0:
354,231,893776,2,0,P|387:278|381:336,1,118.75,8|0,1:2|0:0,0:0:0:0:
235,266,894129,1,0,1:2:0:0:
362,103,894306,2,0,B|424:77|428:9|428:9|452:72|516:78,1,237.5,10|0,1:2|0:0,0:0:0:0:
506,282,894835,1,0,3:0:0:0:
506,282,894923,1,0,3:0:0:0:
506,282,895012,54,0,P|440:225|353:230,1,178.125,2|0,1:2|0:0,0:0:0:0:
353,230,895365,1,2,0:0:0:0:
174,119,895541,1,2,1:2:0:0:
136,375,895717,54,0,P|201:318|288:323,1,178.125,10|0,1:2|0:0,0:0:0:0:
288,323,896070,1,2,1:2:0:0:
120,229,896247,1,2,1:2:0:0:
256,210,896423,53,2,0:0:0:0:
34,120,896600,2,0,P|28:62|60:13,1,118.75,8|2,0:2|0:0,0:0:0:0:
174,119,896953,1,0,1:2:0:0:
18,355,897129,2,0,L|135:374,1,118.75,10|0,1:2|0:0,0:0:0:0:
423,271,897482,1,2,0:0:0:0:
362,384,897659,1,0,3:0:0:0:
362,384,897747,1,0,3:0:0:0:
362,384,897835,53,0,1:2:0:0:
256,210,898012,1,8,1:2:0:0:
406,77,898188,2,0,P|451:41|509:46,1,118.75,2|0,0:0|1:2,0:0:0:0:
251,128,898541,2,0,P|201:96|182:41,1,118.75,10|0,1:2|0:0,0:0:0:0:
318,59,898894,1,2,1:2:0:0:
489,246,899070,54,0,B|382:227|382:227|377:230|377:230|255:208,1,237.5,2|8,1:2|0:2,0:0:0:0:
479,148,899600,1,2,1:2:0:0:
392,320,899776,1,8,0:2:0:0:
392,320,899865,1,8,0:2:0:0:
392,320,899953,1,10,0:2:0:0:
255,209,900129,1,8,0:3:0:0:
350,129,900306,2,0,P|385:174|379:232,1,118.75,6|0,0:3|0:0,0:0:0:0:
278,359,900659,54,0,B|97:328|97:328|95:297|67:279,1,237.5,6|0,1:2|0:0,0:0:0:0:
0,384,901188,1,0,1:2:0:0:
44,174,901365,2,0,P|73:123|127:101,1,118.75,8|0,1:2|0:0,0:0:0:0:
172,223,901717,1,2,1:2:0:0:
326,32,901894,54,0,B|305:146|305:146|308:149|308:149|288:268,1,237.5,0|8,1:2|0:2,0:0:0:0:
209,139,902423,1,2,0:0:0:0:
436,105,902600,1,0,1:2:0:0:
381,201,902776,2,0,P|438:210|475:254,1,118.75,10|0,1:2|0:0,0:0:0:0:
408,345,903129,1,2,0:0:0:0:
192,271,903306,1,0,3:0:0:0:
192,271,903394,1,0,3:0:0:0:
192,271,903482,54,0,L|75:294,1,118.75,6|8,1:2|0:2,0:0:0:0:
0,157,903835,2,0,L|116:180,1,118.75,2|0,0:0|1:2,0:0:0:0:
344,384,904188,2,0,P|326:329|273:306,1,118.75,10|0,1:2|0:0,0:0:0:0:
255,192,904541,1,2,1:2:0:0:
440,283,904717,54,0,P|476:237|471:179,1,118.75,2|0,1:2|0:0,0:0:0:0:
356,89,905070,1,8,0:2:0:0:
192,271,905247,2,0,L|74:251,1,118.75,2|0,0:0|1:2,0:0:0:0:
0,57,905600,2,0,P|47:24|104:37,1,118.75,10|0,1:2|1:2,0:0:0:0:
163,188,905953,1,2,0:0:0:0:
47,134,906129,1,8,3:2:0:0:
47,134,906217,1,8,3:2:0:0:
47,134,906306,54,0,B|110:161|163:102|140:98|182:42|256:65,1,237.5,6|0,1:2|0:0,0:0:0:0:
417,0,906835,1,0,1:2:0:0:
289,141,907012,2,0,L|309:257,1,118.75,8|0,1:2|0:0,0:0:0:0:
163,188,907365,1,2,1:2:0:0:
383,91,907541,54,0,P|490:126|511:237,1,237.5,2|8,1:2|0:2,0:0:0:0:
280,332,908070,1,0,0:0:0:0:
424,238,908247,1,0,1:2:0:0:
512,384,908423,2,0,P|462:352|404:356,1,118.75,14|0,1:2|0:0,0:0:0:0:
155,303,908776,1,2,0:0:0:0:
206,384,908953,1,8,0:2:0:0:
206,384,909041,1,8,0:2:0:0:
206,384,909129,54,0,B|223:299|223:299|225:295|225:295|241:209,1,178.125,2|0,1:2|0:0,0:0:0:0:
241,209,909482,54,0,P|282:168|340:164,1,118.75,8|0,0:2|0:0,0:0:0:0:
360,288,909835,1,0,1:2:0:0:
64,154,910012,1,8,0:2:0:0:
45,240,910188,1,10,0:3:0:0:
130,206,910365,1,6,0:3:0:0:
60,44,910541,54,0,B|37:29|12:30|12:30|31:4|73:-5|110:33|88:36|123:77|197:67,1,237.5,14|0,1:2|0:0,0:0:0:0:
296,38,911070,1,10,0:3:0:0:
370,12,911247,1,4,0:3:0:0:
443,38,911423,1,4,1:3:0:0:
454,119,911600,2,0,L|434:224,1,106.875004076958,2|0,1:2|0:0,0:0:0:0:
434,224,911953,53,6,1:2:0:0:
512,280,920625,21,0,1:2:0:0:
417,370,920859,2,0,P|396:328|409:283,1,95,2|8,0:0|1:2,0:0:0:0:
409,283,921796,85,0,1:2:0:0:
257,173,922031,2,0,P|270:217|249:259,1,95,8|0,1:2|0:2,0:0:0:0:
30,318,922500,21,2,1:2:0:0:
32,335,922617,1,2,0:0:0:0:
34,353,922734,2,0,L|80:344,1,47.5,2|0,0:0|0:0,0:0:0:0:
209,377,922968,1,10,1:2:0:0:
104,263,923203,2,0,P|71:231|76:185,1,95,2|0,0:0|1:2,0:0:0:0:
95,166,923554,1,2,0:0:0:0:
112,149,923671,2,0,L|95:55,1,95,2|8,1:2|1:2,0:0:0:0:
275,4,924140,86,0,P|228:6|189:33,1,95,2|0,0:0|1:2,0:0:0:0:
277,202,924609,1,2,0:0:0:0:
330,121,924843,2,0,L|423:105,1,95,10|0,1:2|0:0,0:0:0:0:
423,105,925546,21,0,1:2:0:0:
512,232,925781,2,0,L|418:216,1,95,8|0,1:2|0:0,0:0:0:0:
262,319,926250,85,2,1:2:0:0:
384,295,926484,1,2,0:2:0:0:
277,202,926718,21,10,1:2:0:0:
155,178,926953,1,2,0:2:0:0:
150,198,927070,1,2,0:0:0:0:
145,218,927187,2,0,L|162:311,1,95,0|2,1:2|1:2,0:0:0:0:
0,115,927656,2,0,P|25:76|71:68,1,95,10|0,1:2|0:0,0:0:0:0:
204,20,928007,1,2,0:0:0:0:
150,78,928125,86,0,L|155:113,1,35.625001358986,2|0,1:2|0:0,0:0:0:0:
155,113,928593,22,0,B|246:116|200:64|288:70,1,142.500005435944,8|2,1:2|1:2,0:0:0:0:
416,33,929296,1,10,0:3:0:0:
406,19,929414,1,8,0:3:0:0:
388,15,929531,2,0,L|352:21,1,35.625001358986,10|0,1:3|0:0,0:0:0:0:
432,106,929765,2,0,L|467:112,1,35.625001358986,6|0,1:3|0:0,0:0:0:0:
512,186,930000,86,0,B|467:193|467:193|462:195|462:195|419:203,1,95,6|0,1:2|0:0,0:0:0:0:
297,324,930234,1,2,0:0:0:0:
368,365,930351,2,0,P|378:343|378:320,1,47.5,8|0,0:2|1:2,0:0:0:0:
148,205,930703,22,0,B|155:249|155:249|157:254|157:254|165:297,1,95,10|0,0:2|0:0,0:0:0:0:
39,360,930937,2,0,P|16:352|0:336,1,47.5,0|0,1:2|0:0,0:0:0:0:
28,261,931171,1,10,0:2:0:0:
165,298,931289,1,8,0:2:0:0:
11,255,931406,2,0,L|18:208,1,47.5,2|2,1:2|0:0,0:0:0:0:
41,131,931640,2,0,P|64:132|84:145,1,47.5,10|0,0:2|0:0,0:0:0:0:
154,105,931875,86,0,B|197:97|197:97|202:95|202:95|246:87,1,95,2|0,1:2|0:0,0:0:0:0:
419,144,932109,1,2,0:0:0:0:
340,144,932226,2,0,P|340:167|350:188,1,47.5,8|0,0:2|1:2,0:0:0:0:
512,106,932578,22,0,B|504:62|504:62|502:57|502:57|494:13,1,95,10|0,0:2|0:0,0:0:0:0:
301,254,932812,2,0,P|318:269|340:277,1,47.5,0|0,1:2|0:0,0:0:0:0:
439,376,933046,1,10,0:2:0:0:
499,326,933164,1,8,0:2:0:0:
474,249,933281,2,0,P|471:225|480:203,1,47.5,2|0,1:2|0:0,0:0:0:0:
419,144,933515,2,0,P|398:131|375:129,1,47.5,10|0,0:2|0:0,0:0:0:0:
181,24,933750,85,0,1:2:0:0:
39,130,933984,2,0,B|82:122|82:122|87:120|87:120|131:112,1,95,2|8,0:2|0:2,0:0:0:0:
212,138,934218,1,0,1:2:0:0:
141,228,934453,2,0,B|96:235|96:235|91:237|91:237|48:245,1,95,10|0,0:2|0:2,0:0:0:0:
60,330,934687,2,0,B|103:322|103:322|108:320|108:320|152:312,1,95,2|0,1:2|0:2,0:0:0:0:
232,358,934921,21,10,0:2:0:0:
352,275,935039,1,8,0:2:0:0:
252,344,935156,2,0,L|298:352,1,47.5,2|0,1:2|0:0,0:0:0:0:
273,265,935390,2,0,L|227:257,1,47.5,10|0,0:2|0:0,0:0:0:0:
421,384,935625,86,0,B|411:301|467:341|457:246,1,142.5,2|8,1:2|0:2,0:0:0:0:
399,183,936093,2,0,P|375:184|354:195,1,47.5,0|0,1:2|0:0,0:0:0:0:
489,160,936328,2,0,P|504:142|511:119,1,47.5,8|0,0:2|0:0,0:0:0:0:
339,38,936562,22,0,B|317:21|290:29|290:29|315:29|337:47,1,95,6|0,1:2|0:0,0:0:0:0:
207,163,936796,2,0,B|228:146|255:154|255:154|230:154|214:168,1,95,6|0,1:2|0:0,0:0:0:0:
338,48,937031,2,0,B|316:31|289:39|289:39|314:39|330:53,1,95,14|0,1:2|0:0,0:0:0:0:
206,173,937265,2,0,B|227:156|254:164|254:164|229:164|213:178,1,95,14|0,1:2|0:0,0:0:0:0:
242,264,937500,86,0,B|197:257|197:257|192:255|192:255|149:247,1,95,6|0,1:2|0:0,0:0:0:0:
0,137,937734,1,2,0:0:0:0:
26,61,937851,2,0,P|48:69|64:85,1,47.5,8|0,0:2|1:2,0:0:0:0:
135,13,938203,22,0,B|143:57|143:57|145:62|145:62|152:106,1,95,10|0,0:2|0:0,0:0:0:0:
393,163,938437,2,0,P|403:141|403:118,1,47.5,0|0,1:2|0:0,0:0:0:0:
301,225,938671,1,10,0:2:0:0:
323,122,938789,1,8,0:2:0:0:
297,243,938906,2,0,L|344:250,1,47.5,2|0,1:2|0:0,0:0:0:0:
426,258,939140,2,0,P|425:281|412:301,1,47.5,10|0,0:2|0:0,0:0:0:0:
343,347,939375,86,0,B|297:355|297:355|292:357|292:357|249:365,1,95,2|0,1:2|0:0,0:0:0:0:
91,274,939609,1,2,0:0:0:0:
32,329,939726,2,0,P|48:345|70:353,1,47.5,8|0,0:2|1:2,0:0:0:0:
178,271,940078,22,0,B|170:227|170:227|168:222|168:222|160:178,1,95,10|0,0:2|0:0,0:0:0:0:
282,98,940312,2,0,P|299:113|321:121,1,47.5,0|0,1:2|0:0,0:0:0:0:
512,52,940546,1,10,0:2:0:0:
450,14,940664,1,8,0:2:0:0:
388,58,940781,2,0,L|396:104,1,47.5,2|0,1:2|0:0,0:0:0:0:
470,139,941015,2,0,L|461:185,1,47.5,10|0,0:2|0:0,0:0:0:0:
512,346,941250,85,0,1:2:0:0:
410,384,941484,2,0,B|402:341|402:341|400:336|400:336|392:292,1,95,2|8,0:2|0:2,0:0:0:0:
317,261,941718,1,0,1:2:0:0:
224,311,941953,2,0,B|217:266|217:266|215:261|215:261|207:218,1,95,10|0,0:2|0:2,0:0:0:0:
286,175,942187,2,0,B|329:183|329:183|334:185|334:185|378:193,1,95,2|0,1:2|0:2,0:0:0:0:
144,320,942421,21,10,0:2:0:0:
269,375,942539,1,8,0:2:0:0:
140,301,942656,2,0,L|132:255,1,47.5,2|0,1:2|0:0,0:0:0:0:
67,209,942890,2,0,L|21:217,1,47.5,10|0,0:2|0:0,0:0:0:0:
0,81,943125,86,0,B|83:71|43:127|138:117,1,142.5,2|8,1:2|0:2,0:0:0:0:
191,63,943593,2,0,P|190:39|179:18,1,47.5,2|0,1:2|0:0,0:0:0:0:
306,77,943828,2,0,P|324:92|347:99,1,47.5,8|0,0:2|0:0,0:0:0:0:
240,144,944062,22,0,P|247:190|214:221,1,95,2|8,1:2|0:2,0:0:0:0:
140,301,944414,1,8,0:2:0:0:
253,360,944531,2,0,P|298:348|345:343,1,95,2|8,1:2|0:2,0:0:0:0:
512,224,944882,1,8,0:2:0:0:
445,384,945000,86,0,B|458:307|458:307|461:303|461:303|484:171,1,213.750008153916,6|2,1:2|0:0,0:0:0:0:
484,174,945937,1,2,0:0:0:0:
0,0,946875,21,2,1:2:0:0:
74,22,947109,2,0,L|109:15,2,35.625001358986,2|2|2,0:0|0:0|1:2,0:0:0:0:
17,75,947578,1,2,0:0:0:0:
0,0,947812,1,2,1:2:0:0:
0,384,948750,85,2,0:0:0:0:
11,375,948984,1,2,0:0:0:0:
24,369,949218,1,2,0:0:0:0:
37,365,949453,1,2,0:0:0:0:
56,290,949687,21,2,0:0:0:0:
84,285,949921,1,2,0:0:0:0:
111,294,950156,1,2,0:0:0:0:
129,315,950390,1,2,0:0:0:0:
194,371,950625,86,0,P|241:373|284:356,1,95,2|0,0:0|0:0,0:0:0:0:
375,366,951328,21,8,0:2:0:0:
377,351,951445,1,8,0:2:0:0:
381,335,951562,2,0,L|376:311,1,23.75,8|0,1:2|0:0,0:0:0:0:
455,284,951796,2,0,L|461:319,1,35.625001358986,8|0,0:2|0:0,0:0:0:0:
330,176,952031,86,0,L|337:129,1,47.5,10|0,1:2|0:0,0:0:0:0:
512,0,952265,2,0,L|501:58,1,59.375,10|0,0:2|0:0,0:0:0:0:
396,232,952500,22,0,P|352:214|304:214,1,95,6|0,1:2|0:0,0:0:0:0:
297,289,952734,1,2,0:0:0:0:
238,151,952851,2,0,P|215:177|210:212,1,71.2500027179719,2|8,0:0|1:2,0:0:0:0:
311,295,953085,1,2,0:0:0:0:
140,333,953203,2,0,B|75:321|75:321|68:322|68:322|-1:310,1,142.500005435944,2|0,0:2|1:2,0:0:0:0:
83,68,953671,86,0,P|85:51|77:35,3,35.625001358986
10,104,953906,22,0,L|103:87,1,95,10|0,1:2|0:0,0:0:0:0:
334,46,954140,2,0,L|343:0,1,47.5,2|0,0:0|0:0,0:0:0:0:
343,0,954375,86,0,L|359:93,1,95,2|0,1:2|0:0,0:0:0:0:
269,99,954609,1,2,0:0:0:0:
446,117,954726,2,0,P|479:105|501:78,1,71.2500027179719,2|8,0:0|1:2,0:0:0:0:
254,97,954960,1,2,0:0:0:0:
444,222,955078,2,0,B|359:222|405:175|310:172,1,142.500005435944,2|0,0:0|1:2,0:0:0:0:
315,172,955546,22,0,L|296:265,1,95,2|0,0:0|0:0,0:0:0:0:
0,368,955781,2,0,P|38:341|84:346,1,95,10|0,1:2|0:0,0:0:0:0:
84,346,956250,86,0,L|72:275,1,71.2500027179719,2|0,1:2|0:0,0:0:0:0:
175,332,956484,1,2,0:0:0:0:
5,225,956601,2,0,P|30:200|64:192,1,71.2500027179719,2|8,0:0|1:2,0:0:0:0:
191,343,956835,1,2,0:0:0:0:
69,112,956953,2,0,P|133:138|153:204,1,142.500005435944,2|0,0:0|1:2,0:0:0:0:
153,204,957421,22,0,P|194:226|240:222,1,95,2|0,0:2|0:0,0:0:0:0:
474,51,957656,2,0,P|432:28|386:32,1,95,10|0,1:2|0:0,0:0:0:0:
386,32,958125,86,0,L|315:44,1,71.2500027179719,2|0,1:2|0:0,0:0:0:0:
417,113,958359,1,0,0:0:0:0:
226,80,958476,2,0,P|200:55|195:20,1,71.2500027179719,2|8,0:2|1:2,0:0:0:0:
435,115,958710,1,2,0:0:0:0:
240,222,958828,2,0,B|299:202|343:249|316:253|358:293|414:275,1,190,2|0,0:0|1:2,0:0:0:0:
409,276,959296,22,0,P|441:264|460:234,1,71.2500027179719,2|0,0:0|0:0,0:0:0:0:
245,300,959531,2,0,P|238:334|254:365,1,71.2500027179719,10|0,1:2|0:0,0:0:0:0:
303,141,959765,2,0,P|276:118|241:116,1,71.2500027179719,2|0,0:0|0:0,0:0:0:0:
321,232,960000,85,6,1:2:0:0:
64,322,960234,2,0,L|55:368,1,47.5,2|0,0:0|0:0,0:0:0:0:
55,368,960468,22,0,P|24:332|25:286,1,95,10|0,1:2|0:0,0:0:0:0:
139,99,960703,2,0,P|169:134|168:180,1,95,2|0,0:2|0:0,0:0:0:0:
0,194,960937,2,0,L|93:210,1,95,2|0,1:2|0:0,0:0:0:0:
93,210,961406,85,10,1:2:0:0:
308,66,961640,2,0,P|319:45|320:21,1,47.5,2|0,0:0|0:0,0:0:0:0:
320,21,961875,22,0,L|226:4,1,95,2|0,1:2|0:0,0:0:0:0:
387,124,962109,2,0,L|480:107,1,95,2|0,0:2|0:0,0:0:0:0:
488,18,962343,2,0,L|441:26,1,47.5,10|0,1:2|0:0,0:0:0:0:
262,139,962578,2,0,L|308:146,1,47.5,2|0,0:2|0:0,0:0:0:0:
385,206,962812,86,0,P|342:224|328:268,1,95,2|0,1:2|0:0,0:0:0:0:
469,220,963046,1,2,0:0:0:0:
246,270,963164,2,0,P|237:304|252:335,1,71.2500027179719,2|8,0:0|1:2,0:0:0:0:
489,215,963398,1,2,0:0:0:0:
339,357,963515,2,0,L|409:344,1,71.2500027179719,2|0,0:0|0:0,0:0:0:0:
156,304,963750,22,0,L|120:297,3,35.625001358986,2|0|0|0,1:2|0:0|0:0|0:0,0:0:0:0:
144,377,963984,2,0,L|73:364,1,71.2500027179719,2|0,0:0|0:0,0:0:0:0:
246,270,964218,86,0,L|339:253,1,95,10|0,1:2|0:0,0:0:0:0:
235,196,964453,2,0,L|281:187,1,47.5,2|0,0:2|0:0,0:0:0:0:
65,124,964687,22,0,P|40:99|36:64,1,71.2500027179719,2|0,1:2|0:0,0:0:0:0:
218,8,964921,2,0,P|242:32|246:67,1,71.2500027179719,2|0,0:0|0:0,0:0:0:0:
353,135,965156,86,0,P|352:100|374:72,1,71.2500027179719,10|0,1:2|0:0,0:0:0:0:
470,105,965390,2,0,P|470:139|448:167,1,71.2500027179719,2|0,0:2|0:0,0:0:0:0:
512,260,965625,22,0,L|465:251,1,47.5,2|0,1:2|0:0,0:0:0:0:
374,233,965859,1,2,0:0:0:0:
205,384,965976,2,0,P|229:343|223:297,1,95,2|8,0:0|1:2,0:0:0:0:
382,213,966210,1,2,0:0:0:0:
311,310,966328,2,0,P|285:244|225:209,1,142.500005435944,2|0,0:0|1:2,0:0:0:0:
225,209,966796,86,0,L|178:217,1,47.5,8|0,0:2|0:0,0:0:0:0:
0,277,967031,2,0,L|46:285,1,47.5,10|0,1:2|0:0,0:0:0:0:
74,368,967265,1,10,0:2:0:0:
150,323,967382,1,8,0:2:0:0:
72,353,967500,22,0,L|55:259,1,95,6|0,1:2|0:0,0:0:0:0:
150,323,967734,1,2,0:0:0:0:
43,181,967851,2,0,P|70:159|106:157,1,71.2500027179719,2|8,0:0|1:2,0:0:0:0:
162,338,968085,1,2,0:0:0:0:
308,173,968203,2,0,B|396:184|358:123|445:136,1,142.500005435944,2|0,0:2|1:2,0:0:0:0:
512,336,968671,86,0,L|477:329,3,35.625001358986
405,374,968906,22,0,P|442:346|455:301,1,95,10|0,1:2|0:0,0:0:0:0:
327,90,969140,2,0,P|305:80|282:80,1,47.5,2|0,0:0|0:0,0:0:0:0:
282,80,969375,86,0,L|189:96,1,95,2|0,1:2|0:0,0:0:0:0:
133,40,969609,1,2,0:0:0:0:
308,173,969726,2,0,P|343:173|373:156,1,71.2500027179719,2|8,0:0|1:2,0:0:0:0:
120,29,969960,1,2,0:0:0:0:
310,258,970078,2,0,B|225:258|271:211|176:208,1,142.500005435944,2|0,0:0|1:2,0:0:0:0:
181,208,970546,22,0,P|202:249|191:294,1,95,2|0,0:0|0:0,0:0:0:0:
0,116,970781,2,0,L|49:107,1,47.5,10|0,1:2|0:0,0:0:0:0:
101,200,971015,2,0,L|54:191,1,47.5,2|0,0:2|0:0,0:0:0:0:
54,191,971250,86,0,L|66:262,1,71.2500027179719,2|0,1:2|0:0,0:0:0:0:
20,341,971484,1,2,0:0:0:0:
186,294,971601,2,0,L|256:307,1,71.2500027179719,2|8,0:0|1:2,0:0:0:0:
0,346,971835,1,2,0:0:0:0:
262,220,971953,2,0,P|326:246|346:312,1,142.500005435944,2|0,0:0|1:2,0:0:0:0:
346,311,972421,22,0,L|439:294,1,95,2|0,0:2|0:0,0:0:0:0:
512,133,972656,2,0,P|493:118|470:113,1,47.5,10|0,1:2|0:0,0:0:0:0:
339,76,972890,2,0,P|357:90|380:95,1,47.5,2|0,0:2|0:0,0:0:0:0:
380,95,973125,86,0,L|392:166,1,71.2500027179719,2|0,1:2|0:0,0:0:0:0:
452,36,973359,1,2,0:0:0:0:
291,139,973476,2,0,P|265:114|260:79,1,71.2500027179719,2|8,0:2|1:2,0:0:0:0:
468,26,973710,1,2,0:0:0:0:
512,306,973828,2,0,P|435:253|342:258,1,190,2|0,0:0|1:2,0:0:0:0:
342,258,974296,22,0,L|354:328,1,71.2500027179719,2|0,0:0|0:0,0:0:0:0:
171,384,974531,2,0,L|100:371,1,71.2500027179719,10|0,1:2|0:0,0:0:0:0:
151,179,974765,2,0,L|221:191,1,71.2500027179719,2|0,0:0|0:0,0:0:0:0:
228,287,975000,85,6,1:2:0:0:
10,116,975234,2,0,P|9:92|18:70,1,47.5,2|0,0:0|0:0,0:0:0:0:
18,70,975468,22,0,L|111:53,1,95,10|0,1:2|0:0,0:0:0:0:
143,263,975703,2,0,L|49:279,1,95,2|0,0:2|0:0,0:0:0:0:
188,102,975937,2,0,P|232:89|274:109,1,95,2|0,1:2|0:0,0:0:0:0:
221,191,976406,85,10,1:2:0:0:
500,320,976640,2,0,P|511:299|512:275,1,47.5,2|0,0:0|0:0,0:0:0:0:
512,275,976875,22,0,L|418:292,1,95,2|0,1:2|0:0,0:0:0:0:
283,384,977109,2,0,P|280:337|307:299,1,95,2|0,0:2|0:0,0:0:0:0:
469,150,977343,2,0,L|461:197,1,47.5,10|0,1:2|0:0,0:0:0:0:
355,210,977578,2,0,L|309:217,1,47.5,2|0,0:2|0:0,0:0:0:0:
280,134,977812,86,0,P|265:90|222:72,1,95,2|0,1:2|0:0,0:0:0:0:
364,89,978046,1,2,0:0:0:0:
146,46,978164,2,0,P|137:80|152:111,1,71.2500027179719,2|8,0:0|1:2,0:0:0:0:
382,94,978398,1,2,0:0:0:0:
221,191,978515,2,0,L|234:261,1,71.2500027179719,2|0,0:0|0:0,0:0:0:0:
0,327,978750,22,0,L|7:291,3,35.625001358986,2|0|0|0,1:2|0:0|0:0|0:0,0:0:0:0:
62,379,978984,2,0,P|94:364|129:369,1,71.2500027179719,2|0,0:0|0:0,0:0:0:0:
384,294,979218,86,0,P|337:290|295:313,1,95,10|0,1:2|0:0,0:0:0:0:
221,338,979453,2,0,L|230:384,1,47.5,2|0,0:2|0:0,0:0:0:0:
473,264,979687,22,0,P|498:239|502:204,1,71.2500027179719,2|0,1:2|0:0,0:0:0:0:
315,82,979921,2,0,P|339:106|343:141,1,71.2500027179719,2|0,0:0|0:0,0:0:0:0:
142,204,980156,86,0,P|141:169|163:141,1,71.2500027179719,10|0,1:2|0:0,0:0:0:0:
40,72,980390,2,0,P|40:106|62:134,1,71.2500027179719,2|0,0:2|0:0,0:0:0:0:
202,67,980625,22,0,P|180:58|156:57,1,47.5,2|0,1:2|0:0,0:0:0:0:
90,17,980859,1,2,0:0:0:0:
220,234,980976,2,0,L|313:218,1,95,2|8,0:0|1:2,0:0:0:0:
82,2,981210,1,2,0:0:0:0:
251,139,981328,2,0,B|345:140|289:89|378:91,1,142.500005435944,2|0,0:0|1:2,0:0:0:0:
377,91,981796,86,0,L|385:138,1,47.5,8|0,0:2|0:0,0:0:0:0:
466,189,982031,2,0,L|512:197,1,47.5,10|0,1:2|0:0,0:0:0:0:
378,268,982265,1,10,0:2:0:0:
485,304,982382,1,8,0:2:0:0:
355,261,982500,21,2,1:2:0:0:
269,320,983437,85,2,1:2:0:0:
90,343,984375,22,0,L|94:319,1,23.75
79,345,984492,86,0,L|83:321,1,23.75
68,348,984609,22,0,L|72:324,1,23.75
57,350,984726,86,0,L|61:326,1,23.75
46,354,984843,22,0,L|72:213,1,142.5,6|0,1:2|0:0,0:0:0:0:
141,182,985312,86,0,P|89:137|23:157,1,142.5,6|0,1:2|0:0,0:0:0:0:
23,157,985781,21,2,0:0:0:0:
450,52,986250,85,2,1:2:0:0:
204,285,994992,85,0,1:2:0:0:
52,108,995150,1,0,1:2:0:0:
52,108,995308,2,0,P|76:83|111:76,1,71.2500027179719,10|0,0:2|0:2,0:2:0:0:
201,148,995624,1,2,0:0:0:0:
44,199,995782,1,2,0:0:0:0:
117,260,995940,2,0,L|129:189,1,71.2500027179719,10|2,0:2|0:0,0:0:0:0:
201,148,996255,69,0,1:2:0:0:
472,273,996413,1,0,1:2:0:0:
472,273,996571,2,0,L|401:285,1,71.2500027179719,10|0,0:2|0:0,0:0:0:0:
283,368,996887,1,2,0:0:0:0:
235,280,997045,1,2,0:0:0:0:
382,361,997203,1,10,0:2:0:0:
382,361,997361,1,2,0:0:0:0:
371,203,997518,37,0,1:2:0:0:
301,29,997676,1,0,1:2:0:0:
301,29,997834,2,0,P|279:56|278:91,1,71.2500027179719,10|0,0:2|0:0,0:0:0:0:
452,130,998150,1,2,0:0:0:0:
381,70,998308,1,2,0:0:0:0:
301,173,998466,2,0,L|371:160,1,71.2500027179719,10|0,0:2|0:0,0:0:0:0:
482,330,998782,69,2,1:2:0:0:
446,220,998940,1,2,1:2:0:0:
267,360,999097,37,10,1:2:0:0:
380,384,999255,1,2,1:2:0:0:
301,173,999413,69,10,1:2:0:0:
223,259,999571,1,2,1:2:0:0:
352,278,999729,37,10,1:2:0:0:
223,67,999887,1,2,0:0:0:0:
312,10,1000045,69,4,1:2:0:0:
31,69,1000203,1,0,1:2:0:0:
31,69,1000361,2,0,P|66:69|98:85,1,71.2500027179719,10|2,0:2|0:0,0:0:0:0:
145,190,1000676,1,2,0:0:0:0:
46,150,1000834,1,2,0:0:0:0:
223,67,1000992,2,0,P|223:31|207:0,1,71.2500027179719,10|2,0:2|0:0,0:0:0:0:
97,84,1001308,37,0,1:2:0:0:
174,298,1001466,1,0,1:2:0:0:
174,298,1001624,2,0,L|103:285,1,71.2500027179719,10|2,0:2|0:0,0:0:0:0:
16,269,1001940,1,2,0:0:0:0:
123,375,1002097,1,2,0:0:0:0:
255,285,1002255,2,0,P|282:262|317:258,1,71.2500027179719,10|0,0:2|0:0,0:0:0:0:
310,345,1002571,69,0,1:2:0:0:
512,210,1002729,1,0,1:2:0:0:
512,210,1002887,2,0,L|499:139,1,71.2500027179719,10|2,0:2|0:0,0:0:0:0:
325,26,1003203,1,2,0:0:0:0:
255,83,1003361,1,2,0:0:0:0:
361,196,1003518,1,10,0:2:0:0:
411,47,1003676,1,2,0:0:0:0:
278,169,1003834,37,10,1:3:0:0:
426,132,1003992,1,6,1:3:0:0:
290,261,1004150,2,0,L|219:248,1,71.2500027179719,14|2,1:2|0:0,0:0:0:0:
103,65,1004466,69,10,1:2:0:0:
75,53,1004545,1,8,0:2:0:0:
50,55,1004624,1,10,0:2:0:0:
26,71,1004703,1,8,0:2:0:0:
16,102,1004782,1,10,1:2:0:0:
56,140,1004861,1,8,0:2:0:0:
63,193,1004940,1,8,0:2:0:0:
33,238,1005018,1,8,0:2:0:0:
19,241,1005097,38,0,L|103:255,1,85.4999973907472,6|0,1:2|0:0,0:0:0:0:
263,360,1005413,2,0,L|347:344,1,85.4999973907472,8|0,1:2|0:0,0:0:0:0:
363,358,1005650,1,8,0:2:0:0:
363,358,1005729,1,0,1:2:0:0:
290,261,1005887,1,0,1:2:0:0:
494,217,1006045,2,0,P|514:180|510:138,1,85.4999973907472,8|0,1:2|0:0,0:0:0:0:
500,130,1006282,1,8,0:2:0:0:
500,130,1006361,69,2,1:2:0:0:
255,73,1006518,1,2,1:2:0:0:
398,156,1006676,2,0,L|384:71,1,85.4999973907472,10|0,1:2|0:0,0:0:0:0:
399,62,1006913,1,8,0:2:0:0:
399,62,1006992,1,2,1:2:0:0:
238,172,1007150,1,2,1:2:0:0:
160,118,1007308,2,0,P|126:94|84:95,1,85.4999973907472,10|0,1:2|0:0,0:0:0:0:
0,293,1007624,37,2,1:2:0:0:
102,176,1007782,1,2,0:0:0:0:
188,373,1007940,1,10,1:2:0:0:
108,286,1008097,1,2,0:0:0:0:
108,286,1008176,1,8,0:2:0:0:
108,286,1008255,2,0,P|142:262|184:263,1,85.4999973907472,2|2,1:2|1:2,0:0:0:0:
385,233,1008571,2,0,L|371:317,1,85.4999973907472,10|0,1:2|0:0,0:0:0:0:
290,358,1008887,69,10,1:2:0:0:
512,177,1009045,1,0,1:2:0:0:
415,141,1009203,37,10,1:2:0:0:
470,289,1009361,1,0,1:2:0:0:
487,85,1009518,70,0,L|479:43,1,42.7499986953736,10|8,1:2|0:3,0:0:0:0:
343,5,1009676,1,4,0:3:0:0:
307,1,1009755,1,4,0:3:0:0:
281,16,1009834,2,0,B|291:73|291:73|294:76|294:76|306:146,1,128.249996086121,12|0,1:2|0:0,0:0:0:0:
293,156,1010150,38,0,P|251:124|199:129,1,106.875004076958,6|0,1:2|0:0,0:0:0:0:
134,90,1010466,1,8,0:2:0:0:
134,90,1010624,1,8,0:2:0:0:
23,231,1010940,1,0,1:2:0:0:
109,258,1011097,2,0,L|96:187,1,71.2500027179719,8|0,0:2|0:0,0:0:0:0:
134,90,1011413,69,0,1:2:0:0:
134,90,1011571,1,0,1:2:0:0:
23,231,1011729,1,8,0:2:0:0:
192,285,1011887,1,8,0:2:0:0:
192,285,1012203,37,2,1:2:0:0:
472,122,1012361,2,0,P|502:138|512:172,1,71.2500027179719,10|0,0:2|0:0,0:0:0:0:
458,241,1012676,69,2,1:2:0:0:
458,241,1012834,1,0,1:2:0:0:
339,183,1012992,1,8,0:2:0:0:
428,47,1013150,1,8,0:2:0:0:
428,47,1013466,37,0,1:2:0:0:
283,125,1013624,2,0,L|296:54,1,71.2500027179719,8|0,0:2|0:2,0:2:0:0:
458,241,1013940,69,0,1:2:0:0:
458,241,1014097,1,0,1:2:0:0:
339,183,1014255,1,8,0:2:0:0:
428,47,1014413,1,8,0:2:0:0:
428,47,1014729,37,0,1:2:0:0:
283,125,1014887,2,0,L|296:54,1,71.2500027179719,8|0,0:2|0:2,0:2:0:0:
339,183,1015203,70,0,P|370:224|365:276,1,106.875004076958,6|0,1:2|0:0,0:0:0:0:
299,313,1015518,1,8,0:2:0:0:
299,313,1015676,1,8,0:2:0:0:
152,236,1015992,1,0,1:2:0:0:
213,113,1016150,2,0,L|283:125,1,71.2500027179719,8|0,0:2|0:0,0:0:0:0:
299,313,1016466,37,0,1:2:0:0:
299,313,1016624,1,0,1:2:0:0:
152,236,1016782,1,8,0:2:0:0:
213,113,1016940,1,8,0:2:0:0:
135,77,1017097,69,0,1:2:0:0:
56,89,1017255,1,0,1:2:0:0:
0,147,1017413,1,8,0:2:0:0:
2,224,1017571,1,0,1:2:0:0:
386,280,1017729,37,10,1:2:0:0:
435,342,1018045,2,0,L|431:359,1,17.812500679493,8|0,0:2|0:0,0:0:0:0:
447,345,1018203,2,0,L|443:362,1,17.812500679493,8|0,0:2|0:0,0:0:0:0:
299,308,1018361,69,8,0:2:0:0:
276,305,1018440,1,8,0:3:0:0:
256,310,1018518,1,4,0:3:0:0:
241,326,1018597,1,4,1:3:0:0:
237,346,1018676,2,0,L|132:325,1,106.875004076958,12|0,1:2|0:0,0:0:0:0:
119,336,1018992,38,0,L|48:348,1,71.2500027179719,2|0,1:2|0:0,0:0:0:0:
0,262,1019308,1,10,0:2:0:0:
187,172,1019466,1,8,0:2:0:0:
133,234,1019624,69,10,0:2:0:0:
0,8,1019782,1,8,0:2:0:0:
51,0,1019861,1,8,0:2:0:0:
93,29,1019940,1,10,0:2:0:0:
109,80,1020018,1,8,0:2:0:0:
157,105,1020097,1,8,0:2:0:0:
208,92,1020176,1,8,0:2:0:0:
232,48,1020255,38,0,B|294:26|327:67|312:73|340:117|404:94,1,178.125,6|0,1:2|0:0,0:0:0:0:
407,88,1020571,1,8,1:2:0:0:
512,0,1020729,1,0,0:0:0:0:
414,295,1020887,2,0,L|394:177,1,118.75,2|0,1:2|1:2,0:0:0:0:
507,217,1021203,1,8,1:2:0:0:
319,338,1021361,1,0,0:0:0:0:
319,338,1021440,1,8,0:2:0:0:
319,338,1021518,70,0,B|180:313|180:313|164:331|140:335,1,178.125,2|0,1:2|0:0,0:0:0:0:
144,347,1021834,2,0,L|27:368,1,118.75,8|0,1:2|0:0,0:0:0:0:
130,134,1022150,2,0,P|153:186|132:241,1,118.75,2|0,1:2|1:2,0:0:0:0:
0,210,1022466,1,10,1:2:0:0:
326,42,1022624,1,2,0:0:0:0:
213,3,1022782,38,0,B|227:85|227:85|231:89|231:89|248:181,1,178.125,2|0,1:2|0:0,0:0:0:0:
263,172,1023097,1,10,1:2:0:0:
512,303,1023255,1,2,0:0:0:0:
512,303,1023334,1,8,0:2:0:0:
512,303,1023413,2,0,P|460:275|402:282,1,118.75,2|0,1:2|1:2,0:0:0:0:
158,384,1023729,2,0,P|185:332|176:275,1,118.75,10|0,1:2|0:0,0:0:0:0:
41,107,1024045,69,2,1:2:0:0:
130,134,1024203,1,0,0:0:0:0:
112,44,1024361,1,10,1:2:0:0:
62,214,1024518,37,0,0:0:0:0:
62,214,1024597,1,8,0:2:0:0:
62,214,1024676,2,0,L|179:194,1,118.75,2|0,1:2|1:2,0:0:0:0:
26,15,1024992,1,10,1:2:0:0:
135,286,1025150,1,0,0:0:0:0:
242,254,1025308,70,0,B|321:229|366:301|330:303|377:364|458:336,1,237.5,6|8,1:2|1:2,0:0:0:0:
512,129,1025782,1,2,0:0:0:0:
512,129,1025861,1,8,0:2:0:0:
512,129,1025940,2,0,P|454:122|415:163,1,118.75,2|0,1:2|1:2,0:0:0:0:
228,32,1026255,2,0,L|249:148,1,118.75,8|0,1:2|0:0,0:0:0:0:
29,288,1026571,37,2,1:2:0:0:
272,341,1026729,1,0,1:2:0:0:
24,266,1026887,2,0,L|3:149,1,118.75,10|0,1:2|0:0,0:0:0:0:
313,53,1027203,69,2,1:2:0:0:
70,0,1027361,1,0,1:2:0:0:
132,169,1027518,2,0,L|248:148,1,118.75,10|0,1:2|0:0,0:0:0:0:
446,384,1027834,38,0,P|473:303|422:234,1,178.125,2|0,1:2|0:0,0:0:0:0:
422,216,1028150,2,0,P|367:234|350:288,1,118.75,8|0,1:2|0:0,0:0:0:0:
100,360,1028466,2,0,P|82:305|28:287,1,118.75,2|0,1:2|1:2,0:0:0:0:
0,62,1028782,2,0,L|116:82,1,118.75,8|0,1:2|1:2,0:0:0:0:
177,149,1029097,69,2,1:2:0:0:
512,104,1029255,1,8,0:2:0:0:
414,53,1029413,1,2,1:2:0:0:
414,53,1029571,1,0,1:2:0:0:
512,248,1029729,38,0,L|501:306,1,59.375,10|0,1:2|0:0,0:0:0:0:
385,384,1029887,1,8,0:2:0:0:
373,346,1029966,1,8,0:2:0:0:
348,321,1030045,1,10,0:2:0:0:
314,304,1030124,1,8,0:2:0:0:
276,301,1030203,1,8,0:2:0:0:
242,310,1030282,1,8,0:2:0:0:
215,339,1030361,70,0,B|201:259|201:259|198:253|198:253|183:162,1,178.125,6|0,1:2|0:0,0:0:0:0:
193,154,1030676,1,8,1:2:0:0:
386,211,1030834,1,0,0:0:0:0:
102,286,1030992,2,0,P|57:248|0:251,1,118.75,2|0,1:2|1:2,0:0:0:0:
86,69,1031308,1,8,1:2:0:0:
340,142,1031466,1,0,0:0:0:0:
340,142,1031545,1,8,0:2:0:0:
340,141,1031624,38,0,P|412:93|495:116,1,178.125,2|0,1:2|0:0,0:0:0:0:
511,110,1031940,2,0,P|509:168|471:212,1,118.75,8|0,1:2|0:0,0:0:0:0:
215,339,1032255,2,0,P|261:304|318:313,1,118.75,2|0,1:2|1:2,0:0:0:0:
450,384,1032571,1,10,1:2:0:0:
268,196,1032729,1,2,0:0:0:0:
165,248,1032887,70,0,B|111:265|77:225|97:214|60:173|10:192,1,178.125,2|0,1:2|0:0,0:0:0:0:
0,177,1033203,1,10,1:2:0:0:
208,46,1033361,1,2,0:0:0:0:
208,46,1033440,1,8,0:2:0:0:
208,46,1033518,2,0,P|260:18|318:25,1,118.75,2|0,1:2|1:2,0:0:0:0:
511,110,1033834,2,0,L|394:89,1,118.75,10|0,1:2|0:0,0:0:0:0:
268,196,1034150,37,2,1:2:0:0:
444,183,1034308,1,0,0:0:0:0:
235,121,1034466,1,10,1:2:0:0:
367,224,1034624,1,0,0:0:0:0:
499,29,1034782,69,10,1:2:0:0:
502,47,1034861,1,4,0:3:0:0:
505,63,1034940,1,4,0:3:0:0:
508,79,1035018,1,4,0:3:0:0:
511,95,1035097,2,0,L|488:211,1,118.75,10|0,1:2|0:2,1:2:0:0:
261,360,1035413,38,0,B|195:388|151:339|175:328|121:265|30:301,1,237.5,6|8,1:2|1:2,0:0:0:0:
0,82,1035887,1,2,0:0:0:0:
0,82,1035966,1,8,0:2:0:0:
0,82,1036045,2,0,P|45:118|44:174,1,118.75,2|0,1:2|1:2,0:0:0:0:
224,230,1036361,1,8,1:2:0:0:
79,383,1036518,1,2,0:0:0:0:
49,294,1036676,1,2,1:2:0:0:
349,384,1036834,2,0,L|328:267,1,118.75,2|8,0:2|1:2,0:0:0:0:
262,7,1037150,70,0,P|155:29|159:139,1,237.5,2|2,1:2|0:0,0:0:0:0:
395,202,1037624,2,0,L|511:181,1,118.75,14|2,1:2|0:0,0:0:0:0:
221,78,1037940,38,0,B|308:93|308:93|313:91|313:91|395:105,1,178.125,2|0,1:2|0:0,0:0:0:0:
407,96,1038255,2,0,P|424:41|479:24,1,118.75,10|0,1:2|0:0,0:0:0:0:
512,275,1038571,1,2,1:2:0:0:
258,175,1038729,1,0,1:2:0:0:
415,319,1038887,2,0,L|395:203,1,118.75,10|0,1:2|0:2,0:0:0:0:
7,258,1039203,70,0,B|191:226|191:226|208:253|244:257,1,237.5,6|0,1:2|0:0,0:0:0:0:
114,34,1039676,1,8,0:2:0:0:
114,34,1039755,1,8,0:2:0:0:
114,34,1039834,1,8,0:2:0:0:
82,108,1039992,1,8,0:3:0:0:
164,142,1040150,1,4,0:3:0:0:
195,67,1040308,1,4,1:3:0:0:
7,258,1040466,37,4,1:2:0:0:
0,267,1049345,38,0,B|66:255|66:255|69:257|69:257|142:244,1,142.5,6|8,1:2|0:2,0:0:0:0:
139,245,1050006,1,0,1:2:0:0:
207,91,1050227,1,0,1:2:0:0:
178,21,1050337,2,0,P|136:40|127:85,1,95,0|0,1:2|1:2,0:0:0:0:
106,156,1050668,2,0,L|176:168,1,71.2500027179719,8|0,1:2|0:0,0:0:0:0:
391,52,1050889,1,0,1:2:0:0:
465,75,1050999,1,8,0:2:0:0:
386,68,1051109,38,0,B|397:132|397:132|399:135|399:135|412:209,1,142.5,0|8,1:2|0:2,0:0:0:0:
412,207,1051771,1,0,1:2:0:0:
512,384,1051992,1,2,1:2:0:0:
450,339,1052102,2,0,L|356:322,1,95,0|2,1:2|1:2,0:0:0:0:
290,362,1052433,2,0,P|264:337|261:302,1,71.2500027179719,8|0,1:2|0:0,0:0:0:0:
85,136,1052653,1,10,0:2:0:0:
0,205,1052764,1,8,0:2:0:0:
54,298,1052874,70,0,B|144:298|100:249|187:249,1,142.5,6|10,1:2|0:2,0:0:0:0:
182,249,1053536,1,0,1:2:0:0:
364,112,1053756,1,0,1:2:0:0:
289,140,1053867,2,0,L|271:46,1,95,0|0,1:2|1:2,0:0:0:0:
202,17,1054198,2,0,P|183:46|151:59,1,71.2500027179719,8|0,1:2|0:0,0:0:0:0:
245,290,1054418,1,0,1:2:0:0:
182,249,1054528,1,8,0:2:0:0:
267,283,1054639,38,0,P|329:253|396:272,1,142.5,0|8,1:2|0:2,0:0:0:0:
396,272,1055301,1,0,1:2:0:0:
499,113,1055521,1,0,1:2:0:0:
425,95,1055631,1,0,1:2:0:0:
503,95,1055742,70,0,L|511:48,1,47.5,8|0,0:2|0:0,0:0:0:0:
348,122,1055962,2,0,L|339:75,1,47.5,8|0,1:2|0:0,0:0:0:0:
499,113,1056183,1,8,0:2:0:0:
425,95,1056293,1,8,0:2:0:0:
348,122,1056403,38,0,B|261:128|308:79|210:84,1,142.5,6|8,1:2|0:2,0:0:0:0:
216,83,1057065,2,0,L|169:73,1,47.5,2|2,1:2|0:0,0:0:0:0:
0,220,1057286,2,0,P|33:188|79:191,1,95,2|0,1:2|0:0,0:0:0:0:
148,223,1057617,2,0,L|159:293,1,71.2500027179719,2|8,0:0|1:2,0:0:0:0:
309,364,1057837,2,0,P|263:367|230:336,1,95,2|0,0:2|0:0,0:0:0:0:
271,253,1058168,70,0,L|318:244,1,47.5,6|0,1:2|0:0,0:0:0:0:
488,286,1058389,1,2,0:0:0:0:
412,309,1058499,2,0,P|405:263|433:226,1,95,10|0,0:2|0:0,0:0:0:0:
498,185,1058830,1,2,1:2:0:0:
341,20,1059051,1,2,1:2:0:0:
267,60,1059161,2,0,L|360:43,1,95,0|0,1:2|1:2,0:0:0:0:
289,139,1059492,2,0,P|220:138|185:79,1,142.5,8|8,1:2|0:2,0:0:0:0:
172,62,1059933,38,0,B|105:49|105:49|100:51|100:51|29:38,2,142.5,6|8|0,1:2|0:2|1:2,0:0:0:0:
172,62,1060815,1,0,1:2:0:0:
341,20,1060926,1,0,1:2:0:0:
341,20,1061146,69,0,1:2:0:0:
470,108,1061256,1,8,1:2:0:0:
349,199,1061477,37,0,1:2:0:0:
389,125,1061587,1,8,0:2:0:0:
334,222,1061698,70,0,B|419:206|419:206|424:207|424:207|509:193,2,178.125,6|8|0,1:2|0:2|1:2,0:0:0:0:
334,222,1062580,1,0,1:2:0:0:
438,327,1062690,1,0,1:2:0:0:
438,327,1062911,37,0,1:2:0:0:
277,355,1063021,1,10,1:2:0:0:
267,347,1063131,1,2,0:0:0:0:
255,344,1063242,1,2,1:2:0:0:
243,344,1063352,1,10,0:2:0:0:
165,367,1063462,70,0,B|181:276|181:276|180:271|180:271|201:156,2,213.750008153916,6|8|0,1:2|0:2|1:2,0:0:0:0:
165,367,1064345,1,0,1:2:0:0:
3,215,1064455,1,8,1:2:0:0:
3,215,1064676,38,0,P|31:177|76:165,1,95,8|0,1:2|0:0,0:0:0:0:
135,114,1065006,2,0,L|126:67,1,47.5,8|8,0:2|0:2,0:0:0:0:
378,4,1065227,69,6,1:2:0:0:
327,30,1065337,1,8,0:2:0:0:
318,82,1065448,1,8,0:2:0:0:
358,122,1065558,1,8,0:2:0:0:
437,138,1065668,37,8,0:2:0:0:
452,158,1065778,1,8,0:3:0:0:
454,186,1065889,1,4,0:3:0:0:
440,211,1065999,1,4,1:3:0:0:
357,233,1066109,69,8,1:2:0:0:
512,373,1066220,1,0,1:2:0:0:
479,304,1066440,37,0,1:2:0:0:
200,358,1066551,2,0,P|150:338|97:335,1,106.875004076958,8|0,1:2|0:0,0:0:0:0:
25,348,1066992,69,4,1:2:0:0:
18,346,1067433,1,0,1:2:0:0:
19,339,1067874,1,0,1:2:0:0:
26,341,1068315,1,0,1:2:0:0:
487,36,1068756,37,0,1:2:0:0:
494,38,1069198,1,0,1:2:0:0:
493,45,1069639,1,0,1:2:0:0:
486,43,1070080,1,0,1:2:0:0:
125,124,1070521,69,0,1:2:0:0:
127,144,1070962,1,0,1:2:0:0:
387,260,1071403,37,0,1:2:0:0:
385,240,1071845,1,0,1:2:0:0:
256,166,1072286,69,0,1:2:0:0:
230,192,1072727,1,0,1:2:0:0:
256,217,1073168,1,0,1:2:0:0:
281,192,1073609,1,0,1:2:0:0:
125,49,1074051,37,4,1:2:0:0:
105,45,1074492,1,0,1:2:0:0:
85,42,1074933,1,0,1:2:0:0:
65,38,1075374,1,0,1:2:0:0:
387,335,1075815,69,0,1:2:0:0:
407,339,1076256,1,0,1:2:0:0:
427,342,1076698,1,0,1:2:0:0:
447,346,1077139,1,0,1:2:0:0:
113,140,1077580,37,0,1:2:0:0:
307,49,1078021,1,0,1:2:0:0:
398,243,1078462,1,0,1:2:0:0:
204,334,1078903,1,0,1:2:0:0:
204,334,1079345,69,8,1:2:0:0:
226,119,1079455,1,0,1:2:0:0:
291,168,1079676,37,0,1:2:0:0:
96,107,1079786,2,0,L|102:71,1,35.625001358986,12|0,1:2|0:0,0:0:0:0:
171,42,1080006,69,8,1:2:0:0:
401,0,1080117,2,0,L|407:35,1,35.625001358986,0|0,1:2|0:0,0:0:0:0:
481,59,1080337,37,0,1:2:0:0:
512,251,1080448,2,0,L|476:244,1,35.625001358986,12|8,1:2|0:2,0:0:0:0:
375,373,1080668,69,8,0:2:0:0:
323,313,1080778,1,8,0:2:0:0:
246,298,1080889,1,10,0:2:0:0:
176,329,1080999,1,10,0:2:0:0:
172,348,1081101,38,0,B|183:296|148:261|137:289|88:240|115:182,1,178.125,6|0,1:2|0:0,0:0:0:0:
98,177,1081321,2,0,P|76:156|48:147,1,59.375,10|0,1:2|0:0,0:0:0:0:
5,83,1081431,2,0,B|96:66|96:66|100:68|100:68|182:53,1,178.125,2|0,1:2|0:2,0:0:0:0:
199,52,1081652,2,0,P|216:28|219:0,1,59.375,2|0,1:2|0:0,0:0:0:0:
481,59,1081762,70,0,B|413:28|349:93|362:153|362:153|383:116|427:117,1,237.5,10|0,1:2|1:2,0:0:0:0:
399,120,1082093,1,0,0:0:0:0:
512,284,1082203,2,0,B|331:252|331:252|316:281|283:287,1,237.5,10|0,1:2|1:2,0:0:0:0:
123,262,1082534,1,0,1:2:0:0:
195,359,1082645,1,10,1:2:0:0:
290,285,1082755,1,2,0:0:0:0:
199,341,1082865,38,0,B|211:271|211:271|214:266|214:266|232:165,1,178.125,2|0,1:2|0:0,0:0:0:0:
236,147,1083086,2,0,P|261:132|290:132,1,59.375,10|0,1:2|0:0,0:0:0:0:
98,177,1083196,2,0,P|0:130|31:25,1,237.5,2|2,1:2|1:2,0:0:0:0:
123,262,1083527,70,0,B|297:228|297:228|262:241|252:285,1,237.5,10|0,1:2|1:2,0:0:0:0:
257,269,1083858,1,0,0:0:0:0:
505,233,1083968,2,0,P|406:279|438:384,1,237.5,10|0,1:2|1:2,0:0:0:0:
510,325,1084299,1,0,1:2:0:0:
396,164,1084409,2,0,P|347:130|289:132,1,118.75,10|0,1:2|0:0,0:0:0:0:
512,0,1084630,38,0,L|491:116,1,118.75,2|0,1:2|0:0,0:0:0:0:
328,211,1084851,2,0,P|332:245|356:270,1,71.2500027179719,10|0,1:2|0:0,0:0:0:0:
157,369,1085071,1,2,1:2:0:0:
77,341,1085181,1,0,1:2:0:0:
175,365,1085292,2,0,L|245:352,1,71.2500027179719,10|0,1:2|0:0,0:0:0:0:
73,105,1085512,70,0,P|45:67|0:58,1,95,2|0,1:2|0:0,0:0:0:0:
212,172,1085733,2,0,P|258:166|288:131,1,95,10|0,1:2|0:0,0:0:0:0:
90,237,1085953,1,2,1:2:0:0:
151,123,1086064,1,0,1:2:0:0:
80,254,1086174,2,0,P|61:296|76:340,1,95,10|0,1:2|1:2,0:0:0:0:
326,338,1086395,38,0,L|442:358,1,118.75,2|0,1:2|0:0,0:0:0:0:
505,312,1086615,1,10,1:2:0:0:
288,131,1086726,2,0,P|256:179|271:235,1,118.75,2|0,0:0|1:2,0:0:0:0:
346,262,1086946,1,2,0:0:0:0:
512,50,1087056,2,0,L|395:70,1,118.75,10|0,1:2|0:0,0:0:0:0:
305,35,1087277,70,0,L|211:19,1,95,0|0,1:2|0:0,0:0:0:0:
0,58,1087498,2,0,L|93:42,1,95,8|0,1:2|0:0,0:0:0:0:
271,235,1087718,37,8,0:2:0:0:
76,272,1087828,1,8,0:2:0:0:
224,296,1087939,69,10,0:2:0:0:
144,312,1088049,1,10,0:2:0:0:
197,375,1088159,38,0,B|280:360|280:360|284:355|284:355|372:339,1,178.125,6|0,1:2|0:0,0:0:0:0:
388,337,1088380,2,0,P|403:312|429:295,1,59.375,10|0,1:2|0:0,0:0:0:0:
512,200,1088490,2,0,B|464:186|454:137|454:137|436:182|382:190,1,178.125,2|0,1:2|0:0,0:0:0:0:
373,182,1088711,2,0,L|314:171,1,59.375,2|0,1:2|0:0,0:0:0:0:
125,94,1088821,70,0,B|87:94|140:30|205:15|251:49|251:49|267:84|307:92,1,237.5,10|0,1:2|1:2,0:0:0:0:
293,88,1089152,1,0,0:0:0:0:
76,272,1089262,2,0,B|57:167|57:167|55:165|55:165|32:38,1,237.5,10|0,1:2|1:2,0:0:0:0:
201,112,1089593,1,0,1:2:0:0:
149,194,1089703,1,10,1:2:0:0:
41,174,1089814,1,2,0:0:0:0:
150,210,1089924,38,0,P|234:189|312:227,1,178.125,2|0,1:2|0:0,0:0:0:0:
321,244,1090145,2,0,P|331:271|326:299,1,59.375,10|0,1:2|0:0,0:0:0:0:
512,384,1090255,2,0,P|414:337|445:232,1,237.5,2|2,1:2|1:2,0:0:0:0:
512,48,1090586,70,0,B|395:28|395:28|391:28|391:28|278:8,1,237.5,10|0,1:2|1:2,0:0:0:0:
277,8,1090917,1,0,0:0:0:0:
48,107,1091027,2,0,P|35:139|44:173,1,71.2500027179719,10|0,1:2|0:2,0:0:0:0:
201,112,1091248,2,0,P|213:79|204:45,1,71.2500027179719,2|0,1:2|0:2,0:0:0:0:
98,11,1091468,2,0,L|28:24,1,71.2500027179719,10|0,1:2|0:0,0:0:0:0:
0,359,1091689,38,0,L|17:265,1,95,6|0,1:2|0:0,0:0:0:0:
17,265,1091909,1,8,1:2:0:0:
152,366,1092020,2,0,B|212:380|247:338|227:331|264:292|323:307,1,190,0|0,1:2|1:2,0:0:0:0:
219,230,1092351,2,0,P|150:227|113:284,1,142.5,8|0,1:2|0:0,0:0:0:0:
110,297,1092571,70,0,L|92:203,1,95,0|0,1:2|0:0,0:0:0:0:
289,86,1092792,2,0,P|302:130|281:172,1,95,8|0,1:2|0:0,0:0:0:0:
90,97,1093012,2,0,P|76:52|97:10,1,95,0|0,1:2|1:2,0:0:0:0:
364,55,1093233,1,10,1:2:0:0:
271,5,1093343,1,2,0:0:0:0:
359,37,1093453,38,0,L|475:16,1,118.75,2|0,1:2|0:0,0:0:0:0:
475,16,1093674,1,8,1:2:0:0:
512,256,1093784,2,0,B|343:226|343:226|332:258|286:267,1,237.5,0|0,1:2|1:2,0:0:0:0:
66,384,1094115,2,0,P|5:323|27:241,1,178.125,8|0,1:2|0:0,0:0:0:0:
45,233,1094336,70,0,L|161:254,1,118.75,0|0,1:2|0:0,0:0:0:0:
291,59,1094556,2,0,L|270:175,1,118.75,8|0,1:2|0:0,0:0:0:0:
512,330,1094777,2,0,L|395:350,1,118.75,0|0,1:2|1:2,0:0:0:0:
191,384,1094998,1,10,1:2:0:0:
126,328,1095108,1,2,0:0:0:0:
193,369,1095218,38,0,L|199:333,1,35.625001358986,10|0,0:2|0:0,0:0:0:0:
275,361,1095328,1,8,0:3:0:0:
315,292,1095439,1,6,0:3:0:0:
269,224,1095549,70,0,L|233:230,1,35.625001358986,10|0,0:2|0:0,0:0:0:0:
211,160,1095659,1,8,0:3:0:0:
251,97,1095770,1,6,0:3:0:0:
326,88,1095880,1,6,0:3:0:0:
360,98,1095990,1,4,0:3:0:0:
375,126,1096101,1,4,0:3:0:0:
354,197,1096211,38,0,L|360:232,1,35.625001358986,8|0,0:2|0:0,0:0:0:0:
471,299,1096321,1,10,0:3:0:0:
492,303,1096431,1,4,0:3:0:0:
512,307,1096542,70,0,L|505:342,1,35.625001358986,8|0,0:2|0:0,0:0:0:0:
381,318,1096652,38,0,L|348:333,1,35.625001358986,8|0,0:2|0:0,0:0:0:0:
354,197,1096762,70,0,L|323:179,1,35.625001358986,10|0,0:2|0:0,0:0:0:0:
455,128,1096873,38,0,L|451:92,1,35.625001358986,10|0,0:2|0:0,0:0:0:0:
512,48,1096983,70,0,B|374:23|374:23|368:26|368:26|209:-1,1,304,6|0,1:2|0:0,0:0:0:0:
256,192,1098803,12,0,1100457,0:0:0:0:
178,283,1100512,37,6,1:2:0:0:
104,256,1100623,1,2,0:0:0:0:
162,208,1100733,2,0,L|255:191,1,95,10|0,1:2|0:0,0:0:0:0:
373,130,1100953,2,0,P|385:85|361:45,1,95,2|2,1:2|0:0,0:0:0:0:
293,111,1101174,69,10,1:2:0:0:
435,200,1101284,2,0,L|417:293,1,95,2|0,1:2|0:0,0:0:0:0:
272,99,1101505,37,2,1:2:0:0:
361,45,1101615,2,0,L|454:27,1,95,10|0,1:2|0:0,0:0:0:0:
252,87,1101836,69,2,1:2:0:0:
335,202,1101946,2,0,P|334:249|311:290,1,95,2|8,0:0|1:2,0:0:0:0:
99,348,1102167,1,2,0:0:0:0:
103,334,1102277,37,2,1:2:0:0:
40,292,1102387,1,2,0:0:0:0:
23,368,1102498,2,0,L|116:383,1,95,10|0,1:2|0:0,0:0:0:0:
162,208,1102718,2,0,L|69:192,1,95,2|2,1:2|0:0,0:0:0:0:
58,103,1102939,69,10,1:2:0:0:
217,0,1103049,2,0,P|258:20|273:64,1,95,2|0,1:2|0:0,0:0:0:0:
44,114,1103270,37,2,1:2:0:0:
149,125,1103380,2,0,L|242:141,1,95,10|0,1:2|0:0,0:0:0:0:
28,126,1103601,69,2,1:2:0:0:
68,224,1103711,2,0,L|162:207,1,95,2|8,0:0|1:2,0:0:0:0:
337,343,1103931,2,0,L|347:297,1,47.5,2|0,0:0|0:0,0:0:0:0:
415,374,1104042,37,2,1:2:0:0:
486,346,1104152,1,2,0:0:0:0:
425,295,1104262,2,0,L|441:201,1,95,10|0,1:2|0:0,0:0:0:0:
512,0,1104483,2,0,P|466:8|437:45,1,95,2|2,1:2|0:0,0:0:0:0:
471,113,1104703,69,10,1:2:0:0:
273,64,1104814,2,0,L|179:81,1,95,2|0,1:2|0:0,0:0:0:0:
488,117,1105034,37,2,1:2:0:0:
378,116,1105145,2,0,L|361:209,1,95,10|0,1:2|0:0,0:0:0:0:
505,121,1105365,69,2,1:2:0:0:
454,226,1105476,2,0,L|361:209,1,95,2|8,0:0|1:2,0:0:0:0:
164,220,1105696,1,2,0:0:0:0:
167,236,1105806,37,2,1:2:0:0:
103,286,1105917,1,2,0:0:0:0:
177,315,1106027,2,0,L|270:298,1,95,10|0,1:2|0:0,0:0:0:0:
234,155,1106248,2,0,P|249:110|231:67,1,95,2|2,1:2|0:0,0:0:0:0:
151,102,1106468,69,10,1:2:0:0:
290,214,1106578,2,0,P|333:194|380:202,1,95,2|0,1:2|0:0,0:0:0:0:
135,94,1106799,37,2,1:2:0:0:
53,149,1106909,2,0,L|36:242,1,95,10|0,1:2|0:0,0:0:0:0:
150,356,1107130,69,10,0:2:0:0:
305,319,1107240,1,10,0:2:0:0:
103,286,1107351,37,8,0:2:0:0:
253,375,1107461,1,10,0:2:0:0:
285,226,1107571,69,6,1:2:0:0:
351,187,1107681,1,2,0:0:0:0:
417,226,1107792,2,0,P|442:266|437:313,1,95,10|0,1:2|0:0,0:0:0:0:
341,384,1108012,2,0,L|248:365,1,95,2|2,1:2|0:0,0:0:0:0:
164,220,1108233,37,10,1:2:0:0:
0,303,1108343,2,0,P|1:349|31:384,1,95,2|0,1:2|0:0,0:0:0:0:
159,200,1108564,69,2,1:2:0:0:
93,127,1108674,2,0,P|46:122|9:150,1,95,10|0,1:2|0:0,0:0:0:0:
155,181,1108895,37,2,1:2:0:0:
230,103,1109005,2,0,L|323:86,1,95,2|8,0:0|1:2,0:0:0:0:
500,0,1109226,1,2,0:0:0:0:
485,4,1109336,69,6,1:2:0:0:
439,63,1109446,1,2,0:0:0:0:
495,118,1109556,2,0,L|511:211,1,95,10|0,1:2|0:0,0:0:0:0:
338,310,1109777,2,0,L|245:294,1,95,2|2,1:2|0:0,0:0:0:0:
155,181,1109998,37,10,1:2:0:0:
305,127,1110108,2,0,P|340:157|342:203,1,95,2|0,1:2|0:0,0:0:0:0:
173,177,1110328,69,2,1:2:0:0:
104,114,1110439,2,0,L|87:21,1,95,10|0,1:2|0:0,0:0:0:0:
190,174,1110659,37,2,1:2:0:0:
120,253,1110770,2,0,P|77:233|30:239,1,95,2|8,0:0|1:2,0:0:0:0:
221,384,1110990,2,0,L|268:374,1,47.5,2|0,0:0|0:0,0:0:0:0:
338,310,1111101,69,6,1:2:0:0:
410,335,1111211,1,2,0:0:0:0:
463,281,1111321,2,0,P|485:240|482:193,1,95,10|0,1:2|0:0,0:0:0:0:
379,82,1111542,2,0,P|333:90|304:127,1,95,2|2,1:2|0:0,0:0:0:0:
244,293,1111762,37,10,1:2:0:0:
304,219,1111873,2,0,L|398:201,1,95,2|0,1:2|0:0,0:0:0:0:
226,295,1112093,69,2,1:2:0:0:
128,245,1112203,2,0,P|87:221|40:225,1,95,10|0,1:2|0:0,0:0:0:0:
208,298,1112424,37,2,1:2:0:0:
211,205,1112534,2,0,P|228:163|221:117,1,95,2|8,0:0|1:2,0:0:0:0:
112,11,1112755,1,2,0:0:0:0:
109,27,1112865,69,6,1:2:0:0:
41,63,1112976,1,2,0:0:0:0:
53,137,1113086,2,0,L|147:154,1,95,10|0,1:2|0:0,0:0:0:0:
274,63,1113306,2,0,P|315:42|333:0,1,95,2|2,1:2|0:0,0:0:0:0:
425,27,1113527,2,0,L|441:121,1,95,10|2,1:2|0:0,0:0:0:0:
304,219,1113748,38,0,L|210:204,1,95,8|2,1:2|0:0,0:0:0:0:
46,270,1113968,2,0,L|0:278,2,47.5,10|8|8,0:2|0:2|0:2,0:0:0:0:
97,335,1114189,69,10,0:2:0:0:
175,349,1114299,1,10,0:3:0:0:
253,361,1114409,2,0,L|299:352,1,47.5,6|6,0:3|1:3,0:0:0:0:
512,194,1114630,37,6,1:2:0:0:
434,195,1114740,69,2,0:0:0:0:
406,236,1114850,37,2,0:0:0:0:
421,253,1114960,70,0,L|437:159,2,95,10|2|2,1:2|0:0|0:0,0:0:0:0:
421,253,1115512,37,2,1:2:0:0:
318,237,1115622,1,10,0:2:0:0:
212,217,1115732,1,2,0:0:0:0:
421,253,1115843,69,2,1:2:0:0:
212,217,1115953,2,0,B|254:192|254:192|278:102|278:102|320:79,1,190,10|0,1:2|0:0,0:0:0:0:
320,79,1116284,1,8,0:2:0:0:
181,0,1116394,37,2,1:2:0:0:
109,36,1116505,69,2,0:0:0:0:
137,77,1116615,37,2,0:0:0:0:
122,94,1116725,70,0,L|105:0,2,95,10|2|2,1:2|0:0|0:0,0:0:0:0:
122,94,1117277,37,2,1:2:0:0:
273,186,1117387,1,2,0:0:0:0:
116,276,1117497,1,2,0:0:0:0:
157,166,1117607,69,2,1:2:0:0:
194,188,1117718,1,10,1:2:0:0:
155,211,1117828,1,2,0:0:0:0:
77,180,1117938,37,10,0:2:0:0:
220,110,1118049,69,8,0:2:0:0:
215,269,1118159,37,6,1:2:0:0:
190,346,1118269,69,2,0:0:0:0:
144,364,1118380,37,2,0:0:0:0:
128,352,1118490,70,0,L|34:335,2,95,10|2|2,1:2|0:0|0:0,0:0:0:0:
128,352,1119041,37,2,1:2:0:0:
256,332,1119152,1,10,0:2:0:0:
389,310,1119262,1,2,0:0:0:0:
128,352,1119372,69,2,1:2:0:0:
389,310,1119482,2,0,B|346:285|346:285|322:195|322:195|280:172,1,190,14|0,1:2|0:0,0:0:0:0:
442,22,1119813,37,8,0:2:0:0:
442,22,1119924,1,14,1:2:0:0:
455,100,1120034,2,0,L|463:146,1,47.5,10|2,0:2|0:0,0:0:0:0:
261,71,1120255,69,10,0:2:0:0:
261,71,1120365,1,8,0:2:0:0:
281,172,1120475,2,0,L|289:218,1,47.5,10|0,0:2|0:0,0:0:0:0:
87,116,1120696,37,10,0:2:0:0:
87,116,1120806,1,10,0:2:0:0:
115,277,1120916,2,0,L|123:323,1,47.5,10|2,0:2|0:0,0:0:0:0:
29,344,1121137,69,10,0:2:0:0:
344,281,1121247,2,0,P|390:286|424:324,1,95,10|10,0:2|0:2,0:0:0:0:
506,374,1121688,37,2,0:0:0:0:
508,365,1121799,1,2,0:0:0:0:
510,358,1121909,1,2,0:0:0:0:
512,349,1122019,2,0,L|503:302,1,47.5,2|2,0:0|0:0,0:0:0:0:
503,302,1122460,69,2,0:0:0:0:
420,318,1122571,2,0,L|424:341,2,23.75,2|2|2,0:0|0:0|0:0,0:0:0:0:
453,245,1122902,2,0,L|448:221,2,23.75,2|2|2,0:0|0:0|0:0,0:0:0:0:
358,376,1123232,38,0,P|336:366|312:367,1,47.5,2|0,0:0|0:0,0:0:0:0:
