osu file format v14

[General]
AudioFilename: audio.mp3
AudioLeadIn: 0
PreviewTime: 52070
Countdown: 0
SampleSet: Soft
StackLeniency: 0.8
Mode: 0
LetterboxInBreaks: 0
WidescreenStoryboard: 1

[Editor]
DistanceSpacing: 1.1
BeatDivisor: 4
GridSize: 32
TimelineZoom: 1

[Metadata]
Title:Seishun nante Iranaiwa
TitleUnicode:青春なんていらないわ
Artist:Sangatsu no Phantasia
ArtistUnicode:三月のパンタシア
Creator:Ryuusei Aika
Version:iljaaz's Expert
Source:
Tags:Shiny Braixen Kowari iljaaz ナブナ n-buna nbuna みあ Mia ガールズブルー ガールズブルー・ハッピーサッド Girl's Blue Happy Sad
BeatmapID:2229109
BeatmapSetID:1064632

[Difficulty]
HPDrainRate:6
CircleSize:4.2
OverallDifficulty:8
ApproachRate:9
SliderMultiplier:1.74
SliderTickRate:1

[Events]
//Background and Video events
0,0,"BG.jpg",0,0
//Break Periods
//Storyboard Layer 0 (Background)
//Storyboard Layer 1 (Fail)
//Storyboard Layer 2 (Pass)
//Storyboard Layer 3 (Foreground)
//Storyboard Layer 4 (Overlay)
//Storyboard Sound Samples

[TimingPoints]
965,461.538461538462,4,2,1,40,1,0
965,-119.047619047619,4,2,1,40,0,0
6272,-80.6451612903226,4,2,1,60,0,0
8349,-80.6451612903226,4,2,1,70,0,0
23118,-119.047619047619,4,2,1,40,0,0
36965,-119.047619047619,4,2,1,50,0,0
37888,-119.047619047619,4,2,1,60,0,0
50118,-119.047619047619,4,2,0,60,0,0
50234,-119.047619047619,4,2,1,60,0,0
50811,-64.9350649350649,4,2,1,60,0,1
51041,-64.9350649350649,4,2,1,70,0,1
52657,-74.6268656716418,4,2,1,80,0,0
66503,-74.6268656716418,4,2,1,70,0,0
67426,-74.6268656716418,4,2,1,80,0,0
80349,-74.6268656716418,4,2,0,80,0,0
80811,-74.6268656716418,4,2,1,80,0,0
81849,-74.6268656716418,4,2,0,80,0,0
81965,-74.6268656716418,4,2,1,80,0,0
83811,-74.6268656716418,4,2,1,70,0,0
84041,-80.6451612903226,4,2,1,70,0,0
91195,-80.6451612903226,4,2,0,70,0,0
91426,-80.6451612903226,4,2,1,70,0,0
96618,-80.6451612903226,4,2,0,70,0,0
96849,-80.6451612903226,4,2,1,70,0,0
98465,-80.6451612903226,4,2,0,70,0,0
98696,-80.6451612903226,4,2,1,70,0,0
98811,-119.047619047619,4,2,1,40,0,0
111965,-119.047619047619,4,2,0,40,0,0
112195,-119.047619047619,4,2,1,50,0,0
113003,-119.047619047619,4,2,0,50,0,0
113118,-119.047619047619,4,2,1,50,0,0
113580,-119.047619047619,4,2,1,60,0,0
125811,-119.047619047619,4,2,0,60,0,0
125926,-119.047619047619,4,2,1,60,0,0
126157,-119.047619047619,4,2,0,60,0,0
126503,-119.047619047619,4,2,1,60,0,0
126734,-64.9350649350649,4,2,1,70,0,1
128349,-74.6268656716418,4,2,1,80,0,0
141503,-74.6268656716418,4,2,0,70,0,0
142195,-74.6268656716418,4,2,1,70,0,0
143118,-74.6268656716418,4,2,1,80,0,0
156041,-74.6268656716418,4,2,0,80,0,0
156503,-74.6268656716418,4,2,1,80,0,0
157541,-74.6268656716418,4,2,0,80,0,0
157657,-74.6268656716418,4,2,1,80,0,0
159734,-119.047619047619,4,2,1,50,0,0
159849,-119.047619047619,4,2,1,40,0,0
167118,-119.047619047619,4,2,1,45,0,0
176811,-119.047619047619,4,2,0,45,0,0
177041,-119.047619047619,4,2,1,50,0,0
177734,-119.047619047619,4,2,0,50,0,0
177965,-119.047619047619,4,2,1,50,0,0
179580,-119.047619047619,4,2,1,60,0,0
180041,-119.047619047619,4,2,1,80,0,0
182811,-57.4712643678161,4,2,0,80,0,1
182926,-57.4712643678161,4,2,1,80,0,1
183157,-57.4712643678161,4,2,0,50,0,1
183272,-64.9350649350649,4,2,0,50,0,1
183503,-64.9350649350649,4,2,1,80,0,0
183734,-64.9350649350649,4,2,0,60,0,0
184080,-64.9350649350649,4,2,1,60,0,0
184195,-64.9350649350649,4,2,1,80,0,1
187426,-74.6268656716418,4,2,1,80,0,0
193195,-74.6268656716418,4,2,0,80,0,0
193311,-74.6268656716418,4,2,1,80,0,0
193541,-74.6268656716418,4,2,0,80,0,0
193888,-74.6268656716418,4,2,1,70,0,0
194811,-74.6268656716418,4,2,1,80,0,0
201503,-74.6268656716418,4,2,0,80,0,0
201734,-74.6268656716418,4,2,1,80,0,0
208311,-74.6268656716418,4,2,0,80,0,0
208426,-74.6268656716418,4,2,1,80,0,0
209234,-74.6268656716418,4,2,0,80,0,0
209465,-74.6268656716418,4,2,1,80,0,0
211426,-80.6451612903226,4,2,1,70,0,0
218118,-80.6451612903226,4,2,0,70,0,0
218234,-80.6451612903226,4,2,1,70,0,0
218465,-80.6451612903226,4,2,0,70,0,0
218811,-80.6451612903226,4,2,1,75,0,0
224465,-80.6451612903226,4,2,0,75,0,0
224811,-80.6451612903226,4,2,1,75,0,0

[Colours]
Combo1 : 255,255,0
Combo2 : 255,128,255
Combo3 : 0,255,255
Combo4 : 128,255,0

[HitObjects]
137,339,965,6,0,B|64:346|84:275|-11:289,1,146.159995539551,0|0,3:0|3:0,0:0:0:0:
171,126,1888,2,0,P|124:178|35:169,1,146.159995539551,0|0,3:0|3:0,0:0:0:0:
263,241,2580,1,0,0:0:0:0:
243,342,2811,5,0,3:0:0:0:
235,314,2926,1,0,0:0:0:0:
313,335,3042,5,0,0:0:0:0:
322,311,3157,1,0,0:0:0:0:
366,384,3272,6,0,L|455:364,1,73.0799977697755,0|0,3:0|0:0,0:0:0:0:
454,147,3734,2,0,B|493:226|411:205|450:302,1,146.159995539551,0|0,3:0|3:0,0:0:0:0:
512,258,4311,1,0,0:0:0:0:
388,180,4426,6,0,L|303:161,1,73.0799977697755,0|0,0:0|3:0,0:0:0:0:
400,85,4772,1,0,0:0:0:0:
379,63,4888,1,0,0:0:0:0:
495,78,5118,2,0,L|514:2,1,73.0799977697755,0|0,3:0|0:0,0:0:0:0:
280,84,5580,2,0,B|236:77|236:77|195:40|195:40|138:30,1,146.159995539551,0|0,3:0|3:0,0:0:0:0:
0,260,6272,6,0,P|53:217|152:242,1,161.819993580139,12|0,0:0|0:0,0:0:0:0:
217,220,6734,2,0,P|216:249|204:280,1,53.9399978600465,0|0,3:0|0:0,0:0:0:0:
359,376,6965,2,0,P|354:322|333:242,1,107.879995720093,8|0,0:0|0:0,0:0:0:0:
474,155,7311,1,8,0:0:0:0:
503,220,7426,6,0,P|447:237|386:140,1,161.819993580139,8|0,0:0|0:0,0:0:0:0:
348,96,7888,2,0,B|403:100|392:57|489:66,1,107.879995720093,8|0,0:0|0:0,0:0:0:0:
340,0,8234,1,0,0:0:0:0:
247,53,8349,6,0,L|254:117,2,53.9399978600465,4|0|0,3:2|0:0|0:0,0:0:0:0:
194,0,8695,1,0,0:0:0:0:
73,187,8811,2,0,B|93:128|36:141|81:50,1,107.879995720093,8|0,0:1|0:0,0:0:0:0:
135,108,9157,1,0,3:0:0:0:
200,235,9272,2,0,P|172:236|132:247,1,53.9399978600465,0|8,0:0|0:0,0:0:0:0:
252,106,9503,2,0,L|259:170,1,53.9399978600465,8|0,0:3|0:0,0:0:0:0:
383,304,9734,5,8,0:1:0:0:
418,243,9849,1,0,0:0:0:0:
355,207,9965,1,8,0:3:0:0:
319,269,10080,1,0,0:0:0:0:
366,257,10195,6,0,B|389:216|358:184|343:205|319:141|381:95,1,161.819993580139,0|0,3:0|0:0,0:0:0:0:
406,47,10657,1,8,0:1:0:0:
489,101,10772,5,0,0:0:0:0:
458,112,10888,1,2,0:3:0:0:
326,44,11003,5,0,3:0:0:0:
293,39,11118,1,0,0:0:0:0:
202,108,11234,5,10,0:0:0:0:
179,123,11349,2,0,L|117:111,1,53.9399978600465,8|0,0:3|0:0,0:0:0:0:
223,237,11580,6,0,P|167:246|107:263,1,107.879995720093,10|8,0:0|0:0,0:0:0:0:
229,209,11926,1,0,0:0:0:0:
331,276,12041,6,0,L|318:338,1,53.9399978600465,0|8,3:0|0:0,0:0:0:0:
299,353,12272,1,8,0:3:0:0:
364,384,12388,1,0,0:0:0:0:
444,308,12503,6,0,B|426:258|470:264|421:195,1,107.879995720093,8|2,0:1|0:3,0:0:0:0:
369,150,12849,1,0,3:0:0:0:
433,80,12965,5,0,0:0:0:0:
441,107,13080,1,0,3:0:0:0:
335,46,13195,5,8,0:3:0:0:
327,75,13311,1,0,0:0:0:0:
241,0,13426,6,0,B|193:13|193:13|184:25|184:25|120:43,1,107.879995720093,8|2,0:1|0:3,0:0:0:0:
37,142,13772,1,0,0:0:0:0:
32,67,13888,5,2,3:2:0:0:
101,95,14003,1,10,0:0:0:0:
130,166,14118,1,2,0:0:0:0:
92,233,14234,1,2,0:0:0:0:
69,245,14349,2,0,L|12:232,1,53.9399978600465,8|2,0:0|0:0,0:0:0:0:
185,356,14580,5,2,0:0:0:0:
118,381,14695,1,2,3:2:0:0:
90,315,14811,1,2,0:0:0:0:
202,244,14926,1,8,0:0:0:0:
257,295,15041,2,0,L|323:310,1,53.9399978600465,0|0,3:0|0:0,0:0:0:0:
449,357,15272,6,0,P|432:301|417:214,1,107.879995720093,8|8,0:0|0:0,0:0:0:0:
312,134,15618,1,8,0:0:0:0:
407,80,15734,6,0,P|425:133|348:200,1,161.819993580139,4|0,0:0|0:0,0:0:0:0:
321,0,16195,2,0,L|387:20,1,53.9399978600465,8|0,0:1|0:0,0:0:0:0:
274,83,16426,1,2,0:3:0:0:
295,109,16541,1,0,3:0:0:0:
185,84,16657,2,0,L|176:142,2,53.9399978600465,0|8|0,0:0|0:0|3:0,0:0:0:0:
133,32,17003,1,0,0:0:0:0:
39,109,17118,5,8,0:1:0:0:
86,165,17234,1,0,0:0:0:0:
26,213,17349,1,2,0:3:0:0:
70,271,17465,1,0,0:0:0:0:
60,296,17580,6,0,L|4:308,1,53.9399978600465,0|8,3:0|0:0,0:0:0:0:
157,243,17811,1,2,0:3:0:0:
136,223,17926,1,0,0:0:0:0:
265,228,18041,6,0,L|228:106,1,107.879995720093,8|2,0:1|0:3,0:0:0:0:
287,69,18388,1,0,3:0:0:0:
384,171,18503,2,0,L|399:103,1,53.9399978600465,0|10,0:0|0:0,0:0:0:0:
290,209,18734,1,8,3:0:0:0:
359,246,18849,1,0,0:0:0:0:
300,341,18965,2,0,B|245:344|256:309|188:315,1,107.879995720093,10|8,0:0|0:0,0:0:0:0:
61,368,19311,1,0,0:0:0:0:
136,384,19426,6,0,L|127:320,1,53.9399978600465,0|8,3:0|0:0,0:0:0:0:
39,250,19657,1,8,0:3:0:0:
32,272,19772,1,0,0:0:0:0:
199,226,19888,2,0,P|154:194|87:208,1,107.879995720093,8|2,0:1|0:3,0:0:0:0:
52,145,20234,1,0,3:0:0:0:
94,83,20349,2,0,P|123:80|156:69,1,53.9399978600465,0|8,0:0|0:0,0:0:0:0:
210,118,20580,2,0,P|237:121|274:135,1,53.9399978600465,8|0,3:0|0:0,0:0:0:0:
421,57,20811,6,0,P|358:65|335:100,1,107.879995720093,8|8,0:1|0:3,0:0:0:0:
367,266,21157,1,0,0:0:0:0:
340,193,21272,5,2,3:2:0:0:
416,203,21388,1,10,0:0:0:0:
449,271,21503,1,2,0:3:0:0:
405,334,21618,1,2,0:0:0:0:
381,350,21734,6,0,B|339:355|339:355|314:339|314:339|273:344,1,107.879995720093,12|2,0:0|0:0,0:0:0:0:
216,308,22080,1,10,0:0:0:0:
219,228,22195,6,0,P|220:257|231:299,1,53.9399978600465,2|8,0:0|0:0,0:0:0:0:
121,384,22426,2,0,P|119:355|108:327,1,53.9399978600465,8|0,3:0|0:0,0:0:0:0:
5,247,22657,5,8,0:0:0:0:
76,258,22772,1,8,0:0:0:0:
123,205,22888,1,0,3:0:0:0:
112,132,23003,1,0,0:0:0:0:
90,112,23118,6,0,L|2:95,1,73.0799977697755,4|0,3:2|0:0,0:0:0:0:
182,58,23580,2,0,L|308:32,1,109.619996654663,0|0,3:0|0:0,0:0:0:0:
289,35,24041,5,0,3:0:0:0:
369,145,24272,1,2,0:3:0:0:
241,215,24503,2,0,L|249:129,1,73.0799977697755,0|2,3:0|0:3,0:0:0:0:
380,236,24965,5,0,3:0:0:0:
343,254,25080,1,0,0:0:0:0:
434,287,25195,5,2,0:3:0:0:
426,325,25311,1,0,0:0:0:0:
501,252,25426,6,0,L|526:328,1,73.0799977697755,0|2,3:0|0:3,0:0:0:0:
369,145,25888,6,0,B|417:136|417:136|427:126|427:126|485:115,1,109.619996654663,0|2,3:0|0:3,0:0:0:0:
472,117,26349,1,0,3:0:0:0:
324,41,26580,1,2,0:3:0:0:
421,54,26811,5,0,3:0:0:0:
394,60,26926,1,0,0:0:0:0:
296,110,27041,5,2,0:3:0:0:
272,106,27157,1,0,0:0:0:0:
206,47,27272,6,0,L|127:58,1,73.0799977697755,0|2,3:0|0:3,0:0:0:0:
74,20,27618,1,0,0:0:0:0:
4,115,27734,5,0,3:0:0:0:
44,99,27849,1,0,0:0:0:0:
119,187,27965,5,2,0:3:0:0:
80,166,28080,1,0,0:0:0:0:
24,217,28195,6,0,L|37:300,1,73.0799977697755,0|2,3:0|0:3,0:0:0:0:
52,306,28541,1,2,0:3:0:0:
118,263,28657,6,0,P|138:271|180:280,1,36.5399988848877,0|0,3:0|0:0,0:0:0:0:
226,356,28888,2,0,P|259:341|321:344,1,73.0799977697755,2|0,0:3|3:0,0:0:0:0:
416,258,29349,1,2,0:3:0:0:
512,373,29580,6,0,P|457:385|390:300,1,146.159995539551,0|0,3:0|3:0,0:0:0:0:
292,223,30272,2,0,L|300:165,1,36.5399988848877,8|0,0:3|0:0,0:0:0:0:
363,149,30503,6,0,L|351:54,1,73.0799977697755,0|2,3:0|0:3,0:0:0:0:
292,223,30965,1,0,3:0:0:0:
43,75,31426,6,0,L|55:-20,1,73.0799977697755,0|2,3:0|0:3,0:0:0:0:
114,149,31888,1,0,3:0:0:0:
0,204,32118,1,2,0:3:0:0:
144,318,32349,5,0,3:0:0:0:
136,295,32465,1,0,0:0:0:0:
219,322,32580,5,2,0:3:0:0:
231,298,32695,1,0,0:0:0:0:
263,382,32811,6,0,L|362:359,1,73.0799977697755,0|2,3:0|0:3,0:0:0:0:
460,294,33272,2,0,B|404:278|427:251|351:233,1,109.619996654663,0|2,3:0|0:3,0:0:0:0:
367,237,33734,2,0,L|412:224,1,36.5399988848877,0|0,3:0|0:0,0:0:0:0:
344,120,33965,1,8,0:3:0:0:
368,127,34080,1,0,0:0:0:0:
388,0,34195,6,0,L|454:52,1,73.0799977697755,0|2,3:0|0:3,0:0:0:0:
259,139,34657,2,0,L|278:56,1,73.0799977697755,0|2,3:0|0:3,0:0:0:0:
352,213,35118,1,0,3:0:0:0:
203,277,35349,1,8,0:3:0:0:
175,206,35580,1,0,3:0:0:0:
304,301,35811,1,8,0:3:0:0:
109,384,36041,6,0,L|120:294,1,73.0799977697755,0|0,3:0|0:0,0:0:0:0:
8,175,36388,1,8,0:0:0:0:
96,126,36503,2,0,L|83:215,1,73.0799977697755,8|0,0:0|0:0,0:0:0:0:
224,93,36965,2,0,B|279:97|274:60|349:67,1,109.619996654663,12|8,0:0|0:0,0:0:0:0:
438,214,37426,2,0,L|356:192,1,73.0799977697755,0|8,3:0|0:0,0:0:0:0:
501,92,37772,1,8,0:0:0:0:
428,65,37888,6,0,B|408:150|474:124|442:225,1,146.159995539551,4|8,3:2|0:0,0:0:0:0:
493,260,38465,1,0,0:0:0:0:
443,318,38580,2,0,L|381:304,1,36.5399988848877,0|0,3:0|0:0,0:0:0:0:
344,348,38811,1,2,0:3:0:0:
193,245,39041,2,0,L|241:234,1,36.5399988848877,0|0,3:0|0:0,0:0:0:0:
116,332,39272,1,8,0:0:0:0:
177,375,39388,2,0,L|224:386,2,36.5399988848877
53,279,39734,5,0,3:0:0:0:
23,322,39849,1,0,0:0:0:0:
33,372,39965,1,0,0:0:0:0:
18,72,40195,5,8,0:0:0:0:
69,37,40311,1,0,0:0:0:0:
130,47,40426,1,0,3:0:0:0:
160,104,40541,1,0,0:0:0:0:
150,118,40657,6,0,L|107:134,1,36.5399988848877,2|0,0:3|0:0,0:0:0:0:
220,41,40888,2,0,L|263:50,1,36.5399988848877,0|0,3:0|0:0,0:0:0:0:
336,148,41118,2,0,L|418:131,1,73.0799977697755,8|8,0:0|0:3,0:0:0:0:
300,297,41580,6,0,B|308:262|308:262|297:223,1,73.0799977697755,0|0,3:0|0:0,0:0:0:0:
165,285,41926,1,0,3:0:0:0:
209,348,42041,2,0,L|253:355,1,36.5399988848877,8|0,0:0|0:0,0:0:0:0:
300,297,42272,2,0,L|342:288,1,36.5399988848877,0|0,3:0|0:0,0:0:0:0:
439,331,42503,6,0,L|481:340,1,36.5399988848877,2|0,0:3|0:0,0:0:0:0:
392,245,42734,1,0,3:0:0:0:
416,240,42849,1,0,0:0:0:0:
307,191,42965,2,0,L|367:134,1,73.0799977697755,8|0,0:0|0:0,0:0:0:0:
339,76,43311,1,0,0:0:0:0:
196,12,43426,6,0,L|207:60,1,36.5399988848877,0|0,3:0|0:0,0:0:0:0:
98,150,43657,2,0,L|104:102,1,36.5399988848877,0|0,0:0|3:0,0:0:0:0:
231,175,43888,5,8,0:0:0:0:
199,188,44003,1,0,0:0:0:0:
137,241,44118,5,0,3:0:0:0:
164,254,44234,1,0,0:0:0:0:
234,292,44349,6,0,L|229:334,1,36.5399988848877,2|2,0:3|0:3,0:0:0:0:
131,379,44580,1,8,3:0:0:0:
126,351,44695,1,0,0:0:0:0:
298,231,44811,6,0,P|343:240|387:309,1,109.619996654663,8|0,0:0|0:0,0:0:0:0:
426,377,45272,5,4,3:2:0:0:
434,349,45388,1,0,0:0:0:0:
489,275,45503,5,0,0:0:0:0:
478,241,45618,1,0,3:0:0:0:
411,181,45734,6,0,B|435:120|385:138|415:52,1,109.619996654663,8|0,0:0|0:0,0:0:0:0:
478,93,46195,2,0,L|523:77,1,36.5399988848877,2|0,0:3|0:0,0:0:0:0:
384,9,46426,1,0,3:0:0:0:
358,2,46541,1,0,0:0:0:0:
289,55,46657,6,0,P|242:61|186:104,1,109.619996654663,8|2,0:0|0:3,0:0:0:0:
125,135,47118,6,0,P|134:176|138:233,1,73.0799977697755,0|2,3:0|0:3,0:0:0:0:
201,320,47465,1,0,0:0:0:0:
77,368,47580,6,0,B|137:372|118:334|196:338,1,109.619996654663,8|2,0:0|0:3,0:0:0:0:
264,273,48041,2,0,L|313:292,1,36.5399988848877,2|8,0:3|0:0,0:0:0:0:
349,337,48272,1,0,3:0:0:0:
503,218,48503,6,0,L|415:237,1,73.0799977697755,8|8,0:0|0:3,0:0:0:0:
372,192,48849,1,0,0:0:0:0:
446,50,48965,5,0,3:0:0:0:
434,75,49080,1,2,0:3:0:0:
367,119,49195,5,0,0:0:0:0:
357,92,49311,1,0,3:0:0:0:
289,29,49426,5,8,0:0:0:0:
279,56,49541,1,0,0:0:0:0:
225,130,49657,5,0,3:0:0:0:
211,104,49772,1,8,0:0:0:0:
96,49,49888,5,2,0:3:0:0:
65,103,50003,1,8,0:0:0:0:
80,165,50118,1,8,0:3:0:0:
136,195,50234,1,0,0:0:0:0:
158,220,50349,6,0,L|207:208,1,36.5399988848877,12|0,0:0|0:0,0:0:0:0:
102,292,50580,1,8,0:3:0:0:
355,239,50811,5,2,3:0:0:0:
297,195,50926,1,2,0:3:0:0:
250,353,51041,6,0,L|333:336,1,66.9899986711579,12|0,0:0|0:0,0:0:0:0:
493,213,51272,2,0,B|390:183|443:120|317:87,1,200.969996013474,12|0,0:0|0:0,0:0:0:0:
199,19,51734,6,0,L|177:114,1,66.9899986711579,12|0,0:0|0:0,0:0:0:0:
297,195,51965,1,2,0:3:0:0:
266,128,52080,1,0,0:0:0:0:
98,289,52195,2,0,B|171:299|150:348|240:331,1,133.979997342316,0|8,3:0|0:0,0:0:0:0:
397,253,52541,1,8,0:0:0:0:
420,326,52657,6,2,P|365:343|288:262,1,174.869991728257,4|2,3:2|0:0,0:2:0:0:
223,222,53118,2,2,P|234:140|238:34,1,174.869991728257,8|8,0:0|0:0,0:2:0:0:
432,110,53580,1,0,3:0:0:0:
390,172,53695,1,0,0:0:0:0:
336,30,53811,2,0,P|364:41|404:49,1,58.2899972427522,8|0,0:3|0:0,0:0:0:0:
309,127,54041,2,0,L|242:143,1,58.2899972427522,8|0,0:0|0:0,0:0:0:0:
203,201,54272,2,0,L|131:185,1,58.2899972427522,2|0,0:3|0:0,0:0:0:0:
49,81,54503,5,0,3:0:0:0:
123,64,54618,1,8,0:0:0:0:
24,161,54734,2,0,L|13:221,1,58.2899972427522,2|0,0:3|0:0,0:0:0:0:
104,350,54965,2,0,L|93:290,1,58.2899972427522,8|0,0:0|0:0,0:0:0:0:
193,266,55195,1,2,0:3:0:0:
240,326,55311,1,8,0:0:0:0:
195,384,55426,6,0,P|262:345|371:367,1,174.869991728257,0|0,3:0|0:0,0:0:0:0:
417,309,55888,2,0,L|432:373,1,58.2899972427522,8|0,0:0|0:0,0:0:0:0:
305,213,56118,2,0,L|295:276,1,58.2899972427522,10|0,0:0|0:0,0:0:0:0:
500,162,56349,5,0,3:0:0:0:
438,121,56465,1,8,0:0:0:0:
504,131,56580,2,0,P|474:136|442:150,1,58.2899972427522,2|0,0:3|0:0,0:0:0:0:
328,96,56811,6,0,P|236:77|152:42,1,174.869991728257,8|8,0:0|0:0,0:0:0:0:
32,173,57272,2,0,P|43:147|49:102,1,58.2899972427522,0|0,3:0|0:0,0:0:0:0:
184,241,57503,2,0,P|174:211|166:162,1,58.2899972427522,2|0,0:3|0:0,0:0:0:0:
29,289,57734,2,0,P|59:297|94:312,1,58.2899972427522,8|0,0:0|0:0,0:0:0:0:
133,365,57965,1,0,0:0:0:0:
359,201,58195,5,0,3:0:0:0:
313,257,58311,1,8,0:0:0:0:
366,311,58426,2,0,P|393:300|431:293,1,58.2899972427522,2|0,0:3|0:0,0:0:0:0:
338,130,58657,2,0,P|335:160|328:192,1,58.2899972427522,8|0,0:0|0:0,0:0:0:0:
508,99,58888,1,0,0:0:0:0:
440,69,59003,1,8,0:0:0:0:
499,226,59118,2,0,P|512:199|510:162,1,58.2899972427522,0|8,3:0|0:0,0:0:0:0:
348,42,59349,6,0,P|317:50|286:57,1,58.2899972427522,2|0,0:3|0:0,0:0:0:0:
204,155,59580,2,0,P|178:145|139:136,1,58.2899972427522,8|0,0:0|0:0,0:0:0:0:
313,257,59811,2,0,P|281:262|253:275,1,58.2899972427522,8|0,0:0|0:0,0:0:0:0:
90,381,60041,6,0,B|127:343|90:300|87:306|31:255|128:195,1,174.869991728257,4|0,3:2|0:0,0:0:0:0:
36,175,60503,2,0,B|120:156|106:258|222:237,1,174.869991728257,8|8,0:0|0:0,0:0:0:0:
322,183,60965,2,0,L|333:122,1,58.2899972427522,0|8,3:0|0:0,0:0:0:0:
289,67,61195,1,2,0:3:0:0:
480,225,61426,6,0,L|409:235,1,58.2899972427522,8|0,0:0|0:0,0:0:0:0:
310,363,61657,2,0,L|373:383,1,58.2899972427522
239,181,61888,5,0,3:0:0:0:
190,239,62003,1,8,0:0:0:0:
238,294,62118,2,0,L|300:281,1,58.2899972427522,2|0,0:3|0:0,0:0:0:0:
415,142,62349,2,0,L|330:120,1,58.2899972427522,8|0,0:0|0:0,0:0:0:0:
186,30,62580,1,2,0:3:0:0:
251,0,62695,1,8,0:0:0:0:
302,54,62811,2,0,L|288:122,1,58.2899972427522,0|8,3:0|0:0,0:0:0:0:
102,209,63041,2,0,L|87:137,1,58.2899972427522
295,282,63272,2,0,P|236:289|174:318,1,116.579994485504,8|2,0:0|0:3,0:0:0:0:
34,359,63734,6,0,P|64:370|97:389,1,58.2899972427522,0|8,3:0|0:0,0:0:0:0:
26,203,63965,2,0,P|16:236|-2:281,1,58.2899972427522,2|0,0:3|0:0,0:0:0:0:
163,193,64195,2,0,P|137:185|104:166,1,58.2899972427522,8|0,0:0|0:0,0:0:0:0:
201,329,64426,2,0,P|225:315|263:304,1,58.2899972427522,2|8,0:3|0:0,0:0:0:0:
379,206,64657,5,0,3:0:0:0:
427,266,64772,1,8,0:0:0:0:
398,336,64888,2,0,L|336:321,1,58.2899972427522,2|0,0:3|0:0,0:0:0:0:
500,283,65118,2,0,L|515:354,1,58.2899972427522,8|0,0:0|0:0,0:0:0:0:
461,184,65349,5,0,0:0:0:0:
482,167,65465,1,8,0:0:0:0:
504,150,65580,2,0,L|430:120,1,58.2899972427522,0|0,3:0|0:0,0:0:0:0:
274,40,65811,5,8,0:0:0:0:
345,12,65926,1,8,0:0:0:0:
393,74,66041,1,8,0:0:0:0:
351,136,66157,1,8,0:0:0:0:
277,114,66272,1,8,0:0:0:0:
85,201,66503,6,0,P|92:226|99:263,1,58.2899972427522,8|0,0:0|0:0,0:0:0:0:
66,183,66965,6,0,P|90:292|99:360,1,174.869991728257,8|0,0:0|0:0,0:0:0:0:
218,240,67426,6,0,B|308:265|262:315|363:353,1,174.869991728257,4|0,3:2|0:0,0:0:0:0:
498,166,67888,2,0,B|452:178|452:178|435:197|435:197|393:209,1,116.579994485504,8|0,0:0|0:0,0:0:0:0:
512,287,68234,1,8,0:0:0:0:
430,332,68349,2,0,L|438:267,1,58.2899972427522,0|0,3:0|0:0,0:0:0:0:
393,208,68580,2,0,L|383:138,1,58.2899972427522,8|0,0:3|0:0,0:0:0:0:
503,19,68811,2,0,P|464:63|383:55,1,116.579994485504,8|8,0:0|0:3,0:0:0:0:
255,186,69272,6,0,P|227:175|183:170,1,58.2899972427522,0|8,3:0|0:0,0:0:0:0:
91,107,69503,2,0,P|58:112|24:133,1,58.2899972427522,2|0,0:3|0:0,0:0:0:0:
164,26,69734,2,0,P|173:54|176:95,1,58.2899972427522,8|0,0:0|0:0,0:0:0:0:
114,194,69965,5,0,0:0:0:0:
80,261,70080,1,8,0:0:0:0:
117,331,70195,2,0,L|193:316,1,58.2899972427522,0|8,3:0|0:0,0:0:0:0:
237,275,70426,2,0,L|310:290,1,58.2899972427522
456,381,70657,6,0,P|445:354|440:315,1,58.2899972427522,8|0,0:0|0:0,0:0:0:0:
364,175,70888,2,0,P|361:205|350:236,1,58.2899972427522,10|0,0:0|0:0,0:0:0:0:
512,146,71118,6,0,L|450:127,1,58.2899972427522,0|8,3:0|0:0,0:0:0:0:
368,34,71349,2,0,P|302:38|240:85,1,116.579994485504,2|8,0:3|0:0,0:0:0:0:
232,128,71695,1,0,0:0:0:0:
84,233,71811,2,0,P|82:202|72:167,1,58.2899972427522,2|8,0:3|0:0,0:0:0:0:
217,307,72041,2,0,L|138:317,1,58.2899972427522,0|0,3:0|0:0,0:0:0:0:
273,195,72272,2,0,P|276:229|284:270,1,58.2899972427522,2|0,0:3|0:0,0:0:0:0:
144,129,72503,1,8,0:0:0:0:
144,129,72734,6,0,P|171:139|216:145,1,58.2899972427522,2|0,0:3|0:0,0:0:0:0:
354,220,72965,1,0,3:0:0:0:
416,184,73080,1,8,0:0:0:0:
473,233,73195,2,0,L|462:297,1,58.2899972427522,2|0,0:3|0:0,0:0:0:0:
334,147,73426,2,0,L|320:80,1,58.2899972427522,8|0,0:0|0:0,0:0:0:0:
512,105,73657,2,0,L|451:119,1,58.2899972427522,2|8,0:3|0:0,0:0:0:0:
280,252,73888,5,0,3:0:0:0:
213,211,74003,1,8,0:0:0:0:
140,234,74118,2,0,P|114:243|77:246,1,58.2899972427522,2|0,0:3|0:0,0:0:0:0:
218,348,74349,2,0,P|210:321|203:273,1,58.2899972427522,8|0,0:0|0:0,0:0:0:0:
29,175,74580,1,8,0:0:0:0:
73,116,74695,1,8,0:0:0:0:
26,50,74811,6,0,P|75:95|200:77,1,174.869991728257,4|0,3:2|0:0,0:0:0:0:
292,156,75272,2,0,P|369:144|451:216,1,174.869991728257,8|8,0:0|0:0,0:0:0:0:
485,25,75734,5,0,3:0:0:0:
415,0,75849,1,0,0:0:0:0:
370,60,75965,2,0,L|377:119,1,58.2899972427522,2|0,0:3|0:0,0:0:0:0:
242,236,76195,2,0,L|124:258,1,116.579994485504,8|2,0:0|0:3,0:0:0:0:
339,306,76657,6,0,L|318:251,1,58.2899972427522,0|8,3:0|0:0,0:0:0:0:
184,349,76888,2,0,L|193:280,1,58.2899972427522,2|0,0:3|0:0,0:0:0:0:
362,384,77118,1,8,0:0:0:0:
168,168,77349,6,0,L|106:151,1,58.2899972427522,2|8,0:3|0:0,0:0:0:0:
220,76,77580,1,0,3:0:0:0:
196,49,77695,1,8,0:0:0:0:
332,80,77811,2,0,L|341:16,1,58.2899972427522,2|0,0:3|0:0,0:0:0:0:
505,147,78041,6,0,L|438:159,1,58.2899972427522,8|0,0:0|0:0,0:0:0:0:
318,251,78272,2,0,L|383:264,1,58.2899972427522,2|8,0:3|0:0,0:0:0:0:
506,369,78503,5,0,3:0:0:0:
480,303,78618,1,8,0:0:0:0:
448,239,78734,1,0,0:0:0:0:
176,339,78965,6,0,P|186:310|189:274,1,58.2899972427522,8|0,0:0|0:0,0:0:0:0:
257,152,79195,1,2,0:3:0:0:
190,122,79311,1,8,0:0:0:0:
130,168,79426,2,0,L|69:182,1,58.2899972427522,2|8,3:0|0:0,0:0:0:0:
189,282,79657,2,0,L|118:269,1,58.2899972427522,8|0,0:3|0:0,0:0:0:0:
308,61,79888,2,0,L|242:77,1,58.2899972427522,8|0,0:0|0:0,0:0:0:0:
401,151,80118,1,8,0:3:0:0:
434,218,80234,1,0,0:0:0:0:
382,275,80349,6,0,L|321:257,1,58.2899972427522,8|0,0:3|0:0,0:0:0:0:
308,61,80580,2,0,L|242:77,1,58.2899972427522,8|0,0:3|0:0,0:0:0:0:
131,271,80811,6,0,L|189:282,1,58.2899972427522,12|0,0:0|0:0,0:0:0:0:
130,168,81041,2,0,L|69:182,1,58.2899972427522,0|8,0:0|0:0,0:0:0:0:
210,359,81272,5,0,3:0:0:0:
272,309,81388,1,8,0:0:0:0:
248,234,81503,1,0,0:0:0:0:
220,216,81618,1,8,0:0:0:0:
130,168,81734,5,8,0:0:0:0:
179,109,81849,1,8,0:3:0:0:
254,117,81965,1,4,0:3:0:0:
275,140,82080,1,0,3:0:0:0:
389,86,82195,6,0,L|526:115,1,116.579994485504,8|8,0:0|0:0,0:0:0:0:
503,110,83118,2,0,L|389:86,1,116.579994485504,8|8,0:0|0:0,0:0:0:0:
58,29,83811,5,0,0:0:0:0:
78,97,83926,1,0,0:0:0:0:
73,17,84041,6,0,P|63:45|61:78,1,53.9399978600465,4|0,3:2|0:0,0:0:0:0:
143,157,84272,1,0,0:0:0:0:
176,229,84388,1,0,0:0:0:0:
121,285,84503,2,0,B|70:272|80:247|18:234,1,107.879995720093,8|2,0:1|0:3,0:0:0:0:
65,170,84849,1,0,0:0:0:0:
235,283,84965,6,0,L|302:299,1,53.9399978600465,0|8,0:0|0:0,0:0:0:0:
429,189,85195,2,0,L|503:176,1,53.9399978600465,0|0,3:0|0:0,0:0:0:0:
453,373,85426,5,8,0:1:0:0:
389,337,85541,1,0,0:0:0:0:
372,267,85657,1,8,0:3:0:0:
409,203,85772,1,0,0:0:0:0:
429,189,85888,6,0,L|503:176,1,53.9399978600465,0|8,3:0|0:0,0:0:0:0:
360,104,86118,1,8,0:3:0:0:
380,79,86234,1,0,0:0:0:0:
249,105,86349,2,0,L|240:36,1,53.9399978600465,8|0,0:1|0:0,0:0:0:0:
159,176,86580,1,2,0:3:0:0:
222,232,86695,6,0,L|290:246,1,53.9399978600465,0|0,3:0|0:0,0:0:0:0:
126,367,86926,2,0,L|189:352,1,53.9399978600465,8|0,0:0|3:0,0:0:0:0:
77,186,87157,1,0,0:0:0:0:
36,256,87272,6,0,L|177:283,1,107.879995720093,8|8,0:0|0:0,0:0:0:0:
193,331,87618,1,0,0:0:0:0:
294,384,87734,6,0,L|284:313,1,53.9399978600465,0|8,3:0|0:0,0:0:0:0:
376,231,87965,1,8,0:3:0:0:
448,211,88080,1,0,0:0:0:0:
497,270,88195,2,0,L|485:328,1,53.9399978600465,8|0,0:1|0:0,0:0:0:0:
376,231,88426,5,2,0:3:0:0:
336,163,88541,1,0,3:0:0:0:
388,101,88657,2,0,L|459:84,1,53.9399978600465,0|8,0:0|0:0,0:0:0:0:
281,220,88888,2,0,L|220:206,1,53.9399978600465,8|0,3:0|0:0,0:0:0:0:
149,57,89118,2,0,B|81:74|81:74|59:98|59:98|-6:114,1,161.819993580139,8|8,0:1|0:0,0:0:0:0:
174,154,89580,5,2,3:2:0:0:
228,207,89695,1,10,0:0:0:0:
236,281,89811,1,2,0:0:0:0:
185,334,89926,1,2,0:0:0:0:
160,346,90041,6,0,L|103:335,1,53.9399978600465,12|2,0:0|0:0,0:0:0:0:
284,147,90272,5,2,0:0:0:0:
350,114,90388,1,10,0:0:0:0:
410,160,90503,2,0,L|477:175,1,53.9399978600465,2|8,0:0|0:0,0:0:0:0:
335,40,90734,2,0,L|394:23,1,53.9399978600465,0|8,3:0|0:0,0:0:0:0:
204,109,90965,5,8,0:0:0:0:
137,68,91080,1,8,0:0:0:0:
76,85,91195,1,8,0:3:0:0:
65,118,91311,1,4,0:3:0:0:
68,125,91426,6,0,L|138:143,1,53.9399978600465,4|0,3:2|0:0,0:0:0:0:
81,243,91657,1,0,0:0:0:0:
105,233,91772,1,0,0:0:0:0:
149,341,91888,2,0,L|190:288,1,53.9399978600465,8|0,0:1|0:0,0:0:0:0:
300,236,92118,1,8,0:3:0:0:
376,222,92234,1,0,3:0:0:0:
423,286,92349,2,0,L|409:339,1,53.9399978600465,0|8,0:0|0:0,0:0:0:0:
222,225,92580,2,0,L|213:162,1,53.9399978600465,2|0,3:0|0:0,0:0:0:0:
370,12,92811,5,8,0:1:0:0:
429,36,92926,1,0,0:0:0:0:
456,97,93041,1,2,0:3:0:0:
431,157,93157,1,0,0:0:0:0:
407,169,93272,6,0,L|352:156,1,53.9399978600465,0|8,3:0|0:0,0:0:0:0:
221,71,93503,1,8,0:3:0:0:
195,77,93618,1,0,0:0:0:0:
103,153,93734,2,0,L|36:142,1,53.9399978600465,8|0,0:1|0:0,0:0:0:0:
163,273,93965,1,0,0:0:0:0:
222,225,94080,2,0,L|213:162,1,53.9399978600465,0|0,3:0|0:0,0:0:0:0:
59,304,94311,2,0,L|67:249,1,53.9399978600465,8|0,0:0|3:0,0:0:0:0:
196,363,94541,1,0,0:0:0:0:
253,316,94657,6,0,P|323:301|387:355,1,161.819993580139,8|0,0:0|0:0,0:0:0:0:
325,263,95118,5,0,3:0:0:0:
300,197,95234,1,0,0:0:0:0:
344,138,95349,1,8,0:3:0:0:
418,127,95465,1,0,0:0:0:0:
442,149,95580,6,0,L|513:166,1,53.9399978600465,12|0,0:0|0:0,0:0:0:0:
325,24,95811,1,0,0:0:0:0:
351,19,95926,1,8,0:0:0:0:
220,114,96041,2,0,L|290:132,1,53.9399978600465,0|8,0:0|0:0,0:0:0:0:
123,30,96272,2,0,L|188:16,1,53.9399978600465,0|0,3:0|0:0,0:0:0:0:
66,95,96503,5,8,0:0:0:0:
25,156,96618,1,8,0:3:0:0:
79,208,96734,1,12,0:3:0:0:
29,267,96849,1,0,3:0:0:0:
41,294,96965,6,0,L|104:314,1,53.9399978600465,8|0,0:0|3:0,0:0:0:0:
139,370,97195,2,0,L|204:355,1,53.9399978600465,2|0,0:3|0:0,0:0:0:0:
237,237,97426,6,0,P|284:198|356:214,1,107.879995720093,12|0,0:0|0:0,0:0:0:0:
444,292,97772,1,8,0:0:0:0:
356,346,97888,2,0,L|368:272,1,53.9399978600465,8|0,0:3|0:0,0:0:0:0:
449,141,98118,1,8,0:0:0:0:
480,204,98234,1,0,0:0:0:0:
355,109,98349,5,8,0:0:0:0:
382,44,98465,1,8,0:3:0:0:
450,29,98580,1,12,0:3:0:0:
509,70,98695,1,0,3:0:0:0:
503,78,98811,6,0,B|432:84|433:24|355:39,1,146.159995539551,4|0,3:2|3:0,0:0:0:0:
205,162,99734,2,0,L|126:176,1,73.0799977697755,0|2,3:0|0:3,0:0:0:0:
76,124,100195,1,0,3:0:0:0:
2,203,100426,1,2,0:3:0:0:
94,282,100657,5,0,3:0:0:0:
120,272,100772,1,0,0:0:0:0:
203,324,100888,5,2,0:3:0:0:
232,333,101003,1,0,0:0:0:0:
309,276,101118,6,0,L|395:257,1,73.0799977697755,0|2,3:0|0:3,0:0:0:0:
506,365,101580,6,0,B|466:290|533:310|473:217,1,146.159995539551,0|0,3:0|3:0,0:0:0:0:
376,143,102157,1,0,0:0:0:0:
343,88,102272,1,8,0:3:0:0:
376,29,102388,1,8,0:3:0:0:
441,17,102503,2,0,L|524:35,1,73.0799977697755,0|2,3:0|0:3,0:0:0:0:
376,143,102965,6,0,L|332:153,1,36.5399988848877,0|0,3:0|0:0,0:0:0:0:
271,116,103195,2,0,L|228:109,1,36.5399988848877,2|0,0:3|0:0,0:0:0:0:
137,204,103426,5,0,3:0:0:0:
144,174,103541,1,0,0:0:0:0:
93,121,103657,5,2,0:3:0:0:
85,93,103772,1,0,0:0:0:0:
131,35,103888,5,0,3:0:0:0:
42,300,104118,5,2,0:3:0:0:
88,286,104234,1,0,0:0:0:0:
113,323,104349,2,0,L|103:377,1,36.5399988848877
228,291,104580,2,0,L|216:212,1,73.0799977697755,8|0,0:3|3:0,0:0:0:0:
349,336,105041,2,0,L|357:292,1,36.5399988848877,2|0,0:3|0:0,0:0:0:0:
422,267,105272,1,0,3:0:0:0:
358,164,105503,6,0,L|308:153,1,36.5399988848877,2|0,0:3|0:0,0:0:0:0:
428,80,105734,2,0,L|365:93,1,36.5399988848877,0|0,3:0|0:0,0:0:0:0:
352,17,105965,2,0,L|310:9,1,36.5399988848877,2|2,0:3|0:3,0:0:0:0:
196,70,106195,6,0,B|114:61|140:115|49:101,1,146.159995539551,0|0,3:0|3:0,0:0:0:0:
209,170,106888,1,2,0:3:0:0:
125,261,107118,2,0,L|114:197,1,36.5399988848877,0|0,3:0|0:0,0:0:0:0:
114,195,107349,1,2,0:3:0:0:
226,280,107580,1,0,3:0:0:0:
111,363,107811,1,2,0:3:0:0:
226,280,108041,5,0,3:0:0:0:
253,272,108157,1,0,0:0:0:0:
319,316,108272,5,2,0:3:0:0:
349,324,108388,1,0,0:0:0:0:
408,274,108503,6,0,B|442:259|442:259|492:269,1,73.0799977697755,0|2,3:0|0:3,0:0:0:0:
324,234,108965,6,0,P|338:181|345:115,1,109.619996654663,0|0,3:0|0:0,0:0:0:0:
367,106,109426,2,0,P|366:85|360:55,1,36.5399988848877,0|0,3:0|0:0,0:0:0:0:
165,2,109657,1,8,0:3:0:0:
116,57,109772,1,8,0:3:0:0:
158,117,109888,6,0,L|243:98,1,73.0799977697755,0|0,3:0|0:0,0:0:0:0:
60,203,110349,1,0,3:0:0:0:
198,280,110580,1,2,0:3:0:0:
115,329,110811,5,0,3:0:0:0:
110,304,110926,1,0,0:0:0:0:
143,231,111041,5,2,0:3:0:0:
146,206,111157,1,0,0:0:0:0:
81,126,111272,5,0,3:0:0:0:
240,21,111503,1,8,0:3:0:0:
295,88,111734,5,0,3:0:0:0:
101,10,111965,1,8,0:3:0:0:
295,88,112195,2,0,B|347:80|343:52|418:47,1,109.619996654663,12|8,0:0|0:0,0:0:0:0:
460,87,112657,6,0,P|450:122|448:163,1,73.0799977697755,8|8,0:0|0:0,0:0:0:0:
328,272,113003,1,8,0:3:0:0:
433,347,113118,2,0,P|422:312|419:266,1,73.0799977697755,0|8,3:0|0:0,0:0:0:0:
296,176,113465,1,8,0:0:0:0:
231,135,113580,6,0,P|175:134|128:213,1,146.159995539551,4|8,3:2|0:0,0:0:0:0:
76,260,114157,1,0,0:0:0:0:
122,319,114272,2,0,L|173:335,1,36.5399988848877,0|0,3:0|0:0,0:0:0:0:
244,240,114503,2,0,L|202:251,1,36.5399988848877
304,382,114734,2,0,L|316:338,1,36.5399988848877,0|0,3:0|0:0,0:0:0:0:
433,262,114965,5,8,0:0:0:0:
368,221,115080,2,0,L|361:135,1,73.0799977697755
474,57,115426,5,0,3:0:0:0:
440,68,115541,1,8,0:0:0:0:
391,131,115657,5,0,0:0:0:0:
355,118,115772,1,0,3:0:0:0:
266,49,115888,5,8,0:0:0:0:
195,64,116003,1,0,0:0:0:0:
211,133,116118,1,0,0:0:0:0:
279,117,116234,1,2,0:3:0:0:
266,49,116349,5,0,0:0:0:0:
234,40,116465,1,8,0:0:0:0:
140,113,116580,5,0,3:0:0:0:
114,122,116695,1,0,0:0:0:0:
21,95,116811,6,0,P|34:130|43:194,1,73.0799977697755,8|8,0:0|0:3,0:0:0:0:
135,249,117157,1,0,0:0:0:0:
0,362,117272,1,0,3:0:0:0:
106,263,117503,6,0,L|156:278,1,36.5399988848877,0|0,0:0|3:0,0:0:0:0:
221,362,117734,1,8,0:0:0:0:
184,370,117849,1,0,0:0:0:0:
267,261,117965,1,0,3:0:0:0:
304,272,118080,1,0,0:0:0:0:
364,341,118195,6,0,L|411:333,1,36.5399988848877,0|8,0:0|0:0,0:0:0:0:
490,253,118426,1,2,3:0:0:0:
397,197,118541,2,0,L|409:254,2,36.5399988848877,0|8|0,0:0|0:0|0:0,0:0:0:0:
492,128,118888,1,0,0:0:0:0:
498,93,119003,1,0,0:0:0:0:
506,58,119118,6,0,L|417:41,1,73.0799977697755,0|0,3:0|0:0,0:0:0:0:
304,117,119465,1,0,3:0:0:0:
208,31,119580,2,0,L|296:14,1,73.0799977697755,8|0,0:0|3:0,0:0:0:0:
193,153,119926,1,8,0:0:0:0:
130,117,120041,2,0,L|138:72,1,36.5399988848877,0|8,0:0|0:0,0:0:0:0:
18,209,120272,5,0,3:0:0:0:
92,191,120388,1,0,0:0:0:0:
133,252,120503,2,0,L|139:304,1,36.5399988848877,8|0,0:0|0:0,0:0:0:0:
36,368,120734,2,0,L|44:323,1,36.5399988848877,2|8,0:3|0:3,0:0:0:0:
230,322,120965,5,0,3:0:0:0:
200,343,121080,1,8,0:0:0:0:
280,249,121195,5,0,0:0:0:0:
244,229,121311,1,0,3:0:0:0:
379,246,121426,6,0,L|390:195,1,36.5399988848877,8|0,0:0|0:0,0:0:0:0:
415,337,121657,5,0,3:0:0:0:
448,328,121772,1,8,0:0:0:0:
479,321,121888,2,0,L|466:273,1,36.5399988848877,2|0,0:3|0:0,0:0:0:0:
374,174,122118,5,0,3:0:0:0:
337,106,122234,1,0,0:0:0:0:
393,52,122349,2,0,L|489:32,1,73.0799977697755,8|2,0:0|0:3,0:0:0:0:
244,229,122811,6,0,B|233:194|233:194|247:155,1,73.0799977697755,0|0,3:0|0:0,0:0:0:0:
207,100,123157,1,0,3:0:0:0:
101,36,123272,2,0,P|66:48|21:54,1,73.0799977697755,8|0,0:0|3:0,0:0:0:0:
0,118,123618,1,2,0:3:0:0:
119,160,123734,6,0,L|123:196,1,36.5399988848877,8|8,0:3|0:0,0:0:0:0:
9,292,123965,2,0,L|19:242,1,36.5399988848877,0|0,3:0|0:0,0:0:0:0:
198,347,124195,2,0,L|117:370,1,73.0799977697755,8|8,0:0|0:3,0:0:0:0:
257,280,124541,1,0,0:0:0:0:
272,302,124657,5,0,3:0:0:0:
334,321,124772,1,0,0:0:0:0:
389,291,124888,1,0,0:0:0:0:
397,228,125003,1,0,3:0:0:0:
325,146,125118,5,8,0:0:0:0:
308,206,125234,1,0,0:0:0:0:
334,261,125349,1,0,3:0:0:0:
389,291,125465,1,8,0:0:0:0:
486,186,125580,5,8,0:3:0:0:
449,128,125695,1,0,3:0:0:0:
385,117,125811,1,0,0:0:0:0:
325,146,125926,1,0,0:0:0:0:
247,124,126041,5,8,0:0:0:0:
193,170,126157,1,8,0:3:0:0:
126,161,126272,2,0,L|113:96,1,36.5399988848877,0|4,3:0|0:3,0:0:0:0:
194,2,126503,5,0,3:0:0:0:
194,2,126734,6,0,P|186:37|185:86,1,66.9899986711579,12|0,0:0|0:0,0:0:0:0:
0,290,126965,2,0,P|48:246|130:265,1,133.979997342316,12|0,0:0|3:0,0:0:0:0:
240,344,127311,1,0,0:0:0:0:
175,384,127426,2,0,P|195:321|202:240,1,133.979997342316,12|0,0:0|0:0,0:0:0:0:
301,135,127772,1,8,0:0:0:0:
439,299,127888,2,0,P|413:243|401:153,1,133.979997342316,0|8,3:0|0:0,0:0:0:0:
202,253,128234,1,8,0:0:0:0:
136,183,128349,6,0,B|228:192|211:129|321:135,1,174.869991728257,4|0,3:2|0:0,0:0:0:0:
111,1,128811,2,0,P|75:50|96:129,1,116.579994485504,8|8,0:0|0:3,0:0:0:0:
270,0,129157,1,8,0:0:0:0:
224,111,129272,2,0,P|223:79|209:37,1,58.2899972427522,0|0,3:0|0:0,0:0:0:0:
384,120,129503,2,0,P|376:148|374:188,1,58.2899972427522,8|0,0:3|0:0,0:0:0:0:
327,328,129734,2,0,P|380:306|446:309,1,116.579994485504,8|8,0:0|0:3,0:0:0:0:
497,259,130080,1,8,0:0:0:0:
271,198,130195,6,0,P|264:230|251:268,1,58.2899972427522,0|8,3:0|0:0,0:0:0:0:
426,202,130426,2,0,P|408:178|395:147,1,58.2899972427522,2|0,0:3|0:0,0:0:0:0:
321,355,130657,2,0,P|347:341|382:335,1,58.2899972427522,8|0,0:0|0:0,0:0:0:0:
347,248,130888,5,2,0:3:0:0:
278,222,131003,1,8,0:0:0:0:
224,268,131118,2,0,L|168:284,1,58.2899972427522,0|8,3:0|0:0,0:0:0:0:
57,365,131349,2,0,L|78:300,1,58.2899972427522,2|0,0:3|0:0,0:0:0:0:
4,134,131580,2,0,B|-15:189|-15:189|8:255,1,116.579994485504,8|8,0:0|0:3,0:0:0:0:
155,40,132041,6,0,P|128:52|89:60,1,58.2899972427522,0|8,3:0|0:0,0:0:0:0:
217,195,132272,2,0,P|192:186|158:182,1,58.2899972427522
289,26,132503,2,0,P|300:85|323:147,1,116.579994485504,8|8,0:0|0:3,0:0:0:0:
289,295,132849,1,8,0:0:0:0:
352,341,132965,2,0,L|417:356,1,58.2899972427522,0|0,3:0|0:0,0:0:0:0:
310,222,133195,2,0,L|381:207,1,58.2899972427522,8|0,0:3|0:0,0:0:0:0:
184,355,133426,2,0,L|246:371,1,58.2899972427522,8|0,0:0|0:0,0:0:0:0:
147,185,133657,1,2,0:3:0:0:
109,244,133772,1,8,0:0:0:0:
165,291,133888,6,0,P|156:226|61:179,1,174.869991728257,0|0,3:0|0:0,0:0:0:0:
6,108,134349,2,0,P|38:103|78:88,1,58.2899972427522,8|0,0:0|0:0,0:0:0:0:
244,61,134580,1,0,0:0:0:0:
198,0,134695,1,8,0:0:0:0:
128,34,134811,2,0,P|137:64|141:98,1,58.2899972427522,0|8,3:0|0:0,0:0:0:0:
310,222,135041,2,0,P|313:193|325:151,1,58.2899972427522,0|8,0:0|0:0,0:0:0:0:
132,249,135272,2,0,P|162:255|196:272,1,58.2899972427522,8|0,3:2|0:0,0:0:0:0:
319,71,135503,2,0,P|288:85|247:95,1,58.2899972427522,10|0,0:0|0:0,0:0:0:0:
443,326,135734,6,0,B|357:299|405:242|292:217,1,174.869991728257,4|0,3:2|0:0,0:0:0:0:
74,379,136195,2,0,L|204:354,1,116.579994485504,8|2,0:0|0:3,0:0:0:0:
27,251,136541,1,8,0:0:0:0:
88,200,136657,2,0,L|152:213,1,58.2899972427522,0|8,3:0|0:0,0:0:0:0:
54,361,136888,2,0,L|124:346,1,58.2899972427522,8|0,0:3|0:0,0:0:0:0:
309,221,137118,2,0,B|285:273|285:273|308:337,1,116.579994485504,8|2,0:0|0:3,0:0:0:0:
440,97,137580,6,0,P|412:109|371:117,1,58.2899972427522,0|8,3:0|0:0,0:0:0:0:
278,236,137811,2,0,P|308:243|337:259,1,58.2899972427522,2|0,0:3|0:0,0:0:0:0:
249,57,138041,2,0,P|243:89|227:123,1,58.2899972427522,8|0,0:0|0:0,0:0:0:0:
411,315,138272,5,2,0:3:0:0:
371,252,138388,1,8,0:0:0:0:
428,199,138503,2,0,P|453:208|494:213,1,58.2899972427522,0|8,3:0|0:0,0:0:0:0:
290,376,138734,2,0,P|316:367|351:362,1,58.2899972427522
179,202,138965,2,0,P|142:250|156:317,1,116.579994485504,8|8,0:0|0:3,0:0:0:0:
287,180,139311,1,0,0:0:0:0:
226,133,139426,6,0,P|221:105|218:71,1,58.2899972427522,0|8,3:0|0:0,0:0:0:0:
52,56,139657,2,0,P|57:83|59:128,1,58.2899972427522,8|0,0:3|0:0,0:0:0:0:
191,0,139888,2,0,P|161:11|117:18,1,58.2899972427522,8|0,0:0|0:0,0:0:0:0:
15,220,140118,5,2,0:3:0:0:
89,199,140234,1,8,0:0:0:0:
142,256,140349,2,0,L|207:276,1,58.2899972427522,0|8,3:0|0:0,0:0:0:0:
300,357,140580,2,0,L|285:291,1,58.2899972427522,2|0,0:3|0:0,0:0:0:0:
163,384,140811,1,8,0:0:0:0:
418,101,141041,5,0,0:0:0:0:
426,154,141157,1,8,0:0:0:0:
474,187,141272,5,8,0:0:0:0:
445,130,141388,1,8,0:0:0:0:
381,117,141503,1,4,0:3:0:0:
323,147,141618,1,0,0:0:0:0:
245,108,141734,5,8,0:3:0:0:
201,155,141849,1,8,0:3:0:0:
141,165,141965,1,12,0:3:0:0:
86,137,142080,1,4,0:3:0:0:
3,210,142195,5,8,0:0:0:0:
3,210,142657,6,0,B|46:201|46:201|111:258|46:337,1,174.869991728257,8|0,0:0|0:0,0:0:0:0:
0,379,143118,6,0,B|91:396|69:305|201:326,1,174.869991728257,4|0,3:2|0:0,0:0:0:0:
273,230,143580,2,0,L|396:260,1,116.579994485504,8|0,0:0|0:0,0:0:0:0:
266,346,143926,1,8,0:0:0:0:
354,384,144041,2,0,P|345:357|343:309,1,58.2899972427522,0|8,3:0|0:0,0:0:0:0:
248,194,144272,2,0,P|245:227|231:264,1,58.2899972427522,8|0,0:3|0:0,0:0:0:0:
465,139,144503,2,0,P|406:128|345:91,1,116.579994485504,8|8,0:0|0:3,0:0:0:0:
289,121,144849,1,0,0:0:0:0:
177,43,144965,6,0,P|148:45|109:68,1,58.2899972427522,0|8,3:0|0:0,0:0:0:0:
18,192,145195,2,0,L|31:125,1,58.2899972427522,2|0,0:3|0:0,0:0:0:0:
155,263,145426,1,8,0:0:0:0:
155,263,145657,5,0,0:0:0:0:
83,248,145772,1,8,0:0:0:0:
47,314,145888,2,0,P|55:343|60:378,1,58.2899972427522,0|8,3:0|0:0,0:0:0:0:
201,198,146118,2,0,P|175:190|147:170,1,58.2899972427522
217,347,146349,2,0,P|243:336|279:328,1,58.2899972427522,8|0,0:0|0:0,0:0:0:0:
361,222,146580,1,10,0:0:0:0:
433,202,146695,1,0,0:0:0:0:
485,260,146811,6,0,P|475:285|470:319,1,58.2899972427522,0|8,3:0|0:0,0:0:0:0:
325,139,147041,2,0,P|345:224|346:288,1,116.579994485504,2|8,0:3|0:0,0:0:0:0:
506,89,147503,6,0,P|476:83|440:70,1,58.2899972427522,2|8,0:3|0:0,0:0:0:0:
200,51,147734,1,0,3:0:0:0:
258,3,147849,1,8,0:0:0:0:
326,41,147965,2,0,L|316:104,1,58.2899972427522,2|0,0:3|0:0,0:0:0:0:
164,238,148195,2,0,L|151:165,1,58.2899972427522,8|0,0:0|0:0,0:0:0:0:
355,278,148426,1,2,0:3:0:0:
284,264,148541,1,0,0:0:0:0:
242,322,148657,6,0,L|176:345,1,58.2899972427522,0|8,3:0|0:0,0:0:0:0:
78,238,148888,2,0,L|138:254,1,58.2899972427522,2|0,0:3|0:0,0:0:0:0:
259,166,149118,2,0,B|233:103|279:121|242:36,1,116.579994485504,8|2,0:0|0:3,0:0:0:0:
185,90,149465,1,8,0:0:0:0:
320,12,149580,6,0,P|350:23|397:31,1,58.2899972427522,0|8,3:0|0:0,0:0:0:0:
259,166,149811,2,0,P|286:158|330:153,1,58.2899972427522,2|0,0:3|0:0,0:0:0:0:
313,282,150041,2,0,P|341:289|372:300,1,58.2899972427522,8|0,0:0|0:0,0:0:0:0:
149,177,150272,5,8,0:0:0:0:
80,213,150388,1,8,0:0:0:0:
99,284,150503,6,0,P|129:215|85:100,1,174.869991728257,4|0,3:2|0:0,0:0:0:0:
19,4,150965,2,0,P|67:42|146:35,1,116.579994485504,8|2,0:0|0:3,0:0:0:0:
184,85,151311,1,8,0:0:0:0:
280,23,151426,6,0,P|304:9|353:6,1,58.2899972427522,0|8,3:0|0:0,0:0:0:0:
474,129,151657,2,0,L|406:115,1,58.2899972427522,2|0,0:3|0:0,0:0:0:0:
278,247,151888,2,0,L|309:114,1,116.579994485504,8|2,0:0|0:3,0:0:0:0:
444,360,152349,6,0,P|413:366|383:380,1,58.2899972427522,0|8,3:0|0:0,0:0:0:0:
483,233,152580,2,0,P|488:264|502:304,1,58.2899972427522,2|0,0:3|0:0,0:0:0:0:
335,152,152811,2,0,P|363:163|402:171,1,58.2899972427522,8|0,0:0|0:0,0:0:0:0:
252,299,153041,1,2,0:3:0:0:
183,276,153157,1,8,0:0:0:0:
120,320,153272,2,0,L|62:340,1,58.2899972427522,0|8,3:0|0:0,0:0:0:0:
168,177,153503,2,0,P|171:209|188:252,1,58.2899972427522,2|0,0:3|0:0,0:0:0:0:
0,172,153734,2,0,L|26:42,1,116.579994485504,8|2,0:0|0:3,0:0:0:0:
85,98,154080,1,8,0:0:0:0:
188,0,154195,6,0,L|198:63,1,58.2899972427522,0|8,3:0|0:0,0:0:0:0:
368,164,154426,1,0,0:0:0:0:
396,93,154541,1,0,0:0:0:0:
335,48,154657,2,0,L|274:65,1,58.2899972427522,8|0,0:0|0:0,0:0:0:0:
368,164,154888,5,2,0:3:0:0:
404,231,155003,1,8,0:0:0:0:
362,293,155118,2,0,L|291:282,1,58.2899972427522,2|8,3:0|0:0,0:0:0:0:
181,384,155349,2,0,P|207:376|241:374,1,58.2899972427522,8|0,0:3|0:0,0:0:0:0:
126,206,155580,2,0,P|123:235|110:279,1,58.2899972427522,8|0,0:0|0:0,0:0:0:0:
276,206,155811,1,8,0:3:0:0:
248,135,155926,1,0,0:0:0:0:
224,65,156041,5,8,0:3:0:0:
304,284,156272,1,8,0:3:0:0:
30,167,156503,6,0,P|81:102|166:115,1,174.869991728257,12|8,0:0|0:0,0:0:0:0:
122,277,156965,5,0,3:0:0:0:
95,208,157080,1,8,0:0:0:0:
205,286,157195,5,0,0:0:0:0:
130,368,157311,1,8,0:0:0:0:
83,253,157426,6,0,P|116:245|153:228,1,58.2899972427522,8|8,0:0|0:3,0:0:0:0:
262,359,157657,2,0,P|292:366|322:379,1,58.2899972427522,4|0,0:3|3:0,0:0:0:0:
460,277,157888,6,0,L|433:141,1,116.579994485504,8|8,0:0|0:0,0:0:0:0:
437,162,158811,2,0,L|460:277,1,116.579994485504,8|8,0:0|0:0,0:0:0:0:
512,384,159734,6,0,P|449:359|376:378,1,146.159995539551,4|0,3:2|3:0,0:0:0:0:
170,240,160657,2,0,L|193:398,1,146.159995539551,0|0,3:0|3:0,0:0:0:0:
305,255,161349,1,2,0:3:0:0:
372,203,161580,6,0,P|396:147|357:57,1,146.159995539551,0|0,3:0|3:0,0:0:0:0:
216,174,162272,1,2,0:3:0:0:
108,90,162503,2,0,B|181:92|165:41|249:46,1,146.159995539551,0|0,3:0|3:0,0:0:0:0:
52,248,163195,1,2,0:3:0:0:
40,212,163311,1,2,0:3:0:0:
69,184,163426,6,0,L|54:350,1,146.159995539551,0|0,3:0|3:0,0:0:0:0:
115,378,164118,1,2,0:3:0:0:
260,239,164349,2,0,L|278:394,1,146.159995539551,0|0,3:0|3:0,0:0:0:0:
452,149,165041,6,0,P|372:133|322:177,1,146.159995539551,2|2,0:3|0:3,0:0:0:0:
461,304,165734,2,0,P|465:267|482:219,1,73.0799977697755,0|2,3:0|0:3,0:0:0:0:
236,283,166195,2,0,P|307:306|372:353,1,146.159995539551,0|8,3:0|0:0,0:0:0:0:
191,195,166888,1,8,0:3:0:0:
246,140,167118,6,0,L|336:121,1,73.0799977697755,0|8,3:0|0:3,0:0:0:0:
489,78,167580,2,0,B|438:65|438:65|412:36|412:36|346:19,1,146.159995539551,8|0,0:0|3:0,0:0:0:0:
82,150,168503,6,0,L|97:62,1,73.0799977697755,8|8,0:0|0:3,0:0:0:0:
236,196,168965,2,0,P|198:201|150:229,1,73.0799977697755,0|8,3:0|0:3,0:0:0:0:
44,336,169426,2,0,P|121:338|171:392,1,146.159995539551,8|0,0:0|3:0,0:0:0:0:
286,303,170118,1,8,0:3:0:0:
212,220,170349,2,0,P|198:252|200:314,1,73.0799977697755,8|8,0:0|0:3,0:0:0:0:
442,384,170811,6,0,B|409:301|477:326|433:217,1,146.159995539551,0|8,3:0|0:0,0:0:0:0:
316,150,171503,1,8,0:3:0:0:
442,63,171734,5,0,3:0:0:0:
438,82,171849,1,0,0:0:0:0:
434,104,171965,1,8,0:3:0:0:
431,125,172080,1,0,0:0:0:0:
386,189,172195,5,8,0:0:0:0:
347,215,172311,1,0,0:0:0:0:
303,205,172426,1,8,0:3:0:0:
275,175,172541,1,0,0:0:0:0:
237,110,172657,5,0,3:0:0:0:
213,114,172772,1,0,0:0:0:0:
190,120,172888,1,8,0:3:0:0:
169,124,173003,1,0,0:0:0:0:
102,169,173119,5,8,0:0:0:0:
66,213,173234,1,0,0:0:0:0:
77,273,173350,1,8,0:3:0:0:
127,309,173465,1,0,0:0:0:0:
196,359,173580,5,0,3:0:0:0:
207,321,173695,1,0,0:0:0:0:
215,286,173811,1,8,0:3:0:0:
223,252,173926,1,0,0:0:0:0:
231,217,174041,6,0,L|188:204,1,36.5399988848877,8|0,0:0|0:0,0:0:0:0:
196,359,174272,6,0,B|283:382|310:301|310:301|333:209|412:193|466:227|488:270|482:331|409:360|359:340|329:304,1,511.559984388428,4|8,3:2|0:0,0:0:0:0:
399,143,176118,6,0,P|389:183|383:243,1,73.0799977697755,4|0,3:2|0:0,0:0:0:0:
193,85,176580,1,8,0:0:0:0:
271,0,176811,5,8,0:3:0:0:
323,41,176926,1,12,0:3:0:0:
306,105,177041,6,0,B|247:89|264:65|195:51,1,109.619996654663,4|0,3:2|0:0,0:0:0:0:
67,132,177503,2,0,L|114:120,1,36.5399988848877,0|0,3:0|0:0,0:0:0:0:
14,220,177734,2,0,L|59:244,1,36.5399988848877,8|0,0:3|0:0,0:0:0:0:
183,383,177965,6,0,L|155:225,1,146.159995539551,8|8,3:0|3:0,0:0:0:0:
52,368,178657,1,0,0:0:0:0:
296,152,178888,6,0,L|281:307,1,146.159995539551,8|0,3:0|3:0,0:0:0:0:
437,154,179580,1,8,0:0:0:0:
220,31,179811,1,8,0:0:0:0:
370,365,180041,5,4,0:0:0:0:
508,69,182118,6,0,L|402:47,1,73.0799977697755,8|0,3:0|0:0,0:0:0:0:
415,76,182465,6,0,L|486:91,1,73.0799977697755,8|0,3:0|0:0,0:0:0:0:
258,154,182811,6,0,B|243:178|215:181|192:146|213:99|278:102|308:168|379:171,1,227.070001905647,8|8,0:3|0:3,0:0:0:0:
451,347,183272,5,12,0:3:0:0:
491,284,183388,1,4,0:3:0:0:
427,243,183503,2,0,P|395:246|364:263,1,66.9899986711579,8|0,0:0|0:0,0:0:0:0:
121,204,183734,5,8,0:3:0:0:
41,253,183849,5,12,0:3:0:0:
38,334,183965,5,4,0:3:0:0:
80,369,184080,5,0,3:0:0:0:
100,362,184195,6,0,B|102:320|87:298|99:293|90:270|94:266|87:239|94:226|82:211|79:188|80:127,1,200.969996013474,4|8,0:0|0:0,0:0:0:0:
222,29,184657,6,0,P|249:15|296:7,1,66.9899986711579,0|8,3:0|0:0,0:0:0:0:
192,124,184888,2,0,P|227:128|273:144,1,66.9899986711579,0|0,3:0|0:0,0:0:0:0:
91,145,185118,2,0,P|98:181|104:236,1,66.9899986711579,8|0,0:0|0:0,0:0:0:0:
282,323,185349,6,0,P|383:312|471:397,1,200.969996013474,4|8,3:2|0:0,0:0:0:0:
345,276,185811,2,0,P|357:246|363:202,1,66.9899986711579,8|0,0:3|0:0,0:0:0:0:
444,75,186041,2,0,P|450:112|465:159,1,66.9899986711579,8|0,0:0|0:0,0:0:0:0:
214,77,186272,5,2,0:3:0:0:
274,26,186388,1,0,0:0:0:0:
355,134,186503,5,0,3:0:0:0:
287,101,186618,1,8,0:0:0:0:
197,217,186734,6,0,P|225:202|264:195,1,66.9899986711579,8|8,0:0|0:0,0:0:0:0:
98,62,186965,2,0,P|91:97|73:144,1,66.9899986711579,8|8,0:0|0:0,0:0:0:0:
284,23,187195,2,0,P|249:14|209:-7,1,66.9899986711579,0|0,3:0|0:0,0:0:0:0:
42,244,187426,6,0,P|104:200|214:232,1,174.869991728257,4|0,3:2|0:0,0:0:0:0:
307,362,187888,2,0,B|208:377|236:290|116:317,1,174.869991728257,8|8,0:0|0:0,0:0:0:0:
56,384,188349,2,0,P|66:356|73:313,1,58.2899972427522,0|8,3:0|0:0,0:0:0:0:
188,159,188580,2,0,P|191:189|200:231,1,58.2899972427522,8|0,0:3|0:0,0:0:0:0:
0,147,188811,2,0,P|57:136|121:102,1,116.579994485504,8|8,0:0|0:3,0:0:0:0:
168,150,189157,1,0,0:0:0:0:
274,37,189272,6,0,P|303:38|342:56,1,58.2899972427522,0|8,3:0|0:0,0:0:0:0:
477,110,189503,2,0,P|443:116|413:130,1,58.2899972427522,8|0,0:3|0:0,0:0:0:0:
317,229,189734,2,0,P|314:196|304:163,1,58.2899972427522,8|0,0:0|0:0,0:0:0:0:
512,352,189965,5,8,0:3:0:0:
442,377,190080,1,8,0:0:0:0:
390,325,190195,2,0,P|395:296|406:261,1,58.2899972427522,0|8,3:0|0:0,0:0:0:0:
278,384,190426,2,0,P|275:354|265:316,1,58.2899972427522
91,213,190657,2,0,L|218:240,1,116.579994485504,8|8,0:0|0:3,0:0:0:0:
57,322,191003,1,8,0:0:0:0:
151,373,191118,6,0,L|138:299,1,58.2899972427522,0|8,3:0|0:0,0:0:0:0:
0,237,191349,2,0,L|16:167,1,58.2899972427522,8|0,0:3|0:0,0:0:0:0:
191,78,191580,1,8,0:0:0:0:
191,78,191811,6,0,L|124:64,1,58.2899972427522,8|8,0:3|0:0,0:0:0:0:
261,223,192041,2,0,L|189:241,1,58.2899972427522,0|8,3:0|0:0,0:0:0:0:
360,70,192272,1,8,0:3:0:0:
360,70,192503,6,0,L|376:132,1,58.2899972427522,8|0,0:0|0:0,0:0:0:0:
483,305,192734,1,0,0:0:0:0:
467,318,192849,1,8,0:0:0:0:
460,340,192965,5,0,3:0:0:0:
399,358,193080,1,8,0:0:0:0:
346,327,193195,1,8,0:3:0:0:
328,263,193311,1,8,0:0:0:0:
398,200,193426,5,10,0:0:0:0:
384,263,193541,1,8,0:3:0:0:
339,307,193657,1,12,0:3:0:0:
277,296,193772,1,0,0:0:0:0:
205,335,193888,5,8,0:0:0:0:
205,335,194349,6,0,P|160:273|62:292,1,174.869991728257,8|0,0:0|0:0,0:0:0:0:
31,349,194811,6,0,P|52:273|57:146,1,174.869991728257,4|0,3:2|0:0,0:0:0:0:
202,65,195272,2,0,P|258:57|321:39,1,116.579994485504,8|8,0:0|0:3,0:0:0:0:
166,158,195618,1,8,0:0:0:0:
214,216,195734,2,0,P|244:223|282:240,1,58.2899972427522,0|8,3:0|0:0,0:0:0:0:
375,156,195965,2,0,P|404:153|447:138,1,58.2899972427522,8|0,0:3|0:0,0:0:0:0:
209,240,196195,2,0,P|265:255|334:306,1,116.579994485504,8|8,0:0|0:3,0:0:0:0:
486,384,196657,6,0,P|475:355|468:311,1,58.2899972427522,0|8,3:0|0:0,0:0:0:0:
328,252,196888,2,0,P|325:284|314:322,1,58.2899972427522,2|0,0:3|0:0,0:0:0:0:
480,204,197118,2,0,P|451:217|410:222,1,58.2899972427522,8|0,0:0|0:0,0:0:0:0:
280,374,197349,1,2,0:3:0:0:
218,327,197465,1,8,0:0:0:0:
150,361,197580,2,0,P|123:357|87:343,1,58.2899972427522,0|8,3:0|0:0,0:0:0:0:
196,170,197811,2,0,P|209:196|219:244,1,58.2899972427522,8|0,0:3|0:0,0:0:0:0:
0,152,198041,6,0,P|14:126|31:73,1,58.2899972427522,8|0,0:0|0:0,0:0:0:0:
105,264,198272,2,0,P|73:271|38:287,1,58.2899972427522,10|0,0:0|0:0,0:0:0:0:
146,106,198503,2,0,P|172:122|207:134,1,58.2899972427522,0|8,3:0|0:0,0:0:0:0:
300,253,198734,6,0,P|353:224|448:236,1,116.579994485504,2|8,0:3|0:0,0:0:0:0:
320,122,199080,1,0,0:0:0:0:
424,71,199195,2,0,P|411:102|407:138,1,58.2899972427522,8|8,0:3|0:0,0:0:0:0:
273,285,199426,2,0,P|271:255|259:212,1,58.2899972427522,0|8,3:0|0:0,0:0:0:0:
455,317,199657,2,0,P|421:321|388:334,1,58.2899972427522,8|0,0:3|0:0,0:0:0:0:
270,142,199888,2,0,P|298:154|337:160,1,58.2899972427522,8|0,0:0|0:0,0:0:0:0:
127,354,200118,5,8,0:3:0:0:
79,296,200234,1,8,0:0:0:0:
130,239,200349,6,0,L|142:171,1,58.2899972427522,0|8,3:0|0:0,0:0:0:0:
44,104,200580,2,0,L|36:34,1,58.2899972427522,8|0,0:3|0:0,0:0:0:0:
0,202,200811,6,0,P|27:191|65:186,1,58.2899972427522,8|0,0:0|0:0,0:0:0:0:
215,90,201041,2,0,P|244:102|281:107,1,58.2899972427522,2|8,0:3|0:0,0:0:0:0:
420,256,201272,1,0,3:0:0:0:
459,191,201388,1,8,0:0:0:0:
423,126,201503,2,0,L|348:150,1,58.2899972427522,8|0,0:3|0:0,0:0:0:0:
212,315,201734,2,0,L|279:337,1,58.2899972427522,8|0,0:0|0:0,0:0:0:0:
105,132,201965,5,8,0:0:0:0:
67,199,202080,1,8,0:0:0:0:
103,267,202195,6,0,B|198:246|136:194|264:150,1,174.869991728257,4|0,3:2|0:0,0:0:0:0:
361,43,202657,2,0,L|233:14,1,116.579994485504,8|2,0:0|0:3,0:0:0:0:
188,57,203003,1,8,0:0:0:0:
332,243,203118,1,0,3:0:0:0:
379,180,203234,1,8,0:0:0:0:
322,133,203349,2,0,L|254:154,1,58.2899972427522,8|0,0:3|0:0,0:0:0:0:
103,267,203580,2,0,B|147:281|147:281|169:305|169:305|226:322,1,116.579994485504,8|8,0:0|0:3,0:0:0:0:
258,369,203926,1,0,0:0:0:0:
378,316,204041,6,0,L|358:252,1,58.2899972427522,0|8,3:0|0:0,0:0:0:0:
479,158,204272,2,0,L|463:221,1,58.2899972427522,8|0,0:3|0:0,0:0:0:0:
300,94,204503,2,0,L|380:118,1,58.2899972427522,8|0,0:0|0:0,0:0:0:0:
218,195,204734,5,8,0:3:0:0:
150,165,204849,1,8,0:0:0:0:
97,226,204965,2,0,L|111:285,1,58.2899972427522,0|8,3:0|0:0,0:0:0:0:
0,125,205195,2,0,L|20:58,1,58.2899972427522,10|0,0:3|0:0,0:0:0:0:
224,66,205426,6,0,L|158:94,1,58.2899972427522,8|0,0:0|0:0,0:0:0:0:
51,0,205657,2,0,L|114:17,1,58.2899972427522,8|8,0:3|0:0,0:0:0:0:
291,172,205888,6,0,P|282:203|279:237,1,58.2899972427522,0|0,3:0|0:0,0:0:0:0:
110,282,206118,2,0,P|109:252|95:214,1,58.2899972427522,8|0,0:3|0:0,0:0:0:0:
280,329,206349,2,0,P|247:337|217:352,1,58.2899972427522,8|0,0:0|0:0,0:0:0:0:
353,138,206580,5,2,0:3:0:0:
406,191,206695,1,8,0:0:0:0:
384,262,206811,2,0,P|352:258|310:242,1,58.2899972427522,2|8,3:0|0:0,0:0:0:0:
225,360,207041,2,0,P|255:353|290:337,1,58.2899972427522,8|0,0:3|0:0,0:0:0:0:
144,155,207272,2,0,L|124:235,1,58.2899972427522,8|0,0:0|0:0,0:0:0:0:
325,128,207503,1,0,0:0:0:0:
294,62,207618,1,8,0:0:0:0:
223,82,207734,5,0,3:0:0:0:
413,9,207965,1,4,3:2:0:0:
427,216,208195,5,8,0:0:0:0:
354,195,208311,1,4,0:3:0:0:
325,128,208426,1,0,3:0:0:0:
368,70,208541,1,8,3:0:0:0:
424,124,208657,5,2,0:3:0:0:
361,158,208772,1,8,0:0:0:0:
292,145,208888,1,0,3:0:0:0:
246,90,209003,1,0,0:0:0:0:
160,102,209118,5,8,0:0:0:0:
129,71,209234,1,8,0:3:0:0:
77,64,209349,1,4,0:3:0:0:
37,82,209465,1,0,3:0:0:0:
24,100,209580,6,0,L|51:218,1,116.579994485504,8|8,0:0|0:0,0:0:0:0:
50,213,210503,2,0,L|24:100,1,116.579994485504,8|8,0:0|0:0,0:0:0:0:
214,332,211195,5,0,0:0:0:0:
280,300,211311,1,0,0:0:0:0:
202,303,211426,6,0,P|231:309|271:325,1,53.9399978600465,4|0,3:2|0:0,0:0:0:0:
364,239,211657,1,0,0:0:0:0:
429,269,211772,1,0,0:0:0:0:
488,221,211888,2,0,L|467:109,1,107.879995720093,8|2,0:1|0:3,0:0:0:0:
326,45,212234,1,0,3:0:0:0:
407,0,212349,6,0,L|395:59,1,53.9399978600465,0|8,0:0|0:0,0:0:0:0:
274,156,212580,2,0,L|259:97,1,53.9399978600465,0|0,3:0|0:0,0:0:0:0:
144,0,212811,2,0,L|128:59,1,53.9399978600465,8|0,0:1|0:0,0:0:0:0:
15,193,213041,2,0,L|4:132,1,53.9399978600465,8|0,0:3|0:0,0:0:0:0:
230,311,213272,5,0,3:0:0:0:
167,336,213388,1,8,0:0:0:0:
103,303,213503,1,8,0:3:0:0:
93,239,213618,1,0,0:0:0:0:
101,226,213734,6,0,L|158:206,1,53.9399978600465,8|0,0:1|0:0,0:0:0:0:
309,332,213965,1,8,0:3:0:0:
386,275,214080,2,0,L|321:256,1,53.9399978600465,0|0,3:0|0:0,0:0:0:0:
127,137,214311,2,0,L|186:120,1,53.9399978600465,8|0,0:0|3:0,0:0:0:0:
365,30,214541,1,0,0:0:0:0:
297,0,214657,2,0,P|274:56|282:139,1,107.879995720093,8|8,0:0|0:3,0:0:0:0:
242,169,215003,1,0,0:0:0:0:
432,152,215118,6,0,P|408:138|369:134,1,53.9399978600465,0|8,3:0|0:0,0:0:0:0:
196,266,215349,2,0,P|170:282|133:288,1,53.9399978600465,8|0,0:3|0:0,0:0:0:0:
361,261,215580,6,0,P|389:311|395:376,1,107.879995720093,8|8,0:1|0:3,0:0:0:0:
196,266,215926,1,0,3:0:0:0:
145,208,216041,2,0,P|147:180|159:142,1,53.9399978600465,0|8,0:0|0:0,0:0:0:0:
28,331,216272,2,0,P|24:302|13:267,1,53.9399978600465,8|0,3:0|0:0,0:0:0:0:
196,347,216503,6,0,P|167:355|140:369,1,53.9399978600465,8|0,0:1|0:0,0:0:0:0:
12,189,216734,2,0,P|34:201|64:209,1,53.9399978600465,10|8,0:3|0:0,0:0:0:0:
273,126,216965,5,2,3:2:0:0:
248,60,217080,1,10,0:0:0:0:
180,24,217195,1,2,0:0:0:0:
110,48,217311,1,2,0:0:0:0:
101,60,217426,6,0,L|114:136,1,53.9399978600465,8|2,0:0|0:0,0:0:0:0:
221,255,217657,2,0,L|231:178,1,53.9399978600465,6|10,0:0|0:0,0:0:0:0:
398,27,217888,5,2,0:0:0:0:
411,51,218003,1,8,0:0:0:0:
363,113,218118,5,4,0:3:0:0:
357,136,218234,1,8,0:0:0:0:
430,186,218349,5,8,0:0:0:0:
477,230,218465,1,8,0:3:0:0:
491,294,218580,1,12,0:3:0:0:
452,344,218695,1,4,0:3:0:0:
434,363,218811,6,0,P|409:355|378:350,1,53.9399978600465,4|0,3:2|0:0,0:0:0:0:
262,259,219041,1,0,0:0:0:0:
192,279,219157,1,0,0:0:0:0:
132,232,219272,2,0,P|81:254|22:262,1,107.879995720093,8|8,0:1|0:3,0:0:0:0:
158,350,219618,1,0,3:0:0:0:
74,384,219734,2,0,P|81:360|86:314,1,53.9399978600465,0|8,0:0|0:0,0:0:0:0:
203,204,219965,2,0,P|196:176|192:130,1,53.9399978600465,8|0,3:0|0:0,0:0:0:0:
42,70,220195,5,8,0:1:0:0:
72,59,220311,1,0,0:0:0:0:
145,9,220426,5,8,0:3:0:0:
180,19,220541,1,0,0:0:0:0:
256,92,220657,5,0,3:0:0:0:
314,127,220772,1,8,0:0:0:0:
380,102,220888,1,8,0:3:0:0:
402,36,221003,1,0,0:0:0:0:
390,18,221118,6,0,L|323:-4,1,53.9399978600465,8|0,0:1|0:0,0:0:0:0:
485,114,221349,1,10,0:3:0:0:
443,180,221465,2,0,L|384:191,1,53.9399978600465,0|0,3:0|0:0,0:0:0:0:
342,248,221695,2,0,L|273:234,1,53.9399978600465,8|8,0:0|3:0,0:0:0:0:
460,259,221926,1,0,0:0:0:0:
512,326,222041,2,0,L|406:350,1,107.879995720093,8|8,0:0|0:3,0:0:0:0:
342,384,222388,1,0,0:0:0:0:
160,303,222503,5,0,3:0:0:0:
125,256,222618,1,8,0:0:0:0:
135,194,222734,1,8,0:3:0:0:
184,155,222849,1,0,0:0:0:0:
202,152,222965,6,0,L|266:167,1,53.9399978600465,8|0,0:0|0:0,0:0:0:0:
144,16,223195,1,8,0:3:0:0:
89,70,223311,1,0,0:3:0:0:
17,57,223426,2,0,L|0:-2,1,53.9399978600465,0|8,0:0|0:0,0:0:0:0:
196,102,223657,2,0,L|183:158,1,53.9399978600465,8|0,0:3|0:0,0:0:0:0:
0,255,223888,6,0,P|41:223|108:232,1,107.879995720093,8|2,0:0|0:3,0:0:0:0:
169,208,224234,1,0,3:0:0:0:
282,367,224349,5,0,3:0:0:0:
229,323,224465,1,8,0:3:0:0:
236,250,224580,1,12,0:3:0:0:
297,207,224695,1,4,0:3:0:0:
316,205,224811,6,0,L|436:233,1,107.879995720093,12|0,0:0|0:0,0:0:0:0:
358,301,225157,1,0,0:0:0:0:
477,338,225272,2,0,L|416:352,1,53.9399978600465,8|0,0:0|0:0,0:0:0:0:
382,195,225503,2,0,L|445:211,1,53.9399978600465
190,269,225734,5,10,0:0:0:0:
122,186,225849,5,8,0:0:0:0:
174,100,225965,6,0,L|182:-13,1,107.879995720093,10|0,3:0|0:0,0:0:0:0:
