osu file format v14

[General]
AudioFilename: audio.mp3
AudioLeadIn: 0
PreviewTime: 52070
Countdown: 0
SampleSet: Soft
StackLeniency: 0.7
Mode: 0
LetterboxInBreaks: 0
WidescreenStoryboard: 1

[Editor]
DistanceSpacing: 1.1
BeatDivisor: 2
GridSize: 4
TimelineZoom: 1

[Metadata]
Title:Seishun nante Iranaiwa
TitleUnicode:青春なんていらないわ
Artist:Sangatsu no Phantasia
ArtistUnicode:三月のパンタシア
Creator:Ryuusei Aika
Version:Shiny Braixen's Normal
Source:
Tags:Shiny Braixen Kowari iljaaz ナブナ n-buna nbuna みあ Mia ガールズブルー ガールズブルー・ハッピーサッド Girl's Blue Happy Sad
BeatmapID:2229112
BeatmapSetID:1064632

[Difficulty]
HPDrainRate:3
CircleSize:3.5
OverallDifficulty:4
ApproachRate:5
SliderMultiplier:1
SliderTickRate:1

[Events]
//Background and Video events
0,0,"BG.jpg",0,0
//Break Periods
2,84241,97611
2,159934,165918
2,180250,180908
//Storyboard Layer 0 (Background)
//Storyboard Layer 1 (Fail)
//Storyboard Layer 2 (Pass)
//Storyboard Layer 3 (Foreground)
//Storyboard Layer 4 (Overlay)
//Storyboard Sound Samples

[TimingPoints]
965,461.538461538462,4,2,1,40,1,0
965,-105.263157894737,4,2,1,40,0,0
6272,-105.263157894737,4,2,1,60,0,0
8349,-100,4,2,1,70,0,0
23118,-105.263157894737,4,2,1,40,0,0
36503,-105.263157894737,4,2,1,40,0,0
36965,-105.263157894737,4,2,1,50,0,0
37888,-100,4,2,1,60,0,1
37916,-100,4,2,1,60,0,0
50118,-100,4,2,0,60,0,0
50234,-100,4,2,1,60,0,0
51041,-100,4,2,1,70,0,0
52657,-95.2380952380952,4,2,1,80,0,1
66503,-95.2380952380952,4,2,1,70,0,0
67426,-95.2380952380952,4,2,1,80,0,1
80349,-95.2380952380952,4,2,0,80,0,1
80811,-95.2380952380952,4,2,1,80,0,1
81849,-95.2380952380952,4,2,0,80,0,1
81965,-95.2380952380952,4,2,1,80,0,1
82195,-95.2380952380952,4,2,1,80,0,0
83811,-95.2380952380952,4,2,1,70,0,0
84041,-95.2380952380952,4,2,1,70,0,0
91195,-95.2380952380952,4,2,0,70,0,0
91426,-95.2380952380952,4,2,1,70,0,0
96618,-95.2380952380952,4,2,0,70,0,0
96849,-95.2380952380952,4,2,1,70,0,0
98465,-95.2380952380952,4,2,0,70,0,0
98696,-95.2380952380952,4,2,1,70,0,0
98811,-105.263157894737,4,2,1,40,0,0
111965,-105.263157894737,4,2,0,40,0,0
112195,-105.263157894737,4,2,1,50,0,0
113003,-105.263157894737,4,2,0,50,0,0
113118,-105.263157894737,4,2,1,50,0,0
113580,-100,4,2,1,60,0,1
113609,-100,4,2,1,60,0,0
125811,-100,4,2,0,60,0,0
125926,-100,4,2,1,60,0,0
126157,-100,4,2,0,60,0,0
126503,-100,4,2,1,60,0,0
126734,-100,4,2,1,70,0,0
128349,-95.2380952380952,4,2,1,80,0,1
141503,-95.2380952380952,4,2,0,70,0,1
142195,-95.2380952380952,4,2,1,70,0,0
143118,-95.2380952380952,4,2,1,80,0,1
156041,-95.2380952380952,4,2,0,80,0,1
156503,-95.2380952380952,4,2,1,80,0,1
157541,-95.2380952380952,4,2,0,80,0,1
157657,-95.2380952380952,4,2,1,80,0,1
157888,-95.2380952380952,4,2,1,80,0,0
159734,-95.2380952380952,4,2,1,50,0,0
159849,-95.2380952380952,4,2,1,40,0,0
167118,-105.263157894737,4,2,1,45,0,0
176811,-105.263157894737,4,2,0,45,0,0
177041,-105.263157894737,4,2,1,50,0,0
177734,-105.263157894737,4,2,0,50,0,0
177965,-105.263157894737,4,2,1,50,0,0
179579,-105.263157894737,4,2,1,60,0,0
179580,-105.263157894737,4,2,1,60,0,0
180041,-105.263157894737,4,2,1,80,0,0
182811,-105.263157894737,4,2,0,80,0,0
182926,-105.263157894737,4,2,1,80,0,0
183157,-105.263157894737,4,2,0,50,0,0
183503,-105.263157894737,4,2,1,80,0,0
183734,-105.263157894737,4,2,0,60,0,0
184080,-105.263157894737,4,2,1,60,0,0
184195,-105.263157894737,4,2,1,80,0,1
184224,-105.263157894737,4,2,1,80,0,0
187426,-95.2380952380952,4,2,1,80,0,1
193195,-95.2380952380952,4,2,0,80,0,1
193311,-95.2380952380952,4,2,1,80,0,1
193541,-95.2380952380952,4,2,0,80,0,1
193888,-95.2380952380952,4,2,1,70,0,0
194811,-95.2380952380952,4,2,1,80,0,1
201503,-95.2380952380952,4,2,0,80,0,1
201734,-95.2380952380952,4,2,1,80,0,1
208311,-95.2380952380952,4,2,0,80,0,1
208426,-95.2380952380952,4,2,1,80,0,1
209234,-95.2380952380952,4,2,0,80,0,1
209465,-95.2380952380952,4,2,1,80,0,1
209580,-95.2380952380952,4,2,1,80,0,0
211426,-100,4,2,1,70,0,0
218118,-100,4,2,0,70,0,0
218234,-100,4,2,1,70,0,0
218465,-100,4,2,0,70,0,0
218811,-100,4,2,1,75,0,0
224465,-100,4,2,0,75,0,0
224811,-100,4,2,1,75,0,0

[Colours]
Combo1 : 255,255,0
Combo2 : 255,128,255
Combo3 : 0,255,255
Combo4 : 128,255,0

[HitObjects]
66,321,965,6,0,P|103:335|159:321,1,94.9999974632264,0|0,3:0|3:0,0:0:0:0:
233,252,1888,2,0,P|259:239|324:255,1,94.9999974632264,0|0,3:0|3:0,0:0:0:0:
343,299,2580,1,0,0:0:0:0:
343,299,2811,2,0,P|394:301|438:274,2,94.9999974632264,0|0|0,3:0|3:0|3:0,0:0:0:0:
269,224,4195,1,0,3:0:0:0:
316,130,4657,6,0,B|321:83|321:83|309:33,1,94.9999974632264,0|0,3:0|3:0,0:0:0:0:
208,10,5580,2,0,B|161:5|161:5|109:16,1,94.9999974632264,0|0,3:0|3:0,0:0:0:0:
78,53,6272,2,0,L|75:156,1,94.9999974632264,12|0,0:0|3:0,0:0:0:0:
107,189,6965,2,0,L|106:240,1,47.4999987316132,8|0,0:0|0:0,0:0:0:0:
67,271,7426,1,8,0:0:0:0:
171,276,7888,1,8,0:0:0:0:
231,184,8349,5,4,3:2:0:0:
319,118,8811,2,0,B|323:78|323:78|315:14,1,100,8|0,0:1|0:0,0:0:0:0:
205,27,9734,1,8,0:1:0:0:
163,63,9965,1,8,0:3:0:0:
108,69,10195,2,0,P|60:55|29:6,2,100,0|8|0,3:0|0:1|0:0,0:0:0:0:
210,110,11580,2,0,P|213:150|206:173,1,50,10|8,0:0|0:0,0:0:0:0:
187,209,12041,6,0,P|255:194|301:207,1,100,0|8,3:0|0:1,0:0:0:0:
383,247,12965,1,0,0:0:0:0:
461,170,13426,2,0,P|468:130|463:114,1,50,8|2,0:1|0:3,0:0:0:0:
425,84,13888,2,0,B|388:79|388:79|363:86|363:86|315:77,1,100,2|8,3:2|0:0,0:0:0:0:
225,123,14811,2,0,L|174:112,1,50,2|0,0:0|3:0,0:0:0:0:
137,72,15272,2,0,P|93:84|75:92,1,50,8|8,0:0|0:0,0:0:0:0:
51,126,15734,5,4,0:0:0:0:
49,235,16195,2,0,B|96:264|96:264|157:270,1,100,8|0,0:1|0:0,0:0:0:0:
246,237,17118,1,8,0:1:0:0:
301,235,17349,1,2,0:3:0:0:
342,271,17580,2,0,P|388:293|444:282,2,100,0|8|0,3:0|0:1|0:0,0:0:0:0:
351,161,18965,2,0,P|353:125|341:90,1,50,10|8,0:0|0:0,0:0:0:0:
297,94,19426,6,0,B|345:95|345:95|399:72,1,100,0|8,3:0|0:1,0:0:0:0:
482,10,20349,1,0,0:0:0:0:
442,112,20811,2,0,L|451:169,1,50,8|8,0:1|0:3,0:0:0:0:
464,214,21272,2,0,B|410:223|410:223|355:246,1,100,2|12,3:2|0:0,0:0:0:0:
291,318,22195,2,0,L|224:319,1,50,2|8,0:0|3:0,0:0:0:0:
210,279,22657,2,0,B|144:289,1,50,8|0,0:0|3:0,0:0:0:0:
127,325,23118,6,0,L|121:230,1,94.9999974632264,4|0,3:2|3:0,0:0:0:0:
221,202,24041,2,0,L|211:104,1,94.9999974632264,0|0,3:0|3:0,0:0:0:0:
229,58,24734,1,2,0:3:0:0:
229,58,24965,2,0,B|195:59|195:59|175:67|175:67|131:65,2,94.9999974632264,0|0|0,3:0|3:0|3:0,0:0:0:0:
328,26,26349,1,0,3:0:0:0:
384,114,26811,6,0,P|407:93|429:25,1,94.9999974632264,0|0,3:0|3:0,0:0:0:0:
506,104,27734,2,0,L|513:207,1,94.9999974632264,0|0,3:0|3:0,0:0:0:0:
463,216,28426,1,2,0:3:0:0:
463,216,28657,2,0,L|469:317,1,94.9999974632264,0|0,3:0|3:0,0:0:0:0:
364,297,29580,2,0,L|313:303,1,47.4999987316132,0|8,3:0|0:3,0:0:0:0:
287,345,30041,2,0,L|235:348,1,47.4999987316132,0|8,3:0|0:3,0:0:0:0:
205,307,30503,6,0,B|199:263|199:263|207:210,1,94.9999974632264,0|0,3:0|3:0,0:0:0:0:
311,211,31426,2,0,B|316:175|316:175|307:117,1,94.9999974632264,0|0,3:0|3:0,0:0:0:0:
332,71,32118,1,2,0:3:0:0:
332,71,32349,2,0,P|386:60|436:76,2,94.9999974632264,0|0|0,3:0|3:0|3:0,0:0:0:0:
248,133,33734,1,0,3:0:0:0:
162,73,34195,6,0,B|106:49|106:49|63:52,1,94.9999974632264,0|0,3:0|3:0,0:0:0:0:
32,148,35118,2,0,P|11:197|22:243,1,94.9999974632264,0|0,3:0|3:0,0:0:0:0:
68,252,35811,1,8,0:3:0:0:
68,252,36041,2,0,B|68:284|68:284|67:317,1,47.4999987316132,0|0,3:0|0:0,0:0:0:0:
32,338,36503,1,8,0:0:0:0:
132,368,36965,2,0,B|161:372|161:372|190:366,1,47.4999987316132,12|0,0:0|0:0,0:0:0:0:
209,326,37426,2,0,B|225:322|225:322|255:326,1,47.4999987316132,0|8,3:0|0:0,0:0:0:0:
310,316,37888,6,0,L|306:203,1,100,4|8,3:2|0:0,0:0:0:0:
388,142,38811,1,2,0:3:0:0:
486,191,39272,2,0,L|483:125,1,50,8|0,0:0|0:0,0:0:0:0:
460,90,39734,1,0,3:0:0:0:
353,117,40195,1,8,0:0:0:0:
281,31,40657,1,2,0:3:0:0:
226,22,40888,1,0,3:0:0:0:
177,48,41118,2,0,P|142:52|115:40,1,50,8|8,0:0|0:3,0:0:0:0:
87,11,41580,6,0,P|67:54|72:114,1,100,0|8,3:0|0:0,0:0:0:0:
167,156,42503,2,0,P|169:205|149:250,1,100,2|8,0:3|0:0,0:0:0:0:
111,291,43195,1,0,0:0:0:0:
137,339,43426,2,0,B|188:343|188:343|248:374,1,100,0|8,3:0|0:0,0:0:0:0:
333,324,44349,1,2,0:3:0:0:
441,345,44811,2,0,P|454:302|455:276,1,50,8|0,0:0|0:0,0:0:0:0:
416,249,45272,5,4,3:2:0:0:
483,161,45734,1,8,0:0:0:0:
468,50,46195,2,0,L|411:38,1,50,2|0,0:3|3:0,0:0:0:0:
367,20,46657,2,0,L|296:25,1,50,8|2,0:0|0:3,0:0:0:0:
274,57,47118,1,0,3:0:0:0:
170,20,47580,1,8,0:0:0:0:
75,76,48041,1,2,0:3:0:0:
165,139,48503,1,8,0:0:0:0:
161,249,48965,6,0,P|152:310|164:357,2,100,0|8|2,3:0|0:0|0:3,0:0:0:0:
179,197,50118,1,8,0:3:0:0:
191,143,50349,2,0,L|192:29,1,100,12|2,0:0|3:0,0:0:0:0:
239,14,51041,5,12,0:0:0:0:
239,14,51272,1,12,0:0:0:0:
343,58,51734,2,0,L|399:59,1,50,12|2,0:0|0:3,0:0:0:0:
427,101,52195,2,0,L|488:103,1,50,0|8,3:0|0:0,0:0:0:0:
499,49,52657,6,2,B|505:109|505:109|502:162,1,104.999996795654,4|8,3:2|0:0,0:2:0:0:
387,161,53580,2,0,B|381:221|381:221|384:274,1,104.999996795654,0|8,3:0|0:0,0:0:0:0:
460,351,54503,1,0,3:0:0:0:
405,369,54734,1,2,0:3:0:0:
352,345,54965,2,0,P|331:341|291:347,1,52.4999983978272,8|2,0:0|0:3,0:0:0:0:
248,369,55426,1,0,3:0:0:0:
289,260,55888,2,0,L|283:182,1,52.4999983978272,8|10,0:0|0:0,0:0:0:0:
263,166,56349,6,0,P|207:158|152:175,1,104.999996795654,0|8,3:0|0:0,0:0:0:0:
193,281,57272,1,0,3:0:0:0:
86,325,57734,1,8,0:0:0:0:
36,220,58195,2,0,P|35:174|61:109,2,104.999996795654,0|8|0,3:0|0:0|3:0,0:0:0:0:
81,257,59349,1,2,0:3:0:0:
138,250,59580,1,8,0:0:0:0:
186,282,59811,1,8,0:0:0:0:
228,243,60041,6,0,P|222:201|174:150,1,104.999996795654,4|8,3:2|0:0,0:0:0:0:
70,145,60965,2,0,P|99:83|149:51,1,104.999996795654,0|8,3:0|0:0,0:0:0:0:
240,79,61888,1,0,3:0:0:0:
292,101,62118,1,2,0:3:0:0:
348,87,62349,2,0,P|381:76|400:60,1,52.4999983978272,8|2,0:0|0:3,0:0:0:0:
425,16,62811,1,0,3:0:0:0:
486,113,63272,2,0,P|490:155|510:184,1,52.4999983978272,8|2,0:0|0:3,0:0:0:0:
506,220,63734,6,0,B|465:233|465:233|412:278,1,104.999996795654,0|8,3:0|0:0,0:0:0:0:
344,362,64657,2,0,B|309:372|309:372|284:370,1,52.4999983978272,0|2,3:0|0:3,0:0:0:0:
272,316,65118,2,0,B|255:314|255:314|220:324,1,52.4999983978272,8|0,0:0|0:0,0:0:0:0:
171,353,65580,2,0,B|159:288|159:288|164:238,2,104.999996795654,0|8|8,3:0|0:0|0:0,0:0:0:0:
73,290,66965,1,8,0:0:0:0:
120,184,67426,6,0,L|120:78,1,104.999996795654,4|8,3:2|0:0,0:0:0:0:
228,111,68349,2,0,L|228:5,1,104.999996795654,0|8,3:0|0:0,0:0:0:0:
332,54,69272,1,0,3:0:0:0:
345,110,69503,1,2,0:3:0:0:
315,159,69734,2,0,L|322:219,1,52.4999983978272,8|0,0:0|0:0,0:0:0:0:
364,249,70195,1,0,3:0:0:0:
256,291,70657,2,0,P|216:302|184:329,1,52.4999983978272,8|10,0:0|0:0,0:0:0:0:
168,351,71118,6,0,B|114:374|114:374|55:372,1,104.999996795654,0|8,3:0|0:0,0:0:0:0:
30,261,72041,1,0,3:0:0:0:
114,182,72503,1,8,0:0:0:0:
80,71,72965,2,0,P|36:87|5:138,2,104.999996795654,0|8|0,3:0|0:0|3:0,0:0:0:0:
135,82,74118,1,2,0:3:0:0:
192,76,74349,1,8,0:0:0:0:
236,38,74580,1,8,0:0:0:0:
273,8,74811,6,0,L|272:126,1,104.999996795654,4|8,3:2|0:0,0:0:0:0:
387,103,75734,2,0,L|386:221,1,104.999996795654,0|8,3:0|0:0,0:0:0:0:
461,295,76657,1,0,3:0:0:0:
408,319,76888,1,2,0:3:0:0:
351,306,77118,2,0,B|326:306|326:306|278:321,1,52.4999983978272,8|2,0:0|0:3,0:0:0:0:
248,340,77580,1,0,3:0:0:0:
207,232,78041,2,0,P|204:178|228:136,1,52.4999983978272,8|2,0:0|0:3,0:0:0:0:
244,139,78503,6,0,P|198:133|136:156,1,104.999996795654,0|8,3:0|0:0,0:0:0:0:
44,210,79426,2,0,P|38:173|46:138,1,52.4999983978272,2|8,3:0|0:3,0:0:0:0:
19,104,79888,2,0,P|51:87|88:87,1,52.4999983978272,8|8,0:0|0:3,0:0:0:0:
120,106,80349,1,8,0:3:0:0:
174,87,80580,1,8,0:3:0:0:
224,115,80811,1,12,0:0:0:0:
288,210,81272,1,0,3:0:0:0:
387,150,81734,2,0,P|381:114|362:79,1,52.4999983978272,8|4,0:0|0:3,0:0:0:0:
331,61,82195,5,8,0:0:0:0:
331,61,82426,1,8,0:0:0:0:
194,168,83118,1,8,0:0:0:0:
194,168,83349,1,8,0:0:0:0:
60,58,84041,5,4,3:2:0:0:
435,58,98811,6,0,P|394:57|346:81,1,94.9999974632264,4|0,3:2|3:0,0:0:0:0:
297,172,99734,2,0,P|255:194|208:194,1,94.9999974632264,0|0,3:0|3:0,0:0:0:0:
176,152,100426,1,2,0:3:0:0:
176,152,100657,2,0,P|142:145|74:170,2,94.9999974632264,0|0|0,3:0|3:0|3:0,0:0:0:0:
262,210,102041,1,0,3:0:0:0:
340,141,102503,6,0,L|337:44,1,94.9999974632264,0|0,3:0|3:0,0:0:0:0:
240,6,103426,2,0,P|226:34|168:59,1,94.9999974632264,0|0,3:0|3:0,0:0:0:0:
123,35,104118,1,2,0:3:0:0:
123,35,104349,2,0,P|80:42|34:82,1,94.9999974632264,0|0,0:0|3:0,0:0:0:0:
109,151,105272,2,0,L|98:208,1,47.4999987316132,0|2,3:0|0:3,0:0:0:0:
57,228,105734,2,0,L|58:287,1,47.4999987316132,0|2,3:0|0:3,0:0:0:0:
46,326,106195,6,0,B|97:316|97:316|152:323,1,94.9999974632264,0|0,3:0|3:0,0:0:0:0:
232,369,107118,2,0,B|281:374|281:374|336:363,1,94.9999974632264,0|0,3:0|3:0,0:0:0:0:
351,319,107811,1,2,0:3:0:0:
351,319,108041,2,0,B|390:318|390:318|445:345,2,94.9999974632264,0|0|0,3:0|3:0|3:0,0:0:0:0:
252,354,109426,1,0,3:0:0:0:
191,269,109888,6,0,P|184:231|200:174,1,94.9999974632264,0|0,3:0|3:0,0:0:0:0:
159,80,110811,2,0,L|256:58,1,94.9999974632264,0|0,3:0|3:0,0:0:0:0:
290,94,111503,1,8,0:3:0:0:
290,94,111734,2,0,L|391:66,1,94.9999974632264,0|12,3:0|0:0,0:0:0:0:
473,18,112657,2,0,B|483:44|483:44|483:71,1,47.4999987316132,8|8,0:0|0:0,0:0:0:0:
446,101,113118,2,0,B|436:127|436:127|436:154,1,47.4999987316132,0|8,3:0|0:0,0:0:0:0:
460,196,113580,6,0,B|398:198|398:198|346:223,1,100,4|8,3:2|0:0,0:0:0:0:
277,145,114503,1,0,0:0:0:0:
185,206,114965,2,0,L|184:262,1,50,8|0,0:0|0:0,0:0:0:0:
195,309,115426,1,0,3:0:0:0:
88,336,115888,1,8,0:0:0:0:
36,240,116349,1,0,0:0:0:0:
25,190,116580,1,0,3:0:0:0:
54,149,116811,2,0,P|60:118|60:91,1,50,8|8,0:0|0:3,0:0:0:0:
33,51,117272,6,0,P|87:32|135:45,1,100,0|8,3:0|0:0,0:0:0:0:
210,112,118195,2,0,P|258:120|304:101,1,100,0|8,0:0|0:0,0:0:0:0:
349,68,118888,1,0,0:0:0:0:
400,87,119118,2,0,L|389:187,1,100,0|8,3:0|0:0,0:0:0:0:
285,223,120041,1,0,0:0:0:0:
309,330,120503,2,0,P|275:340|250:334,1,50,8|2,0:0|0:3,0:0:0:0:
212,312,120965,5,0,3:0:0:0:
129,239,121426,1,8,0:0:0:0:
28,284,121888,2,0,L|24:234,1,50,2|0,0:3|3:0,0:0:0:0:
0,184,122349,2,0,L|13:119,1,50,8|2,0:0|0:3,0:0:0:0:
43,91,122811,1,0,3:0:0:0:
131,25,123272,1,8,0:0:0:0:
219,89,123734,1,8,0:3:0:0:
147,172,124195,1,8,0:0:0:0:
214,258,124657,6,0,P|174:279|134:323,2,100,0|8|8,3:0|0:0|0:3,0:0:0:0:
268,262,125811,1,0,0:0:0:0:
310,227,126041,2,0,P|350:206|390:162,1,100,8|0,0:0|3:0,0:0:0:0:
380,115,126734,5,12,0:0:0:0:
380,115,126965,1,12,0:0:0:0:
463,43,127426,2,0,L|464:99,1,50,12|0,0:0|0:0,0:0:0:0:
497,137,127888,2,0,L|500:197,1,50,0|8,3:0|0:0,0:0:0:0:
506,244,128349,6,0,P|468:249|400:298,1,104.999996795654,4|8,3:2|0:0,0:0:0:0:
332,367,129272,2,0,P|281:356|233:310,1,104.999996795654,0|8,3:0|0:0,0:0:0:0:
157,242,130195,1,0,3:0:0:0:
105,268,130426,1,2,0:3:0:0:
80,320,130657,2,0,P|50:320|23:303,1,52.4999983978272,8|2,0:0|0:3,0:0:0:0:
16,253,131118,1,0,3:0:0:0:
57,145,131580,2,0,L|52:77,1,52.4999983978272,8|8,0:0|0:3,0:0:0:0:
47,35,132041,6,0,B|97:32|97:32|112:40|112:40|163:38,1,104.999996795654,0|8,3:0|0:0,0:0:0:0:
212,132,132965,1,0,3:0:0:0:
318,176,133426,1,8,0:0:0:0:
348,64,133888,2,0,P|408:53|473:90,2,104.999996795654,0|8|0,3:0|0:0|3:0,0:0:0:0:
298,93,135041,1,0,0:0:0:0:
244,72,135272,1,8,3:2:0:0:
188,88,135503,1,10,0:0:0:0:
131,60,135734,6,0,B|120:124|120:124|124:165,1,104.999996795654,4|8,3:2|0:0,0:0:0:0:
224,220,136657,2,0,B|226:274|226:274|211:332,1,104.999996795654,0|8,3:0|0:0,0:0:0:0:
98,355,137580,1,0,3:0:0:0:
41,366,137811,1,2,0:3:0:0:
6,319,138041,2,0,B|6:282|6:282|17:250,1,52.4999983978272,8|2,0:0|0:3,0:0:0:0:
65,247,138503,1,0,3:0:0:0:
32,135,138965,2,0,L|35:61,1,52.4999983978272,8|8,0:0|0:3,0:0:0:0:
82,50,139426,6,0,B|129:47|129:47|195:63,1,104.999996795654,0|8,3:0|0:0,0:0:0:0:
257,151,140349,2,0,L|322:150,1,52.4999983978272,0|2,3:0|0:3,0:0:0:0:
358,117,140811,2,0,L|432:136,1,52.4999983978272,8|0,0:0|0:0,0:0:0:0:
435,181,141272,2,0,P|393:195|341:242,2,104.999996795654,8|8|8,0:0|0:3|0:0,0:0:0:0:
428,65,142657,1,8,0:0:0:0:
317,27,143118,6,0,P|278:25|210:55,1,104.999996795654,4|8,3:2|0:0,0:0:0:0:
182,159,144041,2,0,P|144:140|100:78,1,104.999996795654,0|8,3:0|0:0,0:0:0:0:
26,7,144965,1,0,3:0:0:0:
8,61,145195,1,2,0:3:0:0:
22,116,145426,2,0,P|33:151|49:169,1,52.4999983978272,8|0,0:0|0:0,0:0:0:0:
96,184,145888,1,0,3:0:0:0:
201,136,146349,2,0,L|276:129,1,52.4999983978272,8|10,0:0|0:0,0:0:0:0:
298,94,146811,6,0,B|363:101|363:102|363:102|435:139,1,104.999996795654,0|8,3:0|0:0,0:0:0:0:
485,195,147734,1,0,3:0:0:0:
423,292,148195,1,8,0:0:0:0:
306,286,148657,2,0,P|274:317|250:378,2,104.999996795654,0|8|0,3:0|0:0|3:0,0:0:0:0:
354,255,149811,1,2,0:3:0:0:
373,200,150041,1,8,0:0:0:0:
352,145,150272,1,8,0:0:0:0:
301,117,150503,6,0,B|270:126|270:126|252:126|252:126|179:149,1,104.999996795654,4|8,3:2|0:0,0:0:0:0:
117,223,151426,2,0,B|148:232|148:232|166:232|166:232|239:255,1,104.999996795654,0|8,3:0|0:0,0:0:0:0:
317,308,152349,1,0,3:0:0:0:
370,330,152580,1,2,0:3:0:0:
427,320,152811,2,0,B|468:315|468:315|487:308,1,52.4999983978272,8|2,0:0|0:3,0:0:0:0:
505,262,153272,1,0,3:0:0:0:
467,151,153734,2,0,L|474:86,1,52.4999983978272,8|2,0:0|0:3,0:0:0:0:
494,45,154195,6,0,L|392:86,1,104.999996795654,0|8,3:0|0:0,0:0:0:0:
328,177,155118,2,0,P|293:178|267:169,1,52.4999983978272,2|8,3:0|0:3,0:0:0:0:
224,200,155580,2,0,P|199:169|192:147,1,52.4999983978272,8|8,0:0|0:3,0:0:0:0:
196,99,156041,1,8,0:3:0:0:
170,47,156272,1,8,0:3:0:0:
205,1,156503,1,12,0:0:0:0:
288,81,156965,1,0,3:0:0:0:
242,186,157426,2,0,P|237:217|243:254,1,52.4999983978272,8|4,0:0|0:3,0:0:0:0:
279,279,157888,5,8,0:0:0:0:
279,279,158118,1,8,0:0:0:0:
127,362,158811,1,8,0:0:0:0:
127,362,159041,1,8,0:0:0:0:
40,211,159734,5,4,3:2:0:0:
163,292,167118,6,0,P|122:295|102:306,1,47.4999987316132,0|8,3:0|0:3,0:0:0:0:
73,327,167580,1,8,0:0:0:0:
26,233,168041,2,0,P|20:199|28:166,1,47.4999987316132,0|8,3:0|0:3,0:0:0:0:
51,143,168503,1,8,0:0:0:0:
147,182,168965,6,0,L|201:173,1,47.4999987316132,0|8,3:0|0:3,0:0:0:0:
237,144,169426,1,8,0:0:0:0:
341,142,169888,2,0,L|358:87,1,47.4999987316132,0|8,3:0|0:3,0:0:0:0:
394,62,170349,1,8,0:0:0:0:
436,157,170811,6,0,B|443:181|443:181|441:212,1,47.4999987316132,0|8,3:0|0:3,0:0:0:0:
412,246,171272,1,8,0:0:0:0:
317,201,171734,2,0,B|294:197|294:197|252:207,1,47.4999987316132,0|8,3:0|0:3,0:0:0:0:
233,239,172195,1,8,0:0:0:0:
159,313,172657,6,0,P|184:334|211:342,1,47.4999987316132,0|8,3:0|0:3,0:0:0:0:
248,327,173118,1,8,0:0:0:0:
342,281,173580,2,0,P|380:284|407:300,1,47.4999987316132,0|8,3:0|0:3,0:0:0:0:
421,328,174041,1,8,0:0:0:0:
473,324,174272,1,4,3:2:0:0:
167,122,175888,5,8,0:0:0:0:
167,122,176118,1,4,3:2:0:0:
256,68,176580,2,0,L|310:65,1,47.4999987316132,8|8,0:0|0:3,0:0:0:0:
350,42,177041,2,0,L|357:160,1,94.9999974632264,4|0,3:2|3:0,0:0:0:0:
360,189,177734,1,8,0:3:0:0:
360,189,177965,1,0,0:0:0:0:
423,272,178426,1,8,3:0:0:0:
346,343,178888,1,8,3:0:0:0:
266,275,179349,2,0,P|235:272|206:278,1,47.4999987316132,0|8,3:0|0:0,0:0:0:0:
182,311,179811,1,8,0:0:0:0:
134,291,180041,5,4,0:0:0:0:
99,56,182118,6,0,P|68:50|25:27,2,71.2499980974198,8|8|8,3:0|3:0|0:3,0:0:0:0:
200,31,183272,1,12,0:3:0:0:
249,48,183503,1,8,0:0:0:0:
279,90,183734,2,0,P|283:104|279:176,1,47.4999987316132,8|4,0:3|0:3,0:0:0:0:
283,188,184195,6,0,L|214:198,1,47.4999987316132,4|0,0:0|0:0,0:0:0:0:
184,206,184657,2,0,L|178:126,2,47.4999987316132,0|0|8,3:0|3:0|0:0,0:0:0:0:
150,246,185349,2,0,L|159:362,1,94.9999974632264,4|8,3:2|0:3,0:0:0:0:
207,357,186041,2,0,L|297:345,1,47.4999987316132,8|2,0:0|0:3,0:0:0:0:
287,309,186503,2,0,L|281:242,1,47.4999987316132,0|8,3:0|0:0,0:0:0:0:
258,215,186965,1,8,0:0:0:0:
271,164,187195,1,0,3:0:0:0:
252,109,187426,6,0,P|213:122|146:113,1,104.999996795654,4|8,3:2|0:0,0:0:0:0:
43,158,188349,2,0,P|89:176|145:221,1,104.999996795654,0|8,3:0|0:0,0:0:0:0:
191,308,189272,1,0,3:0:0:0:
245,326,189503,1,8,0:3:0:0:
294,296,189734,2,0,P|327:294|359:305,1,52.4999983978272,8|8,0:0|0:3,0:0:0:0:
377,346,190195,1,0,3:0:0:0:
422,239,190657,2,0,L|416:162,1,52.4999983978272,8|8,0:0|0:3,0:0:0:0:
444,135,191118,6,0,L|436:29,1,104.999996795654,0|8,3:0|0:0,0:0:0:0:
321,16,192041,2,0,P|284:21|254:38,1,52.4999983978272,0|8,3:0|0:3,0:0:0:0:
212,24,192503,2,0,P|197:61|206:89,1,52.4999983978272,8|0,0:0|0:0,0:0:0:0:
214,128,192965,2,0,P|158:125|100:157,2,104.999996795654,0|10|8,3:0|0:0|0:0,0:0:0:0:
123,56,194349,1,8,0:0:0:0:
39,136,194811,6,0,B|33:178|33:178|42:254,1,104.999996795654,4|8,3:2|0:0,0:0:0:0:
84,346,195734,2,0,B|148:330|148:330|190:305,1,104.999996795654,0|8,3:0|0:0,0:0:0:0:
286,261,196657,1,0,3:0:0:0:
343,267,196888,1,2,0:3:0:0:
373,316,197118,2,0,P|404:325|435:322,1,52.4999983978272,8|2,0:0|0:3,0:0:0:0:
477,301,197580,1,0,3:0:0:0:
454,187,198041,2,0,B|454:162|454:162|461:104,1,52.4999983978272,8|10,0:0|0:0,0:0:0:0:
503,99,198503,6,0,P|497:55|469:0,1,104.999996795654,0|8,3:0|0:0,0:0:0:0:
367,54,199426,1,0,3:0:0:0:
314,157,199888,1,8,0:0:0:0:
213,100,200349,2,0,P|228:53|280:18,2,104.999996795654,0|8|0,3:0|0:0|3:0,0:0:0:0:
164,131,201503,1,8,0:3:0:0:
108,147,201734,1,8,0:0:0:0:
53,127,201965,1,8,0:0:0:0:
10,165,202195,6,0,B|14:225|14:225|33:270,1,104.999996795654,4|8,3:2|0:0,0:0:0:0:
144,241,203118,2,0,B|161:282|161:282|165:342,1,104.999996795654,0|8,3:0|0:0,0:0:0:0:
278,362,204041,1,0,3:0:0:0:
306,311,204272,1,8,0:3:0:0:
288,255,204503,2,0,B|289:219|289:219|300:187,1,52.4999983978272,8|8,0:0|0:3,0:0:0:0:
325,154,204965,1,0,3:0:0:0:
220,203,205426,2,0,L|141:204,1,52.4999983978272,8|8,0:0|0:3,0:0:0:0:
113,225,205888,6,0,L|134:112,1,104.999996795654,0|8,3:0|0:0,0:0:0:0:
225,53,206811,2,0,P|252:55|290:70,1,52.4999983978272,2|8,3:0|0:3,0:0:0:0:
332,50,207272,2,0,P|349:75|357:111,1,52.4999983978272,8|0,0:0|0:0,0:0:0:0:
334,150,207734,1,0,3:0:0:0:
369,195,207965,1,4,3:2:0:0:
343,246,208195,1,8,0:0:0:0:
245,184,208657,1,0,3:0:0:0:
147,246,209118,2,0,B|110:246|110:246|94:242,1,52.4999983978272,8|4,0:0|0:3,0:0:0:0:
60,195,209580,5,8,0:0:0:0:
60,195,209811,1,8,0:0:0:0:
176,67,210503,1,8,0:0:0:0:
176,67,210734,1,8,0:0:0:0:
307,167,211426,5,4,3:2:0:0:
405,120,211888,2,0,P|392:78|339:32,1,100,8|0,0:1|0:0,0:0:0:0:
253,79,212811,1,8,0:1:0:0:
202,99,213041,1,8,0:3:0:0:
147,90,213272,2,0,P|107:61|83:8,2,100,0|8|0,3:0|0:1|0:0,0:0:0:0:
224,168,214657,2,0,L|285:171,1,50,8|8,0:0|0:3,0:0:0:0:
321,142,215118,6,0,L|309:242,1,100,0|8,3:0|0:1,0:0:0:0:
370,332,216041,1,0,0:0:0:0:
443,250,216503,2,0,L|450:190,1,50,8|10,0:1|0:3,0:0:0:0:
484,158,216965,2,0,B|430:171|430:171|372:169,1,100,2|8,3:2|0:0,0:0:0:0:
295,233,217888,2,0,L|286:178,1,50,2|4,0:0|0:3,0:0:0:0:
236,162,218349,2,0,L|252:100,1,50,8|12,0:0|0:3,0:0:0:0:
288,74,218811,5,4,3:2:0:0:
192,20,219272,2,0,B|143:26|143:26|86:59,1,100,8|0,0:1|0:0,0:0:0:0:
14,121,220195,1,8,0:1:0:0:
7,175,220426,1,8,0:3:0:0:
39,219,220657,2,0,P|42:248|12:325,2,100,0|8|0,3:0|0:1|0:0,0:0:0:0:
11,112,222041,2,0,L|70:125,1,50,8|8,0:0|0:3,0:0:0:0:
102,158,222503,6,0,B|156:163|156:163|215:152,1,100,0|8,3:0|0:0,0:0:0:0:
281,78,223426,1,0,0:0:0:0:
348,165,223888,2,0,B|355:201|355:201|352:228,1,50,8|2,0:0|0:3,0:0:0:0:
307,243,224349,2,0,L|406:264,1,100,0|12,3:0|0:0,0:0:0:0:
481,343,225272,2,0,L|414:359,1,50,8|0,0:0|0:0,0:0:0:0:
378,340,225734,2,0,L|310:351,2,50,10|10|0,0:0|3:0|0:0,0:0:0:0:
