osu file format v14

[General]
AudioFilename: audio.mp3
AudioLeadIn: 0
PreviewTime: 52070
Countdown: 0
SampleSet: Soft
StackLeniency: 0.7
Mode: 0
LetterboxInBreaks: 0
WidescreenStoryboard: 1

[Editor]
DistanceSpacing: 1.2
BeatDivisor: 4
GridSize: 4
TimelineZoom: 1.9

[Metadata]
Title:Seishun nante Iranaiwa
TitleUnicode:青春なんていらないわ
Artist:Sangatsu no Phantasia
ArtistUnicode:三月のパンタシア
Creator:Ryuusei Aika
Version:Kowari's Hard
Source:
Tags:Shiny Braixen Kowari iljaaz ナブナ n-buna nbuna みあ Mia ガールズブルー ガールズブルー・ハッピーサッド Girl's Blue Happy Sad
BeatmapID:2229111
BeatmapSetID:1064632

[Difficulty]
HPDrainRate:5
CircleSize:4
OverallDifficulty:6
ApproachRate:7
SliderMultiplier:1.6
SliderTickRate:1

[Events]
//Background and Video events
0,0,"BG.jpg",0,0
//Break Periods
2,84272,97888
2,159965,165734
//Storyboard Layer 0 (Background)
//Storyboard Layer 1 (Fail)
//Storyboard Layer 2 (Pass)
//Storyboard Layer 3 (Foreground)
//Storyboard Layer 4 (Overlay)
//Storyboard Sound Samples

[TimingPoints]
965,461.538461538462,4,2,1,40,1,0
965,-166.666666666667,4,2,1,40,0,0
6272,-125,4,2,1,60,0,0
8349,-100,4,2,1,70,0,0
23118,-125,4,2,1,40,0,0
36965,-125,4,2,1,50,0,0
37888,-111.111111111111,4,2,1,60,0,0
50118,-111.111111111111,4,2,0,60,0,0
50234,-111.111111111111,4,2,1,60,0,0
51041,-111.111111111111,4,2,1,70,0,0
52657,-90.9090909090909,4,2,1,80,0,1
66503,-90.9090909090909,4,2,1,70,0,1
67426,-90.9090909090909,4,2,1,80,0,1
80349,-90.9090909090909,4,2,0,80,0,1
80811,-90.9090909090909,4,2,1,80,0,1
81849,-90.9090909090909,4,2,0,80,0,1
81965,-90.9090909090909,4,2,1,80,0,1
82195,-90.9090909090909,4,2,1,80,0,0
83811,-90.9090909090909,4,2,1,70,0,0
91195,-90.9090909090909,4,2,0,70,0,0
91426,-90.9090909090909,4,2,1,70,0,0
96618,-90.9090909090909,4,2,0,70,0,0
96849,-90.9090909090909,4,2,1,70,0,0
98465,-90.9090909090909,4,2,0,70,0,0
98696,-90.9090909090909,4,2,1,70,0,0
98811,-125,4,2,1,40,0,0
111965,-125,4,2,0,40,0,0
112195,-125,4,2,1,50,0,0
113003,-125,4,2,0,50,0,0
113118,-125,4,2,1,50,0,0
113580,-111.111111111111,4,2,1,60,0,0
125811,-111.111111111111,4,2,0,60,0,0
125926,-111.111111111111,4,2,1,60,0,0
126157,-111.111111111111,4,2,0,60,0,0
126503,-111.111111111111,4,2,1,60,0,0
126734,-111.111111111111,4,2,1,70,0,0
128349,-90.9090909090909,4,2,1,80,0,1
141502,-90.9090909090909,4,2,1,70,0,1
141503,-90.9090909090909,4,2,0,70,0,1
142195,-90.9090909090909,4,2,1,70,0,1
143118,-90.9090909090909,4,2,1,80,0,1
156041,-90.9090909090909,4,2,0,80,0,1
156503,-90.9090909090909,4,2,1,80,0,1
157541,-90.9090909090909,4,2,0,80,0,1
157657,-90.9090909090909,4,2,1,80,0,1
157888,-90.9090909090909,4,2,1,80,0,0
159734,-90.9090909090909,4,2,1,50,0,0
159849,-90.9090909090909,4,2,1,40,0,0
167118,-125,4,2,1,45,0,0
176811,-125,4,2,0,45,0,0
177041,-125,4,2,1,50,0,0
177734,-125,4,2,0,50,0,0
177965,-125,4,2,1,50,0,0
179580,-125,4,2,1,60,0,0
180041,-125,4,2,1,80,0,0
182118,-100,4,2,1,80,0,0
182811,-100,4,2,0,80,0,0
182926,-100,4,2,1,80,0,0
183157,-100,4,2,0,50,0,0
183503,-100,4,2,1,80,0,0
183734,-100,4,2,0,60,0,0
184080,-100,4,2,1,60,0,0
184195,-83.3333333333333,4,2,1,80,0,1
187426,-90.9090909090909,4,2,1,80,0,1
193195,-90.9090909090909,4,2,0,80,0,1
193311,-90.9090909090909,4,2,1,80,0,1
193541,-90.9090909090909,4,2,0,80,0,1
193888,-90.9090909090909,4,2,1,70,0,1
194811,-90.9090909090909,4,2,1,80,0,1
201503,-90.9090909090909,4,2,0,80,0,1
201734,-90.9090909090909,4,2,1,80,0,1
208311,-90.9090909090909,4,2,0,80,0,1
208426,-90.9090909090909,4,2,1,80,0,1
209234,-90.9090909090909,4,2,0,80,0,1
209465,-90.9090909090909,4,2,1,80,0,1
209580,-90.9090909090909,4,2,1,80,0,0
211426,-100,4,2,1,70,0,0
218118,-100,4,2,0,70,0,0
218234,-100,4,2,1,70,0,0
218465,-100,4,2,0,70,0,0
218811,-100,4,2,1,75,0,0
224465,-100,4,2,0,75,0,0
224811,-100,4,2,1,75,0,0

[Colours]
Combo1 : 255,255,0
Combo2 : 255,128,255
Combo3 : 0,255,255
Combo4 : 128,255,0

[HitObjects]
16,339,965,6,0,L|119:328,1,95.9999970703126,0|0,3:0|3:0,0:0:0:0:
195,249,1888,2,0,P|199:198|162:158,1,95.9999970703126,0|0,3:0|3:0,0:0:0:0:
88,85,2811,2,0,L|192:73,1,95.9999970703126,0|0,3:0|3:0,0:0:0:0:
298,69,3734,2,0,P|319:106|298:166,1,95.9999970703126,0|0,3:0|3:0,0:0:0:0:
239,249,4657,6,0,L|351:247,1,95.9999970703126,0|0,3:0|3:0,0:0:0:0:
450,243,5580,2,0,P|476:279|459:336,1,95.9999970703126,0|0,3:0|3:0,0:0:0:0:
388,384,6272,6,0,L|245:364,1,128,12|0,0:0|3:0,0:0:0:0:
190,335,6965,2,0,L|113:350,1,64,8|0,0:0|0:0,0:0:0:0:
127,347,7311,1,8,0:0:0:0:
127,347,7426,1,8,0:0:0:0:
53,212,7888,1,8,0:0:0:0:
85,142,8118,1,0,0:0:0:0:
85,142,8234,1,0,0:0:0:0:
85,142,8349,6,0,L|168:156,1,80,4|0,3:2|0:0,0:0:0:0:
254,121,8811,2,0,P|277:80|259:35,1,80,8|0,0:1|0:0,0:0:0:0:
234,17,9157,1,0,3:0:0:0:
137,14,9388,1,8,0:0:0:0:
137,14,9503,2,0,L|42:25,1,80,8|8,0:3|0:1,0:0:0:0:
15,110,9965,1,8,0:3:0:0:
94,163,10195,6,0,P|111:212|92:253,1,80,0|8,3:0|0:3,0:0:0:0:
43,313,10657,1,8,0:1:0:0:
121,368,10888,1,2,0:3:0:0:
121,368,11003,2,0,L|211:354,1,80,0|10,3:0|0:0,0:0:0:0:
247,345,11349,1,8,0:3:0:0:
302,266,11580,1,10,0:0:0:0:
239,193,11811,1,8,0:0:0:0:
269,101,12042,6,0,P|312:76|424:100,1,160,0|8,3:0|0:1,0:0:0:0:
466,175,12734,1,2,0:3:0:0:
466,175,12849,2,0,L|453:275,1,80,0|0,3:0|3:0,0:0:0:0:
452,302,13195,1,8,0:3:0:0:
367,347,13426,1,8,0:1:0:0:
292,286,13657,1,2,0:3:0:0:
316,192,13888,6,0,L|364:196,2,40,2|10|2,3:2|0:0|0:0,0:0:0:0:
281,158,14234,2,0,L|267:63,1,80,2|2,0:0|0:0,0:0:0:0:
256,32,14580,1,2,0:0:0:0:
161,12,14811,1,2,0:0:0:0:
161,12,14926,1,8,0:0:0:0:
161,12,15041,1,0,3:0:0:0:
81,65,15272,2,0,L|95:152,1,80,8|8,0:0|0:0,0:0:0:0:
99,142,15618,1,8,0:0:0:0:
99,142,15734,6,0,P|69:179|33:189,1,80,4|0,0:0|0:0,0:0:0:0:
0,279,16195,2,0,P|54:298|75:326,1,80,8|2,0:1|0:3,0:0:0:0:
75,360,16541,1,0,3:0:0:0:
156,308,16772,1,8,0:0:0:0:
156,308,16888,2,0,L|166:211,1,80,0|8,3:0|0:1,0:0:0:0:
243,169,17349,1,2,0:3:0:0:
326,215,17580,6,0,L|318:309,1,80,0|2,3:0|0:3,0:0:0:0:
390,358,18041,1,8,0:1:0:0:
471,307,18272,1,2,0:3:0:0:
471,307,18388,2,0,L|461:210,1,80,0|10,3:0|0:0,0:0:0:0:
456,179,18734,1,8,3:0:0:0:
389,109,18965,1,10,0:0:0:0:
305,155,19195,1,8,0:0:0:0:
227,98,19426,6,0,B|136:88|136:88|115:118|55:125,1,160,0|8,3:0|0:1,0:0:0:0:
30,204,20118,1,2,0:3:0:0:
30,204,20234,2,0,P|24:254|43:288,1,80,0|8,3:0|0:0,0:0:0:0:
78,304,20580,1,8,3:0:0:0:
172,287,20811,1,8,0:1:0:0:
198,195,21041,1,8,0:3:0:0:
151,110,21272,6,0,L|90:106,2,40,2|10|2,3:2|0:0|0:3,0:0:0:0:
185,76,21618,2,0,L|284:67,1,80,2|2,0:0|0:0,0:0:0:0:
312,62,21965,1,2,0:0:0:0:
381,127,22195,2,0,P|395:173|374:214,1,80,2|8,0:0|3:0,0:0:0:0:
319,273,22657,1,8,0:0:0:0:
322,282,22772,1,8,0:0:0:0:
324,290,22888,1,0,3:0:0:0:
327,297,23003,1,0,0:0:0:0:
330,306,23118,6,0,P|296:341|216:335,1,128,4|0,3:2|3:0,0:0:0:0:
163,195,24041,2,0,L|191:55,1,128,0|0,3:0|3:0,0:0:0:0:
131,17,24734,1,2,0:3:0:0:
63,53,24965,2,0,L|75:106,3,32,0|0|2|0,3:0|0:0|0:3|0:0,0:0:0:0:
81,120,25426,1,0,3:0:0:0:
34,181,25657,1,2,0:3:0:0:
52,255,25888,2,0,P|89:291|178:279,1,128,0|0,3:0|3:0,0:0:0:0:
205,226,26580,1,2,0:3:0:0:
268,182,26811,6,0,L|344:193,1,64,0|2,3:0|0:3,0:0:0:0:
398,153,27272,1,0,3:0:0:0:
398,153,27503,1,2,0:3:0:0:
442,215,27734,2,0,L|429:288,1,64,0|2,3:0|0:3,0:0:0:0:
403,349,28195,1,0,3:0:0:0:
336,310,28426,1,2,0:3:0:0:
263,336,28657,5,0,3:0:0:0:
263,336,28888,2,0,L|276:199,1,128,2|2,0:3|0:3,0:0:0:0:
227,148,29580,2,0,P|187:134|145:139,1,64,0|8,3:0|0:3,0:0:0:0:
107,183,30041,1,0,3:0:0:0:
134,254,30272,1,8,0:3:0:0:
79,307,30503,6,0,L|10:297,1,64,0|2,3:0|0:3,0:0:0:0:
8,220,30965,2,0,P|53:210|86:125,1,128,0|0,3:0|3:0,0:0:0:0:
55,72,31657,1,2,0:3:0:0:
119,30,31888,2,0,L|208:42,1,64,0|2,3:0|0:3,0:0:0:0:
238,90,32349,2,0,L|226:123,3,32,0|0|2|0,3:0|0:0|0:3|0:0,0:0:0:0:
210,154,32811,1,0,3:0:0:0:
258,213,33041,1,2,0:3:0:0:
330,187,33272,2,0,L|315:32,1,128,0|0,3:0|3:0,0:0:0:0:
376,9,33965,1,8,0:3:0:0:
433,59,34195,6,0,L|419:135,1,64,0|2,3:0|0:3,0:0:0:0:
466,184,34657,1,0,3:0:0:0:
466,184,34888,1,2,0:3:0:0:
406,232,35118,2,0,P|358:239|330:225,1,64,0|8,3:0|0:3,0:0:0:0:
293,176,35580,1,0,3:0:0:0:
218,193,35810,1,8,0:3:0:0:
178,259,36041,6,0,L|186:323,1,64,0|0,3:0|0:0,0:0:0:0:
191,321,36388,1,8,0:0:0:0:
191,321,36503,2,0,P|163:348|134:353,1,64,8|0,0:0|0:0,0:0:0:0:
58,300,36965,6,0,L|80:194,1,96,12|8,0:0|0:0,0:0:0:0:
96,172,37426,2,0,L|89:94,1,64,0|8,3:0|0:0,0:0:0:0:
90,69,37772,1,8,0:0:0:0:
90,69,37888,6,0,B|150:64|150:64|168:48|168:48|233:44,1,143.999995605469,4|8,3:2|0:0,0:0:0:0:
270,49,38465,1,0,0:0:0:0:
270,49,38580,1,0,3:0:0:0:
311,124,38811,1,2,0:3:0:0:
258,191,39041,1,0,3:0:0:0:
171,183,39272,1,8,0:0:0:0:
171,183,39388,2,0,L|183:270,1,71.9999978027344,0|0,0:0|0:0,0:0:0:0:
165,294,39734,6,0,L|123:283,2,35.9999989013672,0|0|0,3:0|0:0|0:0,0:0:0:0:
241,335,40195,1,8,0:0:0:0:
241,335,40311,1,0,0:0:0:0:
241,335,40426,2,0,L|286:328,1,35.9999989013672,0|0,3:0|0:0,0:0:0:0:
311,302,40657,2,0,L|353:308,3,35.9999989013672,2|0|0|0,0:3|0:0|3:0|0:0,0:0:0:0:
286,258,41118,2,0,P|268:211|285:173,1,71.9999978027344,8|8,0:0|0:3,0:0:0:0:
339,135,41580,5,0,3:0:0:0:
404,191,41811,2,0,L|396:234,4,35.9999989013672,0|0|8|0|0,0:0|3:0|0:0|0:0|3:0,0:0:0:0:
454,120,42503,2,0,L|444:35,1,71.9999978027344,2|0,0:3|3:0,0:0:0:0:
427,9,42849,2,0,P|379:-1|351:22,1,71.9999978027344,0|0,0:0|0:0,0:0:0:0:
294,120,43426,6,0,L|209:104,1,71.9999978027344,0|0,3:0|0:0,0:0:0:0:
152,56,43888,2,0,L|81:69,1,71.9999978027344,8|0,0:0|3:0,0:0:0:0:
38,73,44234,1,0,0:0:0:0:
38,73,44349,2,0,L|47:29,2,35.9999989013672,2|2|8,0:3|0:3|3:0,0:0:0:0:
0,152,44811,2,0,L|13:236,1,71.9999978027344,8|0,0:0|0:0,0:0:0:0:
21,265,45157,5,0,0:0:0:0:
21,265,45272,2,0,L|77:244,3,35.9999989013672,4|0|0|0,3:2|0:0|0:0|3:0,0:0:0:0:
94,234,45734,1,8,0:0:0:0:
178,254,45965,1,0,0:0:0:0:
178,254,46080,1,0,0:0:0:0:
178,254,46195,2,0,P|214:265|253:250,1,71.9999978027344,2|0,0:3|3:0,0:0:0:0:
267,217,46541,1,0,0:0:0:0:
267,217,46657,2,0,L|260:124,1,71.9999978027344,8|2,0:0|0:3,0:0:0:0:
237,60,47118,6,0,B|285:55|285:55|299:45|299:45|361:40,1,107.999996704102,0|0,3:0|0:0,0:0:0:0:
384,40,47580,1,8,0:0:0:0:
446,99,47811,2,0,P|463:138|444:185,1,71.9999978027344,0|2,3:0|0:3,0:0:0:0:
389,219,48272,1,0,3:0:0:0:
441,287,48503,2,0,L|517:276,1,71.9999978027344,8|8,0:0|0:3,0:0:0:0:
377,347,48965,6,0,L|336:338,3,35.9999989013672,0|2|0|0,3:0|0:3|0:0|3:0,0:0:0:0:
313,307,49426,2,0,P|281:282|243:283,1,71.9999978027344,8|0,0:0|3:0,0:0:0:0:
174,321,49888,2,0,L|183:373,3,35.9999989013672,2|8|8|0,0:3|0:0|0:3|0:0,0:0:0:0:
141,291,50349,2,0,B|154:256|154:256|140:212,1,71.9999978027344,12|8,0:0|0:3,0:0:0:0:
84,169,50811,5,2,3:0:0:0:
84,169,50926,1,2,0:3:0:0:
84,169,51041,1,12,0:0:0:0:
137,110,51272,2,0,L|218:118,1,71.9999978027344,12|2,0:0|0:3,0:0:0:0:
247,124,51618,1,0,0:0:0:0:
247,124,51734,1,12,0:0:0:0:
365,133,52080,1,0,0:0:0:0:
365,133,52195,2,0,L|374:44,1,71.9999978027344,0|8,3:0|0:0,0:0:0:0:
376,21,52541,5,8,0:0:0:0:
376,21,52657,2,2,B|266:-1|315:67|184:43,1,176.000005371094,4|8,3:2|0:0,0:2:0:0:
115,13,53349,1,8,0:3:0:0:
115,13,53465,1,8,0:0:0:0:
115,13,53580,2,0,L|105:116,1,88.000002685547,0|8,3:0|0:3,0:0:0:0:
34,165,54041,1,8,0:0:0:0:
32,261,54272,1,2,0:3:0:0:
101,328,54503,6,0,L|101:373,2,44.0000013427735,0|8|2,3:0|0:0|0:3,0:0:0:0:
169,259,54965,1,8,0:0:0:0:
235,328,55195,1,2,0:3:0:0:
235,328,55311,1,8,0:0:0:0:
235,328,55426,2,0,P|281:343|326:326,1,88.000002685547,0|0,3:0|0:0,0:0:0:0:
348,239,55888,2,0,P|394:224|439:241,1,88.000002685547,8|10,0:0|0:0,0:0:0:0:
462,272,56234,1,0,0:0:0:0:
462,272,56349,5,0,3:0:0:0:
500,182,56580,2,0,B|491:68|491:68|456:119,1,176.000005371094,2|0,0:3|0:0,0:0:0:0:
437,139,57157,1,8,0:0:0:0:
437,139,57272,2,0,P|386:143|346:122,1,88.000002685547,0|2,3:0|0:3,0:0:0:0:
298,47,57734,1,8,0:0:0:0:
227,112,57965,6,0,B|222:174|222:174|248:210|248:210|241:288,1,176.000005371094,0|2,0:0|0:3,0:0:0:0:
167,341,58657,1,8,0:0:0:0:
94,276,58888,2,0,L|48:282|48:282,2,44.0000013427735,0|8|0,0:0|0:0|3:0,0:0:0:0:
146,194,59349,1,2,0:3:0:0:
70,85,59580,5,8,0:0:0:0:
171,0,59811,1,8,0:0:0:0:
264,100,60041,6,0,B|359:86|359:86|401:114|379:164,1,176.000005371094,4|8,3:2|0:0,0:0:0:0:
312,222,60734,1,0,0:0:0:0:
312,222,60849,1,8,0:0:0:0:
312,222,60965,2,0,L|222:212,1,88.000002685547,0|2,3:0|0:3,0:0:0:0:
139,258,61426,1,8,0:0:0:0:
58,204,61657,1,0,0:0:0:0:
58,107,61888,6,0,L|4:112,2,44.0000013427735,0|8|2,3:0|0:0|0:3,0:0:0:0:
131,43,62349,1,8,0:0:0:0:
193,117,62580,1,2,0:3:0:0:
193,117,62695,1,8,0:0:0:0:
193,117,62811,2,0,B|234:132|234:132|278:113,1,88.000002685547,0|0,3:0|0:0,0:0:0:0:
334,38,63272,2,0,B|374:20|374:20|415:35,1,88.000002685547,8|2,0:0|0:3,0:0:0:0:
459,122,63734,5,0,3:0:0:0:
394,194,63965,1,2,0:3:0:0:
401,290,64195,2,0,P|454:309|500:295,1,88.000002685547,8|2,0:0|0:3,0:0:0:0:
506,260,64541,1,8,0:0:0:0:
506,260,64657,2,0,L|494:207,2,44.0000013427735,0|8|2,3:0|0:0|0:3,0:0:0:0:
406,177,65118,5,8,0:0:0:0:
331,238,65349,1,0,0:0:0:0:
331,238,65465,1,8,0:0:0:0:
331,238,65580,2,0,L|341:282,3,44.0000013427735,0|0|8|8,3:0|0:0|0:0|0:0,0:0:0:0:
288,205,66041,2,0,L|298:144,1,44.0000013427735,8|8,0:0|0:0,0:0:0:0:
305,114,66272,1,8,0:0:0:0:
250,34,66503,5,8,0:0:0:0:
256,346,66965,1,8,0:0:0:0:
28,258,67426,6,0,B|97:255|97:255|129:239|129:239|204:238,1,176.000005371094,4|8,3:2|0:0,0:0:0:0:
276,311,68118,1,0,0:0:0:0:
276,311,68234,1,8,0:0:0:0:
276,311,68349,2,0,B|320:325|320:325|363:309,1,88.000002685547,0|8,3:0|0:3,0:0:0:0:
427,229,68811,1,8,0:0:0:0:
373,138,69041,1,8,0:3:0:0:
419,42,69272,6,0,L|478:32,2,44.0000013427735,0|8|2,3:0|0:0|0:3,0:0:0:0:
318,7,69734,1,8,0:0:0:0:
264,98,69965,1,0,0:0:0:0:
264,98,70080,1,8,0:0:0:0:
264,98,70195,2,0,P|217:122|174:113,1,88.000002685547,0|0,3:0|0:0,0:0:0:0:
93,61,70657,2,0,L|84:162,1,88.000002685547,8|10,0:0|0:0,0:0:0:0:
20,232,71118,5,0,3:0:0:0:
102,298,71349,2,0,B|201:278|201:278|225:309|281:309,1,176.000005371094,2|2,0:3|0:3,0:0:0:0:
317,291,71926,1,8,0:0:0:0:
317,291,72041,1,0,3:0:0:0:
349,190,72272,1,2,0:3:0:0:
270,119,72503,1,8,0:0:0:0:
330,32,72734,6,0,P|383:7|482:62,1,176.000005371094,2|2,0:3|0:3,0:0:0:0:
418,143,73426,1,8,0:0:0:0:
468,235,73657,2,0,L|524:224,2,44.0000013427735,2|8|0,0:3|0:0|3:0,0:0:0:0:
397,313,74118,1,2,0:3:0:0:
318,242,74349,1,8,0:0:0:0:
308,235,74464,1,0,0:0:0:0:
298,231,74579,1,8,0:0:0:0:
288,228,74695,1,8,0:0:0:0:
277,226,74811,6,0,B|234:211|192:241|192:241|179:287|107:293,1,176.000005371094,4|8,3:2|0:0,0:0:0:0:
48,220,75503,1,2,0:3:0:0:
48,220,75618,1,8,0:0:0:0:
48,220,75734,2,0,L|57:125,1,88.000002685547,0|2,3:0|0:3,0:0:0:0:
125,52,76195,1,8,0:0:0:0:
216,104,76426,1,2,0:3:0:0:
300,40,76657,6,0,L|310:-6,2,44.0000013427735,0|8|2,3:0|0:0|0:3,0:0:0:0:
375,113,77118,1,8,0:0:0:0:
333,210,77349,1,2,0:3:0:0:
333,210,77465,1,8,0:0:0:0:
333,210,77580,2,0,B|292:190|292:190|249:206,1,88.000002685547,0|2,3:0|0:3,0:0:0:0:
244,310,78041,2,0,B|285:330|285:330|328:314,1,88.000002685547,8|2,0:0|0:3,0:0:0:0:
365,280,78388,5,8,0:0:0:0:
365,280,78503,2,0,L|473:295,1,88.000002685547,0|0,3:0|0:0,0:0:0:0:
512,203,78965,1,8,0:0:0:0:
465,105,79195,1,2,0:3:0:0:
465,105,79311,1,8,0:0:0:0:
465,105,79426,2,0,L|371:114,1,88.000002685547,2|8,3:0|0:3,0:0:0:0:
289,54,79888,1,8,0:0:0:0:
206,119,80118,5,8,0:3:0:0:
206,119,80234,1,0,0:0:0:0:
206,119,80349,2,0,L|225:227,1,88.000002685547,8|8,0:3|0:3,0:0:0:0:
178,302,80811,2,0,P|125:331|39:298,1,132.00000402832,12|8,0:0|0:0,0:0:0:0:
40,265,81272,2,0,L|52:211,1,44.0000013427735,0|8,3:0|0:0,0:0:0:0:
75,175,81503,2,0,L|63:121,1,44.0000013427735,0|8,0:0|0:0,0:0:0:0:
44,83,81734,2,0,P|83:53|131:62,1,88.000002685547,8|4,0:0|0:3,0:0:0:0:
159,90,82080,1,0,3:0:0:0:
159,90,82195,5,8,0:0:0:0:
260,17,82426,1,8,0:0:0:0:
402,299,83118,5,8,0:0:0:0:
301,372,83349,1,8,0:0:0:0:
124,256,83811,6,0,L|61:249,1,44.0000013427735,0|0,0:0|0:0,0:0:0:0:
29,244,84041,1,4,3:2:0:0:
480,348,98811,6,0,L|346:329,1,128,4|0,3:2|3:0,0:0:0:0:
243,221,99734,2,0,P|231:162|291:108,1,128,0|0,3:0|3:0,0:0:0:0:
347,99,100426,1,2,0:3:0:0:
299,38,100657,2,0,L|249:22,3,32,0|0|2|0,3:0|0:0|0:3|0:0,0:0:0:0:
228,13,101118,1,0,3:0:0:0:
161,50,101349,1,2,0:3:0:0:
90,19,101580,2,0,L|75:154,1,128,0|0,3:0|3:0,0:0:0:0:
123,206,102272,1,8,0:3:0:0:
134,205,102388,1,8,0:3:0:0:
143,204,102503,6,0,L|221:220,1,64,0|2,3:0|0:3,0:0:0:0:
258,273,102965,1,0,3:0:0:0:
258,273,103195,1,2,0:3:0:0:
318,225,103426,2,0,B|311:192|311:192|330:166,1,64,0|2,3:0|0:3,0:0:0:0:
356,141,103772,1,0,0:0:0:0:
356,141,103888,1,0,3:0:0:0:
322,72,104118,1,2,0:3:0:0:
375,17,104349,5,0,0:0:0:0:
375,17,104580,2,0,L|506:37,1,128,8|2,0:3|0:3,0:0:0:0:
504,113,105272,2,0,P|453:128|433:200,1,128,0|0,3:0|3:0,0:0:0:0:
488,246,105965,1,2,0:3:0:0:
433,299,106195,6,0,L|363:288,1,64,0|8,3:0|0:3,0:0:0:0:
321,228,106657,2,0,B|244:241|281:268|196:282,1,128,0|0,3:0|3:0,0:0:0:0:
146,233,107349,1,2,0:3:0:0:
172,160,107580,2,0,L|251:157,1,64,0|2,3:0|0:3,0:0:0:0:
294,107,108041,2,0,L|346:113,3,32,0|0|2|0,3:0|0:0|0:3|0:0,0:0:0:0:
364,114,108503,1,0,3:0:0:0:
429,73,108734,1,2,0:3:0:0:
389,6,108965,2,0,L|255:19,1,128,0|0,3:0|3:0,0:0:0:0:
199,64,109657,1,8,0:3:0:0:
235,131,109888,6,0,P|248:171|240:198,1,64,0|0,3:0|0:0,0:0:0:0:
184,241,110349,2,0,L|107:228,1,64,0|2,3:0|0:3,0:0:0:0:
65,283,110811,2,0,L|15:292,3,32,0|0|2|0,3:0|0:0|0:3|0:0,0:0:0:0:
103,319,111272,1,0,3:0:0:0:
149,380,111503,1,8,0:3:0:0:
213,338,111734,6,0,L|283:328,1,64,0|8,3:0|0:3,0:0:0:0:
333,276,112195,2,0,P|338:234|315:208,1,64,12|0,0:0|0:0,0:0:0:0:
295,195,112541,1,8,0:0:0:0:
295,195,112657,1,8,0:0:0:0:
250,132,112888,2,0,L|202:129,2,32,8|8|0,0:0|0:3|3:0,0:0:0:0:
297,71,113349,5,8,0:0:0:0:
297,71,113465,1,8,0:0:0:0:
297,71,113580,2,0,L|446:62,1,143.999995605469,4|8,3:2|0:0,0:0:0:0:
483,56,114157,1,0,0:0:0:0:
483,56,114272,1,0,3:0:0:0:
501,140,114503,2,0,P|467:163|421:167,1,71.9999978027344,0|0,0:0|3:0,0:0:0:0:
446,254,114965,1,8,0:0:0:0:
446,254,115080,2,0,P|405:246|370:216,1,71.9999978027344,0|0,0:0|0:0,0:0:0:0:
350,198,115426,6,0,L|357:153,2,35.9999989013672,0|8|0,3:0|0:0|0:0,0:0:0:0:
276,243,115888,1,8,0:0:0:0:
276,243,116003,1,0,0:0:0:0:
276,243,116118,2,0,L|286:286,1,35.9999989013672,0|2,0:0|0:3,0:0:0:0:
310,312,116349,2,0,L|300:354,3,35.9999989013672,0|8|0|0,0:0|0:0|3:0|0:0,0:0:0:0:
267,373,116811,2,0,B|238:354|238:354|194:362,1,71.9999978027344,8|8,0:0|0:3,0:0:0:0:
138,301,117272,5,0,3:0:0:0:
174,222,117503,2,0,L|222:228,4,35.9999989013672,0|0|8|0|0,0:0|3:0|0:0|0:0|3:0,0:0:0:0:
111,162,118195,2,0,L|22:178,1,71.9999978027344,0|2,0:0|3:0,0:0:0:0:
4,149,118541,2,0,B|-10:115|-10:115|12:67,1,71.9999978027344,0|0,0:0|0:0,0:0:0:0:
35,51,118888,1,0,0:0:0:0:
116,23,119118,6,0,L|211:42,1,71.9999978027344,0|0,3:0|0:0,0:0:0:0:
224,59,119465,2,0,L|303:52,1,71.9999978027344,0|0,3:0|0:0,0:0:0:0:
338,49,119811,1,0,3:0:0:0:
419,76,120041,2,0,L|432:26,3,35.9999989013672,0|8|0|0,0:0|0:0|3:0|0:0,0:0:0:0:
397,119,120503,2,0,P|388:159|400:197,1,71.9999978027344,8|2,0:0|0:3,0:0:0:0:
464,241,120965,5,0,3:0:0:0:
464,241,121080,1,8,0:0:0:0:
464,241,121195,2,0,L|507:227,2,35.9999989013672,0|0|8,0:0|3:0|0:0,0:0:0:0:
399,299,121657,2,0,L|345:289,1,35.9999989013672,0|8,3:0|0:0,0:0:0:0:
330,264,121888,2,0,L|239:282,1,71.9999978027344,2|0,0:3|3:0,0:0:0:0:
221,256,122234,1,0,0:0:0:0:
221,256,122349,2,0,P|209:208|228:172,1,71.9999978027344,8|2,0:0|0:3,0:0:0:0:
303,139,122811,6,0,P|321:97|285:37,1,107.999996704102,0|0,3:0|3:0,0:0:0:0:
256,26,123272,1,8,0:0:0:0:
170,14,123503,2,0,L|90:23,1,71.9999978027344,0|8,3:0|0:3,0:0:0:0:
45,91,123965,1,0,3:0:0:0:
114,141,124195,2,0,P|131:186|123:222,1,71.9999978027344,8|8,0:0|0:3,0:0:0:0:
104,244,124541,5,0,0:0:0:0:
104,244,124657,2,0,L|40:237,3,35.9999989013672,0|0|0|0,3:0|0:0|0:0|3:0,0:0:0:0:
142,283,125119,1,8,0:0:0:0:
142,283,125234,2,0,P|191:289|211:323,1,71.9999978027344,0|0,0:0|0:0,0:0:0:0:
220,344,125580,2,0,L|271:338,3,35.9999989013672,8|0|0|0,0:3|3:0|0:0|0:0,0:0:0:0:
298,339,126041,2,0,L|298:265,1,71.9999978027344,8|0,0:0|3:0,0:0:0:0:
259,203,126503,5,0,3:0:0:0:
259,203,126618,1,0,0:0:0:0:
259,203,126734,1,12,0:0:0:0:
182,163,126965,2,0,L|94:171,1,71.9999978027344,12|0,0:0|3:0,0:0:0:0:
67,174,127311,1,0,0:0:0:0:
67,174,127426,1,12,0:0:0:0:
17,54,127772,5,8,0:0:0:0:
17,54,127888,2,0,L|65:58,1,35.9999989013672,0|0,3:0|0:0,0:0:0:0:
89,79,128118,2,0,L|124:76,1,35.9999989013672,8|8,0:0|0:0,0:0:0:0:
170,49,128349,6,0,P|204:17|325:44,1,176.000005371094,4|8,3:2|0:0,0:0:0:0:
302,143,129041,1,8,0:3:0:0:
302,143,129157,1,8,0:0:0:0:
302,143,129272,2,0,L|205:136,1,88.000002685547,0|8,3:0|0:3,0:0:0:0:
129,200,129734,1,8,0:0:0:0:
165,299,129965,1,8,0:3:0:0:
269,313,130195,6,0,L|267:360,2,44.0000013427735,0|8|2,3:0|0:0|0:3,0:0:0:0:
345,239,130657,1,8,0:0:0:0:
299,143,130888,1,2,0:3:0:0:
299,143,131003,1,8,0:0:0:0:
299,143,131118,2,0,P|291:84|311:57,1,88.000002685547,0|2,3:0|0:3,0:0:0:0:
410,74,131580,2,0,P|418:133|398:160,1,88.000002685547,8|8,0:0|0:3,0:0:0:0:
363,189,131926,1,0,0:0:0:0:
363,189,132041,5,0,3:0:0:0:
403,286,132272,2,0,B|341:283|341:283|305:262|305:262|229:261,1,176.000005371094,0|8,0:0|0:3,0:0:0:0:
179,264,132849,1,8,0:0:0:0:
179,264,132965,2,0,P|164:208|175:175,1,88.000002685547,0|8,3:0|0:3,0:0:0:0:
253,113,133426,1,8,0:0:0:0:
195,24,133657,6,0,B|93:24|134:73|23:71,1,176.000005371094,2|2,0:3|0:3,0:0:0:0:
5,173,134349,1,8,0:0:0:0:
72,253,134580,2,0,L|66:316,2,44.0000013427735,0|8|0,0:0|0:0|3:0,0:0:0:0:
165,204,135041,1,0,0:0:0:0:
236,315,135272,5,8,3:2:0:0:
347,242,135503,1,10,0:0:0:0:
293,116,135734,6,0,B|395:89|395:89|416:116|471:121,1,176.000005371094,4|8,3:2|0:0,0:0:0:0:
501,214,136426,1,2,0:3:0:0:
501,214,136541,1,8,0:0:0:0:
501,214,136657,2,0,P|511:264|491:299,1,88.000002685547,0|8,3:0|0:3,0:0:0:0:
397,335,137118,1,8,0:0:0:0:
313,269,137349,1,2,0:3:0:0:
228,333,137580,6,0,L|235:379,2,44.0000013427735,0|8|2,3:0|0:0|0:3,0:0:0:0:
148,263,138041,1,8,0:0:0:0:
226,192,138272,1,2,0:3:0:0:
226,192,138388,1,8,0:0:0:0:
226,192,138503,2,0,P|239:141|224:106,1,88.000002685547,0|0,3:0|0:0,0:0:0:0:
135,54,138965,2,0,L|37:66,1,88.000002685547,8|8,0:0|0:3,0:0:0:0:
16,107,139311,5,0,0:0:0:0:
16,107,139426,2,0,L|27:159,2,44.0000013427735,0|8|8,3:0|0:0|0:3,0:0:0:0:
108,187,139888,1,8,0:0:0:0:
47,273,140118,2,0,L|-5:265,3,44.0000013427735,2|8|0|8,0:3|0:0|3:0|0:0,0:0:0:0:
84,313,140580,1,2,0:3:0:0:
168,376,140811,2,0,L|259:356,1,88.000002685547,8|0,0:0|0:0,0:0:0:0:
304,341,141157,1,8,0:0:0:0:
304,341,141272,2,0,L|380:349,3,44.0000013427735,8|8|4|0,0:0|0:0|0:3|0:0,0:0:0:0:
393,319,141734,2,0,L|455:302,3,44.0000013427735,8|8|12|4,0:3|0:3|0:3|0:3,0:0:0:0:
482,330,142195,5,8,0:0:0:0:
434,40,142657,1,8,0:0:0:0:
287,192,143118,6,0,B|238:189|238:189|215:208|215:208|157:205|157:205|173:166,1,176.000005371094,4|8,3:2|0:0,0:0:0:0:
145,66,143811,1,0,0:0:0:0:
145,66,143926,1,8,0:0:0:0:
145,66,144041,2,0,P|98:46|47:64,1,88.000002685547,0|8,3:0|0:3,0:0:0:0:
5,142,144503,1,8,0:0:0:0:
70,224,144734,1,8,0:3:0:0:
46,326,144965,6,0,L|-10:335,2,44.0000013427735,0|8|2,3:0|0:0|0:3,0:0:0:0:
138,376,145426,1,8,0:0:0:0:
224,315,145657,1,0,0:0:0:0:
224,315,145772,1,8,0:0:0:0:
224,315,145888,2,0,L|211:220,1,88.000002685547,0|0,3:0|0:0,0:0:0:0:
158,136,146349,2,0,L|171:41,1,88.000002685547,8|10,0:0|0:0,0:0:0:0:
208,12,146695,1,0,0:0:0:0:
208,12,146811,5,0,3:0:0:0:
263,101,147041,2,0,P|311:145|431:87,1,176.000005371094,2|2,0:3|0:3,0:0:0:0:
444,80,147618,1,8,0:0:0:0:
444,80,147734,2,0,L|439:181,1,88.000002685547,0|2,3:0|0:3,0:0:0:0:
487,262,148195,1,8,0:0:0:0:
409,334,148426,6,0,B|310:307|310:307|274:325|281:370,1,176.000005371094,2|2,0:3|0:3,0:0:0:0:
177,347,149118,2,0,P|199:289|186:254,1,88.000002685547,8|2,0:0|0:3,0:0:0:0:
145,240,149465,1,8,0:0:0:0:
145,240,149580,2,0,L|95:249,2,44.0000013427735,0|8|2,3:0|0:0|0:3,0:0:0:0:
212,158,150041,1,8,0:0:0:0:
151,71,150272,5,8,0:0:0:0:
151,71,150388,1,8,0:0:0:0:
151,71,150503,2,0,P|55:52|6:112,1,176.000005371094,4|8,3:2|0:0,0:0:0:0:
80,180,151195,1,2,0:3:0:0:
80,180,151311,1,8,0:0:0:0:
80,180,151426,2,0,L|86:272,1,88.000002685547,0|2,3:0|0:3,0:0:0:0:
167,335,151888,1,8,0:0:0:0:
252,273,152118,1,2,0:3:0:0:
225,170,152349,6,0,L|168:168,2,44.0000013427735,0|8|2,3:0|0:0|0:3,0:0:0:0:
297,92,152811,1,8,0:0:0:0:
386,146,153041,1,2,0:3:0:0:
386,146,153157,1,8,0:0:0:0:
386,146,153272,2,0,B|369:187|369:187|387:232,1,88.000002685547,0|2,3:0|0:3,0:0:0:0:
483,267,153734,2,0,B|500:308|500:308|482:353,1,88.000002685547,8|2,0:0|0:3,0:0:0:0:
381,373,154195,6,0,L|276:358,1,88.000002685547,0|0,3:0|0:0,0:0:0:0:
227,277,154657,1,8,0:0:0:0:
308,209,154888,2,0,P|351:169|303:73,1,176.000005371094,2|8,0:3|0:3,0:0:0:0:
212,31,155580,1,8,0:0:0:0:
132,100,155811,5,8,0:3:0:0:
132,100,155926,1,0,0:0:0:0:
132,100,156041,2,0,L|141:192,1,88.000002685547,8|8,0:3|0:3,0:0:0:0:
33,276,156503,5,12,0:0:0:0:
118,371,156734,1,0,0:0:0:0:
222,292,156965,1,0,3:0:0:0:
308,352,157195,1,0,0:0:0:0:
308,352,157311,1,8,0:0:0:0:
308,352,157426,2,0,L|360:344,1,44.0000013427735,8|8,0:0|0:3,0:0:0:0:
395,315,157657,2,0,L|438:321,1,44.0000013427735,4|0,0:3|3:0,0:0:0:0:
489,336,157888,5,8,0:0:0:0:
466,206,158118,1,8,0:0:0:0:
223,1,158811,5,8,0:0:0:0:
200,131,159041,1,8,0:0:0:0:
3,379,159734,5,4,3:2:0:0:
500,13,166657,5,8,0:0:0:0:
391,121,167118,6,0,L|252:99,1,128,0|8,3:0|0:0,0:0:0:0:
162,216,168041,2,0,L|301:238,1,128,0|8,3:0|0:0,0:0:0:0:
437,273,168965,6,0,P|446:329|402:386,1,128,0|8,3:0|0:0,0:0:0:0:
329,376,169657,1,8,0:3:0:0:
264,334,169888,2,0,L|212:340,2,32,0|8|8,3:0|0:0|0:3,0:0:0:0:
314,276,170349,1,8,0:0:0:0:
363,217,170580,1,8,0:3:0:0:
363,217,170695,1,0,0:0:0:0:
363,217,170811,6,0,L|351:136,1,64,0|8,3:0|0:3,0:0:0:0:
323,82,171272,2,0,P|279:77|246:92,1,64,8|8,0:0|0:3,0:0:0:0:
202,133,171734,2,0,L|198:182,3,32,0|0|8|0,3:0|0:0|0:3|0:0,0:0:0:0:
141,214,172311,1,0,0:0:0:0:
141,214,172426,2,0,L|101:202,1,32,8|0,0:3|0:0,0:0:0:0:
76,223,172657,2,0,L|44:226,3,32,0|0|8|0,3:0|0:0|0:3|0:0,0:0:0:0:
86,259,173118,2,0,L|117:262,3,32,8|0|8|0,0:0|0:0|0:3|0:0,0:0:0:0:
58,286,173580,6,0,P|41:316|44:347,1,64,0|8,3:0|0:3,0:0:0:0:
115,370,174041,1,8,0:0:0:0:
115,370,174272,2,0,B|171:362|171:362|187:371|187:371|247:365,1,128,4|0,3:2|0:0,0:0:0:0:
446,264,175426,2,0,L|496:274,2,32,0|0|0,0:0|0:0|0:0,0:0:0:0:
396,204,175888,1,8,0:0:0:0:
411,128,176118,6,0,P|377:102|293:116,1,128,4|8,3:2|0:0,0:0:0:0:
244,169,176811,1,8,0:3:0:0:
244,169,176926,1,12,0:3:0:0:
244,169,177041,2,0,L|257:251,1,64,4|0,3:2|0:0,0:0:0:0:
199,287,177503,1,0,3:0:0:0:
199,287,177734,1,8,0:3:0:0:
137,240,177965,6,0,L|156:103,1,128,8|8,3:0|3:0,0:0:0:0:
104,54,178657,1,0,0:0:0:0:
160,2,178888,2,0,P|203:3|246:72,1,128,8|0,3:0|3:0,0:0:0:0:
228,143,179580,1,8,0:0:0:0:
207,217,179811,1,8,0:0:0:0:
235,288,180041,5,4,0:0:0:0:
439,89,182118,6,0,B|391:84|391:84|371:96|371:96|313:93,1,120,8|8,3:0|3:0,0:0:0:0:
249,159,182811,2,0,P|286:198|274:265,1,120,8|8,0:3|0:3,0:0:0:0:
236,283,183272,2,0,L|182:273,1,40,12|4,0:3|0:3,0:0:0:0:
163,240,183503,2,0,L|123:247,1,40,8|0,0:0|0:0,0:0:0:0:
108,249,183734,1,8,0:3:0:0:
98,247,183849,1,12,0:3:0:0:
89,242,183964,1,4,0:3:0:0:
81,236,184080,1,0,3:0:0:0:
76,229,184195,6,0,B|77:152|77:152|101:130|101:130|94:27,1,191.999994140625,4|0,0:0|3:0,0:0:0:0:
94,16,184772,1,8,0:0:0:0:
94,15,184887,1,0,3:0:0:0:
208,2,185118,1,8,0:0:0:0:
257,105,185349,6,0,B|316:138|366:110|366:110|353:50|309:47,1,191.999994140625,4|8,3:2|0:3,0:0:0:0:
322,165,186041,1,8,0:0:0:0:
419,227,186272,1,2,0:3:0:0:
431,227,186388,1,0,0:0:0:0:
441,224,186503,2,0,L|449:159,3,47.9999985351563,0|8|8|8,3:0|0:0|0:0|0:0,0:0:0:0:
468,122,186965,2,0,L|461:62,1,47.9999985351563,8|8,0:0|0:0,0:0:0:0:
447,18,187195,5,0,3:0:0:0:
442,13,187311,1,0,0:0:0:0:
436,9,187426,2,0,B|335:4|385:69|263:58,1,176.000005371094,4|8,3:2|0:0,0:0:0:0:
177,16,188118,1,8,0:3:0:0:
177,16,188234,1,8,0:0:0:0:
177,16,188349,2,0,B|155:58|155:58|179:109,1,88.000002685547,0|8,3:0|0:3,0:0:0:0:
243,173,188811,1,8,0:0:0:0:
177,255,189041,1,8,0:3:0:0:
89,196,189272,6,0,L|93:141,2,44.0000013427735,0|8|8,3:0|0:0|0:3,0:0:0:0:
21,278,189734,1,8,0:0:0:0:
91,356,189965,1,8,0:3:0:0:
91,356,190080,1,8,0:0:0:0:
91,356,190195,2,0,L|195:348,1,88.000002685547,0|0,3:0|0:0,0:0:0:0:
249,269,190657,2,0,L|336:275,1,88.000002685547,8|8,0:0|0:3,0:0:0:0:
389,281,191003,1,8,0:0:0:0:
389,281,191118,5,0,3:0:0:0:
447,193,191349,1,8,0:3:0:0:
392,102,191580,2,0,B|350:90|350:90|306:115,1,88.000002685547,8|8,0:0|0:3,0:0:0:0:
275,150,191926,1,8,0:0:0:0:
275,150,192041,1,0,3:0:0:0:
184,94,192272,1,8,0:3:0:0:
111,171,192503,1,8,0:0:0:0:
190,241,192734,2,0,L|188:293,1,44.0000013427735,0|8,0:0|0:0,0:0:0:0:
149,320,192965,6,0,L|151:368,3,44.0000013427735,0|8|8|8,3:0|0:0|0:3|0:0,0:0:0:0:
114,283,193426,1,10,0:0:0:0:
114,283,193541,1,8,0:3:0:0:
114,283,193657,2,0,L|60:275,1,44.0000013427735,12|0,0:3|0:0,0:0:0:0:
18,267,193888,5,8,0:0:0:0:
445,147,194349,1,8,0:0:0:0:
236,11,194811,6,0,B|220:107|283:93|260:194,1,176.000005371094,4|8,3:2|0:0,0:0:0:0:
187,255,195503,1,8,0:3:0:0:
187,255,195618,1,8,0:0:0:0:
187,255,195734,2,0,L|135:240,2,44.0000013427735,0|8|8,3:0|0:0|0:3,0:0:0:0:
260,331,196195,1,8,0:0:0:0:
349,275,196426,1,8,0:3:0:0:
442,324,196657,6,0,L|437:377,2,44.0000013427735,0|8|2,3:0|0:0|0:3,0:0:0:0:
496,233,197118,1,8,0:0:0:0:
421,158,197349,1,2,0:3:0:0:
421,158,197465,1,8,0:0:0:0:
421,158,197580,2,0,P|372:180|335:167,1,88.000002685547,0|8,3:0|0:3,0:0:0:0:
281,83,198041,1,8,0:0:0:0:
176,100,198272,1,10,0:0:0:0:
71,115,198503,6,0,L|74:66,2,44.0000013427735,0|8|2,3:0|0:0|0:3,0:0:0:0:
6,199,198965,1,8,0:0:0:0:
67,284,199195,1,8,0:3:0:0:
67,284,199311,1,8,0:0:0:0:
67,284,199426,2,0,P|116:290|159:268,1,88.000002685547,0|8,3:0|0:3,0:0:0:0:
195,178,199888,1,8,0:0:0:0:
151,82,200118,6,0,B|226:75|226:75|259:95|259:95|337:93,1,176.000005371094,8|8,0:3|0:3,0:0:0:0:
420,57,200811,2,0,B|437:98|437:98|421:145,1,88.000002685547,8|2,0:0|0:3,0:0:0:0:
390,181,201157,1,8,0:0:0:0:
390,181,201272,2,0,L|342:170,2,44.0000013427735,0|8|8,3:0|0:0|0:3,0:0:0:0:
506,251,201734,5,8,0:0:0:0:
443,368,201965,1,8,0:0:0:0:
425,373,202080,1,8,0:0:0:0:
403,375,202195,6,0,B|338:369|337:315|352:325|345:257|270:259,1,176.000005371094,4|8,3:2|0:0,0:0:0:0:
191,217,202888,1,2,0:3:0:0:
191,217,203003,1,8,0:0:0:0:
191,217,203118,2,0,L|139:231,2,44.0000013427735,0|8|8,3:0|0:0|0:3,0:0:0:0:
245,125,203580,1,8,0:0:0:0:
191,33,203811,5,8,0:3:0:0:
191,33,203926,1,0,0:0:0:0:
191,33,204041,2,0,P|136:21|100:40,1,88.000002685547,0|8,3:0|0:3,0:0:0:0:
48,120,204503,1,8,0:0:0:0:
107,207,204734,1,8,0:3:0:0:
107,207,204849,1,8,0:0:0:0:
107,207,204965,2,0,L|115:299,1,88.000002685547,0|10,3:0|0:3,0:0:0:0:
218,312,205426,2,0,L|210:220,1,88.000002685547,8|8,0:0|0:3,0:0:0:0:
270,136,205888,5,0,3:0:0:0:
363,183,206118,1,8,0:3:0:0:
417,92,206349,1,8,0:0:0:0:
325,39,206580,2,0,B|254:35|254:35|222:52|222:52|143:46,1,176.000005371094,2|8,0:3|0:3,0:0:0:0:
48,32,207272,2,0,L|53:132,1,88.000002685547,8|0,0:0|0:0,0:0:0:0:
72,168,207618,5,8,0:0:0:0:
72,168,207734,2,0,L|58:263,1,88.000002685547,0|4,3:0|3:2,0:0:0:0:
121,340,208195,1,8,0:0:0:0:
121,340,208311,1,4,0:3:0:0:
121,340,208426,2,0,L|175:328,1,44.0000013427735,0|8,3:0|3:0,0:0:0:0:
212,308,208657,2,0,L|263:325,2,44.0000013427735,2|8|0,0:3|0:0|3:0,0:0:0:0:
178,207,209118,1,8,0:0:0:0:
175,196,209233,1,8,0:3:0:0:
174,185,209348,1,4,0:3:0:0:
175,174,209464,1,0,3:0:0:0:
177,163,209579,5,8,0:0:0:0:
309,200,209811,1,8,0:0:0:0:
512,0,210503,5,8,0:0:0:0:
380,36,210735,1,8,0:0:0:0:
322,238,211195,6,0,L|331:297,1,44.0000013427735,0|0,0:0|0:0,0:0:0:0:
338,333,211426,6,0,P|295:357|248:348,1,80,4|0,3:2|0:0,0:0:0:0:
193,291,211888,2,0,P|144:272|112:279,1,80,8|2,0:1|0:3,0:0:0:0:
81,307,212234,1,0,3:0:0:0:
26,227,212465,1,8,0:0:0:0:
26,227,212580,2,0,L|40:128,1,80,0|8,3:0|0:1,0:0:0:0:
99,74,213041,1,8,0:3:0:0:
142,159,213272,6,0,P|193:180|223:168,1,80,0|8,3:0|0:3,0:0:0:0:
273,97,213734,1,8,0:1:0:0:
357,141,213965,1,8,0:3:0:0:
357,141,214080,2,0,L|345:241,1,80,0|8,3:0|0:0,0:0:0:0:
341,268,214426,1,0,3:0:0:0:
267,329,214657,1,8,0:0:0:0:
184,280,214888,2,0,L|198:218,1,40,8|0,0:3|0:0,0:0:0:0:
175,196,215118,6,0,B|187:136|187:136|168:98|168:98|185:31,1,160,0|8,3:0|0:1,0:0:0:0:
273,13,215811,1,8,0:3:0:0:
273,13,215926,2,0,P|329:7|363:48,1,80,0|8,3:0|0:0,0:0:0:0:
379,54,216272,1,8,3:0:0:0:
324,133,216503,1,8,0:1:0:0:
324,133,216618,1,0,0:0:0:0:
324,133,216734,1,10,0:3:0:0:
396,196,216965,6,0,L|458:186,2,40,2|10|2,3:2|0:0|0:0,0:0:0:0:
360,229,217311,2,0,B|379:262|379:262|377:314,1,80,2|2,0:0|0:0,0:0:0:0:
359,348,217657,1,6,0:0:0:0:
266,375,217888,1,2,0:0:0:0:
266,375,218003,1,8,0:0:0:0:
266,375,218118,1,4,0:3:0:0:
203,302,218349,2,0,L|156:299,3,40,8|8|12|4,0:0|0:3|0:3|0:3,0:0:0:0:
115,295,218811,6,0,P|92:250|123:177,1,120,4|0,3:2|0:0,0:0:0:0:
157,172,219272,1,8,0:1:0:0:
241,125,219503,1,8,0:3:0:0:
241,125,219618,1,0,3:0:0:0:
241,125,219734,2,0,L|300:134,2,40,0|8|8,0:0|0:0|3:0,0:0:0:0:
176,53,220195,1,8,0:1:0:0:
79,53,220426,1,8,0:3:0:0:
7,116,220657,6,0,L|22:244,1,120,0|0,3:0|0:0,0:0:0:0:
24,282,221118,1,8,0:1:0:0:
100,340,221349,1,10,0:3:0:0:
100,340,221465,2,0,P|146:351|179:333,1,80,0|8,3:0|0:0,0:0:0:0:
197,295,221811,1,8,3:0:0:0:
182,200,222041,1,8,0:0:0:0:
256,132,222272,2,0,L|299:137,1,40,8|0,0:3|0:0,0:0:0:0:
330,169,222503,6,0,P|382:168|426:262,1,160,0|8,3:0|0:0,0:0:0:0:
383,339,223195,1,8,0:3:0:0:
383,339,223311,2,0,L|297:321,1,80,0|8,0:3|0:0,0:0:0:0:
257,311,223657,1,8,0:3:0:0:
200,233,223888,1,8,0:0:0:0:
265,163,224118,1,2,0:3:0:0:
228,74,224349,5,0,3:0:0:0:
218,69,224465,1,8,0:3:0:0:
210,58,224580,1,12,0:3:0:0:
209,47,224695,2,0,P|234:3|245:-4,2,40,4|12|0,0:3|0:0|0:0,0:0:0:0:
274,0,225041,1,0,0:0:0:0:
350,68,225272,2,0,L|399:58,3,40,8|0|0|0,0:0|0:0|0:0|0:0,0:0:0:0:
432,80,225734,1,10,0:0:0:0:
432,80,225849,1,8,0:0:0:0:
432,80,225965,2,0,L|426:142,1,40,10|0,3:0|0:0,0:0:0:0:
