osu file format v14

[General]
AudioFilename: audio.mp3
AudioLeadIn: 0
PreviewTime: 182705
Countdown: 0
SampleSet: Soft
StackLeniency: 0.7
Mode: 0
LetterboxInBreaks: 0
WidescreenStoryboard: 1

[Editor]
Bookmarks: 7053,12270,19227,33140,47053,60966,74879,76618,83575,90531,97488,104444,111401,125314,139227,146183,154879,161836,168792,182705,196618,210531,212270,214010
DistanceSpacing: 1.5
BeatDivisor: 4
GridSize: 16
TimelineZoom: 1.8

[Metadata]
Title:Sangatsu ga Zutto Tsuzukebaii
TitleUnicode:三月がずっと続けばいい
Artist:Sangatsu no Phantasia
ArtistUnicode:三月のパンタシア
Creator:Listle
Version:Hard
Source:
Tags:Japanese vocal wooi
BeatmapID:2009578
BeatmapSetID:959818

[Difficulty]
HPDrainRate:5
CircleSize:3.8
OverallDifficulty:6
ApproachRate:8
SliderMultiplier:1.4
SliderTickRate:1

[Events]
//Background and Video events
0,0,"D4bi5dqUcAEL-wk.jpg",0,0
//Break Periods
2,40296,42825
2,76818,82825
2,179227,181955
//Storyboard Layer 0 (Background)
//Storyboard Layer 1 (Fail)
//Storyboard Layer 2 (Pass)
//Storyboard Layer 3 (Foreground)
//Storyboard Sound Samples

[TimingPoints]
97,434.782608695652,4,2,2,30,1,0
97,-100,4,2,2,30,0,0
7053,-100,4,2,1,60,0,0
12270,-79.9999999999999,4,2,1,60,0,0
31401,-79.9999999999999,4,2,1,60,0,0
40096,-79.9999999999999,4,2,1,60,0,0
43575,-79.9999999999999,4,2,1,60,0,0
47053,-66.6666666666667,4,2,1,60,0,1
76618,-79.9999999999999,4,2,1,60,0,0
83575,-79.9999999999999,4,2,1,60,0,0
111401,-66.6666666666667,4,2,1,60,0,1
139227,-79.9999999999999,4,2,2,60,0,0
149118,-79.9999999999999,4,2,2,5,0,0
149227,-79.9999999999999,4,2,2,60,0,0
154879,-79.9999999999999,4,2,1,60,0,0
158249,-79.9999999999999,4,2,1,5,0,0
158357,-79.9999999999999,4,2,1,60,0,0
165205,-79.9999999999999,4,2,1,5,0,0
165314,-79.9999999999999,4,2,1,60,0,0
168792,-100,4,2,2,30,0,0
182705,-66.6666666666667,4,2,1,60,0,1
210531,-100,4,2,1,60,0,1
212270,-66.6666666666667,4,2,1,60,0,1
214010,-79.9999999999999,4,2,1,60,0,0
227923,-100,4,2,11,60,0,0
234444,-100,4,2,1,5,0,0

[Colours]
Combo1 : 255,128,128
Combo2 : 255,0,128

[HitObjects]
90,77,97,5,0,0:0:0:0:
90,77,749,1,0,0:0:0:0:
90,77,1618,2,0,L|325:77,1,210
300,77,3575,1,0,0:0:0:0:
300,77,4227,1,0,0:0:0:0:
300,77,5096,2,0,L|300:312,1,210
300,287,6401,2,0,L|228:318,1,70,2|8,0:0|0:0,0:0:0:0:
30,362,7053,6,0,P|45:287|31:207,1,140,4|8,0:0|0:0,0:0:0:0:
6,16,7923,2,0,B|71:38|71:38|168:29,1,140,0|8,0:0|0:0,0:0:0:0:
352,38,8792,2,0,B|417:16|417:16|514:25,1,140,0|8,0:0|0:0,0:0:0:0:
493,233,9662,2,0,P|469:328|480:380,1,140,0|8,0:0|0:0,0:0:0:0:
370,366,10314,1,0,0:0:0:0:
331,268,10531,2,0,B|327:233|344:206|344:206|303:112,1,140,2|8,0:0|0:0,0:0:0:0:
396,71,11183,1,0,0:0:0:0:
313,136,11401,2,0,P|264:158|192:100,1,140,0|8,0:0|0:0,0:0:0:0:
116,46,12053,1,2,0:0:0:0:
11,124,12270,6,0,L|-3:227,1,87.5,4|0,0:0|0:0,0:0:0:0:
114,274,12705,2,0,L|128:377,1,87.5,8|0,0:0|0:0,0:0:0:0:
257,370,13140,2,0,B|364:370,1,87.5,2|0,0:0|0:0,0:0:0:0:
401,337,13466,2,0,P|404:270|423:235,1,87.5,8|0,0:0|0:0,0:0:0:0:
454,201,13792,1,0,0:0:0:0:
371,98,14010,6,0,L|351:10,1,87.5
259,106,14444,2,0,L|279:18,1,87.5,8|0,0:0|0:0,0:0:0:0:
165,88,14879,2,0,B|113:79|113:79|55:92,1,87.5,2|0,0:0|0:0,0:0:0:0:
48,145,15205,2,0,P|71:199|71:264,1,87.5,8|0,0:0|0:0,0:0:0:0:
54,289,15531,1,0,0:0:0:0:
152,375,15749,6,0,L|164:268,1,87.5
210,166,16183,2,0,L|198:59,1,87.5,8|0,0:0|0:0,0:0:0:0:
80,24,16618,2,0,P|62:94|41:109,1,87.5,2|0,0:0|0:0,0:0:0:0:
5,147,16944,2,0,P|70:182|104:176,1,87.5,8|0,0:0|0:0,0:0:0:0:
142,158,17270,1,0,0:0:0:0:
232,61,17488,6,0,L|336:72,1,87.5
410,164,17923,2,0,L|514:153,1,87.5,8|0,0:0|0:0,0:0:0:0:
505,24,18357,2,0,P|455:50|412:45,1,87.5,2|0,0:0|0:0,0:0:0:0:
370,88,18683,2,0,P|407:149|409:194,1,87.5,8|0,0:0|0:0,0:0:0:0:
395,228,19010,1,0,0:0:0:0:
471,334,19227,6,0,P|427:347|377:354,1,87.5,4|0,0:0|0:0,0:0:0:0:
285,268,19662,2,0,P|241:254|191:248,1,87.5,8|0,0:0|0:0,0:0:0:0:
91,321,20096,2,0,P|104:277|111:227,1,87.5
23,137,20531,2,0,P|9:93|3:43,1,87.5,8|0,0:0|0:0,0:0:0:0:
128,12,20966,1,0,0:0:0:0:
245,69,21183,1,0,0:0:0:0:
368,24,21401,2,0,L|483:16,1,87.5,8|0,0:0|0:0,0:0:0:0:
505,139,21836,6,0,L|390:147,1,87.5,2|0,0:0|0:0,0:0:0:0:
350,161,22162,2,0,P|326:102|302:87,1,87.5,8|0,0:0|0:0,0:0:0:0:
245,69,22488,1,0,0:0:0:0:
115,87,22705,6,0,L|23:46,1,87.5
55,181,23140,2,0,B|74:230|74:230|65:290,1,87.5,8|0,0:0|0:0,0:0:0:0:
3,378,23575,2,0,L|111:365,1,87.5,2|0,0:0|0:0,0:0:0:0:
144,331,23901,2,0,L|252:344,1,87.5,8|0,0:0|0:0,0:0:0:0:
292,363,24227,1,0,0:0:0:0:
423,362,24444,6,0,P|399:294|404:262,1,87.5
471,169,24879,2,0,P|495:101|490:69,1,87.5,8|0,0:0|0:0,0:0:0:0:
374,142,25314,2,0,B|336:170|336:170|278:175,1,87.5,2|0,0:0|0:0,0:0:0:0:
231,157,25640,2,0,P|177:184|163:236,1,87.5,8|0,0:0|0:0,0:0:0:0:
168,271,25966,1,0,0:0:0:0:
85,169,26183,6,0,L|71:64,1,87.5
204,86,26618,2,0,L|218:-19,1,87.5,8|0,0:0|0:0,0:0:0:0:
327,68,27053,2,0,L|341:173,1,87.5
414,262,27488,2,0,L|400:367,1,87.5,8|0,0:0|0:0,0:0:0:0:
272,368,27923,5,0,0:0:0:0:
149,321,28140,1,0,0:0:0:0:
27,371,28357,2,0,L|6:273,1,87.5,8|0,0:0|0:0,0:0:0:0:
90,182,28792,2,0,P|64:119|14:103,1,87.5,2|0,0:0|0:0,0:0:0:0:
2,65,29118,2,0,P|42:17|120:41,1,131.25,8|0,0:0|0:0,0:0:0:0:
233,50,29662,6,0,L|223:163,1,87.5
308,236,30096,2,0,L|318:349,1,87.5,8|0,0:0|0:0,0:0:0:0:
194,374,30531,1,0,0:0:0:0:
130,258,30749,1,0,0:0:0:0:
199,146,30966,2,0,L|287:197,1,87.5,8|0,0:0|0:0,0:0:0:0:
359,92,31401,6,0,L|371:0,1,87.5,2|0,0:0|0:0,0:0:0:0:
436,7,31727,2,0,B|459:66|459:66|460:117,1,87.5,2|0,0:0|0:0,0:0:0:0:
473,154,32053,2,0,P|458:217|482:331,1,175,10|0,0:0|0:0,0:0:0:0:
355,371,32705,2,0,L|257:365,1,87.5,8|0,0:0|0:0,0:0:0:0:
136,380,33140,5,6,0:0:0:0:
165,252,33357,1,8,0:0:0:0:
165,252,34444,5,8,0:0:0:0:
136,380,34661,1,2,0:0:0:0:
48,282,34879,2,0,L|28:187,1,87.5,2|0,0:0|0:0,0:0:0:0:
29,196,35749,5,2,0:0:0:0:
114,96,35966,1,2,0:0:0:0:
7,19,36183,2,0,L|19:82,2,43.75,8|0|0,0:0|0:0|0:0,0:0:0:0:
114,96,36618,6,0,P|155:52|198:39,1,87.5
294,106,37053,2,0,P|348:138|386:131,1,87.5,8|0,0:0|0:0,0:0:0:0:
423,255,37488,2,0,P|466:198|466:167,1,87.5
438,56,37923,2,0,P|385:47|349:70,1,87.5,8|0,0:0|0:0,0:0:0:0:
294,176,38357,6,0,L|310:270,1,87.5,2|0,0:0|0:0,0:0:0:0:
214,170,38792,2,0,L|230:264,1,87.5,8|0,0:0|0:0,0:0:0:0:
134,164,39227,2,0,L|150:258,1,87.5,10|0,0:0|0:0,0:0:0:0:
53,159,39662,2,0,L|69:253,1,87.5,10|0,0:0|0:0,0:0:0:0:
21,367,40096,1,6,0:0:0:0:
435,352,43575,6,0,L|327:337,1,87.5,2|0,0:0|0:0,0:0:0:0:
461,272,44010,2,0,L|353:257,1,87.5,8|0,0:0|0:0,0:0:0:0:
484,189,44444,2,0,L|376:174,1,87.5,2|0,0:0|0:0,0:0:0:0:
503,99,44879,2,0,L|395:84,1,87.5,8|0,0:0|0:0,0:0:0:0:
312,6,45314,6,0,P|335:72|304:182,1,175,2|8,0:0|0:0,0:0:0:0:
232,277,45966,1,2,0:0:0:0:
203,149,46183,2,0,P|210:89|254:65,1,87.5,2|0,0:0|0:0,0:0:0:0:
221,51,46510,1,2,0:0:0:0:
221,51,46618,2,0,L|104:43,1,87.5,8|0,0:0|0:0,0:0:0:0:
8,153,47053,6,0,L|17:264,1,105.000004005432,6|0,0:0|0:0,0:0:0:0:
133,151,47488,2,0,L|124:262,1,105.000004005432,10|0,0:0|0:0,0:0:0:0:
241,362,47923,2,0,L|250:251,1,105.000004005432,2|0,0:0|0:0,0:0:0:0:
366,364,48358,2,0,L|357:253,1,105.000004005432,10|0,0:0|0:0,0:0:0:0:
270,128,48792,1,2,0:0:0:0:
413,194,49010,1,0,0:0:0:0:
509,69,49227,1,10,0:0:0:0:
352,81,49444,6,0,P|250:44|180:119,1,210.000008010865,2|0,0:0|0:0,0:0:0:0:
31,148,50096,2,0,L|41:40,1,105.000004005432,10|0,0:0|0:0,0:0:0:0:
183,105,50531,2,0,L|193:213,1,105.000004005432,2|0,0:0|0:0,0:0:0:0:
63,300,50966,1,10,0:0:0:0:
203,370,51183,2,0,B|255:348|255:348|351:374,1,105.000004005432,0|2,0:0|0:0,0:0:0:0:
454,321,51618,1,0,0:0:0:0:
344,206,51836,1,10,0:0:0:0:
301,360,52053,6,0,B|315:287|315:287|241:250|273:139,1,210.000008010865,2|0,0:0|0:0,0:0:0:0:
302,18,52705,2,0,P|330:89|325:128,1,105.000004005432,10|0,0:0|0:0,0:0:0:0:
190,194,53140,2,0,P|160:152|167:84,1,105.000004005432,2|0,0:0|0:0,0:0:0:0:
265,171,53575,2,0,B|293:215|293:215|348:206,1,105.000004005432,10|0,0:0|0:0,0:0:0:0:
497,169,54010,5,6,0:0:0:0:
453,18,54227,1,0,0:0:0:0:
327,116,54444,2,0,L|221:71,1,105.000004005432,10|0,0:0|0:0,0:0:0:0:
88,144,54879,2,0,P|119:73|109:20,1,105.000004005432,2|0,0:0|0:0,0:0:0:0:
4,158,55314,1,10,0:0:0:0:
91,288,55531,1,0,0:0:0:0:
196,170,55749,6,0,P|229:220|230:289,1,105.000004005432,2|0,0:0|0:0,0:0:0:0:
353,366,56183,2,0,P|319:315|319:247,1,105.000004005432,10|0,0:0|0:0,0:0:0:0:
253,357,56618,1,2,0:0:0:0:
390,231,56836,2,0,B|408:176|408:176|388:97,1,105.000004005432,0|10,0:0|0:0,0:0:0:0:
505,16,57270,1,0,0:0:0:0:
397,131,57488,6,0,P|337:80|293:77,1,105.000004005432,2|0,0:0|0:0,0:0:0:0:
156,95,57923,2,0,P|100:107|35:80,1,105.000004005432,10|0,0:0|0:0,0:0:0:0:
195,23,58357,2,0,P|234:79|226:140,1,105.000004005432,2|0,0:0|0:0,0:0:0:0:
174,259,58792,2,0,P|168:322|183:366,1,105.000004005432,10|0,0:0|0:0,0:0:0:0:
337,380,59227,5,14,0:0:0:0:
368,225,59444,1,2,0:0:0:0:
265,345,59662,1,10,0:0:0:0:
217,195,59879,1,2,0:0:0:0:
368,225,60096,2,0,B|426:242|426:242|423:180,1,105.000004005432,10|0,0:0|0:0,0:0:0:0:
367,50,60531,2,0,B|375:1|375:1|442:51,1,105.000004005432,10|0,0:0|0:0,0:0:0:0:
498,170,60966,6,0,L|508:280,1,105.000004005432,6|0,0:0|0:0,0:0:0:0:
389,379,61401,2,0,P|334:358|274:368,1,105.000004005432,10|0,0:0|0:0,0:0:0:0:
175,252,61836,2,0,P|230:273|290:263,1,105.000004005432,2|0,0:0|0:0,0:0:0:0:
395,167,62270,1,10,0:0:0:0:
240,200,62488,1,0,0:0:0:0:
380,267,62705,6,0,P|399:214|386:144,1,105.000004005432,2|0,0:0|0:0,0:0:0:0:
254,99,63140,2,0,P|235:152|248:222,1,105.000004005432,10|0,0:0|0:0,0:0:0:0:
271,354,63575,1,2,0:0:0:0:
323,205,63792,1,0,0:0:0:0:
170,246,64010,2,0,L|54:237,1,105.000004005432,10|0,0:0|0:0,0:0:0:0:
199,320,64444,6,0,P|244:274|240:220,1,105.000004005432,2|0,0:0|0:0,0:0:0:0:
186,89,64879,1,10,0:0:0:0:
316,176,65096,2,0,B|377:153|420:200|420:200|407:146|453:87,1,210.000008010865,2|0,0:0|0:0,0:0:0:0:
354,243,65749,1,10,0:0:0:0:
362,86,65966,2,0,P|460:35|518:120,1,210.000008010865,2|0,0:0|0:0,0:0:0:0:
501,250,66618,1,10,0:0:0:0:
394,366,66836,2,0,B|397:310|397:310|355:241,1,105.000004005432,0|2,0:0|0:0,0:0:0:0:
351,112,67270,1,0,0:0:0:0:
222,204,67488,6,0,P|173:258|106:269,1,105.000004005432,10|0,0:0|0:0,0:0:0:0:
22,167,67923,1,6,0:0:0:0:
68,16,68140,1,0,0:0:0:0:
190,114,68357,2,0,L|311:102,1,105.000004005432,10|0,0:0|0:0,0:0:0:0:
423,12,68792,2,0,P|391:70|398:145,1,105.000004005432,2|0,0:0|0:0,0:0:0:0:
499,219,69227,5,10,0:0:0:0:
482,375,69444,2,0,P|410:356|346:370,1,105.000004005432,0|2,0:0|0:0,0:0:0:0:
223,375,69879,1,0,0:0:0:0:
301,238,70096,2,0,L|322:114,1,105.000004005432,10|0,0:0|0:0,0:0:0:0:
219,257,70531,1,2,0:0:0:0:
155,112,70749,2,0,P|90:85|-4:188,1,210.000008010865,10|0,0:0|0:0,0:0:0:0:
112,275,71401,6,0,L|79:149,1,105.000004005432,6|0,0:0|0:0,0:0:0:0:
240,141,71836,2,0,L|273:15,1,105.000004005432,10|0,0:0|0:0,0:0:0:0:
421,13,72270,2,0,L|454:139,1,105.000004005432,2|0,0:0|0:0,0:0:0:0:
344,233,72705,2,0,L|311:359,1,105.000004005432,10|0,0:0|0:0,0:0:0:0:
469,377,73140,1,6,0:0:0:0:
435,223,73357,1,2,0:0:0:0:
387,373,73575,1,10,0:0:0:0:
276,261,73792,1,2,0:0:0:0:
394,156,74010,6,0,P|457:149|502:185,1,105.000004005432,10|0,0:0|0:0,0:0:0:0:
346,231,74444,2,0,P|310:183|324:107,1,105.000004005432,10|0,0:0|0:0,0:0:0:0:
404,14,74879,5,6,0:0:0:0:
404,14,75749,2,0,P|294:49|171:-10,1,210.000008010865,2|8,0:0|0:0,0:0:0:0:
52,53,76401,1,2,0:0:0:0:
83,180,76618,1,6,0:0:0:0:
269,180,83575,6,0,L|246:88,1,87.5,4|0,0:0|0:0,0:0:0:0:
122,134,84010,2,0,L|135:44,1,87.5,8|0,0:0|0:0,0:0:0:0:
13,98,84444,2,0,L|0:188,1,87.5
128,216,84879,2,0,L|139:315,1,87.5,8|0,0:0|0:0,0:0:0:0:
252,366,85314,1,0,0:0:0:0:
353,282,85531,1,0,0:0:0:0:
228,238,85749,2,0,L|220:145,1,87.5,8|0,0:0|0:0,0:0:0:0:
341,201,86183,6,0,P|399:216|427:250,1,87.5,2|0,0:0|0:0,0:0:0:0:
471,273,86510,2,0,P|499:228|492:182,1,87.5,8|0,0:0|0:0,0:0:0:0:
480,131,86836,1,0,0:0:0:0:
508,3,87053,6,0,L|416:12,1,87.5
480,131,87488,2,0,L|388:122,1,87.5,8|0,0:0|0:0,0:0:0:0:
307,22,87923,2,0,L|215:13,1,87.5
298,118,88357,2,0,L|206:127,1,87.5,8|0,0:0|0:0,0:0:0:0:
139,15,88792,5,0,0:0:0:0:
97,139,89010,1,0,0:0:0:0:
194,225,89227,2,0,L|168:326,1,87.5,8|0,0:0|0:0,0:0:0:0:
57,374,89662,2,0,P|65:316|55:279,1,87.5,2|0,0:0|0:0,0:0:0:0:
26,230,89988,2,0,P|15:179|26:134,1,87.5,8|0,0:0|0:0,0:0:0:0:
47,84,90314,1,0,0:0:0:0:
143,173,90531,6,0,L|234:164,1,87.5,6|0,0:0|0:0,0:0:0:0:
328,77,90966,2,0,L|419:86,1,87.5,8|0,0:0|0:0,0:0:0:0:
486,196,91401,2,0,P|474:262|482:292,1,87.5,2|0,0:0|0:0,0:0:0:0:
380,369,91836,2,0,P|392:303|384:273,1,87.5,8|0,0:0|0:0,0:0:0:0:
299,187,92270,1,2,0:0:0:0:
319,317,92488,1,0,0:0:0:0:
197,267,92705,2,0,L|181:175,1,87.5,8|0,0:0|0:0,0:0:0:0:
74,256,93140,6,0,P|82:305|77:351,1,87.5,2|0,0:0|0:0,0:0:0:0:
134,376,93466,2,0,P|191:364|229:377,1,87.5,8|0,0:0|0:0,0:0:0:0:
283,368,93792,1,0,0:0:0:0:
236,244,94010,6,0,L|225:150,1,87.5,2|0,0:0|0:0,0:0:0:0:
349,199,94444,2,0,L|360:293,1,87.5,8|0,0:0|0:0,0:0:0:0:
457,373,94879,2,0,P|437:323|456:300,1,87.5,2|0,0:0|0:0,0:0:0:0:
501,254,95205,2,0,L|488:164,1,87.5,8|0,0:0|0:0,0:0:0:0:
460,108,95531,1,0,0:0:0:0:
364,17,95749,6,0,P|304:30|271:19,1,87.5,2|0,0:0|0:0,0:0:0:0:
215,36,96075,2,0,P|169:31|119:40,1,87.5,2|0,0:0|0:0,0:0:0:0:
74,74,96401,2,0,P|102:128|48:226,1,175,10|0,0:0|0:0,0:0:0:0:
4,344,97053,2,0,P|75:322|98:328,1,87.5,8|0,0:0|0:0,0:0:0:0:
208,372,97488,1,6,0:0:0:0:
334,339,97705,1,8,0:0:0:0:
334,339,98140,6,0,L|325:278,1,43.75,8|0,0:0|0:0,0:0:0:0:
287,243,98357,2,0,B|299:189|299:189|289:147,1,87.5,2|0,0:0|0:0,0:0:0:0:
202,60,98792,2,0,L|213:152,1,87.5,8|0,0:0|0:0,0:0:0:0:
173,272,99227,5,2,0:0:0:0:
128,148,99444,1,8,0:0:0:0:
128,148,100096,2,0,L|64:159,1,43.75,2|0,0:0|0:0,0:0:0:0:
18,149,100314,2,0,B|1:101|1:101|11:63,1,87.5,2|8,0:0|0:0,0:0:0:0:
128,7,100749,1,2,0:0:0:0:
249,55,100966,6,0,L|341:71,1,87.5,6|0,0:0|0:0,0:0:0:0:
464,44,101401,1,8,0:0:0:0:
442,173,101618,1,0,0:0:0:0:
329,240,101836,2,0,L|344:336,1,87.5,6|0,0:0|0:0,0:0:0:0:
460,383,102270,1,8,0:0:0:0:
510,261,102488,1,0,0:0:0:0:
425,161,102705,6,0,L|330:121,1,87.5,2|0,0:0|0:0,0:0:0:0:
228,64,103140,2,0,L|133:104,1,87.5,8|0,0:0|0:0,0:0:0:0:
77,209,103575,2,0,P|87:157|71:119,1,87.5,10|0,0:0|0:0,0:0:0:0:
18,6,104010,2,0,P|76:21|123:12,1,87.5,8|0,0:0|0:0,0:0:0:0:
228,64,104444,6,0,L|328:57,1,87.5,4|0,0:0|0:0,0:0:0:0:
445,79,104879,2,0,P|421:130|425:182,1,87.5,8|0,0:0|0:0,0:0:0:0:
505,260,105314,2,0,L|409:276,1,87.5
311,351,105749,2,0,P|317:300|304:250,1,87.5,8|0,0:0|0:0,0:0:0:0:
201,338,106183,2,0,L|114:359,1,87.5
22,265,106618,2,0,P|37:316|32:352,1,87.5,8|0,0:0|0:0,0:0:0:0:
117,249,107053,2,0,L|210:232,1,87.5
289,134,107488,2,0,P|290:198|311:239,1,87.5,8|0,0:0|0:0,0:0:0:0:
387,316,107923,5,2,0:0:0:0:
428,191,108140,1,2,0:0:0:0:
319,264,108357,1,8,0:0:0:0:
289,134,108575,1,2,0:0:0:0:
202,232,108792,1,10,0:0:0:0:
328,194,109010,1,2,0:0:0:0:
231,105,109227,1,8,0:0:0:0:
202,232,109444,1,8,0:0:0:0:
93,306,109662,6,0,P|64:225|117:147,1,175,2|8,0:0|0:0,0:0:0:0:
231,105,110314,1,2,0:0:0:0:
124,28,110531,2,0,L|31:6,1,87.5,8|0,0:0|0:0,0:0:0:0:
21,133,110966,2,0,L|114:155,1,87.5,8|0,0:0|0:0,0:0:0:0:
205,30,111401,6,0,L|318:20,1,105.000004005432,6|0,0:0|0:0,0:0:0:0:
464,50,111836,2,0,P|434:105|439:156,1,105.000004005432,10|0,0:0|0:0,0:0:0:0:
502,288,112270,2,0,P|505:347|476:382,1,105.000004005432,2|0,0:0|0:0,0:0:0:0:
359,275,112705,2,0,P|352:207|367:169,1,105.000004005432,10|0,0:0|0:0,0:0:0:0:
341,17,113140,1,2,0:0:0:0:
219,116,113357,1,0,0:0:0:0:
94,18,113575,1,10,0:0:0:0:
156,162,113792,2,0,P|252:188|292:90,1,210.000008010865,2|0,0:0|0:0,0:0:0:0:
138,86,114444,2,0,P|93:118|81:180,1,105.000004005432,10|0,0:0|0:0,0:0:0:0:
21,310,114879,6,0,L|131:298,1,105.000004005432,2|0,0:0|0:0,0:0:0:0:
268,366,115314,2,0,L|378:378,1,105.000004005432,10|0,0:0|0:0,0:0:0:0:
240,290,115749,2,0,L|350:278,1,105.000004005432,2|0,0:0|0:0,0:0:0:0:
493,328,116183,1,10,0:0:0:0:
405,196,116401,2,0,P|387:128|492:18,1,210.000008010865,2|0,0:0|0:0,0:0:0:0:
510,175,117053,1,10,0:0:0:0:
493,328,117270,2,0,B|429:312|429:312|378:334|378:334|290:313,1,210.000008010865,2|0,0:0|0:0,0:0:0:0:
141,365,117923,2,0,P|158:301|144:261,1,105.000004005432,10|0,0:0|0:0,0:0:0:0:
35,155,118357,5,2,0:0:0:0:
89,6,118575,1,0,0:0:0:0:
188,127,118792,2,0,L|310:117,1,105.000004005432,10|0,0:0|0:0,0:0:0:0:
413,16,119227,1,2,0:0:0:0:
446,169,119444,1,0,0:0:0:0:
292,118,119662,2,0,L|249:11,1,105.000004005432,10|0,0:0|0:0,0:0:0:0:
95,20,120096,6,0,L|138:127,1,105.000004005432,2|0,0:0|0:0,0:0:0:0:
172,270,120531,2,0,L|215:163,1,105.000004005432,10|0,0:0|0:0,0:0:0:0:
252,20,120966,2,0,L|295:127,1,105.000004005432,2|0,0:0|0:0,0:0:0:0:
322,272,121401,2,0,L|365:165,1,105.000004005432,10|0,0:0|0:0,0:0:0:0:
488,80,121836,2,0,P|424:102|370:78,1,105.000004005432,2|0,0:0|0:0,0:0:0:0:
252,20,122270,1,10,0:0:0:0:
124,112,122488,6,0,P|122:182|151:235,1,105.000004005432,0|2,0:0|0:0,0:0:0:0:
107,368,122923,1,0,0:0:0:0:
252,309,123140,2,0,L|360:339,1,105.000004005432,10|0,0:0|0:0,0:0:0:0:
505,378,123575,5,6,0:0:0:0:
438,235,123792,1,2,0:0:0:0:
508,93,124010,2,0,L|465:-4,1,105.000004005432,10|0,0:0|0:0,0:0:0:0:
308,9,124444,1,10,0:0:0:0:
384,147,124662,1,2,0:0:0:0:
303,282,124879,2,0,L|337:384,1,105.000004005432,10|0,0:0|0:0,0:0:0:0:
178,378,125314,6,0,P|122:368|70:378,1,105.000004005432,6|0,0:0|0:0,0:0:0:0:
3,235,125749,1,10,0:0:0:0:
111,121,125966,2,0,B|137:172|137:172|134:267,1,105.000004005432,0|2,0:0|0:0,0:0:0:0:
9,124,126401,1,0,0:0:0:0:
127,20,126618,1,10,0:0:0:0:
266,94,126836,2,0,B|325:119|325:119|354:24|471:59,1,210.000008010865,2|0,0:0|0:0,0:0:0:0:
499,213,127488,1,10,0:0:0:0:
404,338,127705,2,0,B|366:382|366:382|414:304|401:213,1,210.000008010865,2|0,0:0|0:0,0:0:0:0:
291,349,128357,6,0,P|321:290|323:246,1,105.000004005432,10|0,0:0|0:0,0:0:0:0:
241,117,128792,2,0,P|211:176|209:220,1,105.000004005432,2|0,0:0|0:0,0:0:0:0:
291,349,129227,1,10,0:0:0:0:
135,372,129444,2,0,P|69:367|14:232,1,210.000008010865,2|0,0:0|0:0,0:0:0:0:
4,92,130096,1,10,0:0:0:0:
141,169,130314,2,0,P|157:283|63:267,1,210.000008010865,2|0,0:0|0:0,0:0:0:0:
70,133,130966,1,2,0:0:0:0:
198,42,131183,2,0,B|304:16|304:16|408:43,1,210.000008010865,2|0,0:0|0:0,0:0:0:0:
256,106,131836,2,0,L|150:134,1,105.000004005432,10|0,0:0|0:0,0:0:0:0:
49,15,132270,6,0,P|83:69|71:128,1,105.000004005432,6|0,0:0|0:0,0:0:0:0:
50,263,132705,2,0,P|16:317|28:376,1,105.000004005432,10|0,0:0|0:0,0:0:0:0:
174,381,133140,1,2,0:0:0:0:
304,292,133357,2,0,P|297:220|250:178,1,105.000004005432,0|10,0:0|0:0,0:0:0:0:
120,207,133792,1,0,0:0:0:0:
246,113,134010,2,0,L|375:137,1,105.000004005432,2|0,0:0|0:0,0:0:0:0:
409,277,134444,2,0,L|538:253,1,105.000004005432,10|0,0:0|0:0,0:0:0:0:
483,102,134879,1,2,0:0:0:0:
352,15,135096,6,0,B|243:31|243:31|121:10,1,210.000008010865,10|0,0:0|0:0,0:0:0:0:
59,148,135749,2,0,P|82:84|64:36,1,105.000004005432,2|0,0:0|0:0,0:0:0:0:
159,181,136183,2,0,P|136:245|154:293,1,105.000004005432,10|0,0:0|0:0,0:0:0:0:
272,371,136618,2,0,P|295:307|277:259,1,105.000004005432,2|0,0:0|0:0,0:0:0:0:
240,121,137053,1,10,0:0:0:0:
372,206,137270,1,0,0:0:0:0:
376,363,137488,2,0,L|264:371,1,105.000004005432,6|0,0:0|0:0,0:0:0:0:
116,339,137923,2,0,L|4:331,1,105.000004005432,10|0,0:0|0:0,0:0:0:0:
29,175,138357,5,10,0:0:0:0:
159,263,138575,1,2,0:0:0:0:
92,120,138792,1,10,0:0:0:0:
243,163,139010,1,2,0:0:0:0:
212,35,139227,6,0,B|114:45|114:45|20:15,1,175,12|8,0:0|0:0,0:0:0:0:
41,21,139879,1,8,0:0:0:0:
27,151,140096,2,0,B|0:237|0:237|39:348,1,175,2|8,0:0|0:0,0:0:0:0:
149,378,140749,1,2,0:0:0:0:
201,257,140966,2,0,B|106:300|106:300|75:214,1,175,8|8,0:0|0:0,0:0:0:0:
123,108,141618,2,0,L|159:207,1,87.5,8|2,0:0|0:0,0:0:0:0:
274,239,142053,5,2,0:0:0:0:
282,108,142270,1,2,0:0:0:0:
179,25,142488,1,8,0:0:0:0:
282,108,142705,2,0,P|344:117|362:14,1,175,2|8,0:0|0:0,0:0:0:0:
463,119,143357,1,2,0:0:0:0:
482,249,143575,2,0,L|474:344,1,87.5,2|0,0:0|0:0,0:0:0:0:
354,283,144010,2,0,L|362:378,1,87.5,8|0,0:0|0:0,0:0:0:0:
230,380,144444,5,2,0:0:0:0:
262,252,144662,1,2,0:0:0:0:
165,163,144879,2,0,L|190:61,1,87.5,8|0,0:0|0:0,0:0:0:0:
87,165,145314,2,0,P|142:240|226:214,1,175,2|8,0:0|0:0,0:0:0:0:
213,226,146183,6,0,L|213:323,1,87.5,6|0,0:0|0:0,0:0:0:0:
342,289,146618,2,0,L|342:386,1,87.5,8|0,0:0|0:0,0:0:0:0:
468,338,147053,2,0,L|468:241,1,87.5,2|0,0:0|0:0,0:0:0:0:
380,152,147488,2,0,L|380:55,1,87.5,8|0,0:0|0:0,0:0:0:0:
498,6,147923,1,2,0:0:0:0:
488,136,148140,1,0,0:0:0:0:
380,64,148357,2,0,L|283:64,1,87.5,8|0,0:0|0:0,0:0:0:0:
210,166,148792,2,0,P|222:100|168:29,1,131.25,2|0,0:0|0:0,0:0:0:0:
126,41,149227,6,0,L|34:32,1,87.5,8|0,0:0|0:0,0:0:0:0:
46,163,149662,2,0,B|63:215|63:215|22:265|34:336,1,175,2|8,0:0|0:0,0:0:0:0:
153,380,150314,1,0,0:0:0:0:
239,282,150531,2,0,P|174:263|132:273,1,87.5,2|0,0:0|0:0,0:0:0:0:
239,366,150966,2,0,P|304:385|346:375,1,87.5,8|0,0:0|0:0,0:0:0:0:
454,381,151401,5,2,0:0:0:0:
454,381,151836,1,2,0:0:0:0:
454,381,152270,1,10,0:0:0:0:
454,381,153140,6,0,L|477:281,1,87.5,8|0,0:0|0:0,0:0:0:0:
397,188,153575,2,0,L|374:288,1,87.5,8|0,0:0|0:0,0:0:0:0:
486,199,154010,1,2,0:0:0:0:
486,199,154444,6,0,L|509:99,1,87.5,8|0,0:0|0:0,0:0:0:0:
427,7,154879,2,0,P|379:24|315:18,1,87.5,6|0,0:0|0:0,0:0:0:0:
321,21,155205,1,0,0:0:0:0:
321,21,155314,2,0,P|319:85|331:121,1,87.5,8|0,0:0|0:0,0:0:0:0:
370,155,155640,2,0,L|371:255,1,87.5,2|0,0:0|0:0,0:0:0:0:
337,299,155966,1,0,0:0:0:0:
229,374,156183,2,0,L|228:274,1,87.5,8|0,0:0|0:0,0:0:0:0:
132,196,156618,6,0,P|185:212|230:210,1,87.5,2|0,0:0|0:0,0:0:0:0:
230,147,156944,2,0,P|177:131|132:133,1,87.5,8|0,0:0|0:0,0:0:0:0:
35,204,157379,2,0,P|43:255|37:307,1,87.5,2|0,0:0|0:0,0:0:0:0:
15,351,157705,1,0,0:0:0:0:
143,377,157923,2,0,P|208:355|291:382,1,131.25,8|0,0:0|0:0,0:0:0:0:
331,380,158357,6,0,L|443:370,1,87.5,2|0,0:0|0:0,0:0:0:0:
506,274,158792,2,0,P|490:217|495:169,1,87.5,8|0,0:0|0:0,0:0:0:0:
389,104,159227,2,0,P|405:47|400:-1,1,87.5,2|0,0:0|0:0,0:0:0:0:
296,94,159662,1,8,0:0:0:0:
371,201,159879,1,0,0:0:0:0:
247,158,160096,2,0,P|224:59|288:12,1,175,2|8,0:0|0:0,0:0:0:0:
404,19,160749,1,0,0:0:0:0:
296,94,160966,2,0,P|220:81|160:181,1,175,2|8,0:0|0:0,0:0:0:0:
165,279,161618,1,0,0:0:0:0:
38,242,161836,6,0,L|33:146,1,87.5,6|2,0:0|0:0,0:0:0:0:
159,148,162270,2,0,L|154:52,1,87.5,8|0,0:0|0:0,0:0:0:0:
240,159,162705,1,8,0:0:0:0:
314,267,162923,2,0,B|335:317|335:317|327:374,1,87.5,0|8,0:0|0:0,0:0:0:0:
202,378,163357,1,0,0:0:0:0:
100,294,163575,6,0,L|196:303,1,87.5,2|2,0:0|0:0,0:0:0:0:
314,267,164010,2,0,L|410:258,1,87.5,8|0,0:0|0:0,0:0:0:0:
485,359,164444,1,8,0:0:0:0:
509,229,164662,1,0,0:0:0:0:
399,156,164879,2,0,P|395:91|470:31,1,131.25,8|0,0:0|0:0,0:0:0:0:
435,42,165314,6,0,L|352:28,3,43.75,2|0|0|0,0:0|0:0|0:0|0:0,0:0:0:0:
327,48,165749,2,0,L|243:62,3,43.75,10|0|0|0,0:0|0:0|0:0|0:0,0:0:0:0:
218,52,166183,2,0,L|134:37,3,43.75,2|0|0|0,0:0|0:0|0:0|0:0,0:0:0:0:
109,41,166618,2,0,L|25:55,3,43.75,10|0|0|0,0:0|0:0|0:0|0:0,0:0:0:0:
2,64,167053,5,8,0:0:0:0:
22,193,167270,1,8,0:0:0:0:
115,100,167488,1,10,0:0:0:0:
148,226,167705,1,8,0:0:0:0:
22,193,167923,6,0,B|32:141|32:141|57:93,1,87.5,10|2,0:0|0:0,0:0:0:0:
173,143,168357,2,0,B|163:195|163:195|138:243,1,87.5,10|2,0:0|0:0,0:0:0:0:
94,316,168792,5,14,0:0:0:0:
94,316,169444,1,0,0:0:0:0:
94,316,170314,2,0,B|236:339|236:339|370:315,1,280,2|2,0:0|0:0,0:0:0:0:
370,314,172270,5,10,0:0:0:0:
370,314,172923,1,2,0:0:0:0:
370,314,173792,2,0,B|347:172|347:172|371:38,1,280,2|2,0:0|0:0,0:0:0:0:
371,37,175749,5,10,0:0:0:0:
371,37,176401,1,2,0:0:0:0:
371,37,177270,2,0,B|229:14|229:14|95:38,1,280,2|2,0:0|0:0,0:0:0:0:
61,353,182705,6,0,L|177:338,1,105.000004005432,6|0,0:0|0:0,0:0:0:0:
322,345,183140,2,0,L|438:360,1,105.000004005432,10|0,0:0|0:0,0:0:0:0:
509,224,183575,2,0,P|474:159|484:121,1,105.000004005432,2|0,0:0|0:0,0:0:0:0:
329,181,184010,2,0,P|364:246|354:284,1,105.000004005432,10|0,0:0|0:0,0:0:0:0:
242,378,184444,2,0,P|207:313|217:275,1,105.000004005432,2|0,0:0|0:0,0:0:0:0:
329,181,184879,1,10,0:0:0:0:
293,27,185096,2,0,B|186:54|186:54|75:24,1,210.000008010865,2|0,0:0|0:0,0:0:0:0:
7,163,185749,2,0,P|14:222|11:269,1,105.000004005432,10|0,0:0|0:0,0:0:0:0:
122,377,186183,5,2,0:0:0:0:
86,223,186401,1,0,0:0:0:0:
236,267,186618,2,0,B|243:328|243:328|236:381,1,105.000004005432,10|0,0:0|0:0,0:0:0:0:
87,327,187053,2,0,B|80:266|80:266|87:213,1,105.000004005432,2|0,0:0|0:0,0:0:0:0:
150,78,187488,1,10,0:0:0:0:
291,145,187705,2,0,P|241:192|252:107,1,210.000008010865,2|0,0:0|0:0,0:0:0:0:
407,131,188357,1,10,0:0:0:0:
303,250,188575,2,0,P|195:252|134:151,1,210.000008010865,2|0,0:0|0:0,0:0:0:0:
125,19,189227,2,0,L|15:9,1,105.000004005432,10|0,0:0|0:0,0:0:0:0:
32,171,189662,6,0,L|152:178,1,105.000004005432,6|0,0:0|0:0,0:0:0:0:
257,76,190096,2,0,L|377:69,1,105.000004005432,10|0,0:0|0:0,0:0:0:0:
483,170,190531,1,2,0:0:0:0:
432,319,190749,2,0,P|378:295|243:357,1,210.000008010865,10|0,0:0|0:0,0:0:0:0:
91,378,191401,2,0,L|98:271,1,105.000004005432,2|0,0:0|0:0,0:0:0:0:
253,247,191836,2,0,L|246:140,1,105.000004005432,10|0,0:0|0:0,0:0:0:0:
361,35,192270,2,0,L|354:142,1,105.000004005432,2|0,0:0|0:0,0:0:0:0:
499,202,192705,2,0,L|506:309,1,105.000004005432,10|0,0:0|0:0,0:0:0:0:
351,342,193140,5,2,0:0:0:0:
197,375,193357,1,0,0:0:0:0:
262,231,193575,2,0,L|209:127,1,105.000004005432,10|0,0:0|0:0,0:0:0:0:
88,41,194010,1,2,0:0:0:0:
68,196,194227,1,0,0:0:0:0:
214,137,194444,2,0,L|328:113,1,105.000004005432,10|0,0:0|0:0,0:0:0:0:
430,6,194879,5,6,0:0:0:0:
396,159,195096,1,2,0:0:0:0:
510,267,195314,2,0,L|487:152,1,105.000004005432,10|0,0:0|0:0,0:0:0:0:
371,58,195749,1,10,0:0:0:0:
298,197,195966,1,2,0:0:0:0:
151,139,196183,2,0,L|116:17,1,105.000004005432,10|0,0:0|0:0,0:0:0:0:
269,96,196618,6,0,L|304:218,1,105.000004005432,6|0,0:0|0:0,0:0:0:0:
371,58,197053,2,0,L|406:180,1,105.000004005432,10|0,0:0|0:0,0:0:0:0:
294,276,197488,2,0,L|329:398,1,105.000004005432,2|0,0:0|0:0,0:0:0:0:
409,244,197923,2,0,L|444:366,1,105.000004005432,10|0,0:0|0:0,0:0:0:0:
294,276,198357,1,2,0:0:0:0:
211,141,198575,1,0,0:0:0:0:
368,143,198792,1,10,0:0:0:0:
294,276,199010,6,0,B|201:331|201:331|96:331,1,210.000008010865,2|0,0:0|0:0,0:0:0:0:
11,199,199662,2,0,P|20:134|9:93,1,105.000004005432,10|0,0:0|0:0,0:0:0:0:
145,16,200096,6,0,L|251:24,1,105.000004005432,2|0,0:0|0:0,0:0:0:0:
114,106,200531,2,0,L|220:98,1,105.000004005432,10|0,0:0|0:0,0:0:0:0:
85,183,200966,2,0,L|191:191,1,105.000004005432,2|0,0:0|0:0,0:0:0:0:
331,260,201401,1,10,0:0:0:0:
452,160,201618,2,0,P|409:100|495:16,1,210.000008010865,2|0,0:0|0:0,0:0:0:0:
338,63,202270,2,0,P|274:73|229:55,1,105.000004005432,2|0,0:0|0:0,0:0:0:0:
85,17,202705,6,0,L|110:119,1,105.000004005432,10|0,0:0|0:0,0:0:0:0:
45,263,203140,2,0,L|20:365,1,105.000004005432,10|0,0:0|0:0,0:0:0:0:
177,375,203575,2,0,P|161:317|171:269,1,105.000004005432,6|0,0:0|0:0,0:0:0:0:
318,223,204010,2,0,P|334:165|324:117,1,105.000004005432,10|0,0:0|0:0,0:0:0:0:
177,172,204444,2,0,P|161:230|171:278,1,105.000004005432,2|0,0:0|0:0,0:0:0:0:
315,324,204879,2,0,P|327:266|315:217,1,105.000004005432,10|0,0:0|0:0,0:0:0:0:
236,86,205314,5,2,0:0:0:0:
383,139,205531,1,0,0:0:0:0:
227,164,205749,1,10,0:0:0:0:
351,68,205966,1,0,0:0:0:0:
203,13,206183,2,0,L|94:28,1,105.000004005432,2|0,0:0|0:0,0:0:0:0:
122,178,206618,2,0,L|231:163,1,105.000004005432,10|0,0:0|0:0,0:0:0:0:
351,68,207053,6,0,P|400:161|384:276,1,210.000008010865,2|10,0:0|0:0,0:0:0:0:
265,358,207705,2,0,P|216:265|232:150,1,210.000008010865,2|0,0:0|0:0,0:0:0:0:
351,68,208357,1,10,0:0:0:0:
225,163,208575,1,0,0:0:0:0:
246,7,208792,6,0,P|276:69|267:116,1,105.000004005432,6|0,0:0|0:0,0:0:0:0:
178,230,209227,2,0,P|148:292|157:339,1,105.000004005432,10|0,0:0|0:0,0:0:0:0:
301,377,209662,1,10,0:0:0:0:
261,224,209879,1,2,0:0:0:0:
220,375,210096,1,10,0:0:0:0:
372,332,210314,1,2,0:0:0:0:
261,224,210531,6,0,B|214:165|214:165|238:87|238:87|305:157|305:157|369:107|369:107|306:27,1,420,6|2,0:0|0:0,0:0:0:0:
169,49,212053,1,2,0:0:0:0:
134,148,212270,2,0,L|170:47,1,105.000004005432,6|0,0:0|0:0,0:0:0:0:
37,135,212705,2,0,L|1:236,1,105.000004005432,8|0,0:0|0:0,0:0:0:0:
67,377,213140,2,0,P|127:360|185:367,1,105.000004005432,2|0,0:0|0:0,0:0:0:0:
325,345,213575,2,0,P|385:362|443:355,1,105.000004005432,8|0,0:0|0:0,0:0:0:0:
494,246,214010,6,0,B|483:129,1,87.5,4|0,0:0|0:0,0:0:0:0:
377,84,214444,2,0,B|388:201,1,87.5,8|0,0:0|0:0,0:0:0:0:
281,251,214879,2,0,P|301:201|280:151,1,87.5,2|0,0:0|0:0,0:0:0:0:
234,141,215205,2,0,P|209:83|214:46,1,87.5,8|0,0:0|0:0,0:0:0:0:
250,8,215531,1,0,0:0:0:0:
122,40,215749,6,0,L|15:22,1,87.5,2|0,0:0|0:0,0:0:0:0:
125,120,216183,2,0,L|18:102,1,87.5,8|0,0:0|0:0,0:0:0:0:
72,232,216618,2,0,P|123:229|179:250,1,87.5,2|0,0:0|0:0,0:0:0:0:
190,295,216944,2,0,P|241:298|297:277,1,87.5,8|0,0:0|0:0,0:0:0:0:
338,269,217270,1,0,0:0:0:0:
469,261,217488,6,0,P|488:330|483:370,1,87.5,2|0,0:0|0:0,0:0:0:0:
356,353,217923,2,0,P|337:284|342:244,1,87.5,8|0,0:0|0:0,0:0:0:0:
432,178,218357,2,0,B|444:133|444:133|423:90,1,87.5,2|0,0:0|0:0,0:0:0:0:
390,40,218683,2,0,B|342:52|342:52|285:40,1,87.5,8|0,0:0|0:0,0:0:0:0:
244,15,219010,1,0,0:0:0:0:
158,114,219227,6,0,L|258:102,1,87.5,2|0,0:0|0:0,0:0:0:0:
292,226,219662,2,0,L|392:238,1,87.5,8|0,0:0|0:0,0:0:0:0:
437,353,220096,2,0,P|363:354|335:366,1,87.5,2|0,0:0|0:0,0:0:0:0:
286,371,220423,2,0,P|212:370|184:358,1,87.5,8|0,0:0|0:0,0:0:0:0:
140,339,220749,1,0,0:0:0:0:
14,376,220966,6,0,L|25:283,1,87.5,2|0,0:0|0:0,0:0:0:0:
149,248,221401,2,0,L|138:155,1,87.5,8|0,0:0|0:0,0:0:0:0:
35,78,221836,2,0,P|94:90|127:84,1,87.5,2|0,0:0|0:0,0:0:0:0:
176,51,222162,2,0,P|235:39|268:45,1,87.5,8|0,0:0|0:0,0:0:0:0:
322,68,222488,1,0,0:0:0:0:
408,166,222705,6,0,L|416:72,1,87.5,2|0,0:0|0:0,0:0:0:0:
494,184,223140,2,0,L|486:90,1,87.5,8|0,0:0|0:0,0:0:0:0:
385,15,223575,2,0,P|340:34|320:71,1,87.5,2|0,0:0|0:0,0:0:0:0:
322,133,223901,2,0,P|328:210|323:242,1,87.5,8|0,0:0|0:0,0:0:0:0:
310,283,224227,1,0,0:0:0:0:
221,380,224444,6,0,L|129:376,1,87.5,2|0,0:0|0:0,0:0:0:0:
171,250,224879,2,0,L|79:254,1,87.5,8|0,0:0|0:0,0:0:0:0:
7,146,225314,2,0,P|31:79|18:43,1,87.5,2|0,0:0|0:0,0:0:0:0:
68,13,225640,2,0,P|125:31|169:25,1,87.5,8|0,0:0|0:0,0:0:0:0:
217,36,225966,1,0,0:0:0:0:
256,160,226183,5,2,0:0:0:0:
303,37,226401,1,2,0:0:0:0:
357,156,226618,1,8,0:0:0:0:
436,51,226836,1,2,0:0:0:0:
303,37,227053,2,0,L|347:142,1,87.5,2|0,0:0|0:0,0:0:0:0:
365,177,227379,2,0,L|356:290,1,87.5,8|0,0:0|0:0,0:0:0:0:
335,325,227705,1,2,0:0:0:0:
256,192,227923,5,12,0:0:0:0:
256,192,228031,12,0,234444,0:0:0:0:
