osu file format v14

[General]
AudioFilename: audio.mp3
AudioLeadIn: 0
PreviewTime: 42591
Countdown: 1
SampleSet: Normal
StackLeniency: 0.7
Mode: 0
LetterboxInBreaks: 0
WidescreenStoryboard: 1

[Editor]
DistanceSpacing: 1
BeatDivisor: 4
GridSize: 4
TimelineZoom: 2.3

[Metadata]
Title:Pastel Rain
TitleUnicode:パステルレイン
Artist:Sangatsu no Phantasia
ArtistUnicode:三月のパンタシア
Creator:deetz
Version:Normal
Source:
Tags:japanese rock pop Mia Shota Horie Yumao ガールズブルー・ハッピーサッド ガールズブルー ハッピーサッド girl's blue happy sad みあ 堀江 晶太
BeatmapID:2224261
BeatmapSetID:1060431

[Difficulty]
HPDrainRate:2
CircleSize:2.4
OverallDifficulty:2
ApproachRate:3
SliderMultiplier:1.2
SliderTickRate:1

[Events]
//Background and Video events
0,0,"maxresdefault.jpg",0,0
//Break Periods
2,71480,86040
2,149902,159150
//Storyboard Layer 0 (Background)
//Storyboard Layer 1 (Fail)
//Storyboard Layer 2 (Pass)
//Storyboard Layer 3 (Foreground)
//Storyboard Layer 4 (Overlay)
//Storyboard Sound Samples

[TimingPoints]
369,444.444444444444,4,1,0,70,1,0
14591,-100,4,1,0,70,0,0
16368,-100,4,1,0,50,0,0
28813,-100,4,3,0,50,0,0
35368,-100,4,3,0,52,0,0
35702,-100,4,3,0,54,0,0
35924,-100,4,3,0,56,0,0
36591,-100,4,3,0,58,0,0
37257,-100,4,3,0,60,0,0
37924,-100,4,3,0,62,0,0
39480,-100,4,1,0,65,0,0
40368,-100,4,1,0,50,0,0
41257,-100,4,1,0,50,0,0
43035,-100,4,1,0,70,0,1
46591,-100,4,1,0,70,0,1
60813,-100,4,1,0,70,0,1
69702,-100,4,1,0,70,0,0
71480,-100,4,1,0,70,0,0
85702,-100,4,1,0,70,0,0
86591,-100,4,1,0,70,0,0
87480,-100,4,1,0,50,0,0
99924,-100,4,3,0,50,0,0
110591,-100,4,1,0,50,0,0
111480,-100,4,1,0,50,0,0
112368,-100,4,1,0,50,0,0
114146,-100,4,1,0,70,0,1
131924,-100,4,1,0,70,0,1
140813,-100,4,1,0,50,0,0
141702,-100,4,1,0,50,0,0
147924,-100,4,1,0,50,0,0
149702,444.444444444444,7,1,0,70,1,0
149702,-100,7,1,0,70,0,0
163924,444.444444444444,4,1,0,70,1,0
163924,-100,4,2,0,30,0,0
171035,-100,4,2,0,40,0,0
176146,-100,4,1,0,70,0,0
177257,-100,4,1,0,70,0,0
177924,-100,4,1,0,70,0,0
178146,-100,4,1,0,70,0,1
181701,-100,4,1,0,70,0,1
190590,-100,4,1,0,70,0,0
192368,-100,4,1,0,70,0,0

[Colours]
Combo1 : 255,94,55
Combo2 : 173,255,95
Combo3 : 17,254,176
Combo4 : 255,88,100

[HitObjects]
196,192,369,5,4,0:0:0:0:
196,192,2146,5,4,0:0:0:0:
196,192,3480,1,4,0:3:0:0:
316,192,3924,5,4,0:0:0:0:
256,192,5702,12,4,7480,0:0:0:0:
138,165,8813,6,0,P|183:168|210:165,1,60,10|0,0:0|0:0,0:0:0:0:
253,144,9257,2,0,P|305:132|389:276,1,240
298,339,10591,1,10,0:0:0:0:
179,323,11035,6,0,B|113:321|133:355|54:353,2,120,4|8|0,0:2|0:0|0:0,0:0:0:0:
142,208,12368,2,0,P|136:165|137:132,1,60,10|8,0:0|0:3,0:0:0:0:
256,192,12813,12,4,14591,0:0:0:0:
127,176,16368,6,0,B|266:132|228:225|371:186,1,240,4|0,0:2|0:3,0:0:0:0:
479,187,17702,1,0,0:0:0:0:
506,70,18146,5,4,0:3:0:0:
387,52,18591,1,0,0:0:0:0:
272,88,19035,1,0,0:0:0:0:
153,70,19480,1,0,0:0:0:0:
34,53,19924,6,0,B|4:151|84:125|55:223,2,180,4|0|2,0:3|0:0|0:0,0:0:0:0:
153,70,21702,6,0,P|219:61|280:59,1,120,4|0,0:0|0:0,0:0:0:0:
392,53,22591,1,0,0:0:0:0:
401,172,23035,1,2,0:0:0:0:
503,233,23480,6,0,P|465:275|301:238,1,240,4|0,0:2|0:0,0:0:0:0:
186,216,24813,2,0,P|153:212|118:210,1,60,2|8,0:0|0:3,0:0:0:0:
75,178,25257,6,0,P|67:108|112:58,1,120,4|2,0:0|0:3,0:0:0:0:
207,108,26146,2,0,P|252:120|335:132,1,120,0|4,0:0|0:2,0:0:0:0:
398,36,27035,6,0,P|440:55|381:297,1,360,12|4,0:2|0:3,0:0:0:0:
270,313,28813,6,0,P|193:297|9:280,1,240,4|0,1:1|0:0,0:0:0:0:
25,161,30146,2,0,P|18:113|2:42,2,120,4|0|0,0:0|2:0|0:0,0:0:0:0:
144,178,31480,1,0,0:0:0:0:
371,100,32368,6,0,P|421:132|437:304,1,240,4|0,0:0|0:0,0:0:0:0:
325,333,33702,2,0,B|273:332|202:324,2,120,4|0|0,0:0|2:0|0:0,0:0:0:0:
367,236,35035,6,0,P|351:193|280:179,1,120,10|0,0:3|0:0,0:0:0:0:
187,106,35924,6,0,P|147:111|93:236,2,180,6|6|2,0:2|0:0|0:0,0:0:0:0:
284,35,37702,1,0,0:0:0:0:
401,59,38146,1,0,0:0:0:0:
373,175,38591,5,2,0:2:0:0:
220,360,39480,6,0,P|170:363|110:255,1,180,6|2,0:0|0:0,0:0:0:0:
144,217,40368,1,6,0:0:0:0:
292,24,41257,6,0,P|342:21|402:129,1,180,6|6,0:0|0:0,0:0:0:0:
368,167,42146,1,6,0:0:0:0:
128,153,43035,5,4,0:0:0:0:
110,271,43480,1,8,0:0:0:0:
228,291,43924,1,0,0:0:0:0:
346,309,44369,1,8,0:0:0:0:
455,358,44813,6,0,B|433:280|506:261|478:167,1,180,4|2,0:2|0:0,0:0:0:0:
459,128,45702,2,0,P|413:137|336:152,1,120,2|8,0:1|0:3,0:0:0:0:
233,96,46591,5,4,0:0:0:0:
226,215,47035,1,8,0:0:0:0:
106,207,47480,1,0,0:0:0:0:
113,88,47924,1,8,0:0:0:0:
233,96,48368,6,0,P|311:103|417:109,1,180,4|2,0:2|0:0,0:0:0:0:
463,76,49257,2,0,P|480:119|480:207,1,120,2|0,0:0|0:0,0:0:0:0:
447,306,50146,6,0,B|329:271|345:339|210:302,1,240,4|0,0:0|0:0,0:0:0:0:
94,274,51480,1,8,0:0:0:0:
31,171,51924,6,0,P|37:113|159:69,1,180,4|2,0:2|0:0,0:0:0:0:
185,96,52813,2,0,P|235:100|311:102,1,120,0|10,0:0|0:0,0:0:0:0:
404,34,53702,6,0,P|446:51|449:180,1,180,4|2,0:0|0:0,0:0:0:0:
403,193,54591,1,4,0:2:0:0:
403,312,55035,1,4,0:2:0:0:
283,302,55480,5,8,0:0:0:0:
256,192,55924,12,4,57257,0:0:0:0:
196,104,58146,5,0,0:0:0:0:
216,224,58591,1,8,0:0:0:0:
332,188,59035,2,0,P|384:200|432:312,1,180,4|2,0:2|0:0,0:0:0:0:
379,333,59924,1,2,0:0:0:0:
259,331,60368,2,0,L|191:329,1,60,8|8,0:0|0:3,0:0:0:0:
138,328,60813,5,4,0:0:0:0:
31,112,61702,1,4,0:0:0:0:
140,62,62146,1,8,0:0:0:0:
239,129,62591,2,0,P|282:139|412:100,1,180,4|2,0:2|0:0,0:0:0:0:
465,80,63480,2,0,P|464:128|461:219,1,120,2|4,0:0|0:3,0:0:0:0:
458,319,64368,5,4,0:0:0:0:
339,302,64813,1,8,0:0:0:0:
220,285,65257,2,0,P|172:281|94:280,1,120,4|8,0:0|0:0,0:0:0:0:
39,176,66146,5,4,0:0:0:0:
158,156,66591,1,8,0:0:0:0:
276,135,67035,2,0,P|322:123|397:100,1,120,4|8,0:0|0:0,0:0:0:0:
256,192,67924,12,4,69702,0:0:0:0:
504,269,87480,6,0,B|365:225|403:318|260:279,1,240,4|0,0:2|0:3,0:0:0:0:
155,260,88813,1,2,0:3:0:0:
58,332,89258,5,4,0:3:0:0:
1,233,89703,1,0,0:0:0:0:
90,153,90146,1,0,0:0:0:0:
33,54,90591,1,0,0:0:0:0:
148,20,91036,6,0,B|250:16|204:86|306:84,2,180,4|0|0,0:3|0:0|0:0,0:0:0:0:
33,54,92814,6,0,P|42:120|44:181,1,120,4|0,0:2|0:0,0:0:0:0:
63,291,93703,1,0,0:0:0:0:
182,287,94147,1,2,0:3:0:0:
301,274,94591,6,0,P|390:268|447:271,2,120,4|0|0,0:3|0:0|0:0,0:0:0:0:
284,154,95924,2,0,L|276:78,1,60,0|6,0:0|0:3,0:0:0:0:
288,35,96368,6,0,P|346:25|416:60,1,120,4|2,0:2|0:3,0:0:0:0:
505,107,97257,2,0,L|494:235,1,120,2|2,0:3|0:3,0:0:0:0:
435,331,98146,6,0,P|395:268|162:334,1,360,8|4,0:0|0:3,0:0:0:0:
43,334,99924,6,0,P|16:220|11:80,1,240,4|0,1:0|0:0,0:0:0:0:
130,108,101258,2,0,P|166:155|199:204,2,120
214,22,102591,1,0,0:0:0:0:
454,24,103480,6,0,P|457:74|371:247,1,240,4|0,0:0|0:0,0:0:0:0:
376,361,104814,2,0,B|428:360|499:352,2,120
256,342,106146,6,0,P|211:331|118:309,1,120,8|0,0:1|0:0,0:0:0:0:
72,213,107036,6,0,P|90:128|170:95,2,180,2|2|2,0:0|0:0|0:0,0:0:0:0:
139,313,108813,2,0,P|192:327|254:290,1,120
311,196,109703,5,4,3:3:0:0:
147,20,110592,6,0,P|65:47|51:132,1,180,6|2,0:0|0:0,0:0:0:0:
85,181,111480,1,4,0:0:0:0:
300,285,112368,6,0,L|402:269,2,90,6|6|6,0:0|0:0|0:0,0:0:0:0:
240,292,113257,1,6,0:0:0:0:
77,115,114147,5,4,0:0:0:0:
170,39,114592,1,8,0:0:0:0:
258,119,115036,1,0,0:0:0:0:
342,203,115481,1,8,0:0:0:0:
436,129,115925,6,0,B|414:207|487:226|459:320,1,180,4|2,0:2|0:0,0:0:0:0:
408,328,116814,2,0,P|362:319|285:304,1,120,2|0,0:0|0:0,0:0:0:0:
194,232,117703,5,4,0:0:0:0:
75,239,118147,1,8,0:0:0:0:
83,359,118592,1,0,0:0:0:0:
202,352,119035,1,8,0:0:0:0:
194,232,119480,6,0,P|201:154|207:48,1,180,0|2,0:0|0:0,0:0:0:0:
151,28,120368,2,0,P|107:32|72:99,1,120,2|8,0:0|0:3,0:0:0:0:
56,211,121257,6,0,P|70:268|241:313,1,240,4|0,0:0|0:0,0:0:0:0:
255,204,122591,1,8,0:0:0:0:
287,88,123036,6,0,P|345:94|389:216,1,180,4|2,0:2|0:0,0:0:0:0:
448,224,123925,2,0,P|449:283|454:343,1,120,0|2,0:0|0:0,0:0:0:0:
335,362,124814,6,0,P|293:345|290:216,1,180,4|2,0:0|0:0,0:0:0:0:
311,174,125703,1,4,0:2:0:0:
287,56,126147,1,4,0:2:0:0:
172,92,126592,5,8,0:0:0:0:
256,192,127036,12,4,128369,0:0:0:0:
135,312,129258,5,0,0:0:0:0:
83,203,129703,1,8,0:0:0:0:
178,130,130147,2,0,P|230:142|278:254,1,180,4|2,0:2|0:0,0:0:0:0:
332,276,131036,1,2,0:0:0:0:
449,254,131480,2,0,L|442:186,1,60,8|8,0:0|0:3,0:0:0:0:
438,134,131925,5,4,0:0:0:0:
199,105,132814,1,4,0:0:0:0:
159,218,133258,1,8,0:0:0:0:
218,322,133703,2,0,P|136:357|47:348,1,180,4|2,0:2|0:0,0:0:0:0:
17,296,134592,2,0,P|18:236|20:176,1,120,2|4,0:0|0:3,0:0:0:0:
32,56,135480,5,4,0:0:0:0:
142,102,135925,1,8,0:0:0:0:
258,75,136368,2,0,P|317:75|377:80,1,120,4|8,0:0|0:0,0:0:0:0:
431,187,137257,5,4,0:0:0:0:
321,233,137702,1,8,0:0:0:0:
205,206,138146,2,0,P|145:206|85:211,1,120,4|8,0:0|0:0,0:0:0:0:
256,192,139036,12,4,140814,0:0:0:0:
256,192,142591,5,4,0:0:0:0:
256,192,144368,5,4,0:0:0:0:
256,192,146146,5,4,0:0:0:0:
256,192,147924,12,4,149702,0:2:0:0:
256,192,160590,12,4,161924,0:2:0:0:
134,241,163924,6,0,B|258:208|244:298|382:267,1,240,2|0,0:0|0:0,0:0:0:0:
403,156,165257,1,0,0:0:0:0:
433,39,165701,5,2,0:0:0:0:
193,26,166590,1,0,0:0:0:0:
49,218,167479,6,0,P|75:284|236:313,1,240,2|0,0:0|0:0,0:0:0:0:
267,205,168812,1,0,0:0:0:0:
369,142,169257,6,0,P|423:161|475:345,1,240,2|0,0:0|0:0,0:0:0:0:
254,335,171035,6,0,P|200:332|69:333,1,180,2|0,0:3|0:0,0:0:0:0:
28,293,171924,1,0,0:0:0:0:
54,54,172812,6,0,P|96:32|234:150,1,240,2|0,0:0|0:0,0:0:0:0:
299,360,174590,5,2,0:0:0:0:
472,192,175479,2,0,P|472:156|352:72,1,180,2|0,0:0|0:0,0:0:0:0:
312,84,176368,5,0,0:3:0:0:
312,84,178146,6,0,P|256:76|184:68,1,120,4|8,0:0|0:0,0:0:0:0:
72,60,179035,1,0,0:0:0:0:
80,180,179480,1,8,0:0:0:0:
88,300,179923,2,0,P|147:306|207:315,1,120,4|8,2:0|0:0,0:0:0:0:
328,328,180813,1,2,0:0:0:0:
448,328,181257,2,0,L|441:260,1,60,8|8,0:3|0:3,0:0:0:0:
436,208,181702,5,4,0:0:0:0:
199,166,182591,1,4,0:0:0:0:
210,46,183035,1,8,0:0:0:0:
329,40,183479,2,0,P|384:47|439:160,1,180,4|2,2:0|0:0,0:0:0:0:
436,208,184368,1,2,0:0:0:0:
407,324,184812,1,8,0:0:0:0:
293,285,185257,5,4,0:0:0:0:
173,299,185701,1,8,0:0:0:0:
53,310,186146,2,0,P|58:250|58:190,1,120,4|8,0:3|0:0,0:0:0:0:
69,70,187035,5,4,0:3:0:0:
188,87,187480,1,8,0:0:0:0:
305,108,187924,2,0,P|299:167|299:227,1,120,4|8,0:0|0:0,0:0:0:0:
256,192,188813,12,4,190591,0:0:0:0:
104,249,192368,6,0,P|255:95|407:265,1,480,4|4,0:0|0:0,0:0:0:0:
