osu file format v14

[General]
AudioFilename: audio.mp3
AudioLeadIn: 0
PreviewTime: 42591
Countdown: 1
SampleSet: Normal
StackLeniency: 1
Mode: 0
LetterboxInBreaks: 0
WidescreenStoryboard: 1

[Editor]
Bookmarks: 154368
DistanceSpacing: 1.3
BeatDivisor: 4
GridSize: 4
TimelineZoom: 2.3

[Metadata]
Title:Pastel Rain
TitleUnicode:パステルレイン
Artist:Sangatsu no Phantasia
ArtistUnicode:三月のパンタシア
Creator:deetz
Version:Insane
Source:
Tags:japanese rock pop Mia Shota Horie Yumao ガールズブルー・ハッピーサッド ガールズブルー ハッピーサッド girl's blue happy sad みあ 堀江 晶太
BeatmapID:2224260
BeatmapSetID:1060431

[Difficulty]
HPDrainRate:5
CircleSize:4
OverallDifficulty:7.5
ApproachRate:9
SliderMultiplier:2.5
SliderTickRate:1

[Events]
//Background and Video events
0,0,"maxresdefault.jpg",0,0
//Break Periods
2,71680,85102
2,163924,170435
//Storyboard Layer 0 (Background)
//Storyboard Layer 1 (Fail)
//Storyboard Layer 2 (Pass)
//Storyboard Layer 3 (Foreground)
//Storyboard Layer 4 (Overlay)
//Storyboard Sound Samples

[TimingPoints]
369,444.444444444444,4,1,0,70,1,0
14591,-80,4,1,0,70,0,0
16368,-125,4,1,0,50,0,0
28813,-125,4,3,0,50,0,0
35368,-125,4,3,0,52,0,0
35702,-125,4,3,0,54,0,0
35924,-125,4,3,0,56,0,0
36591,-125,4,3,0,58,0,0
37257,-125,4,3,0,60,0,0
37924,-125,4,3,0,62,0,0
39480,-100,4,1,0,65,0,0
40368,-133.333333333333,4,1,0,50,0,0
41257,-83.3333333333333,4,1,0,50,0,0
43035,-100,4,1,0,70,0,1
46591,-100,4,1,0,70,0,1
60813,-100,4,1,0,70,0,1
69702,-80,4,1,0,70,0,0
71480,-100,4,1,0,70,0,0
85702,-80,4,1,0,70,0,0
86591,-125,4,1,0,70,0,0
87035,-166.666666666667,4,1,0,70,0,0
87480,-125,4,1,0,50,0,0
99924,-125,4,3,0,50,0,0
110591,-100,4,1,0,50,0,0
111480,-133.333333333333,4,1,0,50,0,0
112368,-74.0740740740741,4,1,0,50,0,0
114146,-100,4,1,0,70,0,1
131924,-100,4,1,0,70,0,1
140813,-80,4,1,0,50,0,0
141702,-100,4,1,0,50,0,0
147924,-100,4,1,0,50,0,0
149702,444.444444444444,7,1,0,70,1,0
149702,-166.666666666667,7,1,0,70,0,0
163924,444.444444444444,4,1,0,70,1,0
171035,-166.666666666667,4,2,0,40,0,0
176146,-100,4,1,0,70,0,0
177257,-125,4,1,0,70,0,0
177924,-166.666666666667,4,1,0,70,0,0
178146,-100,4,1,0,70,0,1
181701,-100,4,1,0,70,0,1
190590,-80,4,1,0,70,0,0
192368,-100,4,1,0,70,0,0

[Colours]
Combo1 : 255,94,55
Combo2 : 173,255,95
Combo3 : 17,254,176
Combo4 : 255,88,100

[HitObjects]
112,188,369,5,4,0:0:0:0:
400,188,2146,5,4,0:0:0:0:
400,188,3480,1,4,0:3:0:0:
112,188,3924,5,4,0:0:0:0:
400,188,5702,6,0,L|404:103,2,62.5,12|8|4,0:0|0:0|0:3,0:0:0:0:
324,93,6035,2,0,P|318:144|318:222,1,125,12|4,0:0|0:3,0:0:0:0:
237,329,6368,6,0,L|241:244,2,62.5,12|8|4,0:0|0:0|0:3,0:0:0:0:
161,234,6701,2,0,P|155:285|155:363,1,125,12|4,0:0|0:3,0:0:0:0:
22,375,7035,5,8,0:0:0:0:
22,375,7146,1,8,0:0:0:0:
22,375,7257,1,8,0:0:0:0:
22,375,7368,1,8,0:0:0:0:
81,316,7480,5,4,0:0:0:0:
81,316,7591,2,0,P|62:297|17:288,1,62.5,2|0,0:3|0:0,0:0:0:0:
98,206,7813,2,0,P|72:199|28:213,1,62.5,2|8,0:3|0:0,0:0:0:0:
57,102,8035,2,0,P|31:108|0:143,1,62.5,2|0,0:0|0:0,0:0:0:0:
140,39,8257,6,0,P|72:12|-15:25,1,125,2|0,0:0|0:0,0:0:0:0:
188,107,8591,2,0,P|256:134|343:121,2,125,0|10|0,0:0|0:0|0:0,0:0:0:0:
188,107,9146,1,0,0:0:0:0:
186,199,9257,5,0,0:0:0:0:
186,199,9368,2,0,P|197:238|191:271,1,62.5,2|0,0:3|0:0,0:0:0:0:
298,231,9591,2,0,P|288:270|266:295,1,62.5,2|8,0:3|0:0,0:0:0:0:
378,314,9813,2,0,P|349:343|318:354,1,62.5,2|0,0:0|0:0,0:0:0:0:
378,210,10035,6,0,P|448:180|497:211,1,125,2|0,0:0|0:0,0:0:0:0:
502,332,10368,2,0,P|472:303|461:272,1,62.5,0|0,0:0|0:0,0:0:0:0:
483,103,10591,1,10,0:0:0:0:
483,103,10813,1,0,0:0:0:0:
483,103,11035,5,4,0:2:0:0:
483,103,11146,2,0,P|487:62|494:36,1,62.5,2|0,0:3|0:0,0:0:0:0:
354,62,11368,2,0,P|360:92|363:123,1,62.5,2|8,0:3|0:0,0:0:0:0:
232,99,11591,2,0,P|236:58|243:32,1,62.5,2|0,0:0|0:0,0:0:0:0:
95,60,11813,2,0,P|110:128|104:237,1,125,2|0,0:0|0:0,0:0:0:0:
41,306,12146,2,0,P|26:238|32:129,2,125,0|10|8,0:0|0:0|0:3,0:0:0:0:
41,306,12702,1,8,0:3:0:0:
136,274,12813,5,4,0:2:0:0:
164,375,12924,1,4,0:2:0:0:
273,173,13146,5,4,0:2:0:0:
248,354,13368,5,4,0:2:0:0:
429,379,13591,5,4,0:2:0:0:
454,198,13813,5,8,0:3:0:0:
452,286,13924,2,0,P|484:273|522:268,1,62.5,8|0,0:3|2:0,0:0:0:0:
378,152,14146,2,0,P|371:186|357:221,1,62.5,8|0,0:3|2:0,0:0:0:0:
512,143,14368,1,4,0:3:0:0:
412,21,14591,6,0,P|308:21|269:102,1,156.25,4|0,0:0|2:0,0:0:0:0:
267,73,15924,1,8,0:3:0:0:
267,73,16368,6,0,P|259:136|254:202,1,100,4|0,0:2|0:0,0:0:0:0:
329,188,16702,2,0,L|394:203,1,50,2|0,0:3|0:0,0:0:0:0:
377,277,16924,2,0,L|328:265,1,50,2|0,0:3|0:0,0:0:0:0:
412,132,17146,2,0,P|461:109|500:144,1,100,2|0,0:3|0:0,0:0:0:0:
496,207,17480,2,0,P|486:264|479:327,1,100,2|0,0:3|0:0,0:0:0:0:
334,338,17924,1,0,0:0:0:0:
185,360,18146,6,0,P|128:350|65:343,1,100,4|0,0:3|0:0,0:0:0:0:
48,279,18480,2,0,P|38:239|29:216,1,50,2|0,0:3|0:0,0:0:0:0:
143,210,18702,2,0,P|135:233|130:258,1,50,2|0,0:3|0:0,0:0:0:0:
13,156,18924,2,0,P|41:121|118:122,1,100,2|0,0:3|0:0,0:0:0:0:
174,137,19257,1,2,0:3:0:0:
174,137,19480,1,0,0:0:0:0:
323,128,19702,1,0,0:0:0:0:
323,128,19813,1,0,0:0:0:0:
313,50,19924,6,0,P|366:19|423:40,1,100,4|0,0:3|0:0,0:0:0:0:
251,92,20257,2,0,L|207:70,1,50,2|0,0:3|0:0,0:0:0:0:
323,128,20480,2,0,L|375:120,1,50,2|0,0:3|0:0,0:0:0:0:
256,174,20702,6,0,P|207:186|166:228,1,100,0|0,0:3|0:0,0:0:0:0:
218,276,21035,2,0,P|224:336|224:379,1,100,2|2,0:0|0:0,0:0:0:0:
354,201,21480,1,8,0:3:0:0:
119,271,21702,6,0,P|55:253|38:210,1,100,4|4,0:0|0:3,0:0:0:0:
141,139,22035,2,0,P|181:104|210:100,1,50,2|0,0:3|0:0,0:0:0:0:
60,157,22257,2,0,P|18:139|-13:130,1,50,2|0,0:3|0:0,0:0:0:0:
93,73,22480,2,0,P|142:27|179:11,1,100,2|0,0:3|0:0,0:0:0:0:
251,48,22813,2,0,P|303:71|361:57,2,100,2|2|8,0:0|0:0|0:3,0:0:0:0:
251,48,23368,1,8,0:3:0:0:
237,146,23480,6,0,P|220:210|210:262,1,100,4|4,0:2|0:3,0:0:0:0:
128,239,23813,2,0,P|138:198|138:171,1,50,2|0,0:3|0:0,0:0:0:0:
184,315,24035,2,0,P|143:326|120:340,1,50,2|0,0:3|0:0,0:0:0:0:
30,281,24257,6,0,P|40:240|40:213,1,50,2|0,0:3|0:0,0:0:0:0:
20,127,24480,2,0,P|75:117|132:95,1,100,0|2,0:0|0:3,0:0:0:0:
199,138,24813,2,0,P|254:148|311:170,1,100,2|8,0:0|0:3,0:0:0:0:
295,162,25146,1,8,0:3:0:0:
345,47,25257,6,0,P|404:71|397:158,1,150,4|0,0:0|0:0,0:0:0:0:
471,299,25702,2,0,P|467:245|466:186,1,100,2|0,0:3|0:0,0:0:0:0:
271,261,26146,5,0,0:0:0:0:
271,261,26257,2,0,P|275:315|276:374,1,100,2|0,0:3|0:0,0:0:0:0:
356,358,26591,1,4,0:2:0:0:
371,182,26813,1,8,0:3:0:0:
371,182,26924,1,8,0:3:0:0:
375,102,27035,6,0,L|379:38,1,50,12|8,0:2|0:0,0:0:0:0:
294,110,27257,2,0,L|298:46,1,50,4|8,0:3|0:0,0:0:0:0:
213,118,27480,1,4,0:3:0:0:
213,118,27591,1,4,0:3:0:0:
172,188,27702,6,0,L|176:252,1,50,12|8,0:2|0:0,0:0:0:0:
91,180,27924,2,0,L|95:244,1,50,4|8,0:3|0:0,0:0:0:0:
10,172,28147,1,4,0:3:0:0:
10,172,28258,1,4,0:3:0:0:
10,83,28368,2,0,P|55:46|106:52,1,100,4|4,0:3|0:3,0:0:0:0:
134,111,28702,1,0,0:0:0:0:
182,20,28813,6,0,P|235:21|267:61,1,100,4|0,1:1|0:0,0:0:0:0:
264,53,29146,2,0,L|265:111,1,50,2|0,0:3|2:0,0:0:0:0:
431,64,29480,6,0,P|370:65|338:105,1,100,4|0,0:0|0:0,0:0:0:0:
344,90,29813,2,0,L|343:148,1,50,2|0,0:3|2:0,0:0:0:0:
179,148,30146,6,0,P|232:149|264:189,1,100,4|0,0:0|0:0,0:0:0:0:
261,181,30479,2,0,L|262:239,1,50,2|0,0:3|2:0,0:0:0:0:
428,192,30813,6,0,P|367:193|335:233,1,100,4|0,0:0|0:0,0:0:0:0:
341,218,31146,2,0,L|340:276,1,50,2|0,0:0|2:0,0:0:0:0:
210,347,31480,5,0,0:0:0:0:
133,333,31702,1,2,0:1:0:0:
147,256,31924,1,2,0:1:0:0:
224,270,32146,1,8,0:0:0:0:
354,343,32368,6,0,P|423:341|452:320,1,100,4|0,0:0|0:0,0:0:0:0:
447,324,32702,2,0,L|454:263,1,50,2|0,0:0|2:0,0:0:0:0:
476,134,33035,6,0,P|399:128|370:149,1,100,4|0,0:0|0:0,0:0:0:0:
382,137,33369,2,0,L|375:198,1,50,2|0,0:0|2:0,0:0:0:0:
205,271,33702,6,0,P|139:251|94:248,1,100,4|0,0:0|0:0,0:0:0:0:
108,248,34035,2,0,L|99:191,1,50,2|0,0:3|2:0,0:0:0:0:
69,55,34368,6,0,P|127:67|172:70,1,100,4|0,0:0|0:0,0:0:0:0:
167,69,34701,2,0,L|176:126,1,50,6|0,0:3|0:0,0:0:0:0:
297,21,35035,6,0,P|305:82|317:133,1,100,10|0,0:3|0:0,0:0:0:0:
333,191,35368,2,0,P|327:266|319:311,1,100,10|0,0:0|0:0,0:0:0:0:
327,365,35702,1,2,0:1:0:0:
456,252,35924,6,2,P|462:177|470:132,1,100,6|0,0:2|0:0,0:0:0:0:
512,74,36257,1,8,0:0:0:0:
512,74,36591,6,2,P|458:46|404:59,1,100,6|0,0:0|0:0,0:0:0:0:
368,104,36924,2,0,P|359:169|351:209,1,100,10|2,0:0|0:0,0:0:0:0:
330,274,37257,2,2,P|276:302|222:289,1,100,2|0,0:0|0:0,0:0:0:0:
186,244,37591,2,2,P|177:179|169:139,1,100,10|0,0:0|0:0,0:0:0:0:
255,89,37924,6,2,P|264:154|272:194,1,100,6|0,0:0|0:0,0:0:0:0:
147,179,38257,2,2,P|138:114|130:74,1,100,10|0,0:0|0:0,0:0:0:0:
270,8,38591,5,2,0:2:0:0:
284,10,38702,1,2,0:2:0:0:
298,12,38813,1,8,0:0:0:0:
312,14,38924,1,8,0:0:0:0:
326,16,39035,2,0,P|331:47|332:65,1,50,8|8,0:0|0:0,0:0:0:0:
339,195,39257,2,0,P|334:164|333:146,1,50,8|8,0:0|0:0,0:0:0:0:
414,38,39480,6,0,B|401:101|426:115|416:170,1,125,6|0,0:0|0:0,0:0:0:0:
366,313,39813,2,0,P|396:354|481:337,1,125,2|0,0:0|0:0,0:0:0:0:
500,247,40146,2,0,L|425:252,1,62.5,2|0,0:0|0:0,0:0:0:0:
301,262,40368,1,6,0:0:0:0:
301,262,40591,6,0,L|305:199,1,46.8750017881394,8|8,0:3|0:3,0:0:0:0:
223,285,40813,2,0,L|227:222,1,46.8750017881394,8|8,0:3|0:3,0:0:0:0:
145,308,41035,1,8,0:3:0:0:
0,162,41257,6,0,P|52:95|125:104,1,149.999995422363,6|0,0:0|0:0,0:0:0:0:
227,116,41591,2,0,P|175:183|102:174,1,149.999995422363,6|0,0:0|0:0,0:0:0:0:
63,9,41924,2,0,P|108:13|136:21,1,74.9999977111817,6|0,0:0|0:0,0:0:0:0:
291,48,42146,1,6,0:0:0:0:
291,48,43035,6,0,P|351:27|434:39,1,125,4|2,0:0|0:0,0:0:0:0:
512,127,43368,2,0,P|506:160|504:197,1,62.5,0|0,0:0|0:0,0:0:0:0:
464,260,43591,1,0,0:0:0:0:
464,260,43702,2,0,P|461:291|456:321,1,62.5,2|2,0:0|0:2,0:0:0:0:
434,112,43924,2,0,P|428:145|426:182,1,62.5,0|0,0:0|0:0,0:0:0:0:
386,245,44146,2,0,P|383:276|378:306,1,62.5,2|0,0:0|0:0,0:0:0:0:
350,157,44368,6,0,P|326:136|295:128,1,62.5,0|0,0:0|0:0,0:0:0:0:
255,302,44591,2,0,P|284:293|308:273,1,62.5,2|2,0:0|0:2,0:0:0:0:
238,179,44813,2,0,P|170:146|114:170,1,125,4|2,0:2|0:0,0:0:0:0:
53,243,45146,2,0,P|51:321|46:380,1,125,2|0,0:3|0:0,0:0:0:0:
16,168,45480,1,2,0:0:0:0:
16,168,45702,6,0,P|12:121|3:38,1,125,2|2,0:3|0:3,0:0:0:0:
157,99,46035,1,0,0:0:0:0:
157,99,46146,2,0,P|161:146|170:229,1,125,8|8,0:3|0:3,0:0:0:0:
289,23,46591,6,0,P|362:27|402:73,1,125,4|2,0:0|0:0,0:0:0:0:
490,64,46924,2,0,P|505:135|470:186,1,125,0|0,0:0|0:0,0:0:0:0:
476,275,47257,1,2,0:0:0:0:
476,275,47480,6,0,P|419:268|400:268,1,62.5,0|0,0:0|0:0,0:0:0:0:
298,249,47702,2,0,P|268:244|236:242,1,62.5,2|0,0:0|0:0,0:0:0:0:
373,139,47924,2,0,P|370:170|365:200,1,62.5,0|0,0:0|0:0,0:0:0:0:
347,316,48146,2,0,P|342:346|340:378,1,62.5,2|2,0:0|0:3,0:0:0:0:
175,377,48368,6,0,P|148:303|192:233,1,125,4|2,0:2|0:0,0:0:0:0:
146,168,48702,2,0,P|84:150|28:187,1,125,0|0,0:0|0:0,0:0:0:0:
29,258,49035,1,2,0:0:0:0:
215,120,49257,6,0,P|170:73|103:77,1,125,2|4,0:2|0:3,0:0:0:0:
48,34,49591,1,0,0:0:0:0:
48,34,49702,1,0,0:0:0:0:
104,266,49924,1,0,0:0:0:0:
239,200,50146,6,0,P|326:180|379:183,1,125,4|2,0:0|0:0,0:0:0:0:
366,103,50480,2,0,P|392:34|452:24,1,125,0|0,0:0|0:0,0:0:0:0:
507,65,50813,1,2,0:0:0:0:
468,326,51035,6,0,P|399:300|389:240,1,125,0|2,0:0|0:0,0:0:0:0:
474,129,51368,2,0,P|464:202|458:262,1,125,0|0,0:0|0:0,0:0:0:0:
344,349,51702,1,2,0:0:0:0:
143,153,51924,6,0,P|79:158|49:210,1,125,4|2,0:2|0:0,0:0:0:0:
28,380,52257,2,0,P|92:375|122:323,1,125,2|2,0:2|0:2,0:0:0:0:
185,243,52591,2,0,P|190:297|195:324,1,62.5,2|0,0:0|0:2,0:0:0:0:
257,199,52813,1,0,0:0:0:0:
257,199,52924,2,0,P|261:261|269:323,1,125,2|0,0:3|0:0,0:0:0:0:
344,349,53257,1,0,0:0:0:0:
499,185,53480,1,2,0:0:0:0:
425,373,53702,6,0,P|417:310|412:248,1,125,4|2,0:0|0:0,0:0:0:0:
362,177,54035,2,0,P|349:112|408:68,1,125,0|0,0:0|0:0,0:0:0:0:
465,82,54368,1,2,0:0:0:0:
246,253,54591,6,0,P|183:245|121:240,1,125,4|8,0:2|0:3,0:0:0:0:
44,231,54924,1,0,0:0:0:0:
44,231,55035,1,4,0:2:0:0:
12,21,55257,1,4,0:3:0:0:
96,137,55480,5,8,0:0:0:0:
114,132,55591,1,8,0:3:0:0:
132,128,55702,1,0,0:0:0:0:
150,125,55813,2,0,P|212:132|274:137,1,125,8|2,0:0|0:3,0:0:0:0:
359,165,56146,1,8,0:0:0:0:
359,165,56257,2,0,L|350:234,1,62.5,8|2,0:0|0:3,0:0:0:0:
268,245,56480,2,0,P|244:189|273:136,1,125,4|4,0:3|0:3,0:0:0:0:
442,136,56813,5,8,0:3:0:0:
442,136,56924,1,8,0:3:0:0:
442,136,57035,2,0,L|433:205,1,62.5,4|0,0:3|0:0,0:0:0:0:
429,348,57257,6,0,P|345:359|285:368,1,125,4|2,0:0|0:0,0:0:0:0:
237,320,57591,2,0,P|176:290|93:319,1,125,0|0,0:0|0:0,0:0:0:0:
38,317,57924,2,0,P|37:370|39:390,1,62.5,2|2,0:0|0:2,0:0:0:0:
94,221,58146,6,0,P|38:213|21:217,1,62.5,0|0,0:0|0:0,0:0:0:0:
66,113,58368,2,0,P|35:120|9:137,1,62.5,2|0,0:0|0:0,0:0:0:0:
35,21,58591,2,0,P|117:33|162:74,1,125,0|2,0:0|0:0,0:0:0:0:
195,136,58924,1,2,0:3:0:0:
195,136,59035,6,0,P|269:124|339:126,1,125,4|2,0:2|0:0,0:0:0:0:
325,205,59368,2,0,P|251:217|181:215,1,125,0|0,0:0|0:0,0:0:0:0:
130,183,59702,1,2,0:0:0:0:
299,34,59924,6,0,P|368:38|408:76,1,125,2|2,0:3|0:3,0:0:0:0:
401,153,60257,1,0,0:0:0:0:
401,153,60368,1,8,0:3:0:0:
373,350,60591,1,8,0:3:0:0:
512,175,60813,6,0,P|461:214|405:270,1,125,4|2,0:0|0:0,0:0:0:0:
339,245,61146,2,0,P|264:235|207:231,1,125,0|0,0:0|0:0,0:0:0:0:
136,220,61480,1,2,0:0:0:0:
38,34,61702,6,0,P|51:88|51:121,1,62.5,4|0,0:0|0:0,0:0:0:0:
53,233,61924,2,0,P|57:202|66:172,1,62.5,2|0,0:0|0:0,0:0:0:0:
127,118,62146,2,0,P|209:125|279:118,1,125,0|2,0:0|0:0,0:0:0:0:
500,120,62591,6,0,P|523:47|484:-11,1,125,4|2,0:2|0:0,0:0:0:0:
421,85,62924,2,0,P|400:142|424:198,1,125,0|0,0:0|0:0,0:0:0:0:
497,235,63257,1,2,0:0:0:0:
332,351,63480,6,0,P|260:341|175:339,1,125,2|2,0:2|0:2,0:0:0:0:
131,332,63813,1,0,0:0:0:0:
131,332,63924,1,4,0:3:0:0:
271,219,64146,1,0,0:0:0:0:
45,370,64368,6,0,P|41:297|26:213,1,125,4|2,0:0|0:0,0:0:0:0:
101,208,64702,2,0,P|92:146|89:16,1,187.5,0|2,0:0|0:0,0:0:0:0:
173,41,65146,1,0,0:0:0:0:
173,41,65257,2,0,P|271:36|328:37,2,125,4|2|0,0:0|0:0|0:0,0:0:0:0:
389,180,65924,1,2,0:0:0:0:
221,137,66146,6,0,P|192:203|212:268,1,125,4|2,0:0|0:0,0:0:0:0:
271,294,66480,2,0,P|339:292|428:295,1,125,0|0,0:0|0:0,0:0:0:0:
474,292,66813,1,2,0:0:0:0:
501,104,67035,6,0,P|465:32|376:51,1,125,4|2,0:0|0:0,0:0:0:0:
300,146,67368,2,0,P|377:135|431:128,1,125,0|0,0:0|0:0,0:0:0:0:
305,43,67702,2,0,P|273:50|243:54,1,62.5,2|2,0:0|0:2,0:0:0:0:
79,127,67924,6,0,P|101:196|158:198,1,125,4|0,0:0|0:0,0:0:0:0:
215,162,68257,1,0,0:0:0:0:
215,162,68368,2,0,P|193:132|171:90,1,62.5,0|0,0:0|0:0,0:0:0:0:
177,302,68591,2,0,P|192:275|211:250,1,62.5,0|0,0:0|0:0,0:0:0:0:
286,209,68813,2,0,L|361:217,1,62.5,0|0,0:0|0:0,0:0:0:0:
491,230,69035,2,0,L|416:222,1,62.5
326,125,69257,5,8,0:0:0:0:
366,108,69368,1,8,0:0:0:0:
403,130,69480,1,8,0:0:0:0:
440,151,69591,1,8,0:0:0:0:
480,134,69702,1,4,0:0:0:0:
496,152,71257,2,0,L|503:64,1,78.125,8|8,0:0|0:0,0:0:0:0:
286,50,71480,5,4,0:0:0:0:
496,152,85702,5,4,0:0:0:0:
286,50,86591,6,0,L|280:121,2,66.6666666666667,0|4|4,0:0|2:3|2:3,0:0:0:0:
205,20,87035,2,0,P|180:73|208:150,1,112.499996566773,8|0,2:3|2:0,0:0:0:0:
193,146,87480,6,0,P|130:158|65:189,1,100,4|0,0:2|0:0,0:0:0:0:
3,220,87813,2,0,P|42:235|77:245,1,50,2|0,0:3|0:0,0:0:0:0:
177,246,88035,2,0,P|138:261|103:271,1,50,2|0,0:3|0:0,0:0:0:0:
96,352,88257,2,0,P|159:340|224:309,1,100,2|0,0:3|0:0,0:0:0:0:
262,280,88591,1,8,0:2:0:0:
262,280,88702,1,8,0:2:0:0:
262,280,88813,2,0,P|325:302|331:346,1,100,2|0,0:3|0:0,0:0:0:0:
502,117,89257,6,0,P|480:180|436:186,1,100,4|2,0:3|0:3,0:0:0:0:
378,176,89591,1,0,0:0:0:0:
378,176,89702,2,0,L|301:159,1,50,0|2,0:0|0:3,0:0:0:0:
419,105,89924,1,0,0:0:0:0:
419,105,90035,2,0,P|365:87|310:86,1,100,2|0,0:3|0:0,0:0:0:0:
255,133,90368,2,0,P|208:149|158:153,2,100,2|0|2,0:3|0:0|0:3,0:0:0:0:
255,133,90924,1,2,0:3:0:0:
252,55,91035,6,0,P|196:27|143:45,1,100,4|0,0:3|0:0,0:0:0:0:
86,32,91368,2,0,P|86:81|86:109,1,50,2|0,0:3|0:0,0:0:0:0:
30,190,91591,2,0,P|30:141|30:113,1,50,2|0,0:3|0:0,0:0:0:0:
121,150,91813,2,0,P|117:212|117:272,1,100,2|0,0:3|0:0,0:0:0:0:
40,309,92146,2,0,P|97:331|152:356,1,100,2|0,0:3|0:0,0:0:0:0:
386,341,92591,1,8,0:0:0:0:
386,341,92702,1,8,0:0:0:0:
386,341,92813,6,0,P|322:343|272:348,1,100,4|0,0:2|0:0,0:0:0:0:
222,275,93146,2,0,P|265:272|303:264,1,50,2|0,0:3|0:0,0:0:0:0:
339,192,93368,2,0,P|296:195|258:203,1,50,2|0,0:3|0:0,0:0:0:0:
160,130,93591,2,0,P|224:128|274:123,1,100,2|0,0:3|0:0,0:0:0:0:
288,55,93924,2,0,P|343:17|407:40,1,100,0|2,0:0|0:3,0:0:0:0:
472,193,94368,1,2,0:3:0:0:
472,193,94480,1,0,0:0:0:0:
472,193,94591,6,0,P|467:252|463:315,1,100,4|0,0:3|0:0,0:0:0:0:
401,368,94924,2,0,P|398:325|394:295,1,50,2|0,0:3|0:0,0:0:0:0:
363,201,95146,2,0,P|360:225|359:250,1,50,2|0,0:3|0:0,0:0:0:0:
313,317,95368,2,0,P|271:310|208:307,1,100,2|0,0:3|0:0,0:0:0:0:
143,335,95702,1,2,0:3:0:0:
143,335,95813,1,0,0:0:0:0:
143,335,95924,2,0,P|78:356|42:332,1,100,0|6,0:0|0:3,0:0:0:0:
21,134,96368,6,0,P|67:119|140:195,1,150,4|0,0:2|0:0,0:0:0:0:
293,82,96813,2,0,P|224:92|171:95,1,100,2|0,0:3|0:0,0:0:0:0:
170,287,97257,1,2,0:3:0:0:
170,287,97368,2,0,P|239:277|292:274,1,100,0|0,0:0|0:0,0:0:0:0:
343,267,97702,1,2,0:3:0:0:
343,267,97924,1,0,0:0:0:0:
476,62,98146,6,0,L|465:134,1,50,8|0,0:0|0:0,0:0:0:0:
398,134,98368,1,8,0:3:0:0:
398,134,98480,1,8,0:0:0:0:
322,149,98591,2,0,L|311:221,1,50,4|0,0:3|0:0,0:0:0:0:
269,92,98813,1,4,0:3:0:0:
239,306,99035,6,0,L|228:234,1,50,8|0,0:0|0:0,0:0:0:0:
161,234,99257,1,8,0:3:0:0:
161,234,99369,1,8,0:0:0:0:
85,219,99480,2,0,L|74:147,1,50,4|0,0:3|0:0,0:0:0:0:
32,276,99702,1,4,0:3:0:0:
16,86,99924,6,0,P|71:58|148:79,1,100,4|0,1:0|0:0,0:0:0:0:
107,59,100257,2,0,L|107:4,1,50,2|0,0:3|0:0,0:0:0:0:
170,134,100591,2,0,P|224:154|264:224,1,100,0|0,0:0|0:0,0:0:0:0:
251,185,100924,2,0,L|289:147,1,50,2|0,0:0|0:0,0:0:0:0:
193,286,101257,6,0,P|248:306|325:285,1,100,0|0,0:0|0:0,0:0:0:0:
288,302,101590,2,0,L|288:356,1,50,2|0,0:0|0:0,0:0:0:0:
347,238,101924,2,0,P|401:209|441:139,1,100,0|0,0:0|0:0,0:0:0:0:
425,179,102257,2,0,L|463:216,1,50,2|0,0:0|0:0,0:0:0:0:
493,99,102591,5,0,0:0:0:0:
512,23,102813,1,2,0:1:0:0:
437,4,103035,1,2,0:1:0:0:
417,79,103257,1,0,0:0:0:0:
271,4,103480,6,0,P|281:63|279:105,1,100,4|0,0:0|0:0,0:0:0:0:
279,102,103813,2,0,L|218:114,1,50,2|0,0:3|0:0,0:0:0:0:
360,148,104146,2,0,P|325:197|294:225,1,100,0|0,0:0|0:0,0:0:0:0:
295,223,104479,2,0,L|242:187,1,50,2|0,0:3|0:0,0:0:0:0:
14,318,104813,6,0,P|73:300|115:302,1,100,0|0,0:0|0:0,0:0:0:0:
110,301,105146,2,0,L|121:362,1,50,2|0,0:3|0:0,0:0:0:0:
158,232,105479,2,0,P|201:267|237:294,1,100,0|0,0:0|0:0,0:0:0:0:
299,345,105813,1,8,0:1:0:0:
299,345,105924,2,0,L|370:339,1,50,8|8,0:1|0:1,0:0:0:0:
425,338,106146,5,8,0:1:0:0:
491,254,106257,1,4,0:2:0:0:
491,254,106480,2,0,P|448:214|384:221,1,100,4|0,0:2|0:0,0:0:0:0:
332,214,106813,2,0,L|334:285,1,50,8|8,0:1|0:1,0:0:0:0:
422,109,107035,6,2,P|363:111|323:161,1,100,2|0,0:0|0:0,0:0:0:0:
267,172,107368,2,2,P|208:169|168:119,1,100,2|0,0:0|0:0,0:0:0:0:
170,5,107702,6,2,P|129:48|137:111,1,100,2|0,0:0|0:0,0:0:0:0:
106,159,108035,2,2,P|63:199|0:191,1,100,2|0,0:0|0:0,0:0:0:0:
118,263,108368,6,2,L|139:382,1,100,2|0,0:0|0:0,0:0:0:0:
199,227,108702,2,2,L|220:346,1,100,2|0,0:0|0:0,0:0:0:0:
388,144,109035,6,2,L|367:263,1,100,2|0,0:0|0:0,0:0:0:0:
307,108,109369,2,2,L|286:227,1,100,2|0,0:0|0:0,0:0:0:0:
296,303,109702,5,4,3:3:0:0:
298,317,109813,1,4,3:3:0:0:
300,331,109924,1,4,0:3:0:0:
302,345,110035,1,4,0:3:0:0:
304,359,110146,2,0,P|335:364|353:365,1,50,8|8,0:1|0:1,0:0:0:0:
483,372,110368,2,0,P|452:367|434:366,1,50,8|8,0:3|0:3,0:0:0:0:
366,289,110591,6,0,P|446:275|518:295,1,125,6|0,0:0|0:0,0:0:0:0:
500,109,110924,2,0,P|440:56|368:102,1,125,6|0,0:0|0:0,0:0:0:0:
287,178,111257,2,0,L|302:255,1,62.5,2|0,0:0|0:0,0:0:0:0:
485,191,111480,1,6,0:0:0:0:
485,191,111702,6,0,L|438:184,1,46.8750017881394,4|4,0:3|0:3,0:0:0:0:
385,135,111924,2,0,L|338:128,1,46.8750017881394,4|4,0:3|0:3,0:0:0:0:
285,79,112146,1,4,0:3:0:0:
76,28,112368,6,0,P|17:122|55:202,1,168.75000064373,6|0,0:0|0:0,0:0:0:0:
209,362,112702,2,0,P|268:268|230:188,1,168.75000064373,6|0,0:0|0:0,0:0:0:0:
36,247,113035,2,0,P|19:301|50:346,1,84.3750003218651,6|0,0:0|0:0,0:0:0:0:
214,154,113257,1,6,0:0:0:0:
214,154,113702,1,0,0:0:0:0:
119,49,114146,6,0,P|47:78|52:152,1,125,4|2,0:0|0:0,0:0:0:0:
64,310,114480,2,0,L|61:247,1,62.5,0|0,0:0|0:0,0:0:0:0:
138,185,114702,1,2,0:2:0:0:
138,185,114813,2,0,L|140:247,1,62.5,2|0,0:0|0:0,0:0:0:0:
221,308,115035,6,0,L|218:245,1,62.5,0|0,0:0|0:0,0:0:0:0:
295,183,115257,2,0,L|297:245,1,62.5,2|0,0:0|0:0,0:0:0:0:
420,316,115480,2,0,L|351:294,1,62.5,0|0,0:0|0:0,0:0:0:0:
477,265,115702,1,2,0:0:0:0:
481,71,115924,6,0,P|399:73|357:114,1,125,4|2,0:2|0:0,0:0:0:0:
178,69,116257,2,0,P|246:111|299:93,1,125,0|0,0:0|0:0,0:0:0:0:
324,31,116591,2,0,P|288:13|238:16,1,62.5,2|2,0:0|0:2,0:0:0:0:
189,179,116813,2,0,P|174:243|161:319,1,125,0|2,0:0|0:3,0:0:0:0:
28,312,117146,1,2,0:3:0:0:
28,312,117257,2,0,P|43:248|56:172,1,125,0|0,0:0|0:0,0:0:0:0:
195,62,117702,6,0,P|259:99|260:196,1,125,4|2,0:0|0:0,0:0:0:0:
348,199,118035,2,0,P|408:139|403:84,1,125,0|0,0:0|0:0,0:0:0:0:
365,36,118368,1,2,0:0:0:0:
226,280,118591,6,0,P|277:264|307:260,1,62.5,0|0,0:0|0:0,0:0:0:0:
274,144,118813,2,0,P|243:137|213:127,1,62.5,2|0,0:0|0:0,0:0:0:0:
88,277,119035,2,0,P|139:261|169:257,1,62.5,0|0,0:0|0:0,0:0:0:0:
136,141,119257,2,0,P|105:134|75:124,1,62.5,2|0,0:0|0:0,0:0:0:0:
45,369,119480,6,0,P|112:348|173:339,1,125,0|2,0:0|0:0,0:0:0:0:
254,248,119813,2,0,P|189:228|143:271,1,125,0|0,0:0|0:0,0:0:0:0:
250,358,120146,2,0,P|294:347|321:340,1,62.5,2|0,0:0|0:0,0:0:0:0:
410,142,120368,6,0,P|342:151|319:209,1,125,2|0,0:2|0:0,0:0:0:0:
345,273,120702,1,0,0:0:0:0:
345,273,120813,1,8,0:3:0:0:
512,227,121035,1,4,0:3:0:0:
473,48,121257,6,0,P|405:17|346:30,1,125,4|2,0:0|0:0,0:0:0:0:
329,101,121591,2,0,P|261:132|202:119,1,125,0|0,0:0|0:0,0:0:0:0:
158,64,121924,1,2,0:0:0:0:
133,327,122146,6,0,P|127:264|125:202,1,125,0|2,0:0|0:0,0:0:0:0:
58,22,122480,2,0,P|63:84|65:146,1,125,0|0,0:0|0:0,0:0:0:0:
20,214,122813,1,2,0:0:0:0:
262,132,123035,6,0,P|290:186|278:246,1,125,4|2,0:2|0:0,0:0:0:0:
211,372,123368,2,0,P|182:317|194:257,1,125,0|0,0:0|0:0,0:0:0:0:
337,297,123701,2,0,P|342:327|346:358,1,62.5,2|0,0:0|0:0,0:0:0:0:
408,229,123923,1,0,0:0:0:0:
408,229,124034,2,0,P|418:309|427:372,1,125,2|0,0:0|0:0,0:0:0:0:
504,353,124368,1,2,0:0:0:0:
326,204,124591,1,0,0:0:0:0:
512,46,124813,6,0,P|441:53|393:116,1,125,4|2,0:0|0:0,0:0:0:0:
324,108,125146,2,0,P|238:97|192:91,1,125,0|0,0:0|0:0,0:0:0:0:
119,75,125480,1,2,0:0:0:0:
232,245,125702,2,0,P|146:256|100:262,1,125,4|8,0:2|0:3,0:0:0:0:
28,277,126035,1,0,0:0:0:0:
28,277,126146,1,4,0:2:0:0:
186,353,126368,1,4,0:3:0:0:
112,153,126591,5,8,0:0:0:0:
112,153,126702,2,0,L|208:183,1,62.5,8|2,0:0|0:3,0:0:0:0:
252,176,126924,2,0,P|310:133|371:150,1,125,8|2,0:0|0:3,0:0:0:0:
381,243,127257,1,8,0:0:0:0:
381,243,127368,2,0,L|285:213,1,62.5,8|0,0:0|0:0,0:0:0:0:
471,147,127591,2,0,L|452:206,1,62.5,8|4,0:0|0:3,0:0:0:0:
453,286,127813,1,8,0:3:0:0:
453,286,127924,1,4,0:3:0:0:
396,52,128146,1,8,0:3:0:0:
494,359,128368,6,0,P|420:362|363:366,1,125,4|2,0:0|0:0,0:0:0:0:
306,313,128702,2,0,P|234:338|171:318,1,125,0|0,0:0|0:0,0:0:0:0:
135,265,129035,2,0,P|136:226|162:190,1,62.5,2|2,0:0|0:2,0:0:0:0:
72,337,129257,6,0,L|55:278,1,62.5,0|0,0:0|0:0,0:0:0:0:
230,197,129480,2,0,L|213:257,1,62.5,2|0,0:0|0:0,0:0:0:0:
51,156,129702,2,0,P|115:131|178:104,1,125,0|2,0:0|0:0,0:0:0:0:
236,28,130035,1,2,0:3:0:0:
236,28,130146,6,0,P|301:8|368:26,1,125,4|2,0:2|0:0,0:0:0:0:
363,96,130480,2,0,P|298:116|231:98,1,125,0|0,0:0|0:0,0:0:0:0:
157,33,130813,1,2,0:0:0:0:
335,183,131035,6,0,P|345:251|297:310,1,125,2|0,0:3|0:3,0:0:0:0:
233,295,131368,1,0,0:0:0:0:
233,295,131479,1,8,0:3:0:0:
0,285,131702,1,8,0:3:0:0:
178,370,131924,6,0,P|264:367|348:375,1,125,4|2,0:0|0:0,0:0:0:0:
383,368,132257,2,0,P|427:322|412:263,1,125,0|0,0:0|0:0,0:0:0:0:
357,209,132591,1,2,0:0:0:0:
494,0,132813,6,0,P|489:33|486:81,1,62.5,4|0,0:0|0:0,0:0:0:0:
463,196,133035,2,0,P|458:162|455:115,1,62.5,2|0,0:0|0:0,0:0:0:0:
408,68,133257,2,0,P|310:86|272:86,1,125,0|2,0:0|0:0,0:0:0:0:
97,263,133702,6,0,P|128:343|191:346,1,125,4|2,0:2|0:0,0:0:0:0:
281,382,134035,2,0,P|250:302|187:299,1,125,0|0,0:0|0:0,0:0:0:0:
179,222,134368,1,2,0:0:0:0:
464,194,134591,6,0,P|458:265|455:324,1,125,2|2,0:2|0:2,0:0:0:0:
389,352,134924,1,0,0:0:0:0:
389,352,135035,1,4,0:3:0:0:
240,177,135257,1,0,0:0:0:0:
407,20,135479,2,0,P|403:82|398:144,1,125,4|2,0:0|0:0,0:0:0:0:
385,225,135813,2,0,P|302:238|191:265,1,187.5,0|2,0:0|0:0,0:0:0:0:
173,336,136257,1,0,0:0:0:0:
173,336,136368,2,0,P|92:327|32:325,2,125,4|2|0,0:0|0:0|0:0,0:0:0:0:
128,41,137035,1,2,0:0:0:0:
14,143,137257,6,0,P|95:152|155:154,1,125,4|2,0:0|0:0,0:0:0:0:
208,111,137591,2,0,P|289:102|349:100,1,125,0|0,0:0|0:0,0:0:0:0:
391,152,137924,1,2,0:0:0:0:
334,384,138146,6,0,P|290:313|318:265,1,125,4|2,0:0|0:0,0:0:0:0:
432,220,138480,2,0,P|476:291|448:339,1,125,0|0,0:0|0:0,0:0:0:0:
391,330,138813,1,2,0:0:0:0:
346,30,139035,6,0,P|461:45|484:46,1,125,4|0,0:0|0:0,0:0:0:0:
487,129,139368,1,0,0:0:0:0:
487,129,139480,2,0,L|410:137,1,62.5,0|0,0:0|0:0,0:0:0:0:
354,186,139702,2,0,L|277:178,1,62.5,0|0,0:0|0:0,0:0:0:0:
496,208,139924,2,0,L|419:216,1,62.5,0|0,0:0|0:0,0:0:0:0:
347,105,140146,2,0,L|270:97,1,62.5
236,251,140368,5,8,0:0:0:0:
267,280,140479,1,8,0:0:0:0:
309,272,140591,1,8,0:0:0:0:
351,264,140702,1,8,0:0:0:0:
383,294,140813,1,4,0:0:0:0:
383,294,141702,5,8,0:0:0:0:
63,332,141924,1,4,0:3:0:0:
63,332,142035,1,4,0:3:0:0:
144,364,142257,1,4,0:3:0:0:
144,364,142368,1,4,0:3:0:0:
43,111,142591,5,4,0:0:0:0:
256,192,144368,5,4,0:0:0:0:
129,90,145257,5,8,0:0:0:0:
449,52,145479,1,4,0:3:0:0:
449,52,145590,1,4,0:3:0:0:
368,20,145812,1,4,0:3:0:0:
368,20,145923,1,4,0:3:0:0:
469,273,146146,5,4,0:0:0:0:
256,192,147924,6,0,P|184:228|140:264,1,125,4|0,0:0|0:0,0:0:0:0:
0,292,148257,2,0,P|5:325|8:356,1,62.5,2|0,0:0|0:0,0:0:0:0:
52,178,148480,2,0,P|57:211|60:242,1,62.5,2|0,0:0|0:0,0:0:0:0:
104,64,148702,2,0,P|109:97|112:128,1,62.5,2|0,0:0|0:0,0:0:0:0:
24,35,148924,1,4,0:3:0:0:
24,35,149035,1,4,0:3:0:0:
145,234,149257,5,8,0:3:0:0:
145,234,149368,1,8,0:3:0:0:
145,234,149480,2,0,L|232:214,1,62.5,4|4,0:3|0:3,0:0:0:0:
281,201,149702,5,4,0:2:0:0:
281,201,149813,2,0,L|293:261,1,37.4999988555909,0|0,0:0|0:0,0:0:0:0:
280,366,150035,1,2,0:3:0:0:
353,353,150257,1,2,0:3:0:0:
427,341,150479,1,2,0:3:0:0:
414,268,150702,1,4,0:3:0:0:
414,268,150813,1,4,0:3:0:0:
398,193,151035,1,8,0:3:0:0:
486,101,151257,5,4,0:2:0:0:
486,101,151368,2,0,L|478:150,2,37.4999988555909,0|0|2,0:0|0:0|0:3,0:0:0:0:
315,190,151813,2,0,P|303:262|297:288,1,74.9999977111817,2|2,0:3|0:3,0:0:0:0:
138,215,152257,1,4,0:3:0:0:
138,215,152368,1,4,0:3:0:0:
122,141,152590,1,8,0:3:0:0:
231,183,152813,5,4,0:2:0:0:
231,183,152924,2,0,L|219:123,1,37.4999988555909,0|0,0:0|0:0,0:0:0:0:
232,18,153146,1,2,0:3:0:0:
159,31,153368,1,2,0:3:0:0:
85,43,153590,1,2,0:3:0:0:
101,120,153813,1,4,0:3:0:0:
101,120,153924,1,4,0:3:0:0:
114,191,154146,1,8,0:3:0:0:
26,283,154368,5,4,0:2:0:0:
26,283,154479,2,0,L|34:234,2,37.4999988555909,0|0|2,0:0|0:0|0:3,0:0:0:0:
197,194,154924,2,0,P|209:122|215:96,1,74.9999977111817,2|0,0:3|0:0,0:0:0:0:
45,57,155368,1,4,0:3:0:0:
45,57,155479,1,4,0:3:0:0:
93,165,155701,1,8,0:3:0:0:
163,13,155924,5,4,0:2:0:0:
163,13,156035,2,0,L|175:81,1,37.4999988555909,0|0,0:0|0:0,0:0:0:0:
288,127,156257,1,2,0:3:0:0:
299,53,156479,1,2,0:3:0:0:
373,64,156702,1,2,0:3:0:0:
367,142,156924,1,4,0:3:0:0:
367,142,157035,1,4,0:3:0:0:
440,154,157257,1,8,0:3:0:0:
234,212,157479,5,4,0:2:0:0:
234,212,157590,2,0,L|291:219,2,37.4999988555909,0|0|2,0:3|0:3|0:3,0:0:0:0:
489,264,158035,2,0,P|413:278|398:285,1,74.9999977111817,2|2,0:3|0:3,0:0:0:0:
252,362,158479,1,4,0:3:0:0:
252,362,158590,1,4,0:3:0:0:
179,348,158813,1,8,0:3:0:0:
349,371,159035,5,4,0:2:0:0:
349,371,159146,2,0,L|337:303,1,37.4999988555909,0|0,0:0|0:0,0:0:0:0:
224,257,159368,1,2,0:3:0:0:
213,331,159590,1,2,0:3:0:0:
139,320,159813,1,2,0:3:0:0:
149,249,160035,1,4,0:3:0:0:
149,249,160146,1,4,0:3:0:0:
75,236,160368,1,8,0:3:0:0:
61,42,160590,5,4,0:2:0:0:
61,42,160702,1,4,0:2:0:0:
69,156,160924,1,4,0:2:0:0:
199,52,161146,1,4,0:2:0:0:
207,166,161368,1,4,0:2:0:0:
337,62,161590,1,4,0:2:0:0:
337,62,161702,1,4,0:2:0:0:
345,176,161924,1,4,0:2:0:0:
265,143,171035,6,0,P|278:96|292:25,2,112.499996566773,2|0|0,0:3|0:0|0:0,0:0:0:0:
286,215,171924,2,0,P|298:262|321:330,2,112.499996566773,0|0|0,0:0|0:0|0:0,0:0:0:0:
213,194,172812,2,0,P|154:184|60:170,1,149.999995422363,2|0,0:0|0:0,0:0:0:0:
6,123,173479,1,0,0:0:0:0:
3,328,173701,2,0,P|59:341|110:266,1,149.999995422363,0|0,0:0|0:0,0:0:0:0:
185,268,174368,1,0,0:0:0:0:
140,132,174590,6,0,P|188:145|214:207,2,112.499996566773,2|0|2,0:0|0:0|0:0,0:0:0:0:
292,144,175479,2,0,P|301:194|260:305,1,149.999995422363,2|0,0:0|0:0,0:0:0:0:
62,345,176146,6,0,L|8:339,3,41.6666666666667,4|4|4|2,0:3|0:3|0:3|0:2,0:0:0:0:
96,346,177257,5,0,0:0:0:0:
96,346,177368,1,0,0:0:0:0:
96,346,177479,1,0,0:0:0:0:
96,346,177590,1,0,0:0:0:0:
96,346,177701,2,0,L|156:330,1,50,0|0,0:0|0:0,0:0:0:0:
95,249,177924,2,0,L|139:255,1,37.4999988555909,0|0,0:0|0:0,0:0:0:0:
73,120,178146,6,0,P|114:160|201:188,1,125,4|2,0:0|0:0,0:0:0:0:
248,221,178479,2,0,P|334:200|376:197,1,125,0|0,0:0|0:0,0:0:0:0:
443,161,178812,2,0,P|473:168|504:174,1,62.5,2|2,0:0|0:2,0:0:0:0:
419,18,179035,6,0,P|407:69|406:99,1,62.5,0|0,0:0|0:0,0:0:0:0:
370,197,179257,2,0,P|365:166|357:136,1,62.5,2|0,0:0|0:0,0:0:0:0:
307,4,179479,2,0,P|292:84|278:134,1,125,0|2,0:0|0:0,0:0:0:0:
212,171,179812,1,2,0:3:0:0:
212,171,179923,6,0,P|148:154|71:162,1,125,4|2,2:0|0:0,0:0:0:0:
79,238,180257,2,0,P|143:255|220:247,1,125,0|0,0:0|0:0,0:0:0:0:
277,223,180590,1,2,0:0:0:0:
152,61,180812,6,0,P|79:43|29:58,1,125,2|2,0:3|0:3,0:0:0:0:
8,134,181146,1,0,0:0:0:0:
8,134,181257,1,8,0:3:0:0:
199,232,181479,1,8,0:3:0:0:
73,360,181701,6,0,B|57:286|96:311|78:236,1,125,4|2,0:0|0:0,0:0:0:0:
88,156,182035,2,0,P|151:141|222:128,1,125,0|0,0:0|0:0,0:0:0:0:
288,108,182368,1,2,0:0:0:0:
165,33,182590,6,0,P|219:50|253:58,1,62.5,4|0,0:0|0:0,0:0:0:0:
338,178,182812,2,0,P|284:195|250:203,1,62.5,2|0,0:0|0:0,0:0:0:0:
341,42,183035,2,0,P|411:34|454:76,1,125,0|2,0:0|0:0,0:0:0:0:
283,368,183479,6,0,P|213:376|170:334,1,125,4|2,2:0|0:0,0:0:0:0:
150,236,183812,2,0,P|220:228|263:270,1,125,0|0,0:0|0:0,0:0:0:0:
332,296,184146,1,2,0:0:0:0:
92,364,184368,6,0,P|78:279|65:233,1,125,2|2,0:2|0:2,0:0:0:0:
34,167,184701,1,0,0:0:0:0:
34,167,184812,1,4,0:3:0:0:
279,114,185035,1,0,0:0:0:0:
0,76,185257,6,0,P|65:95|127:106,1,125,4|2,0:0|0:0,0:0:0:0:
193,68,185590,2,0,P|203:161|205:279,1,187.5,0|2,0:0|0:0,0:0:0:0:
129,284,186035,1,0,0:0:0:0:
129,284,186146,2,0,P|64:304|8:324,2,125,4|2|0,0:3|0:0|0:0,0:0:0:0:
294,370,186812,1,2,0:0:0:0:
336,130,187035,6,0,P|406:144|434:207,1,125,4|2,0:3|0:0,0:0:0:0:
399,260,187368,2,0,P|328:250|268:245,1,125,0|0,0:0|0:0,0:0:0:0:
204,169,187701,2,0,P|235:167|266:164,1,62.5,2|2,0:0|0:2,0:0:0:0:
238,318,187923,6,0,P|156:313|129:245,1,125,4|2,0:0|0:0,0:0:0:0:
119,74,188257,2,0,P|122:157|117:224,1,125,0|0,0:0|0:0,0:0:0:0:
48,312,188590,2,0,P|45:280|43:249,1,62.5,2|2,0:0|0:2,0:0:0:0:
205,117,188812,6,0,P|202:179|205:241,1,125,4|0,0:0|0:0,0:0:0:0:
259,300,189146,1,0,0:0:0:0:
259,300,189257,2,0,P|261:331|263:362,1,62.5,0|0,0:0|0:0,0:0:0:0:
302,172,189479,2,0,P|303:203|306:234,1,62.5,0|0,0:0|0:0,0:0:0:0:
179,344,189701,2,0,P|147:342|116:339,1,62.5,0|0,0:0|0:0,0:0:0:0:
339,303,189923,2,0,P|370:301|401:298,1,62.5
190,197,190146,5,8,0:0:0:0:
152,216,190257,1,8,0:0:0:0:
114,198,190369,1,8,0:0:0:0:
75,179,190480,1,8,0:0:0:0:
36,200,190591,1,4,0:0:0:0:
257,34,192368,6,0,P|280:118|270:161,1,125,4|4,0:0|0:3,0:0:0:0:
392,271,192701,2,0,P|308:249|275:219,1,125,4|4,0:0|0:3,0:0:0:0:
118,270,193035,2,0,P|179:208|222:195,1,125,4|4,0:0|0:3,0:0:0:0:
256,192,193368,12,4,194146,0:0:0:0:
