osu file format v14

[General]
AudioFilename: audio.mp3
AudioLeadIn: 0
PreviewTime: 42591
Countdown: 1
SampleSet: Normal
StackLeniency: 1
Mode: 0
LetterboxInBreaks: 0
WidescreenStoryboard: 1

[Editor]
DistanceSpacing: 1.1
BeatDivisor: 4
GridSize: 4
TimelineZoom: 2.3

[Metadata]
Title:Pastel Rain
TitleUnicode:パステルレイン
Artist:Sangatsu no Phantasia
ArtistUnicode:三月のパンタシア
Creator:deetz
Version:Hard
Source:
Tags:japanese rock pop Mia Shota Horie Yumao ガールズブルー・ハッピーサッド ガールズブルー ハッピーサッド girl's blue happy sad みあ 堀江 晶太
BeatmapID:2224259
BeatmapSetID:1060431

[Difficulty]
HPDrainRate:5
CircleSize:4
OverallDifficulty:6
ApproachRate:7.5
SliderMultiplier:2
SliderTickRate:1

[Events]
//Background and Video events
0,0,"maxresdefault.jpg",0,0
//Break Periods
2,71680,84802
2,149902,159690
//Storyboard Layer 0 (Background)
//Storyboard Layer 1 (Fail)
//Storyboard Layer 2 (Pass)
//Storyboard Layer 3 (Foreground)
//Storyboard Layer 4 (Overlay)
//Storyboard Sound Samples

[TimingPoints]
369,444.444444444444,4,1,0,70,1,0
14591,-80,4,1,0,70,0,0
16368,-125,4,1,0,50,0,0
28813,-125,4,3,0,50,0,0
35368,-125,4,3,0,52,0,0
35702,-125,4,3,0,54,0,0
35924,-125,4,3,0,56,0,0
36591,-125,4,3,0,58,0,0
37257,-125,4,3,0,60,0,0
37924,-125,4,3,0,62,0,0
39480,-100,4,1,0,65,0,0
40368,-133.333333333333,4,1,0,50,0,0
41257,-90.9090909090909,4,1,0,50,0,0
43035,-100,4,1,0,70,0,1
46591,-100,4,1,0,70,0,1
60813,-100,4,1,0,70,0,1
69702,-90.9090909090909,4,1,0,70,0,0
71480,-100,4,1,0,70,0,0
85702,-90.9090909090909,4,1,0,70,0,0
86591,-125,4,1,0,70,0,0
87480,-125,4,1,0,50,0,0
99924,-125,4,3,0,50,0,0
110591,-100,4,1,0,50,0,0
111480,-133.333333333333,4,1,0,50,0,0
112368,-83.3333333333333,4,1,0,50,0,0
114146,-100,4,1,0,70,0,1
131924,-100,4,1,0,70,0,1
140813,-90.9090909090909,4,1,0,50,0,0
141702,-100,4,1,0,50,0,0
147924,-100,4,1,0,50,0,0
149702,444.444444444444,7,1,0,70,1,0
149702,-125,7,1,0,70,0,0
163924,444.444444444444,4,1,0,70,1,0
163924,-166.666666666667,4,2,0,40,0,0
171035,-166.666666666667,4,2,0,40,0,0
176146,-80,4,1,0,70,0,0
177257,-125,4,1,0,70,0,0
177701,-142.857142857143,4,1,0,70,0,0
177924,-166.666666666667,4,1,0,70,0,0
178146,-100,4,1,0,70,0,1
181701,-100,4,1,0,70,0,1
190590,-90.9090909090909,4,1,0,70,0,0
192368,-100,4,1,0,70,0,0

[Colours]
Combo1 : 255,94,55
Combo2 : 173,255,95
Combo3 : 17,254,176
Combo4 : 255,88,100

[HitObjects]
120,148,369,5,4,0:0:0:0:
191,164,2146,5,4,0:0:0:0:
191,164,3480,1,4,0:3:0:0:
262,180,3924,5,4,0:0:0:0:
249,126,5702,6,0,P|312:121|348:169,1,100,12|4,0:0|0:3,0:0:0:0:
345,221,6035,1,12,0:0:0:0:
345,221,6368,2,0,P|356:295|361:346,1,100,12|4,0:0|0:3,0:0:0:0:
437,324,6702,2,0,P|426:250|421:199,1,100,12|4,0:0|0:3,0:0:0:0:
459,159,7035,2,0,L|479:101,3,50,8|8|8|8,0:0|0:0|0:0|0:0,0:0:0:0:
460,40,7480,5,4,0:0:0:0:
460,40,7591,1,2,0:3:0:0:
351,24,7813,2,0,P|332:86|351:140,1,100,2|2,0:3|0:0,0:0:0:0:
240,168,8257,2,0,P|246:118|228:73,1,100,2|0,0:0|0:0,0:0:0:0:
173,83,8591,2,0,P|115:97|67:101,1,100,0|10,0:0|0:0,0:0:0:0:
64,216,9035,1,0,0:0:0:0:
64,216,9146,1,0,0:0:0:0:
64,216,9257,6,0,L|63:291,1,50,0|2,0:0|0:3,0:0:0:0:
171,245,9591,2,0,P|220:247|270:255,2,100,2|2|2,0:3|0:0|0:0,0:0:0:0:
171,354,10257,1,0,0:0:0:0:
171,354,10368,1,0,0:0:0:0:
278,327,10591,1,10,0:0:0:0:
381,364,10813,1,0,0:0:0:0:
486,332,11035,5,4,0:2:0:0:
486,332,11146,1,2,0:3:0:0:
488,222,11368,2,0,P|433:197|376:209,1,100,2|2,0:3|0:0,0:0:0:0:
336,107,11813,2,0,P|286:105|242:128,1,100,2|0,0:0|0:0,0:0:0:0:
233,182,12146,2,0,P|183:187|134:197,1,100,0|10,0:0|0:0,0:0:0:0:
81,298,12591,1,8,0:3:0:0:
81,298,12702,1,8,0:3:0:0:
81,298,12813,6,0,L|92:359,1,50,4|4,0:2|0:2,0:0:0:0:
200,345,13146,1,4,0:2:0:0:
309,338,13368,1,4,0:2:0:0:
418,331,13591,1,4,0:2:0:0:
411,222,13813,1,8,0:3:0:0:
411,222,13924,1,8,0:3:0:0:
404,113,14146,1,8,0:3:0:0:
397,4,14368,1,4,0:3:0:0:
250,58,14591,5,4,0:0:0:0:
254,62,15924,5,8,0:3:0:0:
254,62,16368,6,0,P|262:122|267:180,1,80,4|0,0:2|0:0,0:0:0:0:
219,142,16702,2,0,P|179:146|139:151,1,80,2|2,0:3|0:3,0:0:0:0:
85,82,17146,2,0,P|44:98|30:145,1,80,2|0,0:3|0:0,0:0:0:0:
5,166,17480,2,0,P|21:207|68:221,1,80,2|0,0:3|0:0,0:0:0:0:
137,241,17924,1,0,0:0:0:0:
51,371,18146,6,0,P|67:330|114:316,1,80,4|0,0:3|0:0,0:0:0:0:
140,325,18480,2,0,P|189:336|225:347,1,80,2|2,0:3|0:3,0:0:0:0:
302,365,18924,1,2,0:3:0:0:
273,277,19146,1,0,0:0:0:0:
273,277,19257,2,0,P|347:279|373:295,1,80,2|0,0:3|0:0,0:0:0:0:
410,346,19702,1,0,0:0:0:0:
381,202,19924,6,0,P|455:204|481:220,1,80,4|0,0:3|0:0,0:0:0:0:
458,161,20257,2,0,P|457:112|458:72,1,80,2|2,0:3|0:3,0:0:0:0:
350,43,20702,2,0,L|268:33,1,80,0|0,0:3|0:0,0:0:0:0:
227,27,21035,1,2,0:0:0:0:
227,27,21257,1,2,0:0:0:0:
237,112,21480,1,8,0:3:0:0:
101,22,21702,6,0,P|88:70|103:111,1,80,4|4,0:0|0:3,0:0:0:0:
130,124,22035,1,2,0:3:0:0:
175,199,22257,1,2,0:3:0:0:
88,217,22480,1,2,0:3:0:0:
1,234,22702,1,0,0:0:0:0:
1,234,22813,1,2,0:0:0:0:
108,296,23035,2,0,L|17:314,1,80,2|8,0:0|0:3,0:0:0:0:
196,286,23480,6,0,P|239:301|256:347,1,80,4|4,0:2|0:3,0:0:0:0:
294,348,23813,2,0,P|306:284|315:260,1,80,2|2,0:3|0:3,0:0:0:0:
333,185,24257,1,2,0:3:0:0:
353,99,24480,1,0,0:0:0:0:
353,99,24591,2,0,P|408:88|442:86,2,80,2|2|8,0:3|0:0|0:3,0:0:0:0:
244,169,25257,6,0,B|179:146|199:173|127:152,1,120,4|0,0:0|0:0,0:0:0:0:
114,108,25702,2,0,P|70:86|35:90,1,80,2|0,0:3|0:0,0:0:0:0:
48,271,26146,1,0,0:0:0:0:
48,271,26257,2,0,P|86:263|116:237,1,80,2|0,0:3|0:0,0:0:0:0:
134,278,26591,2,0,P|154:327|181:356,1,80,4|8,0:2|0:3,0:0:0:0:
245,247,27035,6,0,L|249:182,3,40,12|8|4|8,0:2|0:0|0:3|0:0,0:0:0:0:
323,226,27480,1,4,0:3:0:0:
405,327,27702,2,0,L|409:392,1,40,12|8,0:2|0:0,0:0:0:0:
476,298,27924,2,0,L|480:363,4,40,4|8|4|4|4,0:3|0:0|0:3|0:3|0:3,0:0:0:0:
345,235,28591,1,4,0:3:0:0:
466,182,28813,6,0,P|471:125|472:64,2,80,4|0|0,1:1|0:0|2:0,0:0:0:0:
415,49,29480,1,4,0:0:0:0:
415,49,29702,1,0,0:0:0:0:
367,214,30146,6,0,P|372:271|373:332,2,80,4|0|0,0:0|0:0|2:0,0:0:0:0:
316,347,30813,1,4,0:0:0:0:
316,347,31035,1,0,0:0:0:0:
167,235,31480,5,0,0:0:0:0:
190,156,31702,1,2,0:1:0:0:
244,258,31924,1,2,0:1:0:0:
268,182,32146,1,8,0:0:0:0:
268,182,32368,6,0,P|273:125|274:64,2,80,4|0|0,0:0|0:0|2:0,0:0:0:0:
217,49,33035,1,4,0:0:0:0:
217,49,33257,1,0,0:0:0:0:
169,214,33702,6,0,P|174:271|175:332,2,80,4|0|0,0:0|0:0|2:0,0:0:0:0:
118,347,34369,1,4,0:0:0:0:
53,294,34591,5,0,0:0:0:0:
53,294,34702,2,0,P|51:254|47:214,1,80,6|0,0:3|0:0,0:0:0:0:
78,185,35035,2,0,P|76:145|71:49,2,120,10|10|2,0:3|0:0|0:1,0:0:0:0:
157,105,35924,6,0,P|196:106|236:110,1,80,6|0,0:2|0:0,0:0:0:0:
268,115,36257,1,8,0:0:0:0:
321,270,36591,6,0,P|281:268|241:264,1,80,6|0,0:0|0:0,0:0:0:0:
210,260,36924,1,8,0:0:0:0:
348,161,37257,6,0,P|387:162|427:166,1,80,2|0,0:0|0:0,0:0:0:0:
459,171,37590,1,10,0:0:0:0:
512,326,37924,6,0,P|472:324|432:320,1,80,6|0,0:0|0:0,0:0:0:0:
401,316,38257,1,10,0:0:0:0:
236,352,38591,6,0,L|174:342,3,40,2|2|0|0,0:2|0:2|0:0|0:0,0:0:0:0:
124,359,39035,2,0,L|62:349,3,40
103,278,39480,6,0,P|33:262|-7:272,1,100,6|0,0:0|0:0,0:0:0:0:
33,229,39813,2,0,P|49:171|41:130,1,100,2|0,0:0|0:0,0:0:0:0:
20,103,40146,1,2,0:0:0:0:
20,103,40368,1,6,0:0:0:0:
132,56,40591,6,0,L|127:1,1,37.5000014305115,8|8,0:3|0:3,0:0:0:0:
208,64,40813,2,0,L|203:9,2,37.5000014305115,8|8|8,0:3|0:3|0:3,0:0:0:0:
345,0,41257,6,0,P|370:55|324:127,1,110.000003356934,6|0,0:0|0:0,0:0:0:0:
297,149,41591,2,0,P|272:204|318:276,1,110.000003356934,6|0,0:0|0:0,0:0:0:0:
355,280,41924,1,6,0:0:0:0:
486,257,42146,1,6,0:0:0:0:
313,364,43035,6,0,P|250:340|191:341,1,100,4|2,0:0|0:0,0:0:0:0:
179,298,43368,2,0,P|125:320|65:319,1,100
37,291,43702,1,2,0:0:0:0:
24,181,43924,2,0,P|89:200|111:222,1,100,0|2,0:0|0:0,0:0:0:0:
215,188,44368,1,0,0:0:0:0:
170,86,44591,1,2,0:0:0:0:
215,188,44813,6,0,P|282:195|373:211,2,150,4|2|2,0:2|0:3|0:0,0:0:0:0:
288,117,45702,2,0,P|352:126|394:131,1,100,2|2,0:3|0:3,0:0:0:0:
387,130,46035,1,0,0:0:0:0:
387,130,46146,1,8,0:3:0:0:
449,73,46368,1,8,0:3:0:0:
474,189,46591,6,0,P|468:254|466:300,1,100,4|2,0:0|0:0,0:0:0:0:
415,266,46924,2,0,P|354:267|306:285,1,100
293,328,47257,1,2,0:0:0:0:
191,285,47480,5,0,0:0:0:0:
268,206,47702,1,2,0:0:0:0:
168,159,47924,1,0,0:0:0:0:
93,240,48146,1,2,0:0:0:0:
168,159,48368,6,0,P|159:92|148:48,1,100,4|2,0:2|0:0,0:0:0:0:
101,36,48702,2,0,P|51:66|65:129,1,100
79,148,49035,1,2,0:0:0:0:
238,102,49257,2,0,P|286:91|336:85,1,100,2|4,0:2|0:3,0:0:0:0:
336,85,49591,1,0,0:0:0:0:
336,85,49702,1,4,0:3:0:0:
445,73,49924,1,0,0:0:0:0:
317,187,50146,6,0,P|401:165|479:151,2,150,4|0|2,0:0|0:0|0:0,0:0:0:0:
491,312,51035,6,0,P|438:288|389:275,1,100,0|2,0:0|0:0,0:0:0:0:
345,294,51368,2,0,P|292:318|243:331,1,100
196,322,51702,1,2,0:0:0:0:
128,209,51924,6,0,P|63:224|41:318,2,150,4|2|2,0:2|0:2|0:0,0:0:0:0:
182,220,52702,1,0,0:2:0:0:
182,220,52813,2,0,P|176:145|177:117,1,100,0|2,0:0|0:0,0:0:0:0:
92,35,53257,2,0,P|98:110|97:138,1,100,0|2,0:0|0:0,0:0:0:0:
253,180,53702,6,0,P|252:113|263:31,2,150,4|0|2,0:0|0:0|0:0,0:0:0:0:
355,220,54591,1,4,0:2:0:0:
262,343,54813,1,8,0:3:0:0:
262,343,54924,1,0,0:0:0:0:
262,343,55035,1,4,0:2:0:0:
384,301,55257,1,4,0:3:0:0:
254,252,55480,6,0,P|204:245|146:243,1,100,8|0,0:0|0:0,0:0:0:0:
76,235,55813,2,0,P|48:233|19:231,2,50,8|2|2,0:0|0:3|0:3,0:0:0:0:
126,164,56146,5,8,0:0:0:0:
126,164,56257,2,0,P|76:157|18:155,2,100,8|4|4,0:0|0:3|0:3,0:0:0:0:
116,109,56813,2,0,P|127:58|181:42,1,100,8|4,0:3|0:3,0:0:0:0:
350,67,57257,5,4,0:0:0:0:
350,67,57591,2,0,P|345:139|340:232,1,150,0|2,0:0|0:0,0:0:0:0:
340,216,58035,1,2,0:2:0:0:
340,216,58146,1,0,0:0:0:0:
448,232,58368,1,2,0:0:0:0:
438,341,58591,1,0,0:0:0:0:
330,325,58813,1,2,0:0:0:0:
340,216,59035,6,0,P|268:211|201:207,1,100,4|2,0:2|0:0,0:0:0:0:
185,208,59368,2,0,P|136:241|135:285,1,100
140,332,59702,1,2,0:0:0:0:
30,344,59924,2,0,B|31:267|26:195|26:195,1,150,2|0,0:3|0:0,0:0:0:0:
17,139,60368,1,8,0:3:0:0:
17,139,60591,1,8,0:3:0:0:
22,29,60813,6,0,P|81:47|94:103,1,100,4|2,0:0|0:0,0:0:0:0:
122,126,61146,2,0,P|181:108|194:52,1,100
195,21,61480,1,2,0:0:0:0:
296,89,61702,6,0,P|293:162|290:198,1,100,4|2,0:0|0:0,0:0:0:0:
283,298,62146,1,0,0:0:0:0:
283,298,62368,1,2,0:0:0:0:
396,195,62591,2,0,P|391:258|384:350,2,150,4|0|2,0:2|0:0|0:0,0:0:0:0:
495,147,63480,2,0,P|491:97|489:47,1,100,2|2,0:2|0:2,0:0:0:0:
489,47,63813,1,0,0:0:0:0:
489,47,63924,1,4,0:3:0:0:
380,44,64146,1,0,0:0:0:0:
270,34,64368,6,0,P|201:39|109:40,2,150,4|0|2,0:0|0:0|0:0,0:0:0:0:
143,119,65257,2,0,P|205:116|246:116,2,100,4|2|0,0:0|0:0|0:0,0:0:0:0:
55,186,65924,1,2,0:0:0:0:
207,261,66146,6,0,P|276:256|368:255,2,150,4|0|2,0:0|0:0|0:0,0:0:0:0:
272,349,67035,2,0,P|203:354|111:355,2,150,4|0|2,0:0|0:0|0:0,0:0:0:0:
381,333,67924,6,0,P|444:328|494:331,1,100,4|0,0:0|0:0,0:0:0:0:
469,275,68257,1,0,0:0:0:0:
469,275,68368,2,0,L|480:208,3,50
400,235,68813,2,0,L|411:168,3,50
331,195,69257,6,0,L|342:128,1,50,8|8,0:0|0:0,0:0:0:0:
297,267,69480,2,0,L|308:334,1,50,8|8,0:0|0:0,0:0:0:0:
237,219,69702,5,4,0:0:0:0:
245,227,71257,1,8,0:0:0:0:
245,227,71368,1,8,0:0:0:0:
245,227,71480,5,4,0:0:0:0:
352,356,85702,5,4,0:0:0:0:
245,227,86591,6,0,L|172:212,2,53.3333333333333,0|4|4,0:0|2:3|2:3,0:0:0:0:
296,200,87035,2,0,P|344:192|396:196,1,80,8|0,2:3|0:0,0:0:0:0:
468,113,87480,6,0,P|420:121|368:117,1,80,4|0,0:2|0:0,0:0:0:0:
349,100,87813,2,0,P|309:99|269:107,1,80,2|2,0:3|0:3,0:0:0:0:
210,42,88257,2,0,P|156:27|125:44,1,80,2|0,0:3|0:0,0:0:0:0:
128,79,88591,2,0,P|133:118|135:158,1,80,8|2,0:2|0:3,0:0:0:0:
101,239,89035,1,0,0:0:0:0:
17,337,89257,6,0,P|76:327|117:329,1,80,4|2,0:3|0:3,0:0:0:0:
139,337,89591,1,0,0:0:0:0:
139,337,89702,2,0,L|180:369,2,40,0|2|0,0:0|0:3|0:0,0:0:0:0:
167,303,90035,2,0,P|200:249|239:242,1,80,2|0,0:3|0:0,0:0:0:0:
256,249,90368,2,0,P|310:253|351:258,1,80,2|0,0:3|0:0,0:0:0:0:
477,210,90813,5,2,0:3:0:0:
477,210,90924,1,2,0:3:0:0:
477,210,91035,2,0,P|437:205|397:203,1,80,4|0,0:3|0:0,0:0:0:0:
401,159,91368,1,2,0:3:0:0:
350,86,91591,2,0,L|353:46,1,40,2|0,0:3|0:0,0:0:0:0:
309,39,91813,2,0,P|306:78|302:118,1,80,2|0,0:3|0:0,0:0:0:0:
259,129,92146,2,0,P|202:139|158:151,1,80,2|0,0:3|0:0,0:0:0:0:
116,83,92591,1,8,0:0:0:0:
39,211,92813,6,0,P|96:221|140:233,1,80,4|0,0:2|0:0,0:0:0:0:
151,254,93146,2,0,P|96:273|55:293,1,80,2|2,0:3|0:3,0:0:0:0:
233,260,93591,2,0,L|322:268,1,80,2|0,0:3|0:0,0:0:0:0:
351,246,93924,2,0,P|351:303|351:335,1,80,0|2,0:0|0:3,0:0:0:0:
438,337,94368,1,2,0:3:0:0:
493,195,94591,6,0,P|476:144|438:128,1,80,4|0,0:3|0:0,0:0:0:0:
413,143,94924,2,0,P|372:134|319:128,1,80,2|2,0:3|0:3,0:0:0:0:
335,41,95368,2,0,P|294:49|241:56,1,80,2|0,0:3|0:0,0:0:0:0:
214,41,95702,2,0,L|211:136,1,80,2|0,0:3|0:0,0:0:0:0:
136,76,96146,1,6,0:3:0:0:
90,186,96368,6,0,B|76:238|106:249|85:313,1,120,4|0,0:2|0:0,0:0:0:0:
71,346,96813,2,0,P|131:359|157:362,1,80,2|0,0:3|0:0,0:0:0:0:
316,325,97257,1,2,0:3:0:0:
316,325,97368,2,0,P|276:330|237:340,1,80
240,296,97702,2,0,P|243:239|243:205,1,80,2|0,0:3|0:0,0:0:0:0:
207,68,98146,6,0,L|206:21,1,40,8|0,0:0|0:0,0:0:0:0:
281,85,98368,2,0,L|280:38,1,40,8|8,0:3|0:0,0:0:0:0:
355,102,98591,2,0,L|354:55,2,40,4|0|4,0:3|0:0|0:3,0:0:0:0:
458,232,99035,6,0,L|459:279,1,40,8|0,0:0|0:0,0:0:0:0:
384,215,99257,2,0,L|385:262,1,40,8|8,0:3|0:0,0:0:0:0:
310,198,99480,2,0,L|311:245,2,40,4|0|4,0:3|0:0|0:3,0:0:0:0:
223,92,99924,6,0,P|170:102|142:109,2,80,4|0|0,1:1|0:0|0:0,0:0:0:0:
74,68,100591,1,0,0:0:0:0:
74,68,100813,1,0,0:0:0:0:
156,225,101257,6,0,P|166:278|173:306,2,80
132,374,101924,1,0,0:0:0:0:
132,374,102146,1,0,0:0:0:0:
324,209,102591,5,0,0:0:0:0:
239,182,102813,1,2,0:1:0:0:
201,261,103035,1,2,0:1:0:0:
289,292,103257,1,0,0:0:0:0:
289,292,103480,6,0,P|342:282|370:275,2,80,4|0|0,0:0|0:0|0:0,0:0:0:0:
438,316,104147,1,0,0:0:0:0:
438,316,104369,1,0,0:0:0:0:
356,159,104813,6,0,P|346:106|339:78,2,80
380,10,105480,1,0,0:0:0:0:
380,10,105702,1,0,0:0:0:0:
485,32,105924,6,0,L|477:93,1,40,8|8,0:1|0:1,0:0:0:0:
470,114,106146,1,8,0:1:0:0:
470,114,106257,1,4,0:2:0:0:
484,201,106480,2,0,P|476:252|467:296,1,80,4|0,0:2|0:0,0:0:0:0:
431,300,106813,2,0,L|379:298,1,40,8|8,0:1|0:1,0:0:0:0:
367,261,107035,6,0,P|296:267|250:318,1,120,2|2,0:0|0:0,0:0:0:0:
125,201,107702,6,0,P|179:154|186:86,1,120,2|2,0:0|0:0,0:0:0:0:
355,107,108368,6,0,P|339:177|373:236,1,120,2|2,0:0|0:0,0:0:0:0:
224,318,109035,6,0,P|197:253|134:225,1,120,2|2,0:0|0:0,0:0:0:0:
206,70,109702,6,0,P|231:93|269:100,3,40,4|4|4|4,3:3|3:3|0:3|0:3,0:0:0:0:
230,168,110146,2,0,P|262:166|294:144,1,40,8|8,0:1|0:1,0:0:0:0:
315,220,110368,2,0,P|337:195|344:157,1,40,8|8,0:3|0:3,0:0:0:0:
354,108,110591,6,0,P|416:122|498:134,1,100,6|0,0:0|0:0,0:0:0:0:
453,183,110924,2,0,P|439:245|427:327,1,100,6|0,0:0|0:0,0:0:0:0:
423,335,111257,1,2,0:0:0:0:
423,335,111480,1,6,0:0:0:0:
294,305,111702,6,0,L|296:359,1,37.5000014305115,4|4,0:3|0:3,0:0:0:0:
221,319,111924,2,0,L|223:373,2,37.5000014305115,4|4|4,0:3|0:3|0:3,0:0:0:0:
168,179,112368,6,0,P|101:176|71:224,1,119.999996337891,6|0,0:0|0:0,0:0:0:0:
8,260,112702,2,0,P|5:327|53:357,1,119.999996337891,6|0,0:0|0:0,0:0:0:0:
118,341,113035,1,6,0:0:0:0:
260,347,113257,1,6,0:0:0:0:
252,37,113702,5,0,0:0:0:0:
260,347,114146,6,0,P|310:330|364:331,1,100,4|2,0:0|0:0,0:0:0:0:
402,360,114480,2,0,P|426:305|434:251,1,100,0|2,0:0|0:2,0:0:0:0:
396,225,114813,1,2,0:0:0:0:
432,95,115035,2,0,P|382:90|335:105,1,100,0|2,0:0|0:0,0:0:0:0:
262,176,115480,1,0,0:0:0:0:
152,126,115702,1,2,0:0:0:0:
49,86,115924,6,0,P|44:135|59:182,1,100,4|2,0:2|0:0,0:0:0:0:
109,205,116257,2,0,P|96:265|67:303,1,100
18,300,116591,1,2,0:0:0:0:
148,339,116813,2,0,P|96:372|49:378,1,100,0|2,0:0|0:3,0:0:0:0:
59,378,117146,1,2,0:3:0:0:
59,378,117257,1,0,0:0:0:0:
223,365,117480,1,0,0:0:0:0:
181,260,117702,6,0,P|248:256|292:278,1,100,4|2,0:0|0:0,0:0:0:0:
307,313,118035,2,0,P|374:317|418:295,1,100
414,251,118368,1,2,0:0:0:0:
326,120,118591,6,0,L|341:228,1,100,0|2,0:0|0:0,0:0:0:0:
474,190,119035,1,0,0:0:0:0:
454,81,119257,1,2,0:0:0:0:
350,43,119480,6,0,P|273:42|190:35,2,150,0|0|2,0:0|0:0|0:0,0:0:0:0:
256,123,120368,2,0,P|197:120|150:120,1,100,2|0,0:2|0:0,0:0:0:0:
156,119,120702,1,0,0:0:0:0:
156,119,120813,1,8,0:3:0:0:
49,24,121035,1,4,0:3:0:0:
103,189,121257,6,0,P|85:252|45:334,2,150,4|0|2,0:0|0:0|0:0,0:0:0:0:
185,359,122146,2,0,P|172:296|169:257,1,100,0|2,0:0|0:0,0:0:0:0:
216,231,122480,2,0,P|229:168|232:129,1,100
200,87,122813,1,2,0:0:0:0:
310,28,123035,6,0,P|382:41|425:107,2,150,4|0|2,0:2|0:0|0:0,0:0:0:0:
254,28,123813,1,0,0:0:0:0:
254,28,123924,1,0,0:0:0:0:
144,38,124146,1,0,0:0:0:0:
144,38,124368,1,2,0:0:0:0:
33,45,124591,1,0,0:0:0:0:
147,122,124813,6,0,L|20:129,1,100,4|2,0:0|0:0,0:0:0:0:
22,176,125146,2,0,P|48:240|87:244,1,100
125,233,125480,1,2,0:0:0:0:
296,270,125702,2,0,P|232:243|201:267,1,100,4|8,0:2|0:3,0:0:0:0:
198,309,126035,1,0,0:0:0:0:
198,309,126146,1,4,0:2:0:0:
300,348,126368,1,4,0:3:0:0:
405,379,126591,6,0,P|412:329|414:271,1,100,8|2,0:0|0:3,0:0:0:0:
422,201,126924,2,0,P|424:173|426:144,2,50,8|8|2,0:0|0:0|0:3,0:0:0:0:
340,216,127257,5,8,0:0:0:0:
340,216,127368,2,0,P|347:166|349:108,1,100,8|8,0:0|0:0,0:0:0:0:
354,61,127702,1,4,0:3:0:0:
354,61,127813,1,8,0:3:0:0:
354,61,127924,1,4,0:3:0:0:
244,48,128146,1,8,0:3:0:0:
236,204,128368,5,4,0:0:0:0:
236,204,128702,2,0,P|164:199|71:194,1,150,0|2,0:0|0:0,0:0:0:0:
86,194,129146,1,2,0:2:0:0:
86,194,129257,1,0,0:0:0:0:
85,303,129479,1,2,0:0:0:0:
194,312,129702,1,0,0:0:0:0:
303,315,129924,1,2,0:0:0:0:
316,187,130146,6,0,P|321:115|325:48,1,100,4|2,0:2|0:0,0:0:0:0:
366,53,130479,2,0,P|413:62|436:105,1,100
430,160,130813,1,2,0:0:0:0:
433,269,131035,2,0,B|356:268|284:273|284:273,1,150,2|0,0:3|0:0,0:0:0:0:
228,271,131479,1,8,0:3:0:0:
228,271,131702,1,8,0:3:0:0:
90,356,131924,6,0,P|73:296|114:255,1,100,4|2,0:0|0:0,0:0:0:0:
115,217,132257,2,0,P|97:158|41:145,1,100
64,87,132591,1,2,0:0:0:0:
191,40,132813,6,0,P|264:43|300:46,1,100,4|2,0:0|0:0,0:0:0:0:
208,146,133257,1,0,0:0:0:0:
208,146,133479,1,2,0:0:0:0:
341,118,133702,2,0,P|404:123|496:130,2,150,4|0|2,0:2|0:0|0:0,0:0:0:0:
331,239,134591,2,0,P|327:289|325:339,1,100,2|2,0:2|0:2,0:0:0:0:
325,339,134924,1,0,0:0:0:0:
325,339,135035,1,4,0:3:0:0:
248,275,135257,1,0,0:0:0:0:
155,351,135479,6,0,P|86:356|-6:357,2,150,4|0|2,0:0|0:0|0:0,0:0:0:0:
17,274,136368,2,0,P|79:271|120:271,2,100,4|2|0,0:0|0:0|0:0,0:0:0:0:
72,190,137035,1,2,0:0:0:0:
0,67,137257,6,0,P|74:66|149:60,2,150,4|0|2,0:0|0:0|0:0,0:0:0:0:
191,145,138146,2,0,P|260:140|352:139,2,150,4|0|2,0:0|0:0|0:0,0:0:0:0:
135,255,139035,6,0,P|198:260|248:257,1,100,4|0,0:0|0:0,0:0:0:0:
223,313,139368,1,0,0:0:0:0:
223,313,139480,2,0,L|234:380,3,50,0|0|0|0,0:3|0:3|0:3|0:3,0:3:0:0:
301,293,139924,2,0,L|312:226,3,50,0|0|0|0,0:3|0:3|0:3|0:3,0:3:0:0:
374,314,140368,6,8,L|385:381,1,50
446,296,140591,2,8,L|454:246,1,50
506,341,140813,5,4,0:0:0:0:
506,43,141702,6,0,P|499:102|494:149,1,100,8|4,0:0|0:3,0:0:0:0:
439,145,142035,2,0,P|386:149|322:153,1,100,4|4,0:3|0:3,0:0:0:0:
285,162,142368,1,4,0:3:0:0:
273,52,142591,5,4,0:0:0:0:
256,192,144368,5,4,0:0:0:0:
6,341,145257,6,0,P|13:282|18:235,1,100,8|4,0:0|0:3,0:0:0:0:
73,239,145590,2,0,P|126:235|190:231,1,100,4|4,0:3|0:3,0:0:0:0:
227,222,145923,1,4,0:3:0:0:
239,332,146146,5,4,0:0:0:0:
156,136,147924,6,0,P|220:148|272:144,1,100,4|0,0:0|0:0,0:0:0:0:
280,100,148257,2,0,P|340:80|384:88,2,100,2|2|2,0:0|0:0|0:0,0:0:0:0:
218,37,148924,1,4,0:3:0:0:
218,37,149035,1,4,0:3:0:0:
126,35,149257,2,0,L|76:35,3,50,8|8|4|4,0:3|0:3|0:3|0:3,0:0:0:0:
62,73,149702,5,4,0:2:0:0:
256,192,160590,12,4,161924,0:2:0:0:
331,210,163924,6,0,P|396:204|432:232,2,89.9999972534181,2|0|0,0:0|0:0|0:0,0:0:0:0:
266,177,164812,2,0,P|240:146|234:118,1,59.9999981689454
266,256,165257,2,0,P|252:294|230:313,1,59.9999981689454
148,324,165701,5,2,0:0:0:0:
148,324,167479,6,0,P|138:270|121:217,2,89.9999972534181,2|0|0,0:0|0:0|0:0,0:0:0:0:
190,166,168368,2,0,P|195:195|203:225,1,59.9999981689454
111,158,168812,2,0,P|82:165|53:171,1,59.9999981689454
196,88,169257,5,2,0:0:0:0:
196,88,170146,5,2,0:0:0:0:
196,88,171035,6,0,P|251:85|311:77,2,89.9999972534181,2|0|0,0:3|0:0|0:0,0:0:0:0:
142,136,171924,2,0,P|97:131|52:128,2,89.9999972534181
171,205,172812,2,0,B|243:190|259:249|346:227,1,179.999994506836,2|0,0:0|0:0,0:0:0:0:
390,168,173701,1,0,0:0:0:0:
390,168,174368,1,0,0:0:0:0:
451,222,174590,6,0,P|458:276|450:323,2,89.9999972534181,2|0|2,0:0|0:0|0:0,0:0:0:0:
512,156,175479,2,0,P|486:110|418:90,1,119.999996337891,2|0,0:0|0:0,0:0:0:0:
138,54,176146,6,0,P|203:59|236:71,1,62.5,0|4,0:0|0:3,0:0:0:0:
267,96,176368,1,0,0:3:0:0:
267,96,177257,6,0,L|313:93,3,40
277,170,177701,6,0,L|323:167,1,34.9999989318848
286,247,177924,6,0,L|323:244,1,29.9999990844727
201,325,178146,5,4,0:0:0:0:
201,325,178479,2,0,P|137:317|52:316,1,150,0|2,0:0|0:0,0:0:0:0:
51,316,178924,1,2,0:2:0:0:
51,316,179035,1,0,0:0:0:0:
136,245,179257,1,2,0:0:0:0:
29,217,179479,1,0,0:0:0:0:
105,138,179701,1,2,0:0:0:0:
43,35,179923,6,0,P|98:12|148:25,1,100,4|2,2:0|0:0,0:0:0:0:
151,66,180257,2,0,P|206:89|256:76,1,100
277,38,180590,1,2,0:0:0:0:
410,6,180812,6,0,P|413:65|391:112,1,100,2|2,0:3|0:3,0:0:0:0:
397,102,181146,1,0,0:0:0:0:
397,102,181257,1,8,0:3:0:0:
503,120,181479,1,8,0:3:0:0:
396,206,181701,6,0,P|329:220|239:194,2,150,4|0|2,0:0|0:0|0:0,0:0:0:0:
482,255,182590,2,0,P|472:307|443:346,1,100,4|2,0:0|0:0,0:0:0:0:
334,348,183035,1,0,0:0:0:0:
334,348,183257,1,2,0:0:0:0:
165,335,183479,6,0,P|100:331|6:330,2,150,4|0|2,2:0|0:0|0:0,0:0:0:0:
260,256,184368,2,0,P|255:333|256:366,1,100,2|2,0:2|0:2,0:0:0:0:
255,355,184701,1,0,0:0:0:0:
255,355,184812,1,4,0:3:0:0:
168,255,185035,1,0,0:0:0:0:
214,155,185257,6,0,P|265:164|369:186,2,150,4|0|2,0:0|0:0|0:0,0:0:0:0:
104,168,186146,2,0,P|54:180|4:190,2,100,4|2|0,0:3|0:0|0:0,0:0:0:0:
165,76,186812,1,2,0:0:0:0:
293,75,187035,6,0,P|366:90|440:104,2,150,4|0|2,0:3|0:0|0:0,0:0:0:0:
321,211,187923,2,0,P|247:226|173:240,2,150,4|0|2,0:0|0:0|0:0,0:0:0:0:
481,286,188812,6,0,P|425:297|366:315,1,100,4|0,0:0|0:0,0:0:0:0:
347,350,189146,1,0,0:0:0:0:
347,350,189257,2,0,L|274:340,3,50
228,362,189701,2,0,L|155:352,3,50
109,374,190146,2,8,L|36:364,1,50
115,298,190368,2,8,L|42:288,1,50
121,222,190590,5,4,0:0:0:0:
174,147,192368,6,0,P|221:110|280:119,1,100,4|4,0:0|0:3,0:0:0:0:
335,143,192701,2,0,P|344:202|307:249,1,100,4|4,0:0|0:3,0:0:0:0:
258,285,193035,2,0,P|202:263|180:207,1,100,4|4,0:0|0:3,0:0:0:0:
256,192,193368,12,4,194146,0:0:0:0:
